  0
SECTION
  2
HEADER
  9
$ACADVER
  1
AC1009
  9
$INSBASE
 10
0.0
 20
0.0
 30
0.0
  9
$EXTMIN
 10
-217.316914
 20
-10.042956
 30
-20.002275
  9
$EXTMAX
 10
476.644643
 20
922.05496
 30
20.002176
  9
$LIMMIN
 10
-217.316914
 20
-10.042956
  9
$LIMMAX
 10
476.644643
 20
922.05496
  9
$ORTHOMODE
 70
     1
  9
$REGENMODE
 70
     1
  9
$FILLMODE
 70
     1
  9
$QTEXTMODE
 70
     0
  9
$MIRRTEXT
 70
     0
  9
$DRAGMODE
 70
     2
  9
$LTSCALE
 40
25.0
  9
$OSMODE
 70
     0
  9
$ATTMODE
 70
     1
  9
$TEXTSIZE
 40
200.0
  9
$TRACEWID
 40
1.0
  9
$TEXTSTYLE
  7
STANDARD
  9
$CLAYER
  8
TEAM-MAS
  9
$CELTYPE
  6
BYLAYER
  9
$CECOLOR
 62
   256
  9
$DIMSCALE
 40
1.0
  9
$DIMASZ
 40
20.0
  9
$DIMEXO
 40
10.0
  9
$DIMDLI
 40
1.0
  9
$DIMRND
 40
0.0
  9
$DIMDLE
 40
0.0
  9
$DIMEXE
 40
1.0
  9
$DIMTP
 40
0.0
  9
$DIMTM
 40
0.0
  9
$DIMTXT
 40
35.0
  9
$DIMCEN
 40
1.0
  9
$DIMTSZ
 40
0.0
  9
$DIMTOL
 70
     0
  9
$DIMLIM
 70
     0
  9
$DIMTIH
 70
     0
  9
$DIMTOH
 70
     0
  9
$DIMSE1
 70
     0
  9
$DIMSE2
 70
     0
  9
$DIMTAD
 70
     0
  9
$DIMZIN
 70
     0
  9
$DIMBLK
  1

  9
$DIMASO
 70
     1
  9
$DIMSHO
 70
     0
  9
$DIMPOST
  1

  9
$DIMAPOST
  1

  9
$DIMALT
 70
     0
  9
$DIMALTD
 70
     2
  9
$DIMALTF
 40
25.4
  9
$DIMLFAC
 40
1.0
  9
$DIMTOFL
 70
     0
  9
$DIMTVP
 40
0.0
  9
$DIMTIX
 70
     0
  9
$DIMSOXD
 70
     0
  9
$DIMSAH
 70
     0
  9
$DIMBLK1
  1

  9
$DIMBLK2
  1

  9
$DIMSTYLE
  2
TEAM
  9
$DIMCLRD
 70
     9
  9
$DIMCLRE
 70
     9
  9
$DIMCLRT
 70
    11
  9
$DIMTFAC
 40
1.0
  9
$DIMGAP
 40
15.0
  9
$LUNITS
 70
     2
  9
$LUPREC
 70
     1
  9
$SKETCHINC
 40
1.0
  9
$FILLETRAD
 40
50.0
  9
$AUNITS
 70
     0
  9
$AUPREC
 70
     0
  9
$MENU
  1
ROPLANS
  9
$ELEVATION
 40
0.0
  9
$PELEVATION
 40
0.0
  9
$THICKNESS
 40
0.0
  9
$LIMCHECK
 70
     0
  9
$BLIPMODE
 70
     1
  9
$CHAMFERA
 40
0.0
  9
$CHAMFERB
 40
0.0
  9
$SKPOLY
 70
     0
  9
$TDCREATE
 40
2450392.957851
  9
$TDUPDATE
 40
2455505.473099
  9
$TDINDWG
 40
2.023557
  9
$TDUSRTIMER
 40
2.023557
  9
$USRTIMER
 70
     1
  9
$ANGBASE
 50
0.0
  9
$ANGDIR
 70
     0
  9
$PDMODE
 70
     0
  9
$PDSIZE
 40
0.0
  9
$PLINEWID
 40
0.0
  9
$COORDS
 70
     2
  9
$SPLFRAME
 70
     0
  9
$SPLINETYPE
 70
     6
  9
$SPLINESEGS
 70
     8
  9
$ATTDIA
 70
     0
  9
$ATTREQ
 70
     0
  9
$HANDLING
 70
     1
  9
$HANDSEED
  5
133
  9
$SURFTAB1
 70
    24
  9
$SURFTAB2
 70
    24
  9
$SURFTYPE
 70
     6
  9
$SURFU
 70
     6
  9
$SURFV
 70
     6
  9
$UCSNAME
  2

  9
$UCSORG
 10
0.0
 20
0.0
 30
0.0
  9
$UCSXDIR
 10
1.0
 20
0.0
 30
0.0
  9
$UCSYDIR
 10
0.0
 20
1.0
 30
0.0
  9
$PUCSNAME
  2

  9
$PUCSORG
 10
0.0
 20
0.0
 30
0.0
  9
$PUCSXDIR
 10
1.0
 20
0.0
 30
0.0
  9
$PUCSYDIR
 10
0.0
 20
1.0
 30
0.0
  9
$USERI1
 70
     0
  9
$USERI2
 70
     0
  9
$USERI3
 70
     0
  9
$USERI4
 70
     0
  9
$USERI5
 70
     0
  9
$USERR1
 40
0.0
  9
$USERR2
 40
0.0
  9
$USERR3
 40
0.0
  9
$USERR4
 40
0.0
  9
$USERR5
 40
0.0
  9
$WORLDVIEW
 70
     1
  9
$SHADEDGE
 70
     0
  9
$SHADEDIF
 70
    70
  9
$TILEMODE
 70
     1
  9
$MAXACTVP
 70
    16
  9
$PLIMCHECK
 70
     0
  9
$PEXTMIN
 10
-0.805942
 20
0.005011
 30
0.0
  9
$PEXTMAX
 10
20.250094
 20
11.356329
 30
0.0
  9
$PLIMMIN
 10
0.0
 20
0.0
  9
$PLIMMAX
 10
12.0
 20
9.0
  9
$UNITMODE
 70
     0
  9
$VISRETAIN
 70
     0
  9
$PLINEGEN
 70
     0
  9
$PSLTSCALE
 70
     0
  0
ENDSEC
  0
SECTION
  2
TABLES
  0
TABLE
  2
VPORT
 70
     2
  0
VPORT
  2
*ACTIVE
 70
     0
 10
0.0
 20
0.0
 11
1.0
 21
1.0
 12
129.663864
 22
456.006002
 13
0.0
 23
0.0
 14
1.0
 24
1.0
 15
50.0
 25
50.0
 16
0.0
 26
0.0
 36
1.0
 17
0.0
 27
0.0
 37
0.0
 40
937.822161
 41
1.865779
 42
50.0
 43
0.0
 44
0.0
 50
0.0
 51
0.0
 71
     0
 72
   100
 73
     1
 74
     1
 75
     0
 76
     0
 77
     0
 78
     0
  0
ENDTAB
  0
TABLE
  2
LTYPE
 70
     3
  0
LTYPE
  2
CONTINUOUS
 70
     0
  3
Solid Line
 72
    65
 73
     0
 40
0.0
  0
LTYPE
  2
31
 70
     0
  3

 72
    65
 73
     4
 40
2.1
 49
1.5
 49
-0.3
 49
0.0
 49
-0.3
  0
LTYPE
  2
22
 70
     0
  3

 72
    65
 73
     2
 40
1.4
 49
1.2
 49
-0.2
  0
ENDTAB
  0
TABLE
  2
LAYER
 70
    12
  0
LAYER
  2
0
 70
     0
 62
     7
  6
CONTINUOUS
  0
LAYER
  2
DEFPOINTS
 70
     0
 62
     7
  6
CONTINUOUS
  0
LAYER
  2
TEAM-BODY
 70
     0
 62
     2
  6
CONTINUOUS
  0
LAYER
  2
TEAM-AXE
 70
     0
 62
    10
  6
31
  0
LAYER
  2
TEAM-MAS
 70
     0
 62
     9
  6
CONTINUOUS
  0
LAYER
  2
TEAM-TXT
 70
     0
 62
    11
  6
CONTINUOUS
  0
LAYER
  2
TEAM-DET1
 70
     0
 62
     4
  6
CONTINUOUS
  0
LAYER
  2
TEAM-COLD
 70
     0
 62
     3
  6
CONTINUOUS
  0
LAYER
  2
TEAM-HIDE
 70
     0
 62
     8
  6
22
  0
LAYER
  2
TEAM-KAN
 70
     0
 62
     6
  6
CONTINUOUS
  0
LAYER
  2
TEAM-WARM
 70
     0
 62
     1
  6
CONTINUOUS
  0
LAYER
  2
TEAM-INSP
 70
     0
 62
     5
  6
CONTINUOUS
  0
ENDTAB
  0
TABLE
  2
STYLE
 70
     2
  0
STYLE
  2
STANDARD
 70
     0
 40
0.0
 41
1.0
 50
0.0
 71
     0
 42
200.0
  3
txt
  4

  0
STYLE
  2
TEAM
 70
     0
 40
0.0
 41
0.8
 50
15.0
 71
     0
 42
7.0
  3
ROMANS.shx
  4

  0
ENDTAB
  0
TABLE
  2
VIEW
 70
     0
  0
ENDTAB
  0
TABLE
  2
UCS
 70
     0
  0
ENDTAB
  0
TABLE
  2
APPID
 70
     1
  0
APPID
  2
ACAD
 70
     0
  0
ENDTAB
  0
TABLE
  2
DIMSTYLE
 70
     1
  0
DIMSTYLE
  2
TEAM
 70
     0
  3

  4

  5

  6

  7

 40
1.0
 41
20.0
 42
10.0
 43
1.0
 44
1.0
 45
0.0
 46
0.0
 47
0.0
 48
0.0
140
35.0
141
1.0
142
0.0
143
25.4
144
1.0
145
0.0
146
1.0
147
15.0
 71
     0
 72
     0
 73
     0
 74
     0
 75
     0
 76
     0
 77
     0
 78
     0
170
     0
171
     2
172
     0
173
     0
174
     0
175
     0
176
     9
177
     9
178
    11
  0
ENDTAB
  0
ENDSEC
  0
SECTION
  2
BLOCKS
  0
BLOCK
  8
0
  2
$MODEL_SPACE
 70
     0
 10
0.0
 20
0.0
 30
0.0
  3
$MODEL_SPACE
  1

  0
ENDBLK
  5
12C
  8
0
  0
BLOCK
 67
     1
  8
0
  2
$PAPER_SPACE
 70
     0
 10
0.0
 20
0.0
 30
0.0
  3
$PAPER_SPACE
  1

  0
ENDBLK
  5
12A
 67
     1
  8
0
  0
BLOCK
  8
0
  2
*D0
 70
     1
 10
0.0
 20
0.0
 30
0.0
  3
*D0
  1

  0
LINE
  5
22
  8
0
  6
BYBLOCK
 62
     9
 10
4059.949874
 20
216600.0
 30
0.0
 11
4347.790323
 21
216600.0
 31
0.0
  0
LINE
  5
23
  8
0
  6
BYBLOCK
 62
     9
 10
4220.0
 20
216000.0
 30
0.0
 11
4347.790323
 21
216000.0
 31
0.0
  0
LINE
  5
24
  8
0
  6
BYBLOCK
 62
     9
 10
4346.790323
 20
216580.0
 30
0.0
 11
4346.790323
 21
216347.561024
 31
0.0
  0
LINE
  5
25
  8
0
  6
BYBLOCK
 62
     9
 10
4346.790323
 20
216020.0
 30
0.0
 11
4346.790323
 21
216252.438976
 31
0.0
  0
SOLID
  5
26
  8
0
  6
BYBLOCK
 62
     9
 10
4343.45699
 20
216580.0
 30
0.0
 11
4350.123656
 21
216580.0
 31
0.0
 12
4346.790323
 22
216600.0
 32
0.0
 13
4346.790323
 23
216600.0
 33
0.0
  0
SOLID
  5
27
  8
0
  6
BYBLOCK
 62
     9
 10
4343.45699
 20
216020.0
 30
0.0
 11
4350.123656
 21
216020.0
 31
0.0
 12
4346.790323
 22
216000.0
 32
0.0
 13
4346.790323
 23
216000.0
 33
0.0
  0
TEXT
  5
28
  8
0
  6
BYBLOCK
 62
    11
 10
4364.290323
 20
216264.283465
 30
0.0
 40
35.0
  1
600
 50
90.0
  0
POINT
  5
29
  8
DEFPOINTS
  6
BYBLOCK
 62
     0
 10
4049.949874
 20
216600.0
 30
0.0
  0
POINT
  5
2B
  8
DEFPOINTS
  6
BYBLOCK
 62
     0
 10
4210.0
 20
216000.0
 30
10.0
  0
POINT
  5
2C
  8
DEFPOINTS
  6
BYBLOCK
 62
     0
 10
4346.790323
 20
216000.0
 30
20.0
  0
ENDBLK
  5
2E
  8
0
  0
BLOCK
  8
0
  2
*D1
 70
     1
 10
0.0
 20
0.0
 30
0.0
  3
*D1
  1

  0
LINE
  5
A8
  8
0
  6
BYBLOCK
 62
     9
 10
4291.332111
 20
216850.0
 30
0.0
 11
4460.401354
 21
216850.0
 31
0.0
  0
LINE
  5
A9
  8
0
  6
BYBLOCK
 62
     9
 10
4010.0
 20
216000.0
 30
0.0
 11
4460.401354
 21
216000.0
 31
0.0
  0
LINE
  5
AA
  8
0
  6
BYBLOCK
 62
     9
 10
4459.401354
 20
216830.0
 30
0.0
 11
4459.401354
 21
216471.51378
 31
0.0
  0
LINE
  5
AB
  8
0
  6
BYBLOCK
 62
     9
 10
4459.401354
 20
216020.0
 30
0.0
 11
4459.401354
 21
216378.48622
 31
0.0
  0
SOLID
  5
AC
  8
0
  6
BYBLOCK
 62
     9
 10
4456.068021
 20
216830.0
 30
0.0
 11
4462.734687
 21
216830.0
 31
0.0
 12
4459.401354
 22
216850.0
 32
0.0
 13
4459.401354
 23
216850.0
 33
0.0
  0
SOLID
  5
AD
  8
0
  6
BYBLOCK
 62
     9
 10
4456.068021
 20
216020.0
 30
0.0
 11
4462.734687
 21
216020.0
 31
0.0
 12
4459.401354
 22
216000.0
 32
0.0
 13
4459.401354
 23
216000.0
 33
0.0
  0
TEXT
  5
AE
  8
0
  6
BYBLOCK
 62
    11
 10
4476.901354
 20
216388.23622
 30
0.0
 40
35.0
  1
850
 50
90.0
  0
POINT
  5
AF
  8
DEFPOINTS
  6
BYBLOCK
 62
     0
 10
4281.332111
 20
216850.0
 30
10.0
  0
POINT
  5
B0
  8
DEFPOINTS
  6
BYBLOCK
 62
     0
 10
4000.0
 20
216000.0
 30
0.0
  0
POINT
  5
B1
  8
DEFPOINTS
  6
BYBLOCK
 62
     0
 10
4459.401354
 20
216000.0
 30
10.0
  0
ENDBLK
  5
B3
  8
0
  0
BLOCK
  8
0
  2
*D2
 70
     1
 10
0.0
 20
0.0
 30
0.0
  3
*D2
  1

  0
LINE
  5
9A
  8
0
  6
BYBLOCK
 62
     9
 10
4200.0
 20
216850.0
 30
0.0
 11
4289.332111
 21
216850.0
 31
0.0
  0
LINE
  5
9B
  8
0
  6
BYBLOCK
 62
     9
 10
4045.0
 20
216693.0
 30
0.0
 11
4289.332111
 21
216693.0
 31
0.0
  0
LINE
  5
9C
  8
0
  6
BYBLOCK
 62
     9
 10
4288.332111
 20
216830.0
 30
0.0
 11
4288.332111
 21
216814.5
 31
0.0
  0
LINE
  5
9D
  8
0
  6
BYBLOCK
 62
     9
 10
4288.332111
 20
216713.0
 30
0.0
 11
4288.332111
 21
216728.5
 31
0.0
  0
SOLID
  5
9E
  8
0
  6
BYBLOCK
 62
     9
 10
4284.998778
 20
216830.0
 30
0.0
 11
4291.665444
 21
216830.0
 31
0.0
 12
4288.332111
 22
216850.0
 32
0.0
 13
4288.332111
 23
216850.0
 33
0.0
  0
SOLID
  5
9F
  8
0
  6
BYBLOCK
 62
     9
 10
4284.998778
 20
216713.0
 30
0.0
 11
4291.665444
 21
216713.0
 31
0.0
 12
4288.332111
 22
216693.0
 32
0.0
 13
4288.332111
 23
216693.0
 33
0.0
  0
TEXT
  5
A0
  8
0
  6
BYBLOCK
 62
    11
 10
4305.832111
 20
216738.25
 30
0.0
 40
35.0
  1
157
 50
90.0
  0
POINT
  5
A1
  8
DEFPOINTS
  6
BYBLOCK
 62
     0
 10
4190.0
 20
216850.0
 30
10.0
  0
POINT
  5
A2
  8
DEFPOINTS
  6
BYBLOCK
 62
     0
 10
4035.0
 20
216693.0
 30
0.0
  0
POINT
  5
A3
  8
DEFPOINTS
  6
BYBLOCK
 62
     0
 10
4288.332111
 20
216693.0
 30
10.0
  0
ENDBLK
  5
A5
  8
0
  0
BLOCK
  8
0
  2
*D3
 70
     1
 10
0.0
 20
0.0
 30
0.0
  3
*D3
  1

  0
LINE
  5
4D
  8
0
  6
BYBLOCK
 62
     9
 10
3960.00939
 20
216578.783522
 30
0.0
 11
3960.00939
 21
216450.0
 31
0.0
  0
LINE
  5
4E
  8
0
  6
BYBLOCK
 62
     9
 10
4040.0
 20
216579.0
 30
0.0
 11
4040.0
 21
216450.0
 31
0.0
  0
LINE
  5
4F
  8
0
  6
BYBLOCK
 62
     9
 10
3980.00939
 20
216451.0
 30
0.0
 11
3995.00939
 21
216451.0
 31
0.0
  0
LINE
  5
50
  8
0
  6
BYBLOCK
 62
     9
 10
4020.0
 20
216451.0
 30
0.0
 11
4005.0
 21
216451.0
 31
0.0
  0
TEXT
  5
51
  8
0
  6
BYBLOCK
 62
    11
 10
3975.490916
 20
216459.412585
 30
0.0
 40
35.0
  1
80
  0
SOLID
  5
52
  8
0
  6
BYBLOCK
 62
     9
 10
3980.00939
 20
216454.333333
 30
0.0
 11
3980.00939
 21
216447.666667
 31
0.0
 12
3960.00939
 22
216451.0
 32
0.0
 13
3960.00939
 23
216451.0
 33
0.0
  0
SOLID
  5
53
  8
0
  6
BYBLOCK
 62
     9
 10
4020.0
 20
216454.333333
 30
0.0
 11
4020.0
 21
216447.666667
 31
0.0
 12
4040.0
 22
216451.0
 32
0.0
 13
4040.0
 23
216451.0
 33
0.0
  0
POINT
  5
54
  8
DEFPOINTS
  6
BYBLOCK
 62
     0
 10
3960.00939
 20
216588.783522
 30
20.0
  0
POINT
  5
55
  8
DEFPOINTS
  6
BYBLOCK
 62
     0
 10
4040.0
 20
216589.0
 30
20.0
  0
POINT
  5
56
  8
DEFPOINTS
  6
BYBLOCK
 62
     0
 10
4040.0
 20
216451.0
 30
30.0
  0
ENDBLK
  5
58
  8
0
  0
BLOCK
  8
0
  2
*D4
 70
     1
 10
0.0
 20
0.0
 30
0.0
  3
*D4
  1

  0
LINE
  5
3F
  8
0
  6
BYBLOCK
 62
     9
 10
4267.121625
 20
216850.0
 30
0.0
 11
4406.926118
 21
216850.0
 31
0.0
  0
LINE
  5
40
  8
0
  6
BYBLOCK
 62
     9
 10
4030.0
 20
216580.0
 30
0.0
 11
4406.926118
 21
216580.0
 31
0.0
  0
LINE
  5
41
  8
0
  6
BYBLOCK
 62
     9
 10
4405.926118
 20
216830.0
 30
0.0
 11
4405.926118
 21
216761.958169
 31
0.0
  0
LINE
  5
42
  8
0
  6
BYBLOCK
 62
     9
 10
4405.926118
 20
216600.0
 30
0.0
 11
4405.926118
 21
216668.041831
 31
0.0
  0
SOLID
  5
43
  8
0
  6
BYBLOCK
 62
     9
 10
4402.592785
 20
216830.0
 30
0.0
 11
4409.259452
 21
216830.0
 31
0.0
 12
4405.926118
 22
216850.0
 32
0.0
 13
4405.926118
 23
216850.0
 33
0.0
  0
SOLID
  5
44
  8
0
  6
BYBLOCK
 62
     9
 10
4402.592785
 20
216600.0
 30
0.0
 11
4409.259452
 21
216600.0
 31
0.0
 12
4405.926118
 22
216580.0
 32
0.0
 13
4405.926118
 23
216580.0
 33
0.0
  0
TEXT
  5
45
  8
0
  6
BYBLOCK
 62
    11
 10
4423.426118
 20
216678.68061
 30
0.0
 40
35.0
  1
270
 50
90.0
  0
POINT
  5
46
  8
DEFPOINTS
  6
BYBLOCK
 62
     0
 10
4257.121625
 20
216850.0
 30
20.0
  0
POINT
  5
47
  8
DEFPOINTS
  6
BYBLOCK
 62
     0
 10
4020.0
 20
216580.0
 30
10.0
  0
POINT
  5
48
  8
DEFPOINTS
  6
BYBLOCK
 62
     0
 10
4405.926118
 20
216580.0
 30
20.0
  0
ENDBLK
  5
4A
  8
0
  0
BLOCK
  8
0
  2
*D5
 70
     1
 10
0.0
 20
0.0
 30
0.0
  3
*D5
  1

  0
LINE
  5
31
  8
0
  6
BYBLOCK
 62
     9
 10
4030.0
 20
216580.0
 30
0.0
 11
4406.926118
 21
216580.0
 31
0.0
  0
LINE
  5
32
  8
0
  6
BYBLOCK
 62
     9
 10
4160.0
 20
216000.0
 30
0.0
 11
4406.926118
 21
216000.0
 31
0.0
  0
LINE
  5
33
  8
0
  6
BYBLOCK
 62
     9
 10
4405.926118
 20
216560.0
 30
0.0
 11
4405.926118
 21
216336.51378
 31
0.0
  0
LINE
  5
34
  8
0
  6
BYBLOCK
 62
     9
 10
4405.926118
 20
216020.0
 30
0.0
 11
4405.926118
 21
216243.48622
 31
0.0
  0
SOLID
  5
35
  8
0
  6
BYBLOCK
 62
     9
 10
4402.592785
 20
216560.0
 30
0.0
 11
4409.259452
 21
216560.0
 31
0.0
 12
4405.926118
 22
216580.0
 32
0.0
 13
4405.926118
 23
216580.0
 33
0.0
  0
SOLID
  5
36
  8
0
  6
BYBLOCK
 62
     9
 10
4402.592785
 20
216020.0
 30
0.0
 11
4409.259452
 21
216020.0
 31
0.0
 12
4405.926118
 22
216000.0
 32
0.0
 13
4405.926118
 23
216000.0
 33
0.0
  0
TEXT
  5
37
  8
0
  6
BYBLOCK
 62
    11
 10
4423.426118
 20
216253.23622
 30
0.0
 40
35.0
  1
580
 50
90.0
  0
POINT
  5
38
  8
DEFPOINTS
  6
BYBLOCK
 62
     0
 10
4020.0
 20
216580.0
 30
10.0
  0
POINT
  5
39
  8
DEFPOINTS
  6
BYBLOCK
 62
     0
 10
4150.0
 20
216000.0
 30
20.0
  0
POINT
  5
3A
  8
DEFPOINTS
  6
BYBLOCK
 62
     0
 10
4405.926118
 20
216000.0
 30
10.0
  0
ENDBLK
  5
3C
  8
0
  0
BLOCK
  8
0
  2
*D6
 70
     1
 10
0.0
 20
0.0
 30
0.0
  3
*D6
  1

  0
LINE
  5
8C
  8
0
  6
BYBLOCK
 62
     9
 10
4059.949874
 20
216600.0
 30
0.0
 11
4347.790323
 21
216600.0
 31
0.0
  0
LINE
  5
8D
  8
0
  6
BYBLOCK
 62
     9
 10
4219.0
 20
216850.0
 30
0.0
 11
4347.790323
 21
216850.0
 31
0.0
  0
LINE
  5
8E
  8
0
  6
BYBLOCK
 62
     9
 10
4346.790323
 20
216620.0
 30
0.0
 11
4346.790323
 21
216678.041831
 31
0.0
  0
LINE
  5
8F
  8
0
  6
BYBLOCK
 62
     9
 10
4346.790323
 20
216830.0
 30
0.0
 11
4346.790323
 21
216771.958169
 31
0.0
  0
SOLID
  5
90
  8
0
  6
BYBLOCK
 62
     9
 10
4343.45699
 20
216620.0
 30
0.0
 11
4350.123656
 21
216620.0
 31
0.0
 12
4346.790323
 22
216600.0
 32
0.0
 13
4346.790323
 23
216600.0
 33
0.0
  0
SOLID
  5
91
  8
0
  6
BYBLOCK
 62
     9
 10
4343.45699
 20
216830.0
 30
0.0
 11
4350.123656
 21
216830.0
 31
0.0
 12
4346.790323
 22
216850.0
 32
0.0
 13
4346.790323
 23
216850.0
 33
0.0
  0
TEXT
  5
92
  8
0
  6
BYBLOCK
 62
    11
 10
4364.290323
 20
216688.68061
 30
0.0
 40
35.0
  1
250
 50
90.0
  0
POINT
  5
93
  8
DEFPOINTS
  6
BYBLOCK
 62
     0
 10
4049.949874
 20
216600.0
 30
0.0
  0
POINT
  5
94
  8
DEFPOINTS
  6
BYBLOCK
 62
     0
 10
4209.0
 20
216850.0
 30
0.0
  0
POINT
  5
95
  8
DEFPOINTS
  6
BYBLOCK
 62
     0
 10
4346.790323
 20
216850.0
 30
0.0
  0
ENDBLK
  5
97
  8
0
  0
BLOCK
  8
0
  2
*D7
 70
     1
 10
0.0
 20
0.0
 30
0.0
  3
*D7
  1

  0
LINE
  5
79
  8
0
  6
BYBLOCK
 62
     9
 10
4214.0
 20
216848.0
 30
0.0
 11
4214.0
 21
216905.499449
 31
0.0
  0
LINE
  5
7A
  8
0
  6
BYBLOCK
 62
     9
 10
3786.0
 20
216848.0
 30
0.0
 11
3786.0
 21
216905.499449
 31
0.0
  0
LINE
  5
7B
  8
0
  6
BYBLOCK
 62
     9
 10
4194.0
 20
216904.499449
 30
0.0
 11
4048.25
 21
216904.499449
 31
0.0
  0
LINE
  5
7C
  8
0
  6
BYBLOCK
 62
     9
 10
3806.0
 20
216904.499449
 30
0.0
 11
3951.75
 21
216904.499449
 31
0.0
  0
SOLID
  5
7D
  8
0
  6
BYBLOCK
 62
     9
 10
4194.0
 20
216907.832782
 30
0.0
 11
4194.0
 21
216901.166116
 31
0.0
 12
4214.0
 22
216904.499449
 32
0.0
 13
4214.0
 23
216904.499449
 33
0.0
  0
SOLID
  5
7E
  8
0
  6
BYBLOCK
 62
     9
 10
3806.0
 20
216907.832782
 30
0.0
 11
3806.0
 21
216901.166116
 31
0.0
 12
3786.0
 22
216904.499449
 32
0.0
 13
3786.0
 23
216904.499449
 33
0.0
  0
TEXT
  5
7F
  8
0
  6
BYBLOCK
 62
    11
 10
3961.5
 20
216886.999449
 30
0.0
 40
35.0
  1
428
  0
POINT
  5
80
  8
DEFPOINTS
  6
BYBLOCK
 62
     0
 10
4214.0
 20
216838.0
 30
0.0
  0
POINT
  5
81
  8
DEFPOINTS
  6
BYBLOCK
 62
     0
 10
3786.0
 20
216838.0
 30
0.0
  0
POINT
  5
82
  8
DEFPOINTS
  6
BYBLOCK
 62
     0
 10
3786.0
 20
216904.499449
 30
0.0
  0
ENDBLK
  5
84
  8
0
  0
ENDSEC
  0
SECTION
  2
ENTITIES
  0
DIMENSION
  5
20
  8
TEAM-MAS
  2
*D0
 10
346.790323
 20
0.0
 30
20.0
 11
346.790323
 21
300.0
 31
0.0
 12
-4000.0
 22
-216000.0
 32
0.0
 13
49.949874
 23
600.0
 33
0.0
 14
210.0
 24
0.0
 34
10.0
 50
90.0
1001
ACAD
1000
DSTYLE
1002
{
1070
    40
1040
1.0
1002
}
  0
DIMENSION
  5
2F
  8
TEAM-MAS
  2
*D5
 10
405.926118
 20
0.0
 30
0.0
 11
405.926118
 21
290.0
 31
-10.0
 12
-4000.0
 22
-216000.0
 32
-10.0
 13
20.0
 23
580.0
 33
0.0
 14
150.0
 24
0.0
 34
10.0
 50
90.0
1001
ACAD
1000
DSTYLE
1002
{
1070
    40
1040
1.0
1002
}
  0
DIMENSION
  5
3D
  8
TEAM-MAS
  2
*D4
 10
405.926118
 20
580.0
 30
10.0
 11
405.926118
 21
715.0
 31
-10.0
 12
-4000.0
 22
-216000.0
 32
-10.0
 13
257.121625
 23
850.0
 33
10.0
 14
20.0
 24
580.0
 34
0.0
 50
90.0
1001
ACAD
1000
DSTYLE
1002
{
1070
    40
1040
1.0
1002
}
  0
DIMENSION
  5
4B
  8
TEAM-MAS
  2
*D3
 10
40.0
 20
451.0
 30
10.0
 11
0.004695
 21
476.912585
 31
-20.0
 12
-4000.0
 22
-216000.0
 32
-20.0
 70
   128
 13
-39.99061
 23
588.783522
 33
0.0
 14
40.0
 24
589.0
 34
0.0
1001
ACAD
1000
DSTYLE
1002
{
1070
    40
1040
1.0
1002
}
  0
LINE
  5
59
  8
TEAM-AXE
 10
0.0
 20
676.977716
 30
0.0
 11
0.0
 21
868.0
 31
0.0
  0
ARC
  5
5C
  8
TEAM-BODY
 10
12.103751
 20
893.541464
 30
0.0
 40
190.137921
 50
266.350212
 51
343.015592
  0
ARC
  5
5E
  8
TEAM-BODY
 10
-12.204408
 20
893.374872
 30
0.0
 40
189.978107
 50
196.946599
 51
273.683282
  0
LINE
  5
5F
  8
TEAM-HIDE
 10
35.0
 20
693.0
 30
0.0
 11
35.0
 21
707.6187
 31
0.0
  0
LINE
  5
62
  8
TEAM-HIDE
 10
-35.0
 20
693.0
 30
0.0
 11
35.0
 21
693.0
 31
0.0
  0
LINE
  5
63
  8
TEAM-HIDE
 10
-35.0
 20
707.600405
 30
0.0
 11
-35.0
 21
693.0
 31
0.0
  0
CIRCLE
  5
64
  8
TEAM-KAN
 10
0.0
 20
580.0
 30
0.0
 40
20.0
  0
LINE
  5
66
  8
TEAM-AXE
 10
20.0
 20
580.0
 30
0.0
 11
-20.0
 21
580.0
 31
0.0
  0
LINE
  5
67
  8
TEAM-AXE
 10
0.0
 20
560.0
 30
0.0
 11
0.0
 21
600.0
 31
0.0
  0
LINE
  5
68
  8
TEAM-AXE
 10
49.949874
 20
600.0
 30
0.0
 11
30.050126
 21
600.0
 31
0.0
  0
LINE
  5
69
  8
TEAM-AXE
 10
40.0
 20
589.0
 30
0.0
 11
40.0
 21
609.0
 31
0.0
  0
CIRCLE
  5
6A
  8
TEAM-COLD
 10
40.0
 20
599.0
 30
0.0
 40
10.0
  0
LINE
  5
6C
  8
TEAM-AXE
 10
-39.99061
 20
588.783522
 30
0.0
 11
-39.99061
 21
608.783522
 31
0.0
  0
LINE
  5
6D
  8
TEAM-AXE
 10
-30.040735
 20
599.783522
 30
0.0
 11
-49.940484
 21
599.783522
 31
0.0
  0
CIRCLE
  5
6E
  8
TEAM-WARM
 10
-39.99061
 20
598.783522
 30
0.0
 40
10.0
  0
CIRCLE
  5
70
  8
TEAM-INSP
 10
0.0
 20
0.0
 30
0.0
 40
10.0
  0
LINE
  5
72
  8
TEAM-BODY
 10
-214.0
 20
845.0
 30
0.0
 11
-214.0
 21
838.0
 31
0.0
  0
ARC
  5
73
  8
TEAM-BODY
 10
-209.0
 20
845.0
 30
0.0
 40
5.0
 50
90.0
 51
180.0
  0
LINE
  5
74
  8
TEAM-BODY
 10
209.0
 20
850.0
 30
0.0
 11
-209.0
 21
850.0
 31
0.0
  0
LINE
  5
75
  8
TEAM-DET1
 10
214.0
 20
838.0
 30
0.0
 11
-214.0
 21
838.0
 31
0.0
  0
DIMENSION
  5
77
  8
TEAM-MAS
  2
*D7
 10
-214.0
 20
904.499449
 30
0.0
 11
0.0
 21
904.499449
 31
0.0
 12
-4000.0
 22
-216000.0
 32
0.0
 13
214.0
 23
838.0
 33
0.0
 14
-214.0
 24
838.0
 34
0.0
1001
ACAD
1000
DSTYLE
1002
{
1070
    40
1040
1.0
1002
}
  0
LINE
  5
85
  8
TEAM-BODY
 10
214.0
 20
838.0
 30
0.0
 11
214.0
 21
845.0
 31
0.0
  0
ARC
  5
86
  8
TEAM-BODY
 10
209.0
 20
845.0
 30
0.0
 40
5.0
 50
0.0
 51
90.0
  0
TEXT
  5
87
  8
TEAM-TXT
 10
-99.214721
 20
792.706252
 30
0.0
 40
30.0
  1
team 233006
 41
0.8
 51
15.0
  7
TEAM
  0
DIMENSION
  5
8A
  8
TEAM-MAS
  2
*D6
 10
346.790323
 20
850.0
 30
0.0
 11
346.790323
 21
725.0
 31
0.0
 12
-4000.0
 22
-216000.0
 32
0.0
 13
49.949874
 23
600.0
 33
0.0
 14
209.0
 24
850.0
 34
0.0
 50
90.0
1001
ACAD
1000
DSTYLE
1002
{
1070
    40
1040
1.0
1002
}
  0
DIMENSION
  5
98
  8
TEAM-MAS
  2
*D2
 10
288.332111
 20
693.0
 30
10.0
 11
288.332111
 21
771.5
 31
0.0
 12
-4000.0
 22
-216000.0
 32
0.0
 13
190.0
 23
850.0
 33
10.0
 14
35.0
 24
693.0
 34
0.0
 50
90.0
1001
ACAD
1000
DSTYLE
1002
{
1070
    40
1040
1.0
1002
}
  0
DIMENSION
  5
A6
  8
TEAM-MAS
  2
*D1
 10
459.401354
 20
0.0
 30
10.0
 11
459.401354
 21
425.0
 31
0.0
 12
-4000.0
 22
-216000.0
 32
0.0
 13
281.332111
 23
850.0
 33
10.0
 14
0.0
 24
0.0
 34
0.0
 50
90.0
1001
ACAD
1000
DSTYLE
1002
{
1070
    40
1040
1.0
1002
}
  0
ENDSEC
  0
EOF
