  0
SECTION
  2
HEADER
  9
$ACADVER
  1
AC1009
  9
$INSBASE
 10
0.0
 20
0.0
 30
0.0
  9
$EXTMIN
 10
-267.673862
 20
-424.068228
 30
-0.000006
  9
$EXTMAX
 10
311.580756
 20
10.0325
 30
0.0
  9
$LIMMIN
 10
-267.673862
 20
-424.068228
  9
$LIMMAX
 10
311.580756
 20
10.0325
  9
$ORTHOMODE
 70
     1
  9
$REGENMODE
 70
     1
  9
$FILLMODE
 70
     1
  9
$QTEXTMODE
 70
     0
  9
$MIRRTEXT
 70
     0
  9
$DRAGMODE
 70
     2
  9
$LTSCALE
 40
50.0
  9
$OSMODE
 70
     7
  9
$ATTMODE
 70
     1
  9
$TEXTSIZE
 40
200.0
  9
$TRACEWID
 40
1.0
  9
$TEXTSTYLE
  7
STANDARD
  9
$CLAYER
  8
TEAM-MAS
  9
$CELTYPE
  6
BYLAYER
  9
$CECOLOR
 62
   256
  9
$DIMSCALE
 40
1.0
  9
$DIMASZ
 40
20.0
  9
$DIMEXO
 40
10.0
  9
$DIMDLI
 40
1.0
  9
$DIMRND
 40
0.0
  9
$DIMDLE
 40
0.0
  9
$DIMEXE
 40
1.0
  9
$DIMTP
 40
0.0
  9
$DIMTM
 40
0.0
  9
$DIMTXT
 40
35.0
  9
$DIMCEN
 40
1.0
  9
$DIMTSZ
 40
0.0
  9
$DIMTOL
 70
     0
  9
$DIMLIM
 70
     0
  9
$DIMTIH
 70
     0
  9
$DIMTOH
 70
     0
  9
$DIMSE1
 70
     0
  9
$DIMSE2
 70
     0
  9
$DIMTAD
 70
     0
  9
$DIMZIN
 70
     0
  9
$DIMBLK
  1

  9
$DIMASO
 70
     1
  9
$DIMSHO
 70
     0
  9
$DIMPOST
  1

  9
$DIMAPOST
  1

  9
$DIMALT
 70
     0
  9
$DIMALTD
 70
     2
  9
$DIMALTF
 40
25.4
  9
$DIMLFAC
 40
1.0
  9
$DIMTOFL
 70
     0
  9
$DIMTVP
 40
0.0
  9
$DIMTIX
 70
     0
  9
$DIMSOXD
 70
     0
  9
$DIMSAH
 70
     0
  9
$DIMBLK1
  1

  9
$DIMBLK2
  1

  9
$DIMSTYLE
  2
TEAM
  9
$DIMCLRD
 70
     9
  9
$DIMCLRE
 70
     9
  9
$DIMCLRT
 70
    11
  9
$DIMTFAC
 40
1.0
  9
$DIMGAP
 40
7.0
  9
$LUNITS
 70
     2
  9
$LUPREC
 70
     1
  9
$SKETCHINC
 40
1.0
  9
$FILLETRAD
 40
44.0
  9
$AUNITS
 70
     0
  9
$AUPREC
 70
     0
  9
$MENU
  1
ROPLANS
  9
$ELEVATION
 40
0.0
  9
$PELEVATION
 40
0.0
  9
$THICKNESS
 40
0.0
  9
$LIMCHECK
 70
     0
  9
$BLIPMODE
 70
     1
  9
$CHAMFERA
 40
0.0
  9
$CHAMFERB
 40
0.0
  9
$SKPOLY
 70
     0
  9
$TDCREATE
 40
2450392.957851
  9
$TDUPDATE
 40
2455981.928629
  9
$TDINDWG
 40
3.777306
  9
$TDUSRTIMER
 40
3.777306
  9
$USRTIMER
 70
     1
  9
$ANGBASE
 50
0.0
  9
$ANGDIR
 70
     0
  9
$PDMODE
 70
     0
  9
$PDSIZE
 40
0.0
  9
$PLINEWID
 40
0.0
  9
$COORDS
 70
     2
  9
$SPLFRAME
 70
     0
  9
$SPLINETYPE
 70
     6
  9
$SPLINESEGS
 70
     8
  9
$ATTDIA
 70
     0
  9
$ATTREQ
 70
     0
  9
$HANDLING
 70
     1
  9
$HANDSEED
  5
1CB
  9
$SURFTAB1
 70
    36
  9
$SURFTAB2
 70
    36
  9
$SURFTYPE
 70
     6
  9
$SURFU
 70
     6
  9
$SURFV
 70
     6
  9
$UCSNAME
  2

  9
$UCSORG
 10
0.0
 20
0.0
 30
0.0
  9
$UCSXDIR
 10
1.0
 20
0.0
 30
0.0
  9
$UCSYDIR
 10
0.0
 20
1.0
 30
0.0
  9
$PUCSNAME
  2

  9
$PUCSORG
 10
0.0
 20
0.0
 30
0.0
  9
$PUCSXDIR
 10
1.0
 20
0.0
 30
0.0
  9
$PUCSYDIR
 10
0.0
 20
1.0
 30
0.0
  9
$USERI1
 70
     0
  9
$USERI2
 70
     0
  9
$USERI3
 70
     0
  9
$USERI4
 70
     0
  9
$USERI5
 70
     0
  9
$USERR1
 40
0.0
  9
$USERR2
 40
0.0
  9
$USERR3
 40
0.0
  9
$USERR4
 40
0.0
  9
$USERR5
 40
0.0
  9
$WORLDVIEW
 70
     1
  9
$SHADEDGE
 70
     0
  9
$SHADEDIF
 70
    70
  9
$TILEMODE
 70
     1
  9
$MAXACTVP
 70
    16
  9
$PLIMCHECK
 70
     0
  9
$PEXTMIN
 10
-0.805942
 20
0.005011
 30
0.0
  9
$PEXTMAX
 10
20.250094
 20
11.356329
 30
0.0
  9
$PLIMMIN
 10
0.0
 20
0.0
  9
$PLIMMAX
 10
12.0
 20
9.0
  9
$UNITMODE
 70
     0
  9
$VISRETAIN
 70
     0
  9
$PLINEGEN
 70
     0
  9
$PSLTSCALE
 70
     0
  0
ENDSEC
  0
SECTION
  2
TABLES
  0
TABLE
  2
VPORT
 70
     2
  0
VPORT
  2
*ACTIVE
 70
     0
 10
0.0
 20
0.0
 11
1.0
 21
1.0
 12
21.953447
 22
-207.017864
 13
0.0
 23
0.0
 14
1.0
 24
1.0
 15
50.0
 25
50.0
 16
0.0
 26
0.0
 36
1.0
 17
0.0
 27
0.0
 37
0.0
 40
436.822363
 41
1.903766
 42
50.0
 43
0.0
 44
0.0
 50
0.0
 51
0.0
 71
     0
 72
   100
 73
     1
 74
     1
 75
     0
 76
     0
 77
     0
 78
     0
  0
ENDTAB
  0
TABLE
  2
LTYPE
 70
     2
  0
LTYPE
  2
CONTINUOUS
 70
     0
  3
Solid Line
 72
    65
 73
     0
 40
0.0
  0
LTYPE
  2
31
 70
     0
  3

 72
    65
 73
     4
 40
2.1
 49
1.5
 49
-0.3
 49
0.0
 49
-0.3
  0
ENDTAB
  0
TABLE
  2
LAYER
 70
     9
  0
LAYER
  2
0
 70
     0
 62
     7
  6
CONTINUOUS
  0
LAYER
  2
DEFPOINTS
 70
     0
 62
     7
  6
CONTINUOUS
  0
LAYER
  2
TEAM-BODY
 70
     0
 62
     2
  6
CONTINUOUS
  0
LAYER
  2
TEAM-AXE
 70
     0
 62
    10
  6
31
  0
LAYER
  2
TEAM-MAS
 70
     0
 62
     9
  6
CONTINUOUS
  0
LAYER
  2
TEAM-TXT
 70
     0
 62
    11
  6
CONTINUOUS
  0
LAYER
  2
TEAM-DET1
 70
     0
 62
     4
  6
CONTINUOUS
  0
LAYER
  2
TEAM-KAN
 70
     0
 62
     6
  6
CONTINUOUS
  0
LAYER
  2
TEAM-INSP
 70
     0
 62
     5
  6
CONTINUOUS
  0
ENDTAB
  0
TABLE
  2
STYLE
 70
     2
  0
STYLE
  2
STANDARD
 70
     0
 40
0.0
 41
1.0
 50
0.0
 71
     0
 42
200.0
  3
txt
  4

  0
STYLE
  2
TEAM
 70
     0
 40
0.0
 41
0.8
 50
15.0
 71
     0
 42
7.0
  3
ROMANS.shx
  4

  0
ENDTAB
  0
TABLE
  2
VIEW
 70
     0
  0
ENDTAB
  0
TABLE
  2
UCS
 70
     0
  0
ENDTAB
  0
TABLE
  2
APPID
 70
     1
  0
APPID
  2
ACAD
 70
     0
  0
ENDTAB
  0
TABLE
  2
DIMSTYLE
 70
     1
  0
DIMSTYLE
  2
TEAM
 70
     0
  3

  4

  5

  6

  7

 40
1.0
 41
20.0
 42
10.0
 43
1.0
 44
1.0
 45
0.0
 46
0.0
 47
0.0
 48
0.0
140
35.0
141
1.0
142
0.0
143
25.4
144
1.0
145
0.0
146
1.0
147
7.0
 71
     0
 72
     0
 73
     0
 74
     0
 75
     0
 76
     0
 77
     0
 78
     0
170
     0
171
     2
172
     0
173
     0
174
     0
175
     0
176
     9
177
     9
178
    11
  0
ENDTAB
  0
ENDSEC
  0
SECTION
  2
BLOCKS
  0
BLOCK
  8
0
  2
$MODEL_SPACE
 70
     0
 10
0.0
 20
0.0
 30
0.0
  3
$MODEL_SPACE
  1

  0
ENDBLK
  5
138
  8
0
  0
BLOCK
 67
     1
  8
0
  2
$PAPER_SPACE
 70
     0
 10
0.0
 20
0.0
 30
0.0
  3
$PAPER_SPACE
  1

  0
ENDBLK
  5
136
 67
     1
  8
0
  0
BLOCK
  8
0
  2
*D0
 70
     1
 10
0.0
 20
0.0
 30
0.0
  3
*D0
  1

  0
LINE
  5
3F
  8
0
  6
BYBLOCK
 62
     9
 10
3787.5
 20
115827.5
 30
0.0
 11
3787.5
 21
115592.439194
 31
0.0
  0
LINE
  5
40
  8
0
  6
BYBLOCK
 62
     9
 10
4212.5
 20
115827.5
 30
0.0
 11
4212.5
 21
115592.439194
 31
0.0
  0
LINE
  5
41
  8
0
  6
BYBLOCK
 62
     9
 10
3807.5
 20
115593.439194
 30
0.0
 11
3946.333333
 21
115593.439194
 31
0.0
  0
LINE
  5
42
  8
0
  6
BYBLOCK
 62
     9
 10
4192.5
 20
115593.439194
 30
0.0
 11
4053.666667
 21
115593.439194
 31
0.0
  0
SOLID
  5
43
  8
0
  6
BYBLOCK
 62
     9
 10
3807.5
 20
115596.772528
 30
0.0
 11
3807.5
 21
115590.105861
 31
0.0
 12
3787.5
 22
115593.439194
 32
0.0
 13
3787.5
 23
115593.439194
 33
0.0
  0
SOLID
  5
44
  8
0
  6
BYBLOCK
 62
     9
 10
4192.5
 20
115596.772528
 30
0.0
 11
4192.5
 21
115590.105861
 31
0.0
 12
4212.5
 22
115593.439194
 32
0.0
 13
4212.5
 23
115593.439194
 33
0.0
  0
TEXT
  5
45
  8
0
  6
BYBLOCK
 62
    11
 10
3953.333333
 20
115575.939194
 30
0.0
 40
35.0
  1
425
  0
POINT
  5
46
  8
DEFPOINTS
  6
BYBLOCK
 62
     0
 10
3787.5
 20
115837.5
 30
0.0
  0
POINT
  5
47
  8
DEFPOINTS
  6
BYBLOCK
 62
     0
 10
4212.5
 20
115837.5
 30
0.0
  0
POINT
  5
48
  8
DEFPOINTS
  6
BYBLOCK
 62
     0
 10
4212.5
 20
115593.439194
 30
0.0
  0
ENDBLK
  5
4A
  8
0
  0
BLOCK
  8
0
  2
*D1
 70
     1
 10
0.0
 20
0.0
 30
0.0
  3
*D1
  1

  0
LINE
  5
31
  8
0
  6
BYBLOCK
 62
     9
 10
4187.5
 20
115827.5
 30
0.0
 11
4187.5
 21
115635.915148
 31
0.0
  0
LINE
  5
32
  8
0
  6
BYBLOCK
 62
     9
 10
3812.5
 20
115827.5
 30
0.0
 11
3812.5
 21
115635.915148
 31
0.0
  0
LINE
  5
33
  8
0
  6
BYBLOCK
 62
     9
 10
4167.5
 20
115636.915148
 30
0.0
 11
4053.666667
 21
115636.915148
 31
0.0
  0
LINE
  5
34
  8
0
  6
BYBLOCK
 62
     9
 10
3832.5
 20
115636.915148
 30
0.0
 11
3946.333333
 21
115636.915148
 31
0.0
  0
SOLID
  5
35
  8
0
  6
BYBLOCK
 62
     9
 10
4167.5
 20
115640.248482
 30
0.0
 11
4167.5
 21
115633.581815
 31
0.0
 12
4187.5
 22
115636.915148
 32
0.0
 13
4187.5
 23
115636.915148
 33
0.0
  0
SOLID
  5
36
  8
0
  6
BYBLOCK
 62
     9
 10
3832.5
 20
115640.248482
 30
0.0
 11
3832.5
 21
115633.581815
 31
0.0
 12
3812.5
 22
115636.915148
 32
0.0
 13
3812.5
 23
115636.915148
 33
0.0
  0
TEXT
  5
37
  8
0
  6
BYBLOCK
 62
    11
 10
3953.333333
 20
115619.415148
 30
0.0
 40
35.0
  1
375
  0
POINT
  5
38
  8
DEFPOINTS
  6
BYBLOCK
 62
     0
 10
4187.5
 20
115837.5
 30
0.0
  0
POINT
  5
39
  8
DEFPOINTS
  6
BYBLOCK
 62
     0
 10
3812.5
 20
115837.5
 30
0.0
  0
POINT
  5
3A
  8
DEFPOINTS
  6
BYBLOCK
 62
     0
 10
3812.5
 20
115636.915148
 30
0.0
  0
ENDBLK
  5
3C
  8
0
  0
BLOCK
  8
0
  2
*D2
 70
     1
 10
0.0
 20
0.0
 30
0.0
  3
*D2
  1

  0
LINE
  5
22
  8
0
  6
BYBLOCK
 62
     9
 10
3990.0
 20
115700.0
 30
0.0
 11
3748.833602
 21
115700.0
 31
0.0
  0
LINE
  5
23
  8
0
  6
BYBLOCK
 62
     9
 10
3990.0
 20
115975.0
 30
0.0
 11
3748.833602
 21
115975.0
 31
0.0
  0
LINE
  5
24
  8
0
  6
BYBLOCK
 62
     9
 10
3749.833602
 20
115720.0
 30
0.0
 11
3749.833602
 21
115783.833333
 31
0.0
  0
LINE
  5
25
  8
0
  6
BYBLOCK
 62
     9
 10
3749.833602
 20
115955.0
 30
0.0
 11
3749.833602
 21
115891.166667
 31
0.0
  0
SOLID
  5
26
  8
0
  6
BYBLOCK
 62
     9
 10
3746.500268
 20
115720.0
 30
0.0
 11
3753.166935
 21
115720.0
 31
0.0
 12
3749.833602
 22
115700.0
 32
0.0
 13
3749.833602
 23
115700.0
 33
0.0
  0
SOLID
  5
27
  8
0
  6
BYBLOCK
 62
     9
 10
3746.500268
 20
115955.0
 30
0.0
 11
3753.166935
 21
115955.0
 31
0.0
 12
3749.833602
 22
115975.0
 32
0.0
 13
3749.833602
 23
115975.0
 33
0.0
  0
TEXT
  5
28
  8
0
  6
BYBLOCK
 62
    11
 10
3767.333602
 20
115790.833333
 30
0.0
 40
35.0
  1
275
 50
90.0
  0
POINT
  5
29
  8
DEFPOINTS
  6
BYBLOCK
 62
     0
 10
4000.0
 20
115700.0
 30
0.0
  0
POINT
  5
2B
  8
DEFPOINTS
  6
BYBLOCK
 62
     0
 10
4000.0
 20
115975.0
 30
0.0
  0
POINT
  5
2C
  8
DEFPOINTS
  6
BYBLOCK
 62
     0
 10
3749.833602
 20
115975.0
 30
0.0
  0
ENDBLK
  5
2E
  8
0
  0
BLOCK
  8
0
  2
*D3
 70
     1
 10
0.0
 20
0.0
 30
0.0
  3
*D3
  1

  0
LINE
  5
62
  8
0
  6
BYBLOCK
 62
     9
 10
4010.0
 20
115675.0
 30
0.0
 11
4295.054682
 21
115675.0
 31
0.0
  0
LINE
  5
63
  8
0
  6
BYBLOCK
 62
     9
 10
4010.0
 20
116000.0
 30
0.0
 11
4295.054682
 21
116000.0
 31
0.0
  0
LINE
  5
64
  8
0
  6
BYBLOCK
 62
     9
 10
4294.054682
 20
115695.0
 30
0.0
 11
4294.054682
 21
115783.833333
 31
0.0
  0
LINE
  5
65
  8
0
  6
BYBLOCK
 62
     9
 10
4294.054682
 20
115980.0
 30
0.0
 11
4294.054682
 21
115891.166667
 31
0.0
  0
SOLID
  5
66
  8
0
  6
BYBLOCK
 62
     9
 10
4290.721349
 20
115695.0
 30
0.0
 11
4297.388016
 21
115695.0
 31
0.0
 12
4294.054682
 22
115675.0
 32
0.0
 13
4294.054682
 23
115675.0
 33
0.0
  0
SOLID
  5
67
  8
0
  6
BYBLOCK
 62
     9
 10
4290.721349
 20
115980.0
 30
0.0
 11
4297.388016
 21
115980.0
 31
0.0
 12
4294.054682
 22
116000.0
 32
0.0
 13
4294.054682
 23
116000.0
 33
0.0
  0
TEXT
  5
68
  8
0
  6
BYBLOCK
 62
    11
 10
4311.554682
 20
115790.833333
 30
0.0
 40
35.0
  1
325
 50
90.0
  0
POINT
  5
69
  8
DEFPOINTS
  6
BYBLOCK
 62
     0
 10
4000.0
 20
115675.0
 30
0.0
  0
POINT
  5
6A
  8
DEFPOINTS
  6
BYBLOCK
 62
     0
 10
4000.0
 20
116000.0
 30
0.0
  0
POINT
  5
6B
  8
DEFPOINTS
  6
BYBLOCK
 62
     0
 10
4294.054682
 20
116000.0
 30
0.0
  0
ENDBLK
  5
6D
  8
0
  0
BLOCK
  8
0
  2
*D4
 70
     1
 10
0.0
 20
0.0
 30
0.0
  3
*D4
  1

  0
LINE
  5
55
  8
0
  6
BYBLOCK
 62
     9
 10
4040.865753
 20
115837.6
 30
0.0
 11
4248.463637
 21
115837.6
 31
0.0
  0
LINE
  5
56
  8
0
  6
BYBLOCK
 62
     9
 10
4010.0
 20
116000.0
 30
0.0
 11
4248.463637
 21
116000.0
 31
0.0
  0
LINE
  5
57
  8
0
  6
BYBLOCK
 62
     9
 10
4247.463637
 20
115857.6
 30
0.0
 11
4247.463637
 21
115980.0
 31
0.0
  0
TEXT
  5
58
  8
0
  6
BYBLOCK
 62
    11
 10
4264.963637
 20
115829.633333
 30
0.0
 40
35.0
  1
162.5
 50
90.0
  0
SOLID
  5
59
  8
0
  6
BYBLOCK
 62
     9
 10
4244.130304
 20
115857.6
 30
0.0
 11
4250.796971
 21
115857.6
 31
0.0
 12
4247.463637
 22
115837.6
 32
0.0
 13
4247.463637
 23
115837.6
 33
0.0
  0
SOLID
  5
5A
  8
0
  6
BYBLOCK
 62
     9
 10
4244.130304
 20
115980.0
 30
0.0
 11
4250.796971
 21
115980.0
 31
0.0
 12
4247.463637
 22
116000.0
 32
0.0
 13
4247.463637
 23
116000.0
 33
0.0
  0
POINT
  5
5B
  8
DEFPOINTS
  6
BYBLOCK
 62
     0
 10
4030.865753
 20
115837.6
 30
0.0
  0
POINT
  5
5C
  8
DEFPOINTS
  6
BYBLOCK
 62
     0
 10
4000.0
 20
116000.0
 30
0.0
  0
POINT
  5
5D
  8
DEFPOINTS
  6
BYBLOCK
 62
     0
 10
4247.463637
 20
116000.0
 30
0.0
  0
ENDBLK
  5
5F
  8
0
  0
ENDSEC
  0
SECTION
  2
ENTITIES
  0
DIMENSION
  5
20
  8
TEAM-MAS
  2
*D2
 10
-250.166398
 20
-25.0
 30
0.0
 11
-250.166398
 21
-162.5
 31
0.0
 12
-4000.0
 22
-116000.0
 32
0.0
 13
0.0
 23
-300.0
 33
0.0
 14
0.0
 24
-25.0
 34
0.0
 50
90.0
1001
ACAD
1000
DSTYLE
1002
{
1070
    40
1040
1.0
1002
}
  0
DIMENSION
  5
2F
  8
TEAM-MAS
  2
*D1
 10
-187.5
 20
-363.084852
 30
0.0
 11
0.0
 21
-363.084852
 31
0.0
 12
-4000.0
 22
-116000.0
 32
0.0
 13
187.5
 23
-162.5
 33
0.0
 14
-187.5
 24
-162.5
 34
0.0
1001
ACAD
1000
DSTYLE
1002
{
1070
    40
1040
1.0
1002
}
  0
DIMENSION
  5
3D
  8
TEAM-MAS
  2
*D0
 10
212.5
 20
-406.560806
 30
0.0
 11
0.0
 21
-406.560806
 31
0.0
 12
-4000.0
 22
-116000.0
 32
0.0
 13
-212.5
 23
-162.5
 33
0.0
 14
212.5
 24
-162.5
 34
0.0
1001
ACAD
1000
DSTYLE
1002
{
1070
    40
1040
1.0
1002
}
  0
TEXT
  5
4B
  8
TEAM-TXT
 10
-124.91523
 20
-255.175473
 30
0.0
 40
30.0
  1
team 233105
 41
0.8
 51
15.0
  7
TEAM
  0
POLYLINE
  5
4E
  8
TEAM-BODY
 66
     1
 10
0.0
 20
0.0
 30
0.0
 70
   128
  0
VERTEX
  5
13E
  8
TEAM-BODY
 10
212.5
 20
-162.5
 30
0.0
  0
VERTEX
  5
13F
  8
TEAM-BODY
 10
211.593512
 20
-147.506392
 30
0.0
  0
VERTEX
  5
140
  8
TEAM-BODY
 10
208.881784
 20
-132.640703
 30
0.0
  0
VERTEX
  5
141
  8
TEAM-BODY
 10
204.387949
 20
-118.029764
 30
0.0
  0
VERTEX
  5
142
  8
TEAM-BODY
 10
198.150349
 20
-103.798229
 30
0.0
  0
VERTEX
  5
143
  8
TEAM-BODY
 10
190.222199
 20
-90.067517
 30
0.0
  0
VERTEX
  5
144
  8
TEAM-BODY
 10
180.671141
 20
-76.954774
 30
0.0
  0
VERTEX
  5
145
  8
TEAM-BODY
 10
169.578661
 20
-64.571872
 30
0.0
  0
VERTEX
  5
146
  8
TEAM-BODY
 10
157.039395
 20
-53.024458
 30
0.0
  0
VERTEX
  5
147
  8
TEAM-BODY
 10
143.160324
 20
-42.411051
 30
0.0
  0
VERTEX
  5
148
  8
TEAM-BODY
 10
128.05986
 20
-32.822201
 30
0.0
  0
VERTEX
  5
149
  8
TEAM-BODY
 10
111.866835
 20
-24.339715
 30
0.0
  0
VERTEX
  5
14A
  8
TEAM-BODY
 10
94.719401
 20
-17.035965
 30
0.0
  0
VERTEX
  5
14B
  8
TEAM-BODY
 10
76.763854
 20
-10.973263
 30
0.0
  0
VERTEX
  5
14C
  8
TEAM-BODY
 10
58.153385
 20
-6.203333
 30
0.0
  0
VERTEX
  5
14D
  8
TEAM-BODY
 10
39.046773
 20
-2.766871
 30
0.0
  0
VERTEX
  5
14E
  8
TEAM-BODY
 10
19.607026
 20
-0.693196
 30
0.0
  0
VERTEX
  5
14F
  8
TEAM-BODY
 10
0.0
 20
0.0
 30
0.0
  0
VERTEX
  5
150
  8
TEAM-BODY
 10
-19.607026
 20
-0.693196
 30
0.0
  0
VERTEX
  5
151
  8
TEAM-BODY
 10
-39.046773
 20
-2.766871
 30
0.0
  0
VERTEX
  5
152
  8
TEAM-BODY
 10
-58.153385
 20
-6.203333
 30
0.0
  0
VERTEX
  5
153
  8
TEAM-BODY
 10
-76.763854
 20
-10.973263
 30
0.0
  0
VERTEX
  5
154
  8
TEAM-BODY
 10
-94.719401
 20
-17.035965
 30
0.0
  0
VERTEX
  5
155
  8
TEAM-BODY
 10
-111.866835
 20
-24.339715
 30
0.0
  0
VERTEX
  5
156
  8
TEAM-BODY
 10
-128.05986
 20
-32.822201
 30
0.0
  0
VERTEX
  5
157
  8
TEAM-BODY
 10
-143.160324
 20
-42.411051
 30
0.0
  0
VERTEX
  5
158
  8
TEAM-BODY
 10
-157.039395
 20
-53.024458
 30
0.0
  0
VERTEX
  5
159
  8
TEAM-BODY
 10
-169.578661
 20
-64.571872
 30
0.0
  0
VERTEX
  5
15A
  8
TEAM-BODY
 10
-180.671141
 20
-76.954774
 30
0.0
  0
VERTEX
  5
15B
  8
TEAM-BODY
 10
-190.222199
 20
-90.067517
 30
0.0
  0
VERTEX
  5
15C
  8
TEAM-BODY
 10
-198.150349
 20
-103.798229
 30
0.0
  0
VERTEX
  5
15D
  8
TEAM-BODY
 10
-204.387949
 20
-118.029764
 30
0.0
  0
VERTEX
  5
15E
  8
TEAM-BODY
 10
-208.881784
 20
-132.640703
 30
0.0
  0
VERTEX
  5
15F
  8
TEAM-BODY
 10
-211.593512
 20
-147.506392
 30
0.0
  0
VERTEX
  5
160
  8
TEAM-BODY
 10
-212.5
 20
-162.5
 30
0.0
  0
SEQEND
  5
161
  8
TEAM-BODY
  0
POLYLINE
  5
50
  8
TEAM-BODY
 66
     1
 10
0.0
 20
0.0
 30
0.0
 70
   128
  0
VERTEX
  5
162
  8
TEAM-BODY
 10
187.5
 20
-162.5
 30
0.0
  0
VERTEX
  5
163
  8
TEAM-BODY
 10
186.597136
 20
-149.022643
 30
0.0
  0
VERTEX
  5
164
  8
TEAM-BODY
 10
183.89724
 20
-135.675081
 30
0.0
  0
VERTEX
  5
165
  8
TEAM-BODY
 10
179.426313
 20
-122.585857
 30
0.0
  0
VERTEX
  5
166
  8
TEAM-BODY
 10
173.227412
 20
-109.881028
 30
0.0
  0
VERTEX
  5
167
  8
TEAM-BODY
 10
165.360237
 20
-97.682949
 30
0.0
  0
VERTEX
  5
168
  8
TEAM-BODY
 10
155.900552
 20
-86.109093
 30
0.0
  0
VERTEX
  5
169
  8
TEAM-BODY
 10
144.93946
 20
-75.270923
 30
0.0
  0
VERTEX
  5
16A
  8
TEAM-BODY
 10
132.582521
 20
-65.272818
 30
0.0
  0
VERTEX
  5
16B
  8
TEAM-BODY
 10
118.948741
 20
-56.211063
 30
0.0
  0
VERTEX
  5
16C
  8
TEAM-BODY
 10
104.169419
 20
-48.172928
 30
0.0
  0
VERTEX
  5
16D
  8
TEAM-BODY
 10
88.386888
 20
-41.235826
 30
0.0
  0
VERTEX
  5
16E
  8
TEAM-BODY
 10
71.753144
 20
-35.466564
 30
0.0
  0
VERTEX
  5
16F
  8
TEAM-BODY
 10
54.428377
 20
-30.920704
 30
0.0
  0
VERTEX
  5
170
  8
TEAM-BODY
 10
36.579435
 20
-27.642024
 30
0.0
  0
VERTEX
  5
171
  8
TEAM-BODY
 10
18.378214
 20
-25.6621
 30
0.0
  0
VERTEX
  5
172
  8
TEAM-BODY
 10
0.0
 20
-25.0
 30
0.0
  0
VERTEX
  5
173
  8
TEAM-BODY
 10
-18.378214
 20
-25.6621
 30
0.0
  0
VERTEX
  5
174
  8
TEAM-BODY
 10
-36.579435
 20
-27.642024
 30
0.0
  0
VERTEX
  5
175
  8
TEAM-BODY
 10
-54.428377
 20
-30.920704
 30
0.0
  0
VERTEX
  5
176
  8
TEAM-BODY
 10
-71.753144
 20
-35.466564
 30
0.0
  0
VERTEX
  5
177
  8
TEAM-BODY
 10
-88.386888
 20
-41.235826
 30
0.0
  0
VERTEX
  5
178
  8
TEAM-BODY
 10
-104.169419
 20
-48.172928
 30
0.0
  0
VERTEX
  5
179
  8
TEAM-BODY
 10
-118.948741
 20
-56.211063
 30
0.0
  0
VERTEX
  5
17A
  8
TEAM-BODY
 10
-132.582521
 20
-65.272818
 30
0.0
  0
VERTEX
  5
17B
  8
TEAM-BODY
 10
-144.93946
 20
-75.270923
 30
0.0
  0
VERTEX
  5
17C
  8
TEAM-BODY
 10
-155.900552
 20
-86.109093
 30
0.0
  0
VERTEX
  5
17D
  8
TEAM-BODY
 10
-165.360237
 20
-97.682949
 30
0.0
  0
VERTEX
  5
17E
  8
TEAM-BODY
 10
-173.227412
 20
-109.881028
 30
0.0
  0
VERTEX
  5
17F
  8
TEAM-BODY
 10
-179.426313
 20
-122.585857
 30
0.0
  0
VERTEX
  5
180
  8
TEAM-BODY
 10
-183.89724
 20
-135.675081
 30
0.0
  0
VERTEX
  5
181
  8
TEAM-BODY
 10
-186.597136
 20
-149.022643
 30
0.0
  0
VERTEX
  5
182
  8
TEAM-BODY
 10
-187.5
 20
-162.5
 30
0.0
  0
SEQEND
  5
183
  8
TEAM-BODY
  0
POLYLINE
  5
51
  8
TEAM-BODY
 66
     1
 10
0.0
 20
0.0
 30
0.0
 70
   128
210
0.0
220
0.0
230
-1.0
  0
VERTEX
  5
184
  8
TEAM-BODY
 10
-212.5
 20
-162.5
 30
0.0
  0
VERTEX
  5
185
  8
TEAM-BODY
 10
-211.593512
 20
-177.493608
 30
0.0
  0
VERTEX
  5
186
  8
TEAM-BODY
 10
-208.881784
 20
-192.359297
 30
0.0
  0
VERTEX
  5
187
  8
TEAM-BODY
 10
-204.387949
 20
-206.970236
 30
0.0
  0
VERTEX
  5
188
  8
TEAM-BODY
 10
-198.150349
 20
-221.201771
 30
0.0
  0
VERTEX
  5
189
  8
TEAM-BODY
 10
-190.222199
 20
-234.932483
 30
0.0
  0
VERTEX
  5
18A
  8
TEAM-BODY
 10
-180.671141
 20
-248.045226
 30
0.0
  0
VERTEX
  5
18B
  8
TEAM-BODY
 10
-169.578661
 20
-260.428128
 30
0.0
  0
VERTEX
  5
18C
  8
TEAM-BODY
 10
-157.039395
 20
-271.975542
 30
0.0
  0
VERTEX
  5
18D
  8
TEAM-BODY
 10
-143.160324
 20
-282.588949
 30
0.0
  0
VERTEX
  5
18E
  8
TEAM-BODY
 10
-128.05986
 20
-292.177799
 30
0.0
  0
VERTEX
  5
18F
  8
TEAM-BODY
 10
-111.866835
 20
-300.660285
 30
0.0
  0
VERTEX
  5
190
  8
TEAM-BODY
 10
-94.719401
 20
-307.964035
 30
0.0
  0
VERTEX
  5
191
  8
TEAM-BODY
 10
-76.763854
 20
-314.026737
 30
0.0
  0
VERTEX
  5
192
  8
TEAM-BODY
 10
-58.153385
 20
-318.796667
 30
0.0
  0
VERTEX
  5
193
  8
TEAM-BODY
 10
-39.046773
 20
-322.233129
 30
0.0
  0
VERTEX
  5
194
  8
TEAM-BODY
 10
-19.607026
 20
-324.306804
 30
0.0
  0
VERTEX
  5
195
  8
TEAM-BODY
 10
0.0
 20
-325.0
 30
0.0
  0
VERTEX
  5
196
  8
TEAM-BODY
 10
19.607026
 20
-324.306804
 30
0.0
  0
VERTEX
  5
197
  8
TEAM-BODY
 10
39.046773
 20
-322.233129
 30
0.0
  0
VERTEX
  5
198
  8
TEAM-BODY
 10
58.153385
 20
-318.796667
 30
0.0
  0
VERTEX
  5
199
  8
TEAM-BODY
 10
76.763854
 20
-314.026737
 30
0.0
  0
VERTEX
  5
19A
  8
TEAM-BODY
 10
94.719401
 20
-307.964035
 30
0.0
  0
VERTEX
  5
19B
  8
TEAM-BODY
 10
111.866835
 20
-300.660285
 30
0.0
  0
VERTEX
  5
19C
  8
TEAM-BODY
 10
128.05986
 20
-292.177799
 30
0.0
  0
VERTEX
  5
19D
  8
TEAM-BODY
 10
143.160324
 20
-282.588949
 30
0.0
  0
VERTEX
  5
19E
  8
TEAM-BODY
 10
157.039395
 20
-271.975542
 30
0.0
  0
VERTEX
  5
19F
  8
TEAM-BODY
 10
169.578661
 20
-260.428128
 30
0.0
  0
VERTEX
  5
1A0
  8
TEAM-BODY
 10
180.671141
 20
-248.045226
 30
0.0
  0
VERTEX
  5
1A1
  8
TEAM-BODY
 10
190.222199
 20
-234.932483
 30
0.0
  0
VERTEX
  5
1A2
  8
TEAM-BODY
 10
198.150349
 20
-221.201771
 30
0.0
  0
VERTEX
  5
1A3
  8
TEAM-BODY
 10
204.387949
 20
-206.970236
 30
0.0
  0
VERTEX
  5
1A4
  8
TEAM-BODY
 10
208.881784
 20
-192.359297
 30
0.0
  0
VERTEX
  5
1A5
  8
TEAM-BODY
 10
211.593512
 20
-177.493608
 30
0.0
  0
VERTEX
  5
1A6
  8
TEAM-BODY
 10
212.5
 20
-162.5
 30
0.0
  0
SEQEND
  5
1A7
  8
TEAM-BODY
  0
POLYLINE
  5
52
  8
TEAM-BODY
 66
     1
 10
0.0
 20
0.0
 30
0.0
 70
   128
210
0.0
220
0.0
230
-1.0
  0
VERTEX
  5
1A8
  8
TEAM-BODY
 10
-187.5
 20
-162.5
 30
0.0
  0
VERTEX
  5
1A9
  8
TEAM-BODY
 10
-186.597136
 20
-175.977357
 30
0.0
  0
VERTEX
  5
1AA
  8
TEAM-BODY
 10
-183.89724
 20
-189.324919
 30
0.0
  0
VERTEX
  5
1AB
  8
TEAM-BODY
 10
-179.426313
 20
-202.414143
 30
0.0
  0
VERTEX
  5
1AC
  8
TEAM-BODY
 10
-173.227412
 20
-215.118972
 30
0.0
  0
VERTEX
  5
1AD
  8
TEAM-BODY
 10
-165.360237
 20
-227.317051
 30
0.0
  0
VERTEX
  5
1AE
  8
TEAM-BODY
 10
-155.900552
 20
-238.890907
 30
0.0
  0
VERTEX
  5
1AF
  8
TEAM-BODY
 10
-144.93946
 20
-249.729077
 30
0.0
  0
VERTEX
  5
1B0
  8
TEAM-BODY
 10
-132.582521
 20
-259.727182
 30
0.0
  0
VERTEX
  5
1B1
  8
TEAM-BODY
 10
-118.948741
 20
-268.788937
 30
0.0
  0
VERTEX
  5
1B2
  8
TEAM-BODY
 10
-104.169419
 20
-276.827072
 30
0.0
  0
VERTEX
  5
1B3
  8
TEAM-BODY
 10
-88.386888
 20
-283.764174
 30
0.0
  0
VERTEX
  5
1B4
  8
TEAM-BODY
 10
-71.753144
 20
-289.533436
 30
0.0
  0
VERTEX
  5
1B5
  8
TEAM-BODY
 10
-54.428377
 20
-294.079296
 30
0.0
  0
VERTEX
  5
1B6
  8
TEAM-BODY
 10
-36.579435
 20
-297.357976
 30
0.0
  0
VERTEX
  5
1B7
  8
TEAM-BODY
 10
-18.378214
 20
-299.3379
 30
0.0
  0
VERTEX
  5
1B8
  8
TEAM-BODY
 10
0.0
 20
-300.0
 30
0.0
  0
VERTEX
  5
1B9
  8
TEAM-BODY
 10
18.378214
 20
-299.3379
 30
0.0
  0
VERTEX
  5
1BA
  8
TEAM-BODY
 10
36.579435
 20
-297.357976
 30
0.0
  0
VERTEX
  5
1BB
  8
TEAM-BODY
 10
54.428377
 20
-294.079296
 30
0.0
  0
VERTEX
  5
1BC
  8
TEAM-BODY
 10
71.753144
 20
-289.533436
 30
0.0
  0
VERTEX
  5
1BD
  8
TEAM-BODY
 10
88.386888
 20
-283.764174
 30
0.0
  0
VERTEX
  5
1BE
  8
TEAM-BODY
 10
104.169419
 20
-276.827072
 30
0.0
  0
VERTEX
  5
1BF
  8
TEAM-BODY
 10
118.948741
 20
-268.788937
 30
0.0
  0
VERTEX
  5
1C0
  8
TEAM-BODY
 10
132.582521
 20
-259.727182
 30
0.0
  0
VERTEX
  5
1C1
  8
TEAM-BODY
 10
144.93946
 20
-249.729077
 30
0.0
  0
VERTEX
  5
1C2
  8
TEAM-BODY
 10
155.900552
 20
-238.890907
 30
0.0
  0
VERTEX
  5
1C3
  8
TEAM-BODY
 10
165.360237
 20
-227.317051
 30
0.0
  0
VERTEX
  5
1C4
  8
TEAM-BODY
 10
173.227412
 20
-215.118972
 30
0.0
  0
VERTEX
  5
1C5
  8
TEAM-BODY
 10
179.426313
 20
-202.414143
 30
0.0
  0
VERTEX
  5
1C6
  8
TEAM-BODY
 10
183.89724
 20
-189.324919
 30
0.0
  0
VERTEX
  5
1C7
  8
TEAM-BODY
 10
186.597136
 20
-175.977357
 30
0.0
  0
VERTEX
  5
1C8
  8
TEAM-BODY
 10
187.5
 20
-162.5
 30
0.0
  0
SEQEND
  5
1C9
  8
TEAM-BODY
  0
DIMENSION
  5
53
  8
TEAM-MAS
  2
*D4
 10
247.463637
 20
0.0
 30
0.0
 11
247.463637
 21
-106.2
 31
0.0
 12
-4000.0
 22
-116000.0
 32
0.0
 70
   128
  1
<>.5
 13
30.865753
 23
-162.4
 33
0.0
 14
0.0
 24
0.0
 34
0.0
 50
270.0
1001
ACAD
1000
DSTYLE
1002
{
1070
    40
1040
1.0
1002
}
  0
DIMENSION
  5
60
  8
TEAM-MAS
  2
*D3
 10
294.054682
 20
0.0
 30
0.0
 11
294.054682
 21
-162.5
 31
0.0
 12
-4000.0
 22
-116000.0
 32
0.0
 13
0.0
 23
-325.0
 33
0.0
 14
0.0
 24
0.0
 34
0.0
 50
270.0
1001
ACAD
1000
DSTYLE
1002
{
1070
    40
1040
1.0
1002
}
  0
LINE
  5
6E
  8
TEAM-AXE
 10
0.0
 20
-197.5
 30
0.0
 11
0.0
 21
-127.5
 31
0.0
  0
CIRCLE
  5
71
  8
TEAM-DET1
 10
0.0
 20
-162.5
 30
0.0
 40
30.0
  0
CIRCLE
  5
73
  8
TEAM-KAN
 10
0.0
 20
-162.5
 30
0.0
 40
20.0
  0
LINE
  5
75
  8
TEAM-AXE
 10
35.0
 20
-162.5
 30
0.0
 11
-35.0
 21
-162.5
 31
0.0
  0
CIRCLE
  5
76
  8
TEAM-INSP
 10
0.0
 20
0.0
 30
0.0
 40
10.0
  0
ENDSEC
  0
EOF
