  0
SECTION
  2
HEADER
  9
$ACADVER
  1
AC1009
  9
$INSBASE
 10
0.0
 20
0.0
 30
0.0
  9
$EXTMIN
 10
-301.039371
 20
-10.043506
 30
0.0
  9
$EXTMAX
 10
566.669338
 20
940.059618
 30
0.0
  9
$LIMMIN
 10
-301.039371
 20
-10.043506
  9
$LIMMAX
 10
566.669338
 20
940.059618
  9
$ORTHOMODE
 70
     1
  9
$REGENMODE
 70
     1
  9
$FILLMODE
 70
     1
  9
$QTEXTMODE
 70
     0
  9
$MIRRTEXT
 70
     0
  9
$DRAGMODE
 70
     2
  9
$LTSCALE
 40
25.0
  9
$OSMODE
 70
     0
  9
$ATTMODE
 70
     1
  9
$TEXTSIZE
 40
200.0
  9
$TRACEWID
 40
1.0
  9
$TEXTSTYLE
  7
STANDARD
  9
$CLAYER
  8
TEAM-MAS
  9
$CELTYPE
  6
BYLAYER
  9
$CECOLOR
 62
   256
  9
$DIMSCALE
 40
1.0
  9
$DIMASZ
 40
20.0
  9
$DIMEXO
 40
10.0
  9
$DIMDLI
 40
1.0
  9
$DIMRND
 40
0.0
  9
$DIMDLE
 40
0.0
  9
$DIMEXE
 40
1.0
  9
$DIMTP
 40
0.0
  9
$DIMTM
 40
0.0
  9
$DIMTXT
 40
35.0
  9
$DIMCEN
 40
1.0
  9
$DIMTSZ
 40
0.0
  9
$DIMTOL
 70
     0
  9
$DIMLIM
 70
     0
  9
$DIMTIH
 70
     0
  9
$DIMTOH
 70
     0
  9
$DIMSE1
 70
     0
  9
$DIMSE2
 70
     0
  9
$DIMTAD
 70
     0
  9
$DIMZIN
 70
     0
  9
$DIMBLK
  1

  9
$DIMASO
 70
     1
  9
$DIMSHO
 70
     0
  9
$DIMPOST
  1

  9
$DIMAPOST
  1

  9
$DIMALT
 70
     0
  9
$DIMALTD
 70
     2
  9
$DIMALTF
 40
25.4
  9
$DIMLFAC
 40
1.0
  9
$DIMTOFL
 70
     0
  9
$DIMTVP
 40
0.0
  9
$DIMTIX
 70
     0
  9
$DIMSOXD
 70
     0
  9
$DIMSAH
 70
     0
  9
$DIMBLK1
  1

  9
$DIMBLK2
  1

  9
$DIMSTYLE
  2
TEAM
  9
$DIMCLRD
 70
     9
  9
$DIMCLRE
 70
     9
  9
$DIMCLRT
 70
    11
  9
$DIMTFAC
 40
1.0
  9
$DIMGAP
 40
15.0
  9
$LUNITS
 70
     2
  9
$LUPREC
 70
     1
  9
$SKETCHINC
 40
1.0
  9
$FILLETRAD
 40
50.0
  9
$AUNITS
 70
     0
  9
$AUPREC
 70
     0
  9
$MENU
  1
ROPLANS
  9
$ELEVATION
 40
0.0
  9
$PELEVATION
 40
0.0
  9
$THICKNESS
 40
0.0
  9
$LIMCHECK
 70
     0
  9
$BLIPMODE
 70
     1
  9
$CHAMFERA
 40
0.0
  9
$CHAMFERB
 40
0.0
  9
$SKPOLY
 70
     0
  9
$TDCREATE
 40
2450392.957851
  9
$TDUPDATE
 40
2455505.473099
  9
$TDINDWG
 40
2.023557
  9
$TDUSRTIMER
 40
2.023557
  9
$USRTIMER
 70
     1
  9
$ANGBASE
 50
0.0
  9
$ANGDIR
 70
     0
  9
$PDMODE
 70
     0
  9
$PDSIZE
 40
0.0
  9
$PLINEWID
 40
0.0
  9
$COORDS
 70
     2
  9
$SPLFRAME
 70
     0
  9
$SPLINETYPE
 70
     6
  9
$SPLINESEGS
 70
     8
  9
$ATTDIA
 70
     0
  9
$ATTREQ
 70
     0
  9
$HANDLING
 70
     1
  9
$HANDSEED
  5
10E
  9
$SURFTAB1
 70
    24
  9
$SURFTAB2
 70
    24
  9
$SURFTYPE
 70
     6
  9
$SURFU
 70
     6
  9
$SURFV
 70
     6
  9
$UCSNAME
  2

  9
$UCSORG
 10
0.0
 20
0.0
 30
0.0
  9
$UCSXDIR
 10
1.0
 20
0.0
 30
0.0
  9
$UCSYDIR
 10
0.0
 20
1.0
 30
0.0
  9
$PUCSNAME
  2

  9
$PUCSORG
 10
0.0
 20
0.0
 30
0.0
  9
$PUCSXDIR
 10
1.0
 20
0.0
 30
0.0
  9
$PUCSYDIR
 10
0.0
 20
1.0
 30
0.0
  9
$USERI1
 70
     0
  9
$USERI2
 70
     0
  9
$USERI3
 70
     0
  9
$USERI4
 70
     0
  9
$USERI5
 70
     0
  9
$USERR1
 40
0.0
  9
$USERR2
 40
0.0
  9
$USERR3
 40
0.0
  9
$USERR4
 40
0.0
  9
$USERR5
 40
0.0
  9
$WORLDVIEW
 70
     1
  9
$SHADEDGE
 70
     0
  9
$SHADEDIF
 70
    70
  9
$TILEMODE
 70
     1
  9
$MAXACTVP
 70
    16
  9
$PLIMCHECK
 70
     0
  9
$PEXTMIN
 10
-0.805942
 20
0.005011
 30
0.0
  9
$PEXTMAX
 10
20.250094
 20
11.356329
 30
0.0
  9
$PLIMMIN
 10
0.0
 20
0.0
  9
$PLIMMAX
 10
12.0
 20
9.0
  9
$UNITMODE
 70
     0
  9
$VISRETAIN
 70
     0
  9
$PLINEGEN
 70
     0
  9
$PSLTSCALE
 70
     0
  0
ENDSEC
  0
SECTION
  2
TABLES
  0
TABLE
  2
VPORT
 70
     2
  0
VPORT
  2
*ACTIVE
 70
     0
 10
0.0
 20
0.0
 11
1.0
 21
1.0
 12
132.814983
 22
465.008056
 13
0.0
 23
0.0
 14
1.0
 24
1.0
 15
50.0
 25
50.0
 16
0.0
 26
0.0
 36
1.0
 17
0.0
 27
0.0
 37
0.0
 40
955.937943
 41
1.865779
 42
50.0
 43
0.0
 44
0.0
 50
0.0
 51
0.0
 71
     0
 72
   100
 73
     1
 74
     1
 75
     0
 76
     0
 77
     0
 78
     0
  0
ENDTAB
  0
TABLE
  2
LTYPE
 70
     2
  0
LTYPE
  2
CONTINUOUS
 70
     0
  3
Solid Line
 72
    65
 73
     0
 40
0.0
  0
LTYPE
  2
31
 70
     0
  3

 72
    65
 73
     4
 40
2.1
 49
1.5
 49
-0.3
 49
0.0
 49
-0.3
  0
ENDTAB
  0
TABLE
  2
LAYER
 70
    10
  0
LAYER
  2
0
 70
     0
 62
     7
  6
CONTINUOUS
  0
LAYER
  2
DEFPOINTS
 70
     0
 62
     7
  6
CONTINUOUS
  0
LAYER
  2
TEAM-BODY
 70
     0
 62
     2
  6
CONTINUOUS
  0
LAYER
  2
TEAM-AXE
 70
     0
 62
    10
  6
31
  0
LAYER
  2
TEAM-MAS
 70
     0
 62
     9
  6
CONTINUOUS
  0
LAYER
  2
TEAM-TXT
 70
     0
 62
    11
  6
CONTINUOUS
  0
LAYER
  2
TEAM-COLD
 70
     0
 62
     3
  6
CONTINUOUS
  0
LAYER
  2
TEAM-KAN
 70
     0
 62
     6
  6
CONTINUOUS
  0
LAYER
  2
TEAM-WARM
 70
     0
 62
     1
  6
CONTINUOUS
  0
LAYER
  2
TEAM-INSP
 70
     0
 62
     5
  6
CONTINUOUS
  0
ENDTAB
  0
TABLE
  2
STYLE
 70
     2
  0
STYLE
  2
STANDARD
 70
     0
 40
0.0
 41
1.0
 50
0.0
 71
     0
 42
200.0
  3
txt
  4

  0
STYLE
  2
TEAM
 70
     0
 40
0.0
 41
0.8
 50
15.0
 71
     0
 42
7.0
  3
ROMANS.shx
  4

  0
ENDTAB
  0
TABLE
  2
VIEW
 70
     0
  0
ENDTAB
  0
TABLE
  2
UCS
 70
     0
  0
ENDTAB
  0
TABLE
  2
APPID
 70
     1
  0
APPID
  2
ACAD
 70
     0
  0
ENDTAB
  0
TABLE
  2
DIMSTYLE
 70
     1
  0
DIMSTYLE
  2
TEAM
 70
     0
  3

  4

  5

  6

  7

 40
1.0
 41
20.0
 42
10.0
 43
1.0
 44
1.0
 45
0.0
 46
0.0
 47
0.0
 48
0.0
140
35.0
141
1.0
142
0.0
143
25.4
144
1.0
145
0.0
146
1.0
147
15.0
 71
     0
 72
     0
 73
     0
 74
     0
 75
     0
 76
     0
 77
     0
 78
     0
170
     0
171
     2
172
     0
173
     0
174
     0
175
     0
176
     9
177
     9
178
    11
  0
ENDTAB
  0
ENDSEC
  0
SECTION
  2
BLOCKS
  0
BLOCK
  8
0
  2
$MODEL_SPACE
 70
     0
 10
0.0
 20
0.0
 30
0.0
  3
$MODEL_SPACE
  1

  0
ENDBLK
  5
107
  8
0
  0
BLOCK
 67
     1
  8
0
  2
$PAPER_SPACE
 70
     0
 10
0.0
 20
0.0
 30
0.0
  3
$PAPER_SPACE
  1

  0
ENDBLK
  5
105
 67
     1
  8
0
  0
BLOCK
  8
0
  2
*D0
 70
     1
 10
0.0
 20
0.0
 30
0.0
  3
*D0
  1

  0
LINE
  5
8D
  8
0
  6
BYBLOCK
 62
     9
 10
10.0
 20
464900.000007
 30
0.0
 11
550.184826
 21
464900.000007
 31
0.0
  0
LINE
  5
8E
  8
0
  6
BYBLOCK
 62
     9
 10
10.0
 20
464000.0
 30
0.0
 11
550.184826
 21
464000.0
 31
0.0
  0
LINE
  5
8F
  8
0
  6
BYBLOCK
 62
     9
 10
549.184826
 20
464880.000007
 30
0.0
 11
549.184826
 21
464497.238657
 31
0.0
  0
LINE
  5
90
  8
0
  6
BYBLOCK
 62
     9
 10
549.184826
 20
464020.0
 30
0.0
 11
549.184826
 21
464402.76135
 31
0.0
  0
SOLID
  5
91
  8
0
  6
BYBLOCK
 62
     9
 10
545.851493
 20
464880.000007
 30
0.0
 11
552.518159
 21
464880.000007
 31
0.0
 12
549.184826
 22
464900.000007
 32
0.0
 13
549.184826
 23
464900.000007
 33
0.0
  0
SOLID
  5
92
  8
0
  6
BYBLOCK
 62
     9
 10
545.851493
 20
464020.0
 30
0.0
 11
552.518159
 21
464020.0
 31
0.0
 12
549.184826
 22
464000.0
 32
0.0
 13
549.184826
 23
464000.0
 33
0.0
  0
TEXT
  5
93
  8
0
  6
BYBLOCK
 62
    11
 10
566.684826
 20
464413.838796
 30
0.0
 40
35.0
  1
900
 50
90.0
  0
POINT
  5
94
  8
DEFPOINTS
  6
BYBLOCK
 62
     0
 10
0.0
 20
464900.000007
 30
0.0
  0
POINT
  5
95
  8
DEFPOINTS
  6
BYBLOCK
 62
     0
 10
0.0
 20
464000.0
 30
0.0
  0
POINT
  5
96
  8
DEFPOINTS
  6
BYBLOCK
 62
     0
 10
549.184826
 20
464000.0
 30
0.0
  0
ENDBLK
  5
98
  8
0
  0
BLOCK
  8
0
  2
*D1
 70
     1
 10
0.0
 20
0.0
 30
0.0
  3
*D1
  1

  0
LINE
  5
7F
  8
0
  6
BYBLOCK
 62
     9
 10
10.0
 20
464900.000007
 30
0.0
 11
443.707715
 21
464900.000007
 31
0.0
  0
LINE
  5
80
  8
0
  6
BYBLOCK
 62
     9
 10
40.403642
 20
464724.999703
 30
0.0
 11
443.707715
 21
464724.999703
 31
0.0
  0
LINE
  5
81
  8
0
  6
BYBLOCK
 62
     9
 10
442.707715
 20
464880.000007
 30
0.0
 11
442.707715
 21
464856.224729
 31
0.0
  0
LINE
  5
82
  8
0
  6
BYBLOCK
 62
     9
 10
442.707715
 20
464744.999703
 30
0.0
 11
442.707715
 21
464768.774982
 31
0.0
  0
SOLID
  5
83
  8
0
  6
BYBLOCK
 62
     9
 10
439.374381
 20
464880.000007
 30
0.0
 11
446.041048
 21
464880.000007
 31
0.0
 12
442.707715
 22
464900.000007
 32
0.0
 13
442.707715
 23
464900.000007
 33
0.0
  0
SOLID
  5
84
  8
0
  6
BYBLOCK
 62
     9
 10
439.374381
 20
464744.999703
 30
0.0
 11
446.041048
 21
464744.999703
 31
0.0
 12
442.707715
 22
464724.999703
 32
0.0
 13
442.707715
 23
464724.999703
 33
0.0
  0
TEXT
  5
85
  8
0
  6
BYBLOCK
 62
    11
 10
460.207715
 20
464778.524982
 30
0.0
 40
35.0
  1
175
 50
90.0
  0
POINT
  5
86
  8
DEFPOINTS
  6
BYBLOCK
 62
     0
 10
0.0
 20
464900.000007
 30
0.0
  0
POINT
  5
87
  8
DEFPOINTS
  6
BYBLOCK
 62
     0
 10
30.403642
 20
464724.999703
 30
0.0
  0
POINT
  5
88
  8
DEFPOINTS
  6
BYBLOCK
 62
     0
 10
442.707715
 20
464724.999703
 30
0.0
  0
ENDBLK
  5
8A
  8
0
  0
BLOCK
  8
0
  2
*D2
 70
     1
 10
0.0
 20
0.0
 30
0.0
  3
*D2
  1

  0
LINE
  5
71
  8
0
  6
BYBLOCK
 62
     9
 10
10.0
 20
464900.000007
 30
0.0
 11
392.825587
 21
464900.000007
 31
0.0
  0
LINE
  5
72
  8
0
  6
BYBLOCK
 62
     9
 10
305.364792
 20
464769.999964
 30
0.0
 11
392.825587
 21
464769.999964
 31
0.0
  0
LINE
  5
73
  8
0
  6
BYBLOCK
 62
     9
 10
391.825587
 20
464920.000007
 30
0.0
 11
391.825587
 21
464940.000007
 31
0.0
  0
LINE
  5
74
  8
0
  6
BYBLOCK
 62
     9
 10
391.825587
 20
464749.999964
 30
0.0
 11
391.825587
 21
464729.999964
 31
0.0
  0
SOLID
  5
75
  8
0
  6
BYBLOCK
 62
     9
 10
388.492253
 20
464920.000007
 30
0.0
 11
395.15892
 21
464920.000007
 31
0.0
 12
391.825587
 22
464900.000007
 32
0.0
 13
391.825587
 23
464900.000007
 33
0.0
  0
SOLID
  5
76
  8
0
  6
BYBLOCK
 62
     9
 10
388.492253
 20
464749.999964
 30
0.0
 11
395.15892
 21
464749.999964
 31
0.0
 12
391.825587
 22
464769.999964
 32
0.0
 13
391.825587
 23
464769.999964
 33
0.0
  0
TEXT
  5
77
  8
0
  6
BYBLOCK
 62
    11
 10
409.325587
 20
464801.736206
 30
0.0
 40
35.0
  1
130
 50
90.0
  0
POINT
  5
78
  8
DEFPOINTS
  6
BYBLOCK
 62
     0
 10
0.0
 20
464900.000007
 30
0.0
  0
POINT
  5
79
  8
DEFPOINTS
  6
BYBLOCK
 62
     0
 10
295.364792
 20
464769.999964
 30
0.0
  0
POINT
  5
7A
  8
DEFPOINTS
  6
BYBLOCK
 62
     0
 10
391.825587
 20
464769.999964
 30
0.0
  0
ENDBLK
  5
7C
  8
0
  0
BLOCK
  8
0
  2
*D3
 70
     1
 10
0.0
 20
0.0
 30
0.0
  3
*D3
  1

  0
LINE
  5
63
  8
0
  6
BYBLOCK
 62
     9
 10
10.0
 20
464900.000007
 30
0.0
 11
493.979801
 21
464900.000007
 31
0.0
  0
LINE
  5
64
  8
0
  6
BYBLOCK
 62
     9
 10
95.0
 20
464590.0
 30
0.0
 11
493.979801
 21
464590.0
 31
0.0
  0
LINE
  5
65
  8
0
  6
BYBLOCK
 62
     9
 10
492.979801
 20
464880.000007
 30
0.0
 11
492.979801
 21
464788.013783
 31
0.0
  0
LINE
  5
66
  8
0
  6
BYBLOCK
 62
     9
 10
492.979801
 20
464610.0
 30
0.0
 11
492.979801
 21
464701.986224
 31
0.0
  0
SOLID
  5
67
  8
0
  6
BYBLOCK
 62
     9
 10
489.646467
 20
464880.000007
 30
0.0
 11
496.313134
 21
464880.000007
 31
0.0
 12
492.979801
 22
464900.000007
 32
0.0
 13
492.979801
 23
464900.000007
 33
0.0
  0
SOLID
  5
68
  8
0
  6
BYBLOCK
 62
     9
 10
489.646467
 20
464610.0
 30
0.0
 11
496.313134
 21
464610.0
 31
0.0
 12
492.979801
 22
464590.0
 32
0.0
 13
492.979801
 23
464590.0
 33
0.0
  0
TEXT
  5
69
  8
0
  6
BYBLOCK
 62
    11
 10
510.479801
 20
464711.736224
 30
0.0
 40
35.0
  1
310
 50
90.0
  0
POINT
  5
6A
  8
DEFPOINTS
  6
BYBLOCK
 62
     0
 10
0.0
 20
464900.000007
 30
0.0
  0
POINT
  5
6B
  8
DEFPOINTS
  6
BYBLOCK
 62
     0
 10
85.0
 20
464590.0
 30
0.0
  0
POINT
  5
6C
  8
DEFPOINTS
  6
BYBLOCK
 62
     0
 10
492.979801
 20
464590.0
 30
0.0
  0
ENDBLK
  5
6E
  8
0
  0
BLOCK
  8
0
  2
*D4
 70
     1
 10
0.0
 20
0.0
 30
0.0
  3
*D4
  1

  0
LINE
  5
52
  8
0
  6
BYBLOCK
 62
     9
 10
-75.0
 20
464570.0
 30
0.0
 11
-75.0
 21
464426.726393
 31
0.0
  0
LINE
  5
53
  8
0
  6
BYBLOCK
 62
     9
 10
75.0
 20
464570.0
 30
0.0
 11
75.0
 21
464426.726393
 31
0.0
  0
LINE
  5
54
  8
0
  6
BYBLOCK
 62
     9
 10
-55.0
 20
464427.726393
 30
0.0
 11
-40.0
 21
464427.726393
 31
0.0
  0
LINE
  5
55
  8
0
  6
BYBLOCK
 62
     9
 10
55.0
 20
464427.726393
 30
0.0
 11
40.0
 21
464427.726393
 31
0.0
  0
TEXT
  5
56
  8
0
  6
BYBLOCK
 62
    11
 10
-33.26378
 20
464410.226393
 30
0.0
 40
35.0
  1
150
  0
SOLID
  5
57
  8
0
  6
BYBLOCK
 62
     9
 10
-55.0
 20
464431.059726
 30
0.0
 11
-55.0
 21
464424.393059
 31
0.0
 12
-75.0
 22
464427.726393
 32
0.0
 13
-75.0
 23
464427.726393
 33
0.0
  0
SOLID
  5
58
  8
0
  6
BYBLOCK
 62
     9
 10
55.0
 20
464431.059726
 30
0.0
 11
55.0
 21
464424.393059
 31
0.0
 12
75.0
 22
464427.726393
 32
0.0
 13
75.0
 23
464427.726393
 33
0.0
  0
POINT
  5
59
  8
DEFPOINTS
  6
BYBLOCK
 62
     0
 10
-75.0
 20
464580.0
 30
0.0
  0
POINT
  5
5A
  8
DEFPOINTS
  6
BYBLOCK
 62
     0
 10
75.0
 20
464580.0
 30
0.0
  0
POINT
  5
5B
  8
DEFPOINTS
  6
BYBLOCK
 62
     0
 10
75.0
 20
464427.726393
 30
0.0
  0
ENDBLK
  5
5D
  8
0
  0
BLOCK
  8
0
  2
*D5
 70
     1
 10
0.0
 20
0.0
 30
0.0
  3
*D5
  1

  0
LINE
  5
43
  8
0
  6
BYBLOCK
 62
     9
 10
95.0
 20
464590.0
 30
0.0
 11
493.979801
 21
464590.0
 31
0.0
  0
LINE
  5
44
  8
0
  6
BYBLOCK
 62
     9
 10
10.0
 20
464000.0
 30
0.0
 11
493.979801
 21
464000.0
 31
0.0
  0
LINE
  5
45
  8
0
  6
BYBLOCK
 62
     9
 10
492.979801
 20
464570.0
 30
0.0
 11
492.979801
 21
464341.57493
 31
0.0
  0
LINE
  5
46
  8
0
  6
BYBLOCK
 62
     9
 10
492.979801
 20
464020.0
 30
0.0
 11
492.979801
 21
464248.42507
 31
0.0
  0
SOLID
  5
47
  8
0
  6
BYBLOCK
 62
     9
 10
489.646467
 20
464570.0
 30
0.0
 11
496.313134
 21
464570.0
 31
0.0
 12
492.979801
 22
464590.0
 32
0.0
 13
492.979801
 23
464590.0
 33
0.0
  0
SOLID
  5
48
  8
0
  6
BYBLOCK
 62
     9
 10
489.646467
 20
464020.0
 30
0.0
 11
496.313134
 21
464020.0
 31
0.0
 12
492.979801
 22
464000.0
 32
0.0
 13
492.979801
 23
464000.0
 33
0.0
  0
TEXT
  5
49
  8
0
  6
BYBLOCK
 62
    11
 10
510.479801
 20
464258.17507
 30
0.0
 40
35.0
  1
590
 50
90.0
  0
POINT
  5
4A
  8
DEFPOINTS
  6
BYBLOCK
 62
     0
 10
85.0
 20
464590.0
 30
0.0
  0
POINT
  5
4C
  8
DEFPOINTS
  6
BYBLOCK
 62
     0
 10
0.0
 20
464000.0
 30
0.0
  0
POINT
  5
4D
  8
DEFPOINTS
  6
BYBLOCK
 62
     0
 10
492.979801
 20
464000.0
 30
0.0
  0
ENDBLK
  5
4F
  8
0
  0
ENDSEC
  0
SECTION
  2
ENTITIES
  0
LINE
  5
20
  8
TEAM-BODY
 10
295.001438
 20
900.000007
 30
0.0
 11
-295.001438
 21
900.000007
 31
0.0
  0
ARC
  5
22
  8
TEAM-BODY
 10
-295.001438
 20
895.000007
 30
0.0
 40
5.0
 50
90.0
 51
179.366717
  0
ARC
  5
23
  8
TEAM-BODY
 10
295.001438
 20
895.000007
 30
0.0
 40
5.0
 50
0.646389
 51
90.0
  0
ARC
  5
24
  8
TEAM-BODY
 10
0.0
 20
2065.062414
 30
0.0
 40
1310.414724
 50
261.221011
 51
278.778989
  0
LINE
  5
25
  8
TEAM-BODY
 10
295.364792
 20
769.999964
 30
0.0
 11
-295.364491
 21
769.999964
 31
0.0
  0
LINE
  5
26
  8
TEAM-AXE
 10
-75.0
 20
600.0
 30
0.0
 11
-75.0
 21
580.0
 31
0.0
210
0.0
220
-0.0
230
-1.0
  0
LINE
  5
29
  8
TEAM-AXE
 10
-85.0
 20
590.0
 30
0.0
 11
-65.0
 21
590.0
 31
0.0
  0
CIRCLE
  5
2A
  8
TEAM-WARM
 10
-75.0
 20
590.0
 30
0.0
 40
10.0
  0
LINE
  5
2C
  8
TEAM-AXE
 10
75.0
 20
600.0
 30
0.0
 11
75.0
 21
580.0
 31
0.0
210
0.0
220
-0.0
230
-1.0
  0
CIRCLE
  5
2D
  8
TEAM-COLD
 10
75.0
 20
590.0
 30
0.0
 40
10.0
  0
LINE
  5
2F
  8
TEAM-AXE
 10
65.0
 20
590.0
 30
0.0
 11
85.0
 21
590.0
 31
0.0
  0
LINE
  5
30
  8
TEAM-AXE
 10
0.0
 20
610.0
 30
0.0
 11
0.0
 21
570.0
 31
0.0
210
0.0
220
-0.0
230
-1.0
  0
CIRCLE
  5
31
  8
TEAM-KAN
 10
0.0
 20
590.0
 30
0.0
 40
20.0
  0
CIRCLE
  5
33
  8
TEAM-KAN
 10
0.0
 20
590.0
 30
0.0
 40
20.0
  0
LINE
  5
34
  8
TEAM-AXE
 10
-20.0
 20
590.0
 30
0.0
 11
20.0
 21
590.0
 31
0.0
  0
LINE
  5
35
  8
TEAM-BODY
 10
-35.366718
 20
729.740277
 30
0.0
 11
-35.702937
 21
755.134152
 31
0.0
  0
LINE
  5
36
  8
TEAM-BODY
 10
35.396907
 20
729.740277
 30
0.0
 11
35.733136
 21
755.134976
 31
0.0
  0
ARC
  5
37
  8
TEAM-BODY
 10
30.403642
 20
729.999703
 30
0.0
 40
5.0
 50
270.0
 51
357.025863
  0
LINE
  5
38
  8
TEAM-BODY
 10
-30.373453
 20
724.999703
 30
0.0
 11
30.403642
 21
724.999703
 31
0.0
  0
ARC
  5
39
  8
TEAM-BODY
 10
-30.373453
 20
729.999703
 30
0.0
 40
5.0
 50
182.974137
 51
270.0
  0
TEXT
  5
3A
  8
TEAM-TXT
 10
-212.095366
 20
779.168055
 30
0.0
 40
30.0
  1
team 234055
 41
0.8
 51
15.0
  7
TEAM
  0
ARC
  5
3D
  8
TEAM-BODY
 10
-295.364491
 20
774.999964
 30
0.0
 40
5.0
 50
202.012555
 51
270.0
  0
CIRCLE
  5
3E
  8
TEAM-INSP
 10
0.0
 20
0.0
 30
0.0
 40
10.0
  0
ARC
  5
40
  8
TEAM-BODY
 10
295.364792
 20
774.999964
 30
0.0
 40
5.0
 50
270.0
 51
337.97826
  0
DIMENSION
  5
41
  8
TEAM-MAS
  2
*D5
 10
492.979801
 20
0.0
 30
0.0
 11
492.979801
 21
295.0
 31
0.0
 12
0.0
 22
-464000.0
 32
0.0
 13
85.0
 23
590.0
 33
0.0
 14
0.0
 24
0.0
 34
0.0
 50
90.0
1001
ACAD
1000
DSTYLE
1002
{
1070
    40
1040
1.0
1002
}
  0
DIMENSION
  5
50
  8
TEAM-MAS
  2
*D4
 10
75.0
 20
427.726393
 30
0.0
 11
0.0
 21
427.726393
 31
0.0
 12
0.0
 22
-464000.0
 32
0.0
 70
   128
 13
-75.0
 23
580.0
 33
0.0
 14
75.0
 24
580.0
 34
0.0
1001
ACAD
1000
DSTYLE
1002
{
1070
    40
1040
1.0
1002
}
  0
LINE
  5
5E
  8
TEAM-AXE
 10
0.0
 20
900.000007
 30
0.0
 11
0.0
 21
695.0
 31
0.0
210
0.0
220
-0.0
230
-1.0
  0
ARC
  5
5F
  8
TEAM-BODY
 10
-3283035.190344
 20
803.608221
 30
0.0
 40
3282735.190486
 50
359.999468
 51
0.001596
  0
ARC
  5
60
  8
TEAM-BODY
 10
3320592.908353
 20
803.607959
 30
0.0
 40
3320292.908492
 50
179.998422
 51
180.000526
  0
DIMENSION
  5
61
  8
TEAM-MAS
  2
*D3
 10
492.979801
 20
590.0
 30
0.0
 11
492.979801
 21
745.000004
 31
0.0
 12
0.0
 22
-464000.0
 32
0.0
 13
0.0
 23
900.000007
 33
0.0
 14
85.0
 24
590.0
 34
0.0
 50
90.0
1001
ACAD
1000
DSTYLE
1002
{
1070
    40
1040
1.0
1002
}
  0
DIMENSION
  5
6F
  8
TEAM-MAS
  2
*D2
 10
391.825587
 20
769.999964
 30
0.0
 11
391.825587
 21
834.999985
 31
0.0
 12
0.0
 22
-464000.0
 32
0.0
 13
0.0
 23
900.000007
 33
0.0
 14
295.364792
 24
769.999964
 34
0.0
 50
90.0
1001
ACAD
1000
DSTYLE
1002
{
1070
    40
1040
1.0
1002
}
  0
DIMENSION
  5
7D
  8
TEAM-MAS
  2
*D1
 10
442.707715
 20
724.999703
 30
0.0
 11
442.707715
 21
812.499855
 31
0.0
 12
0.0
 22
-464000.0
 32
0.0
 13
0.0
 23
900.000007
 33
0.0
 14
30.403642
 24
724.999703
 34
0.0
 50
90.0
1001
ACAD
1000
DSTYLE
1002
{
1070
    40
1040
1.0
1002
}
  0
DIMENSION
  5
8B
  8
TEAM-MAS
  2
*D0
 10
549.184826
 20
0.0
 30
0.0
 11
549.184826
 21
450.000004
 31
0.0
 12
0.0
 22
-464000.0
 32
0.0
 13
0.0
 23
900.000007
 33
0.0
 14
0.0
 24
0.0
 34
0.0
 50
90.0
1001
ACAD
1000
DSTYLE
1002
{
1070
    40
1040
1.0
1002
}
  0
ENDSEC
  0
EOF
