  0
SECTION
  2
HEADER
  9
$ACADVER
  1
AC1009
  9
$INSBASE
 10
0.0
 20
0.0
 30
0.0
  9
$EXTMIN
 10
-223.893627
 20
-10.0459
 30
-20.002275
  9
$EXTMAX
 10
490.347897
 20
974.512076
 30
20.002176
  9
$LIMMIN
 10
-223.893627
 20
-10.0459
  9
$LIMMAX
 10
490.347897
 20
974.512076
  9
$ORTHOMODE
 70
     1
  9
$REGENMODE
 70
     1
  9
$FILLMODE
 70
     1
  9
$QTEXTMODE
 70
     0
  9
$MIRRTEXT
 70
     0
  9
$DRAGMODE
 70
     2
  9
$LTSCALE
 40
25.0
  9
$OSMODE
 70
     0
  9
$ATTMODE
 70
     1
  9
$TEXTSIZE
 40
200.0
  9
$TRACEWID
 40
1.0
  9
$TEXTSTYLE
  7
STANDARD
  9
$CLAYER
  8
TEAM-MAS
  9
$CELTYPE
  6
BYLAYER
  9
$CECOLOR
 62
   256
  9
$DIMSCALE
 40
1.0
  9
$DIMASZ
 40
20.0
  9
$DIMEXO
 40
10.0
  9
$DIMDLI
 40
1.0
  9
$DIMRND
 40
0.0
  9
$DIMDLE
 40
0.0
  9
$DIMEXE
 40
1.0
  9
$DIMTP
 40
0.0
  9
$DIMTM
 40
0.0
  9
$DIMTXT
 40
35.0
  9
$DIMCEN
 40
1.0
  9
$DIMTSZ
 40
0.0
  9
$DIMTOL
 70
     0
  9
$DIMLIM
 70
     0
  9
$DIMTIH
 70
     0
  9
$DIMTOH
 70
     0
  9
$DIMSE1
 70
     0
  9
$DIMSE2
 70
     0
  9
$DIMTAD
 70
     0
  9
$DIMZIN
 70
     0
  9
$DIMBLK
  1

  9
$DIMASO
 70
     1
  9
$DIMSHO
 70
     0
  9
$DIMPOST
  1

  9
$DIMAPOST
  1

  9
$DIMALT
 70
     0
  9
$DIMALTD
 70
     2
  9
$DIMALTF
 40
25.4
  9
$DIMLFAC
 40
1.0
  9
$DIMTOFL
 70
     0
  9
$DIMTVP
 40
0.0
  9
$DIMTIX
 70
     0
  9
$DIMSOXD
 70
     0
  9
$DIMSAH
 70
     0
  9
$DIMBLK1
  1

  9
$DIMBLK2
  1

  9
$DIMSTYLE
  2
TEAM
  9
$DIMCLRD
 70
     9
  9
$DIMCLRE
 70
     9
  9
$DIMCLRT
 70
    11
  9
$DIMTFAC
 40
1.0
  9
$DIMGAP
 40
15.0
  9
$LUNITS
 70
     2
  9
$LUPREC
 70
     1
  9
$SKETCHINC
 40
1.0
  9
$FILLETRAD
 40
50.0
  9
$AUNITS
 70
     0
  9
$AUPREC
 70
     0
  9
$MENU
  1
ROPLANS
  9
$ELEVATION
 40
0.0
  9
$PELEVATION
 40
0.0
  9
$THICKNESS
 40
0.0
  9
$LIMCHECK
 70
     0
  9
$BLIPMODE
 70
     1
  9
$CHAMFERA
 40
0.0
  9
$CHAMFERB
 40
0.0
  9
$SKPOLY
 70
     0
  9
$TDCREATE
 40
2450392.957851
  9
$TDUPDATE
 40
2455505.473099
  9
$TDINDWG
 40
2.023557
  9
$TDUSRTIMER
 40
2.023557
  9
$USRTIMER
 70
     1
  9
$ANGBASE
 50
0.0
  9
$ANGDIR
 70
     0
  9
$PDMODE
 70
     0
  9
$PDSIZE
 40
0.0
  9
$PLINEWID
 40
0.0
  9
$COORDS
 70
     2
  9
$SPLFRAME
 70
     0
  9
$SPLINETYPE
 70
     6
  9
$SPLINESEGS
 70
     8
  9
$ATTDIA
 70
     0
  9
$ATTREQ
 70
     0
  9
$HANDLING
 70
     1
  9
$HANDSEED
  5
181
  9
$SURFTAB1
 70
    24
  9
$SURFTAB2
 70
    24
  9
$SURFTYPE
 70
     6
  9
$SURFU
 70
     6
  9
$SURFV
 70
     6
  9
$UCSNAME
  2

  9
$UCSORG
 10
0.0
 20
0.0
 30
0.0
  9
$UCSXDIR
 10
1.0
 20
0.0
 30
0.0
  9
$UCSYDIR
 10
0.0
 20
1.0
 30
0.0
  9
$PUCSNAME
  2

  9
$PUCSORG
 10
0.0
 20
0.0
 30
0.0
  9
$PUCSXDIR
 10
1.0
 20
0.0
 30
0.0
  9
$PUCSYDIR
 10
0.0
 20
1.0
 30
0.0
  9
$USERI1
 70
     0
  9
$USERI2
 70
     0
  9
$USERI3
 70
     0
  9
$USERI4
 70
     0
  9
$USERI5
 70
     0
  9
$USERR1
 40
0.0
  9
$USERR2
 40
0.0
  9
$USERR3
 40
0.0
  9
$USERR4
 40
0.0
  9
$USERR5
 40
0.0
  9
$WORLDVIEW
 70
     1
  9
$SHADEDGE
 70
     0
  9
$SHADEDIF
 70
    70
  9
$TILEMODE
 70
     1
  9
$MAXACTVP
 70
    16
  9
$PLIMCHECK
 70
     0
  9
$PEXTMIN
 10
-0.805942
 20
0.005011
 30
0.0
  9
$PEXTMAX
 10
20.250094
 20
11.356329
 30
0.0
  9
$PLIMMIN
 10
0.0
 20
0.0
  9
$PLIMMAX
 10
12.0
 20
9.0
  9
$UNITMODE
 70
     0
  9
$VISRETAIN
 70
     0
  9
$PLINEGEN
 70
     0
  9
$PSLTSCALE
 70
     0
  0
ENDSEC
  0
SECTION
  2
TABLES
  0
TABLE
  2
VPORT
 70
     2
  0
VPORT
  2
*ACTIVE
 70
     0
 10
0.0
 20
0.0
 11
1.0
 21
1.0
 12
133.227135
 22
482.233088
 13
0.0
 23
0.0
 14
1.0
 24
1.0
 15
50.0
 25
50.0
 16
0.0
 26
0.0
 36
1.0
 17
0.0
 27
0.0
 37
0.0
 40
990.604391
 41
1.865779
 42
50.0
 43
0.0
 44
0.0
 50
0.0
 51
0.0
 71
     0
 72
   100
 73
     1
 74
     1
 75
     0
 76
     0
 77
     0
 78
     0
  0
ENDTAB
  0
TABLE
  2
LTYPE
 70
     3
  0
LTYPE
  2
CONTINUOUS
 70
     0
  3
Solid Line
 72
    65
 73
     0
 40
0.0
  0
LTYPE
  2
31
 70
     0
  3

 72
    65
 73
     4
 40
2.1
 49
1.5
 49
-0.3
 49
0.0
 49
-0.3
  0
LTYPE
  2
22
 70
     0
  3

 72
    65
 73
     2
 40
1.4
 49
1.2
 49
-0.2
  0
ENDTAB
  0
TABLE
  2
LAYER
 70
    11
  0
LAYER
  2
0
 70
     0
 62
     7
  6
CONTINUOUS
  0
LAYER
  2
DEFPOINTS
 70
     0
 62
     7
  6
CONTINUOUS
  0
LAYER
  2
TEAM-BODY
 70
     0
 62
     2
  6
CONTINUOUS
  0
LAYER
  2
TEAM-AXE
 70
     0
 62
    10
  6
31
  0
LAYER
  2
TEAM-MAS
 70
     0
 62
     9
  6
CONTINUOUS
  0
LAYER
  2
TEAM-TXT
 70
     0
 62
    11
  6
CONTINUOUS
  0
LAYER
  2
TEAM-COLD
 70
     0
 62
     3
  6
CONTINUOUS
  0
LAYER
  2
TEAM-HIDE
 70
     0
 62
     8
  6
22
  0
LAYER
  2
TEAM-KAN
 70
     0
 62
     6
  6
CONTINUOUS
  0
LAYER
  2
TEAM-WARM
 70
     0
 62
     1
  6
CONTINUOUS
  0
LAYER
  2
TEAM-INSP
 70
     0
 62
     5
  6
CONTINUOUS
  0
ENDTAB
  0
TABLE
  2
STYLE
 70
     2
  0
STYLE
  2
STANDARD
 70
     0
 40
0.0
 41
1.0
 50
0.0
 71
     0
 42
200.0
  3
txt
  4

  0
STYLE
  2
TEAM
 70
     0
 40
0.0
 41
0.8
 50
15.0
 71
     0
 42
7.0
  3
ROMANS.shx
  4

  0
ENDTAB
  0
TABLE
  2
VIEW
 70
     0
  0
ENDTAB
  0
TABLE
  2
UCS
 70
     0
  0
ENDTAB
  0
TABLE
  2
APPID
 70
     3
  0
APPID
  2
ACAD
 70
     0
  0
APPID
  2
GENIUS_GENODEF_13
 70
     0
  0
APPID
  2
GENIUS_GENOBJ-N-FIL_13
 70
     0
  0
ENDTAB
  0
TABLE
  2
DIMSTYLE
 70
     1
  0
DIMSTYLE
  2
TEAM
 70
     0
  3

  4

  5

  6

  7

 40
1.0
 41
20.0
 42
10.0
 43
1.0
 44
1.0
 45
0.0
 46
0.0
 47
0.0
 48
0.0
140
35.0
141
1.0
142
0.0
143
25.4
144
1.0
145
0.0
146
1.0
147
15.0
 71
     0
 72
     0
 73
     0
 74
     0
 75
     0
 76
     0
 77
     0
 78
     0
170
     0
171
     2
172
     0
173
     0
174
     0
175
     0
176
     9
177
     9
178
    11
  0
ENDTAB
  0
ENDSEC
  0
SECTION
  2
BLOCKS
  0
BLOCK
  8
0
  2
$MODEL_SPACE
 70
     0
 10
0.0
 20
0.0
 30
0.0
  3
$MODEL_SPACE
  1

  0
ENDBLK
  5
16F
  8
0
  0
BLOCK
 67
     1
  8
0
  2
$PAPER_SPACE
 70
     0
 10
0.0
 20
0.0
 30
0.0
  3
$PAPER_SPACE
  1

  0
ENDBLK
  5
16D
 67
     1
  8
0
  0
BLOCK
  8
0
  2
*D0
 70
     1
 10
0.0
 20
0.0
 30
0.0
  3
*D0
  1

  0
LINE
  5
BD
  8
0
  6
BYBLOCK
 62
     9
 10
3790.0
 20
472900.497571
 30
0.0
 11
3790.0
 21
472957.967187
 31
0.0
  0
LINE
  5
BE
  8
0
  6
BYBLOCK
 62
     9
 10
4210.0
 20
472900.497571
 30
0.0
 11
4210.0
 21
472957.967187
 31
0.0
  0
LINE
  5
BF
  8
0
  6
BYBLOCK
 62
     9
 10
3810.0
 20
472956.967187
 30
0.0
 11
3951.73622
 21
472956.967187
 31
0.0
  0
LINE
  5
C0
  8
0
  6
BYBLOCK
 62
     9
 10
4190.0
 20
472956.967187
 30
0.0
 11
4048.26378
 21
472956.967187
 31
0.0
  0
SOLID
  5
C1
  8
0
  6
BYBLOCK
 62
     9
 10
3810.0
 20
472960.300521
 30
0.0
 11
3810.0
 21
472953.633854
 31
0.0
 12
3790.0
 22
472956.967187
 32
0.0
 13
3790.0
 23
472956.967187
 33
0.0
  0
SOLID
  5
C2
  8
0
  6
BYBLOCK
 62
     9
 10
4190.0
 20
472960.300521
 30
0.0
 11
4190.0
 21
472953.633854
 31
0.0
 12
4210.0
 22
472956.967187
 32
0.0
 13
4210.0
 23
472956.967187
 33
0.0
  0
TEXT
  5
C3
  8
0
  6
BYBLOCK
 62
    11
 10
3961.48622
 20
472939.467187
 30
0.0
 40
35.0
  1
420
  0
POINT
  5
C4
  8
DEFPOINTS
  6
BYBLOCK
 62
     0
 10
3790.0
 20
472890.497571
 30
0.0
  0
POINT
  5
C5
  8
DEFPOINTS
  6
BYBLOCK
 62
     0
 10
4210.0
 20
472890.497571
 30
0.0
  0
POINT
  5
C6
  8
DEFPOINTS
  6
BYBLOCK
 62
     0
 10
4210.0
 20
472956.967187
 30
0.0
  0
ENDBLK
  5
C8
  8
0
  0
BLOCK
  8
0
  2
*D1
 70
     1
 10
0.0
 20
0.0
 30
0.0
  3
*D1
  1

  0
LINE
  5
4D
  8
0
  6
BYBLOCK
 62
     9
 10
3925.0
 20
472599.783522
 30
0.0
 11
3925.0
 21
472443.761843
 31
0.0
  0
LINE
  5
4E
  8
0
  6
BYBLOCK
 62
     9
 10
4075.0
 20
472600.0
 30
0.0
 11
4075.0
 21
472443.761843
 31
0.0
  0
LINE
  5
4F
  8
0
  6
BYBLOCK
 62
     9
 10
3945.0
 20
472444.761843
 30
0.0
 11
3960.0
 21
472444.761843
 31
0.0
  0
LINE
  5
50
  8
0
  6
BYBLOCK
 62
     9
 10
4055.0
 20
472444.761843
 30
0.0
 11
4040.0
 21
472444.761843
 31
0.0
  0
TEXT
  5
51
  8
0
  6
BYBLOCK
 62
    11
 10
3966.73622
 20
472427.261843
 30
0.0
 40
35.0
  1
150
  0
SOLID
  5
52
  8
0
  6
BYBLOCK
 62
     9
 10
3945.0
 20
472448.095176
 30
0.0
 11
3945.0
 21
472441.428509
 31
0.0
 12
3925.0
 22
472444.761843
 32
0.0
 13
3925.0
 23
472444.761843
 33
0.0
  0
SOLID
  5
53
  8
0
  6
BYBLOCK
 62
     9
 10
4055.0
 20
472448.095176
 30
0.0
 11
4055.0
 21
472441.428509
 31
0.0
 12
4075.0
 22
472444.761843
 32
0.0
 13
4075.0
 23
472444.761843
 33
0.0
  0
POINT
  5
54
  8
DEFPOINTS
  6
BYBLOCK
 62
     0
 10
3925.0
 20
472609.783522
 30
20.0
  0
POINT
  5
55
  8
DEFPOINTS
  6
BYBLOCK
 62
     0
 10
4075.0
 20
472610.0
 30
20.0
  0
POINT
  5
56
  8
DEFPOINTS
  6
BYBLOCK
 62
     0
 10
4075.0
 20
472444.761843
 30
30.0
  0
ENDBLK
  5
58
  8
0
  0
BLOCK
  8
0
  2
*D2
 70
     1
 10
0.0
 20
0.0
 30
0.0
  3
*D2
  1

  0
LINE
  5
3F
  8
0
  6
BYBLOCK
 62
     9
 10
4030.0
 20
472560.0
 30
0.0
 11
4420.38603
 21
472560.0
 31
0.0
  0
LINE
  5
40
  8
0
  6
BYBLOCK
 62
     9
 10
4010.0
 20
472000.0
 30
0.0
 11
4420.38603
 21
472000.0
 31
0.0
  0
LINE
  5
41
  8
0
  6
BYBLOCK
 62
     9
 10
4419.38603
 20
472540.0
 30
0.0
 11
4419.38603
 21
472326.51378
 31
0.0
  0
LINE
  5
42
  8
0
  6
BYBLOCK
 62
     9
 10
4419.38603
 20
472020.0
 30
0.0
 11
4419.38603
 21
472233.48622
 31
0.0
  0
SOLID
  5
43
  8
0
  6
BYBLOCK
 62
     9
 10
4416.052696
 20
472540.0
 30
0.0
 11
4422.719363
 21
472540.0
 31
0.0
 12
4419.38603
 22
472560.0
 32
0.0
 13
4419.38603
 23
472560.0
 33
0.0
  0
SOLID
  5
44
  8
0
  6
BYBLOCK
 62
     9
 10
4416.052696
 20
472020.0
 30
0.0
 11
4422.719363
 21
472020.0
 31
0.0
 12
4419.38603
 22
472000.0
 32
0.0
 13
4419.38603
 23
472000.0
 33
0.0
  0
TEXT
  5
45
  8
0
  6
BYBLOCK
 62
    11
 10
4436.88603
 20
472243.23622
 30
0.0
 40
35.0
  1
560
 50
90.0
  0
POINT
  5
46
  8
DEFPOINTS
  6
BYBLOCK
 62
     0
 10
4020.0
 20
472560.0
 30
10.0
  0
POINT
  5
47
  8
DEFPOINTS
  6
BYBLOCK
 62
     0
 10
4000.0
 20
472000.0
 30
10.0
  0
POINT
  5
48
  8
DEFPOINTS
  6
BYBLOCK
 62
     0
 10
4419.38603
 20
472000.0
 30
10.0
  0
ENDBLK
  5
4A
  8
0
  0
BLOCK
  8
0
  2
*D3
 70
     1
 10
0.0
 20
0.0
 30
0.0
  3
*D3
  1

  0
LINE
  5
31
  8
0
  6
BYBLOCK
 62
     9
 10
4010.0
 20
472900.0
 30
0.0
 11
4420.38603
 21
472900.0
 31
0.0
  0
LINE
  5
32
  8
0
  6
BYBLOCK
 62
     9
 10
4030.0
 20
472560.0
 30
0.0
 11
4420.38603
 21
472560.0
 31
0.0
  0
LINE
  5
33
  8
0
  6
BYBLOCK
 62
     9
 10
4419.38603
 20
472880.0
 30
0.0
 11
4419.38603
 21
472778.26378
 31
0.0
  0
LINE
  5
34
  8
0
  6
BYBLOCK
 62
     9
 10
4419.38603
 20
472580.0
 30
0.0
 11
4419.38603
 21
472681.73622
 31
0.0
  0
SOLID
  5
35
  8
0
  6
BYBLOCK
 62
     9
 10
4416.052696
 20
472880.0
 30
0.0
 11
4422.719363
 21
472880.0
 31
0.0
 12
4419.38603
 22
472900.0
 32
0.0
 13
4419.38603
 23
472900.0
 33
0.0
  0
SOLID
  5
36
  8
0
  6
BYBLOCK
 62
     9
 10
4416.052696
 20
472580.0
 30
0.0
 11
4422.719363
 21
472580.0
 31
0.0
 12
4419.38603
 22
472560.0
 32
0.0
 13
4419.38603
 23
472560.0
 33
0.0
  0
TEXT
  5
37
  8
0
  6
BYBLOCK
 62
    11
 10
4436.88603
 20
472691.48622
 30
0.0
 40
35.0
  1
340
 50
90.0
  0
POINT
  5
38
  8
DEFPOINTS
  6
BYBLOCK
 62
     0
 10
4000.0
 20
472900.0
 30
10.0
  0
POINT
  5
39
  8
DEFPOINTS
  6
BYBLOCK
 62
     0
 10
4020.0
 20
472560.0
 30
10.0
  0
POINT
  5
3A
  8
DEFPOINTS
  6
BYBLOCK
 62
     0
 10
4419.38603
 20
472560.0
 30
20.0
  0
ENDBLK
  5
3C
  8
0
  0
BLOCK
  8
0
  2
*D4
 70
     1
 10
0.0
 20
0.0
 30
0.0
  3
*D4
  1

  0
LINE
  5
AF
  8
0
  6
BYBLOCK
 62
     9
 10
4094.949874
 20
472610.0
 30
0.0
 11
4361.250234
 21
472610.0
 31
0.0
  0
LINE
  5
B0
  8
0
  6
BYBLOCK
 62
     9
 10
4010.0
 20
472900.0
 30
0.0
 11
4361.250234
 21
472900.0
 31
0.0
  0
LINE
  5
B1
  8
0
  6
BYBLOCK
 62
     9
 10
4360.250234
 20
472630.0
 30
0.0
 11
4360.250234
 21
472707.98068
 31
0.0
  0
LINE
  5
B2
  8
0
  6
BYBLOCK
 62
     9
 10
4360.250234
 20
472880.0
 30
0.0
 11
4360.250234
 21
472802.01932
 31
0.0
  0
SOLID
  5
B3
  8
0
  6
BYBLOCK
 62
     9
 10
4356.916901
 20
472630.0
 30
0.0
 11
4363.583567
 21
472630.0
 31
0.0
 12
4360.250234
 22
472610.0
 32
0.0
 13
4360.250234
 23
472610.0
 33
0.0
  0
SOLID
  5
B4
  8
0
  6
BYBLOCK
 62
     9
 10
4356.916901
 20
472880.0
 30
0.0
 11
4363.583567
 21
472880.0
 31
0.0
 12
4360.250234
 22
472900.0
 32
0.0
 13
4360.250234
 23
472900.0
 33
0.0
  0
TEXT
  5
B5
  8
0
  6
BYBLOCK
 62
    11
 10
4377.750234
 20
472718.619459
 30
0.0
 40
35.0
  1
290
 50
90.0
  0
POINT
  5
B6
  8
DEFPOINTS
  6
BYBLOCK
 62
     0
 10
4084.949874
 20
472610.0
 30
0.0
  0
POINT
  5
B7
  8
DEFPOINTS
  6
BYBLOCK
 62
     0
 10
4000.0
 20
472900.0
 30
0.0
  0
POINT
  5
B8
  8
DEFPOINTS
  6
BYBLOCK
 62
     0
 10
4360.250234
 20
472900.0
 30
0.0
  0
ENDBLK
  5
BA
  8
0
  0
BLOCK
  8
0
  2
*D5
 70
     1
 10
0.0
 20
0.0
 30
0.0
  3
*D5
  1

  0
LINE
  5
22
  8
0
  6
BYBLOCK
 62
     9
 10
4094.949874
 20
472610.0
 30
0.0
 11
4361.250234
 21
472610.0
 31
0.0
  0
LINE
  5
23
  8
0
  6
BYBLOCK
 62
     9
 10
4010.0
 20
472000.0
 30
0.0
 11
4361.250234
 21
472000.0
 31
0.0
  0
LINE
  5
24
  8
0
  6
BYBLOCK
 62
     9
 10
4360.250234
 20
472590.0
 30
0.0
 11
4360.250234
 21
472349.061024
 31
0.0
  0
LINE
  5
25
  8
0
  6
BYBLOCK
 62
     9
 10
4360.250234
 20
472020.0
 30
0.0
 11
4360.250234
 21
472260.938976
 31
0.0
  0
SOLID
  5
26
  8
0
  6
BYBLOCK
 62
     9
 10
4356.916901
 20
472590.0
 30
0.0
 11
4363.583567
 21
472590.0
 31
0.0
 12
4360.250234
 22
472610.0
 32
0.0
 13
4360.250234
 23
472610.0
 33
0.0
  0
SOLID
  5
27
  8
0
  6
BYBLOCK
 62
     9
 10
4356.916901
 20
472020.0
 30
0.0
 11
4363.583567
 21
472020.0
 31
0.0
 12
4360.250234
 22
472000.0
 32
0.0
 13
4360.250234
 23
472000.0
 33
0.0
  0
TEXT
  5
28
  8
0
  6
BYBLOCK
 62
    11
 10
4377.750234
 20
472272.783465
 30
0.0
 40
35.0
  1
610
 50
90.0
  0
POINT
  5
29
  8
DEFPOINTS
  6
BYBLOCK
 62
     0
 10
4084.949874
 20
472610.0
 30
0.0
  0
POINT
  5
2B
  8
DEFPOINTS
  6
BYBLOCK
 62
     0
 10
4000.0
 20
472000.0
 30
0.0
  0
POINT
  5
2C
  8
DEFPOINTS
  6
BYBLOCK
 62
     0
 10
4360.250234
 20
472000.0
 30
20.0
  0
ENDBLK
  5
2E
  8
0
  0
BLOCK
  8
0
  2
*D6
 70
     1
 10
0.0
 20
0.0
 30
0.0
  3
*D6
  1

  0
LINE
  5
A1
  8
0
  6
BYBLOCK
 62
     9
 10
4010.0
 20
472900.0
 30
0.0
 11
4473.861265
 21
472900.0
 31
0.0
  0
LINE
  5
A2
  8
0
  6
BYBLOCK
 62
     9
 10
4010.0
 20
472000.0
 30
0.0
 11
4473.861265
 21
472000.0
 31
0.0
  0
LINE
  5
A3
  8
0
  6
BYBLOCK
 62
     9
 10
4472.861265
 20
472880.0
 30
0.0
 11
4472.861265
 21
472497.238653
 31
0.0
  0
LINE
  5
A4
  8
0
  6
BYBLOCK
 62
     9
 10
4472.861265
 20
472020.0
 30
0.0
 11
4472.861265
 21
472402.761347
 31
0.0
  0
SOLID
  5
A5
  8
0
  6
BYBLOCK
 62
     9
 10
4469.527932
 20
472880.0
 30
0.0
 11
4476.194599
 21
472880.0
 31
0.0
 12
4472.861265
 22
472900.0
 32
0.0
 13
4472.861265
 23
472900.0
 33
0.0
  0
SOLID
  5
A6
  8
0
  6
BYBLOCK
 62
     9
 10
4469.527932
 20
472020.0
 30
0.0
 11
4476.194599
 21
472020.0
 31
0.0
 12
4472.861265
 22
472000.0
 32
0.0
 13
4472.861265
 23
472000.0
 33
0.0
  0
TEXT
  5
A7
  8
0
  6
BYBLOCK
 62
    11
 10
4490.361265
 20
472413.838793
 30
0.0
 40
35.0
  1
900
 50
90.0
  0
POINT
  5
A8
  8
DEFPOINTS
  6
BYBLOCK
 62
     0
 10
4000.0
 20
472900.0
 30
0.0
  0
POINT
  5
A9
  8
DEFPOINTS
  6
BYBLOCK
 62
     0
 10
4000.0
 20
472000.0
 30
0.0
  0
POINT
  5
AA
  8
DEFPOINTS
  6
BYBLOCK
 62
     0
 10
4472.861265
 20
472000.0
 30
10.0
  0
ENDBLK
  5
AC
  8
0
  0
BLOCK
  8
0
  2
*D7
 70
     1
 10
0.0
 20
0.0
 30
0.0
  3
*D7
  1

  0
LINE
  5
93
  8
0
  6
BYBLOCK
 62
     9
 10
4010.0
 20
472900.0
 30
0.0
 11
4302.792022
 21
472900.0
 31
0.0
  0
LINE
  5
94
  8
0
  6
BYBLOCK
 62
     9
 10
4046.240609
 20
472734.995599
 30
0.0
 11
4302.792022
 21
472734.995599
 31
0.0
  0
LINE
  5
95
  8
0
  6
BYBLOCK
 62
     9
 10
4301.792022
 20
472880.0
 30
0.0
 11
4301.792022
 21
472861.222673
 31
0.0
  0
LINE
  5
96
  8
0
  6
BYBLOCK
 62
     9
 10
4301.792022
 20
472754.995599
 30
0.0
 11
4301.792022
 21
472773.772926
 31
0.0
  0
SOLID
  5
97
  8
0
  6
BYBLOCK
 62
     9
 10
4298.458689
 20
472880.0
 30
0.0
 11
4305.125356
 21
472880.0
 31
0.0
 12
4301.792022
 22
472900.0
 32
0.0
 13
4301.792022
 23
472900.0
 33
0.0
  0
SOLID
  5
98
  8
0
  6
BYBLOCK
 62
     9
 10
4298.458689
 20
472754.995599
 30
0.0
 11
4305.125356
 21
472754.995599
 31
0.0
 12
4301.792022
 22
472734.995599
 32
0.0
 13
4301.792022
 23
472734.995599
 33
0.0
  0
TEXT
  5
99
  8
0
  6
BYBLOCK
 62
    11
 10
4319.292022
 20
472783.522926
 30
0.0
 40
35.0
  1
165
 50
90.0
  0
POINT
  5
9A
  8
DEFPOINTS
  6
BYBLOCK
 62
     0
 10
4000.0
 20
472900.0
 30
0.0
  0
POINT
  5
9B
  8
DEFPOINTS
  6
BYBLOCK
 62
     0
 10
4036.240609
 20
472734.995599
 30
0.0
  0
POINT
  5
9C
  8
DEFPOINTS
  6
BYBLOCK
 62
     0
 10
4301.792022
 20
472734.995599
 30
10.0
  0
ENDBLK
  5
9E
  8
0
  0
ENDSEC
  0
SECTION
  2
ENTITIES
  0
DIMENSION
  5
20
  8
TEAM-MAS
  2
*D5
 10
360.250234
 20
0.0
 30
20.0
 11
360.250234
 21
305.0
 31
0.0
 12
-4000.0
 22
-472000.0
 32
0.0
 13
84.949874
 23
610.0
 33
0.0
 14
0.0
 24
0.0
 34
0.0
 50
90.0
1001
ACAD
1000
DSTYLE
1002
{
1070
    40
1040
1.0
1002
}
  0
DIMENSION
  5
2F
  8
TEAM-MAS
  2
*D3
 10
419.38603
 20
560.0
 30
10.0
 11
419.38603
 21
730.0
 31
-10.0
 12
-4000.0
 22
-472000.0
 32
-10.0
 13
0.0
 23
900.0
 33
0.0
 14
20.0
 24
560.0
 34
0.0
 50
90.0
1001
ACAD
1000
DSTYLE
1002
{
1070
    40
1040
1.0
1002
}
  0
DIMENSION
  5
3D
  8
TEAM-MAS
  2
*D2
 10
419.38603
 20
0.0
 30
0.0
 11
419.38603
 21
280.0
 31
-10.0
 12
-4000.0
 22
-472000.0
 32
-10.0
 13
20.0
 23
560.0
 33
0.0
 14
0.0
 24
0.0
 34
0.0
 50
90.0
1001
ACAD
1000
DSTYLE
1002
{
1070
    40
1040
1.0
1002
}
  0
DIMENSION
  5
4B
  8
TEAM-MAS
  2
*D1
 10
75.0
 20
444.761843
 30
10.0
 11
0.0
 21
444.761843
 31
-20.0
 12
-4000.0
 22
-472000.0
 32
-20.0
 70
   128
 13
-75.0
 23
609.783522
 33
0.0
 14
75.0
 24
610.0
 34
0.0
1001
ACAD
1000
DSTYLE
1002
{
1070
    40
1040
1.0
1002
}
  0
LINE
  5
59
  8
TEAM-HIDE
 10
227.606343
 20
744.862947
 30
0.0
 11
114.284344
 21
744.862947
 31
0.0
1001
ACAD
1000
RTLwPs
1070
   128
  0
LINE
  5
5C
  8
TEAM-AXE
 10
84.949874
 20
610.0
 30
0.0
 11
65.050126
 21
610.0
 31
0.0
  0
CIRCLE
  5
5F
  8
TEAM-COLD
 10
75.0
 20
610.0
 30
0.0
 40
10.0
  0
LINE
  5
61
  8
TEAM-AXE
 10
75.0
 20
600.0
 30
0.0
 11
75.0
 21
620.0
 31
0.0
  0
CIRCLE
  5
62
  8
TEAM-INSP
 10
0.0
 20
0.0
 30
0.0
 40
10.0
  0
LINE
  5
64
  8
TEAM-AXE
 10
0.0
 20
739.767716
 30
0.0
 11
0.0
 21
900.0
 31
0.0
  0
LINE
  5
65
  8
TEAM-HIDE
 10
-27.738943
 20
759.27774
 30
0.0
 11
-27.738943
 21
734.995599
 31
0.0
1001
ACAD
1000
RTLwPs
1070
   128
  0
LINE
  5
66
  8
TEAM-BODY
 10
-36.240609
 20
744.85566
 30
0.0
 11
-36.240609
 21
734.995599
 31
0.0
1001
ACAD
1000
RTLwPs
1070
   128
  0
LINE
  5
68
  8
TEAM-BODY
 10
36.240609
 20
734.995599
 30
0.0
 11
-36.240609
 21
734.995599
 31
0.0
1001
ACAD
1000
RTLwPs
1070
   128
  0
LINE
  5
69
  8
TEAM-BODY
 10
36.240609
 20
744.85566
 30
0.0
 11
36.240609
 21
734.995599
 31
0.0
1001
ACAD
1000
RTLwPs
1070
   128
  0
LINE
  5
6A
  8
TEAM-HIDE
 10
-223.877186
 20
744.862947
 30
0.0
 11
-110.550128
 21
744.862947
 31
0.0
1001
ACAD
1000
RTLwPs
1070
   128
  0
LINE
  5
6B
  8
TEAM-HIDE
 10
0.0
 20
759.27774
 30
0.0
 11
-27.738943
 21
759.27774
 31
0.0
1001
ACAD
1000
RTLwPs
1070
   128
  0
LINE
  5
6C
  8
TEAM-HIDE
 10
-22.830464
 20
764.881877
 30
0.0
 11
0.0
 21
764.881877
 31
0.0
1001
ACAD
1000
RTLwPs
1070
   128
  0
LINE
  5
6D
  8
TEAM-HIDE
 10
-35.3904
 20
778.965764
 30
0.0
 11
0.0
 21
778.962909
 31
0.0
1001
ACAD
1000
RTLwPs
1070
   128
  0
ARC
  5
6E
  8
TEAM-HIDE
 10
-1.834922
 20
987.502584
 30
0.0
 40
211.21926
 50
205.276566
 51
260.858941
  0
ARC
  5
6F
  8
TEAM-HIDE
 10
-197.340379
 20
894.875798
 30
0.0
 40
5.126151
 50
28.407159
 51
88.420027
1001
ACAD
1000
RTLwPs
1070
   128
  0
LINE
  5
70
  8
0
  6
CONTINUOUS
 10
-42.070206
 20
899.560784
 30
0.0
 11
-42.070206
 21
899.560784
 31
0.0
1001
ACAD
1000
RTLwPs
1070
   128
  0
LINE
  5
71
  8
0
  6
CONTINUOUS
 10
45.799363
 20
899.560784
 30
0.0
 11
45.799363
 21
899.560784
 31
0.0
1001
ACAD
1000
RTLwPs
1070
   128
  0
ARC
  5
72
  8
TEAM-HIDE
 10
-54.293661
 20
755.062919
 30
0.0
 40
15.435057
 50
79.823677
 51
160.790402
  0
ARC
  5
73
  8
TEAM-HIDE
 10
-161.491074
 20
500.303262
 30
0.0
 40
291.474549
 50
62.685076
 51
67.843841
  0
ARC
  5
74
  8
TEAM-HIDE
 10
-83.384401
 20
778.180659
 30
0.0
 40
9.340746
 50
320.219776
 51
70.467167
1001
ACAD
1000
RTLwPs
1070
   128
  0
ARC
  5
75
  8
TEAM-HIDE
 10
17.500853
 20
1020.506281
 30
0.0
 40
253.160377
 50
222.740325
 51
247.283787
1001
ACAD
1000
RTLwPs
1070
   128
  0
ARC
  5
76
  8
TEAM-HIDE
 10
170.722422
 20
1063.619196
 30
0.0
 40
406.424811
 50
213.269705
 51
227.051586
1001
ACAD
1000
RTLwPs
1070
   128
  0
ARC
  5
77
  8
TEAM-HIDE
 10
-165.305093
 20
844.393903
 30
0.0
 40
5.313911
 50
126.013269
 51
224.605709
1001
GENIUS_GENOBJ-N-FIL_13
1002
{
1000
OWNER
1000
GEN
1002
}
1001
GENIUS_GENODEF_13
1002
{
1000
HIER
1070
     0
1002
}
1002
{
1000
MANEDIT
1070
     0
1002
}
1002
{
1000
NOSEL
1070
     0
1002
}
1002
{
1000
BEHIND
1070
     0
1002
}
1002
{
1000
OTHER
1070
     0
1002
}
1002
{
1000
REACTOR
1002
}
1001
ACAD
1000
RTLwPs
1070
   128
  0
ARC
  5
7A
  8
TEAM-HIDE
 10
-97.695511
 20
765.772518
 30
0.0
 40
17.874618
 50
283.9144
 51
354.636995
1001
ACAD
1000
RTLwPs
1070
   128
  0
LINE
  5
7B
  8
TEAM-HIDE
 10
-223.877186
 20
714.862947
 30
0.0
 11
-42.770892
 21
714.165779
 31
0.0
1001
ACAD
1000
RTLwPs
1070
   128
  0
LINE
  5
7C
  8
TEAM-HIDE
 10
-35.3904
 20
778.965764
 30
0.0
 11
-22.830464
 21
764.881877
 31
0.0
1001
ACAD
1000
RTLwPs
1070
   128
  0
LINE
  5
7D
  8
TEAM-HIDE
 10
-22.659739
 20
764.644288
 30
0.0
 11
-22.659739
 21
759.099063
 31
0.0
1001
ACAD
1000
RTLwPs
1070
   128
  0
LINE
  5
7E
  8
TEAM-HIDE
 10
-68.869314
 20
760.141436
 30
0.0
 11
-69.061683
 21
744.85566
 31
0.0
1001
ACAD
1000
RTLwPs
1070
   128
  0
ARC
  5
7F
  8
TEAM-HIDE
 10
-94.2592
 20
756.391367
 30
0.0
 40
8.015445
 50
200.332289
 51
276.173907
1001
ACAD
1000
RTLwPs
1070
   128
  0
ARC
  5
80
  8
TEAM-HIDE
 10
-115.115838
 20
755.942463
 30
0.0
 40
13.543618
 50
350.067217
 51
48.778079
1001
ACAD
1000
RTLwPs
1070
   128
  0
LINE
  5
81
  8
TEAM-HIDE
 10
-79.899139
 20
764.101858
 30
0.0
 11
-76.205997
 21
772.204034
 31
0.0
1001
ACAD
1000
RTLwPs
1070
   128
  0
LINE
  5
82
  8
TEAM-AXE
 10
0.0
 20
794.450347
 30
0.0
 11
0.0
 21
719.59579
 31
0.0
  0
LINE
  5
83
  8
TEAM-AXE
 10
-65.050126
 20
609.783522
 30
0.0
 11
-84.949874
 21
609.783522
 31
0.0
  0
CIRCLE
  5
84
  8
TEAM-WARM
 10
-75.0
 20
609.783522
 30
0.0
 40
10.0
  0
LINE
  5
86
  8
TEAM-AXE
 10
-75.0
 20
599.783522
 30
0.0
 11
-75.0
 21
619.783522
 31
0.0
  0
CIRCLE
  5
87
  8
TEAM-KAN
 10
0.0
 20
560.0
 30
0.0
 40
20.0
  0
LINE
  5
89
  8
TEAM-AXE
 10
20.0
 20
560.0
 30
0.0
 11
-20.0
 21
560.0
 31
0.0
  0
LINE
  5
8A
  8
TEAM-AXE
 10
0.0
 20
540.0
 30
0.0
 11
0.0
 21
580.0
 31
0.0
  0
TEXT
  5
8B
  8
TEAM-TXT
 10
-103.745354
 20
837.769123
 30
0.0
 40
30.0
  1
team 234058
 41
0.8
 51
15.0
  7
TEAM
  0
LINE
  5
8E
  8
TEAM-BODY
 10
-114.428061
 20
755.594829
 30
0.0
 11
114.370756
 21
755.180754
 31
0.0
1001
ACAD
1000
RTLwPs
1070
   128
  0
POLYLINE
  5
8F
  8
TEAM-BODY
 66
     1
 10
0.0
 20
0.0
 30
0.0
 70
     1
  0
VERTEX
  5
175
  8
TEAM-BODY
 10
210.0
 20
890.497571
 30
0.0
 42
0.455752
  0
VERTEX
  5
176
  8
TEAM-BODY
 10
201.750854
 20
900.0
 30
0.0
  0
VERTEX
  5
177
  8
TEAM-BODY
 10
-201.750854
 20
900.0
 30
0.0
 42
0.455752
  0
VERTEX
  5
178
  8
TEAM-BODY
 10
-210.0
 20
890.497571
 30
0.0
 42
0.099301
  0
VERTEX
  5
179
  8
TEAM-BODY
 10
-118.508242
 20
761.851053
 30
0.0
 42
-0.252932
  0
VERTEX
  5
17A
  8
TEAM-BODY
 10
-114.289404
 20
753.91659
 30
0.0
  0
VERTEX
  5
17B
  8
TEAM-BODY
 10
-114.279284
 20
744.862947
 30
0.0
  0
VERTEX
  5
17C
  8
TEAM-BODY
 10
114.284344
 20
744.862947
 30
0.0
  0
VERTEX
  5
17D
  8
TEAM-BODY
 10
114.294464
 20
753.91659
 30
0.0
 42
-0.252932
  0
VERTEX
  5
17E
  8
TEAM-BODY
 10
118.513302
 20
761.851053
 30
0.0
 42
0.099257
  0
SEQEND
  5
17F
  8
TEAM-BODY
  0
LINE
  5
90
  8
TEAM-HIDE
 10
227.606343
 20
714.862947
 30
0.0
 11
40.812324
 21
716.064465
 31
0.0
1001
ACAD
1000
RTLwPs
1070
   128
  0
DIMENSION
  5
91
  8
TEAM-MAS
  2
*D7
 10
301.792022
 20
734.995599
 30
10.0
 11
301.792022
 21
817.4978
 31
0.0
 12
-4000.0
 22
-472000.0
 32
0.0
 13
0.0
 23
900.0
 33
0.0
 14
36.240609
 24
734.995599
 34
0.0
 50
90.0
1001
ACAD
1000
DSTYLE
1002
{
1070
    40
1040
1.0
1002
}
  0
DIMENSION
  5
9F
  8
TEAM-MAS
  2
*D6
 10
472.861265
 20
0.0
 30
10.0
 11
472.861265
 21
450.0
 31
0.0
 12
-4000.0
 22
-472000.0
 32
0.0
 13
0.0
 23
900.0
 33
0.0
 14
0.0
 24
0.0
 34
0.0
 50
90.0
1001
ACAD
1000
DSTYLE
1002
{
1070
    40
1040
1.0
1002
}
  0
DIMENSION
  5
AD
  8
TEAM-MAS
  2
*D4
 10
360.250234
 20
900.0
 30
0.0
 11
360.250234
 21
755.0
 31
0.0
 12
-4000.0
 22
-472000.0
 32
0.0
 13
84.949874
 23
610.0
 33
0.0
 14
0.0
 24
900.0
 34
0.0
 50
90.0
1001
ACAD
1000
DSTYLE
1002
{
1070
    40
1040
1.0
1002
}
  0
DIMENSION
  5
BB
  8
TEAM-MAS
  2
*D0
 10
210.0
 20
956.967187
 30
0.0
 11
0.0
 21
956.967187
 31
0.0
 12
-4000.0
 22
-472000.0
 32
0.0
 13
-210.0
 23
890.497571
 33
0.0
 14
210.0
 24
890.497571
 34
0.0
1001
ACAD
1000
DSTYLE
1002
{
1070
    40
1040
1.0
1002
}
  0
ENDSEC
  0
EOF
