  0
SECTION
  2
HEADER
  9
$ACADVER
  1
AC1009
  9
$INSBASE
 10
0.0
 20
0.0
 30
0.0
  9
$EXTMIN
 10
-58.95927
 20
-10.014924
 30
0.0
  9
$EXTMAX
 10
632.557141
 20
451.316826
 30
0.000005
  9
$LIMMIN
 10
-58.95927
 20
-10.014924
  9
$LIMMAX
 10
632.557141
 20
451.316826
  9
$ORTHOMODE
 70
     1
  9
$REGENMODE
 70
     1
  9
$FILLMODE
 70
     1
  9
$QTEXTMODE
 70
     0
  9
$MIRRTEXT
 70
     0
  9
$DRAGMODE
 70
     2
  9
$LTSCALE
 40
50.0
  9
$OSMODE
 70
     0
  9
$ATTMODE
 70
     1
  9
$TEXTSIZE
 40
200.0
  9
$TRACEWID
 40
1.0
  9
$TEXTSTYLE
  7
STANDARD
  9
$CLAYER
  8
TEAM-MAS
  9
$CELTYPE
  6
BYLAYER
  9
$CECOLOR
 62
   256
  9
$DIMSCALE
 40
0.0
  9
$DIMASZ
 40
20.0
  9
$DIMEXO
 40
10.0
  9
$DIMDLI
 40
1.0
  9
$DIMRND
 40
0.0
  9
$DIMDLE
 40
0.0
  9
$DIMEXE
 40
1.0
  9
$DIMTP
 40
0.0
  9
$DIMTM
 40
0.0
  9
$DIMTXT
 40
35.0
  9
$DIMCEN
 40
1.0
  9
$DIMTSZ
 40
0.0
  9
$DIMTOL
 70
     0
  9
$DIMLIM
 70
     0
  9
$DIMTIH
 70
     0
  9
$DIMTOH
 70
     0
  9
$DIMSE1
 70
     0
  9
$DIMSE2
 70
     0
  9
$DIMTAD
 70
     0
  9
$DIMZIN
 70
     0
  9
$DIMBLK
  1

  9
$DIMASO
 70
     1
  9
$DIMSHO
 70
     0
  9
$DIMPOST
  1

  9
$DIMAPOST
  1

  9
$DIMALT
 70
     0
  9
$DIMALTD
 70
     2
  9
$DIMALTF
 40
25.4
  9
$DIMLFAC
 40
1.0
  9
$DIMTOFL
 70
     0
  9
$DIMTVP
 40
0.0
  9
$DIMTIX
 70
     0
  9
$DIMSOXD
 70
     0
  9
$DIMSAH
 70
     0
  9
$DIMBLK1
  1

  9
$DIMBLK2
  1

  9
$DIMSTYLE
  2
TEAM
  9
$DIMCLRD
 70
     9
  9
$DIMCLRE
 70
     9
  9
$DIMCLRT
 70
    11
  9
$DIMTFAC
 40
1.0
  9
$DIMGAP
 40
7.0
  9
$LUNITS
 70
     2
  9
$LUPREC
 70
     1
  9
$SKETCHINC
 40
1.0
  9
$FILLETRAD
 40
10.0
  9
$AUNITS
 70
     0
  9
$AUPREC
 70
     0
  9
$MENU
  1
ROPLANS
  9
$ELEVATION
 40
0.0
  9
$PELEVATION
 40
0.0
  9
$THICKNESS
 40
0.0
  9
$LIMCHECK
 70
     0
  9
$BLIPMODE
 70
     1
  9
$CHAMFERA
 40
0.0
  9
$CHAMFERB
 40
0.0
  9
$SKPOLY
 70
     0
  9
$TDCREATE
 40
2450392.957851
  9
$TDUPDATE
 40
2456108.504222
  9
$TDINDWG
 40
4.193894
  9
$TDUSRTIMER
 40
4.193894
  9
$USRTIMER
 70
     1
  9
$ANGBASE
 50
0.0
  9
$ANGDIR
 70
     0
  9
$PDMODE
 70
     0
  9
$PDSIZE
 40
0.0
  9
$PLINEWID
 40
0.0
  9
$COORDS
 70
     2
  9
$SPLFRAME
 70
     0
  9
$SPLINETYPE
 70
     6
  9
$SPLINESEGS
 70
     8
  9
$ATTDIA
 70
     0
  9
$ATTREQ
 70
     0
  9
$HANDLING
 70
     1
  9
$HANDSEED
  5
F6
  9
$SURFTAB1
 70
    36
  9
$SURFTAB2
 70
    36
  9
$SURFTYPE
 70
     6
  9
$SURFU
 70
     6
  9
$SURFV
 70
     6
  9
$UCSNAME
  2

  9
$UCSORG
 10
0.0
 20
0.0
 30
0.0
  9
$UCSXDIR
 10
1.0
 20
0.0
 30
0.0
  9
$UCSYDIR
 10
0.0
 20
1.0
 30
0.0
  9
$PUCSNAME
  2

  9
$PUCSORG
 10
0.0
 20
0.0
 30
0.0
  9
$PUCSXDIR
 10
1.0
 20
0.0
 30
0.0
  9
$PUCSYDIR
 10
0.0
 20
1.0
 30
0.0
  9
$USERI1
 70
     0
  9
$USERI2
 70
     0
  9
$USERI3
 70
     0
  9
$USERI4
 70
     0
  9
$USERI5
 70
     0
  9
$USERR1
 40
0.0
  9
$USERR2
 40
0.0
  9
$USERR3
 40
0.0
  9
$USERR4
 40
0.0
  9
$USERR5
 40
0.0
  9
$WORLDVIEW
 70
     1
  9
$SHADEDGE
 70
     0
  9
$SHADEDIF
 70
    70
  9
$TILEMODE
 70
     1
  9
$MAXACTVP
 70
    16
  9
$PLIMCHECK
 70
     0
  9
$PEXTMIN
 10
-0.805942
 20
0.005011
 30
0.0
  9
$PEXTMAX
 10
20.250094
 20
11.356329
 30
0.0
  9
$PLIMMIN
 10
0.0
 20
0.0
  9
$PLIMMAX
 10
12.0
 20
9.0
  9
$UNITMODE
 70
     0
  9
$VISRETAIN
 70
     0
  9
$PLINEGEN
 70
     0
  9
$PSLTSCALE
 70
     0
  0
ENDSEC
  0
SECTION
  2
TABLES
  0
TABLE
  2
VPORT
 70
     2
  0
VPORT
  2
*ACTIVE
 70
     0
 10
0.0
 20
0.0
 11
1.0
 21
1.0
 12
286.798935
 22
220.650951
 13
0.0
 23
0.0
 14
1.0
 24
1.0
 15
50.0
 25
50.0
 16
0.0
 26
0.0
 36
1.0
 17
0.0
 27
0.0
 37
0.0
 40
464.236252
 41
1.911765
 42
50.0
 43
0.0
 44
0.0
 50
0.0
 51
0.0
 71
     0
 72
   100
 73
     1
 74
     1
 75
     0
 76
     0
 77
     0
 78
     0
  0
ENDTAB
  0
TABLE
  2
LTYPE
 70
     3
  0
LTYPE
  2
CONTINUOUS
 70
     0
  3
Solid Line
 72
    65
 73
     0
 40
0.0
  0
LTYPE
  2
31
 70
     0
  3

 72
    65
 73
     4
 40
2.1
 49
1.5
 49
-0.3
 49
0.0
 49
-0.3
  0
LTYPE
  2
22
 70
     0
  3

 72
    65
 73
     2
 40
1.4
 49
1.2
 49
-0.2
  0
ENDTAB
  0
TABLE
  2
LAYER
 70
     9
  0
LAYER
  2
0
 70
     0
 62
     7
  6
CONTINUOUS
  0
LAYER
  2
DEFPOINTS
 70
     0
 62
     7
  6
CONTINUOUS
  0
LAYER
  2
TEAM-BODY
 70
     0
 62
     2
  6
CONTINUOUS
  0
LAYER
  2
TEAM-AXE
 70
     0
 62
    10
  6
31
  0
LAYER
  2
TEAM-MAS
 70
     0
 62
     9
  6
CONTINUOUS
  0
LAYER
  2
TEAM-TXT
 70
     0
 62
    11
  6
CONTINUOUS
  0
LAYER
  2
TEAM-DET1
 70
     0
 62
     4
  6
CONTINUOUS
  0
LAYER
  2
TEAM-HIDE
 70
     0
 62
     8
  6
22
  0
LAYER
  2
TEAM-INSP
 70
     0
 62
     5
  6
CONTINUOUS
  0
ENDTAB
  0
TABLE
  2
STYLE
 70
     2
  0
STYLE
  2
STANDARD
 70
     0
 40
0.0
 41
1.0
 50
0.0
 71
     0
 42
200.0
  3
txt
  4

  0
STYLE
  2
TEAM
 70
     0
 40
0.0
 41
0.8
 50
15.0
 71
     0
 42
7.0
  3
ROMANS.shx
  4

  0
ENDTAB
  0
TABLE
  2
VIEW
 70
     0
  0
ENDTAB
  0
TABLE
  2
UCS
 70
     0
  0
ENDTAB
  0
TABLE
  2
APPID
 70
     1
  0
APPID
  2
ACAD
 70
     0
  0
ENDTAB
  0
TABLE
  2
DIMSTYLE
 70
     1
  0
DIMSTYLE
  2
TEAM
 70
     0
  3

  4

  5

  6

  7

 40
0.0
 41
20.0
 42
10.0
 43
1.0
 44
1.0
 45
0.0
 46
0.0
 47
0.0
 48
0.0
140
35.0
141
1.0
142
0.0
143
25.4
144
1.0
145
0.0
146
1.0
147
7.0
 71
     0
 72
     0
 73
     0
 74
     0
 75
     0
 76
     0
 77
     0
 78
     0
170
     0
171
     2
172
     0
173
     0
174
     0
175
     0
176
     9
177
     9
178
    11
  0
ENDTAB
  0
ENDSEC
  0
SECTION
  2
BLOCKS
  0
BLOCK
  8
0
  2
$MODEL_SPACE
 70
     0
 10
0.0
 20
0.0
 30
0.0
  3
$MODEL_SPACE
  1

  0
ENDBLK
  5
DC
  8
0
  0
BLOCK
 67
     1
  8
0
  2
$PAPER_SPACE
 70
     0
 10
0.0
 20
0.0
 30
0.0
  3
$PAPER_SPACE
  1

  0
ENDBLK
  5
DA
 67
     1
  8
0
  0
BLOCK
  8
0
  2
*D0
 70
     1
 10
0.0
 20
0.0
 30
0.0
  3
*D0
  1

  0
LINE
  5
3C
  8
0
  6
BYBLOCK
 62
     9
 10
8000.0
 20
48010.0
 30
0.0
 11
8000.0
 21
48434.808382
 31
0.0
  0
LINE
  5
3D
  8
0
  6
BYBLOCK
 62
     9
 10
8580.0
 20
48392.65
 30
0.0
 11
8580.0
 21
48434.808382
 31
0.0
  0
LINE
  5
3E
  8
0
  6
BYBLOCK
 62
     9
 10
8020.0
 20
48433.808382
 30
0.0
 11
8239.25
 21
48433.808382
 31
0.0
  0
LINE
  5
3F
  8
0
  6
BYBLOCK
 62
     9
 10
8560.0
 20
48433.808382
 30
0.0
 11
8340.75
 21
48433.808382
 31
0.0
  0
SOLID
  5
40
  8
0
  6
BYBLOCK
 62
     9
 10
8020.0
 20
48437.141715
 30
0.0
 11
8020.0
 21
48430.475049
 31
0.0
 12
8000.0
 22
48433.808382
 32
0.0
 13
8000.0
 23
48433.808382
 33
0.0
  0
SOLID
  5
41
  8
0
  6
BYBLOCK
 62
     9
 10
8560.0
 20
48437.141715
 30
0.0
 11
8560.0
 21
48430.475049
 31
0.0
 12
8580.0
 22
48433.808382
 32
0.0
 13
8580.0
 23
48433.808382
 33
0.0
  0
TEXT
  5
42
  8
0
  6
BYBLOCK
 62
    11
 10
8246.25
 20
48416.308382
 30
0.0
 40
35.0
  1
580
  0
POINT
  5
43
  8
DEFPOINTS
  6
BYBLOCK
 62
     0
 10
8000.0
 20
48000.0
 30
0.0
  0
POINT
  5
44
  8
DEFPOINTS
  6
BYBLOCK
 62
     0
 10
8580.0
 20
48382.65
 30
0.0
  0
POINT
  5
45
  8
DEFPOINTS
  6
BYBLOCK
 62
     0
 10
8580.0
 20
48433.808382
 30
0.0
  0
ENDBLK
  5
47
  8
0
  0
BLOCK
  8
0
  2
*D1
 70
     1
 10
0.0
 20
0.0
 30
0.0
  3
*D1
  1

  0
LINE
  5
4A
  8
0
  6
BYBLOCK
 62
     9
 10
8010.0
 20
48000.0
 30
0.0
 11
8616.05553
 21
48000.0
 31
0.0
  0
LINE
  5
4B
  8
0
  6
BYBLOCK
 62
     9
 10
8585.0
 20
48400.0
 30
0.0
 11
8616.05553
 21
48400.0
 31
0.0
  0
LINE
  5
4C
  8
0
  6
BYBLOCK
 62
     9
 10
8615.05553
 20
48020.0
 30
0.0
 11
8615.05553
 21
48152.166667
 31
0.0
  0
LINE
  5
4D
  8
0
  6
BYBLOCK
 62
     9
 10
8615.05553
 20
48380.0
 30
0.0
 11
8615.05553
 21
48247.833333
 31
0.0
  0
SOLID
  5
4E
  8
0
  6
BYBLOCK
 62
     9
 10
8611.722197
 20
48020.0
 30
0.0
 11
8618.388863
 21
48020.0
 31
0.0
 12
8615.05553
 22
48000.0
 32
0.0
 13
8615.05553
 23
48000.0
 33
0.0
  0
SOLID
  5
4F
  8
0
  6
BYBLOCK
 62
     9
 10
8611.722197
 20
48380.0
 30
0.0
 11
8618.388863
 21
48380.0
 31
0.0
 12
8615.05553
 22
48400.0
 32
0.0
 13
8615.05553
 23
48400.0
 33
0.0
  0
TEXT
  5
50
  8
0
  6
BYBLOCK
 62
    11
 10
8632.55553
 20
48159.166667
 30
0.0
 40
35.0
  1
400
 50
90.0
  0
POINT
  5
51
  8
DEFPOINTS
  6
BYBLOCK
 62
     0
 10
8000.0
 20
48000.0
 30
0.0
  0
POINT
  5
52
  8
DEFPOINTS
  6
BYBLOCK
 62
     0
 10
8575.0
 20
48400.0
 30
0.0
  0
POINT
  5
53
  8
DEFPOINTS
  6
BYBLOCK
 62
     0
 10
8615.05553
 20
48400.0
 30
0.0
  0
ENDBLK
  5
55
  8
0
  0
BLOCK
  8
0
  2
*D2
 70
     1
 10
0.0
 20
0.0
 30
0.0
  3
*D2
  1

  0
LINE
  5
2D
  8
0
  6
BYBLOCK
 62
     9
 10
7990.0
 20
48000.0
 30
0.0
 11
7957.560214
 21
48000.0
 31
0.0
  0
LINE
  5
2E
  8
0
  6
BYBLOCK
 62
     9
 10
7990.461289
 20
48229.995413
 30
0.0
 11
7957.560214
 21
48229.995413
 31
0.0
  0
LINE
  5
2F
  8
0
  6
BYBLOCK
 62
     9
 10
7958.560214
 20
48020.0
 30
0.0
 11
7958.560214
 21
48064.247706
 31
0.0
  0
LINE
  5
30
  8
0
  6
BYBLOCK
 62
     9
 10
7958.560214
 20
48209.995413
 30
0.0
 11
7958.560214
 21
48165.747706
 31
0.0
  0
SOLID
  5
31
  8
0
  6
BYBLOCK
 62
     9
 10
7955.226881
 20
48020.0
 30
0.0
 11
7961.893548
 21
48020.0
 31
0.0
 12
7958.560214
 22
48000.0
 32
0.0
 13
7958.560214
 23
48000.0
 33
0.0
  0
SOLID
  5
32
  8
0
  6
BYBLOCK
 62
     9
 10
7955.226881
 20
48209.995413
 30
0.0
 11
7961.893548
 21
48209.995413
 31
0.0
 12
7958.560214
 22
48229.995413
 32
0.0
 13
7958.560214
 23
48229.995413
 33
0.0
  0
TEXT
  5
33
  8
0
  6
BYBLOCK
 62
    11
 10
7976.060214
 20
48071.247706
 30
0.0
 40
35.0
  1
230
 50
90.0
  0
POINT
  5
34
  8
DEFPOINTS
  6
BYBLOCK
 62
     0
 10
8000.0
 20
48000.0
 30
0.0
  0
POINT
  5
36
  8
DEFPOINTS
  6
BYBLOCK
 62
     0
 10
8000.461289
 20
48229.995413
 30
0.0
  0
POINT
  5
37
  8
DEFPOINTS
  6
BYBLOCK
 62
     0
 10
7958.560214
 20
48229.995413
 30
0.0
  0
ENDBLK
  5
39
  8
0
  0
ENDSEC
  0
SECTION
  2
ENTITIES
  0
LINE
  5
20
  8
TEAM-HIDE
 10
29.145177
 20
281.0
 30
0.0
 11
29.145177
 21
179.0
 31
0.0
  0
ARC
  5
23
  8
TEAM-HIDE
 10
684.444028
 20
72.356651
 30
0.0
 40
338.432101
 50
154.27358
 51
162.335742
  0
ARC
  5
24
  8
TEAM-HIDE
 10
-22.489905
 20
100.360249
 30
0.0
 40
289.944286
 50
10.456001
 51
33.228536
  0
LINE
  5
25
  8
TEAM-HIDE
 10
126.001286
 20
196.160354
 30
0.0
 11
101.108043
 21
188.005087
 31
0.0
  0
ARC
  5
26
  8
TEAM-HIDE
 10
134.317232
 20
168.768111
 30
0.0
 40
28.626735
 50
27.392735
 51
106.887642
  0
LINE
  5
27
  8
TEAM-BODY
 10
389.178959
 20
104.757858
 30
0.0
 11
389.178959
 21
236.812576
 31
0.0
  0
LINE
  5
29
  8
TEAM-BODY
 10
99.962668
 20
236.812576
 30
0.0
 11
99.962668
 21
104.757858
 31
0.0
  0
POLYLINE
  5
2A
  8
TEAM-BODY
 66
     1
 10
0.0
 20
0.0
 30
0.0
 70
     1
  0
VERTEX
  5
E2
  8
TEAM-BODY
 10
0.0
 20
410.0
 30
0.0
  0
VERTEX
  5
E3
  8
TEAM-BODY
 10
23.0
 20
410.0
 30
0.0
 42
-0.414214
  0
VERTEX
  5
E4
  8
TEAM-BODY
 10
25.0
 20
408.0
 30
0.0
  0
VERTEX
  5
E5
  8
TEAM-BODY
 10
25.0
 20
402.0
 30
0.0
 42
0.414214
  0
VERTEX
  5
E6
  8
TEAM-BODY
 10
27.0
 20
400.0
 30
0.0
  0
VERTEX
  5
E7
  8
TEAM-BODY
 10
93.422873
 20
400.0
 30
0.0
  0
VERTEX
  5
E8
  8
TEAM-BODY
 10
575.0
 20
400.0
 30
0.0
 42
-0.414214
  0
VERTEX
  5
E9
  8
TEAM-BODY
 10
580.0
 20
395.0
 30
0.0
  0
VERTEX
  5
EA
  8
TEAM-BODY
 10
580.0
 20
370.3
 30
0.0
 42
-0.414214
  0
VERTEX
  5
EB
  8
TEAM-BODY
 10
573.0
 20
363.3
 30
0.0
  0
VERTEX
  5
EC
  8
TEAM-BODY
 10
570.025401
 20
363.3
 30
0.0
 42
0.317821
  0
VERTEX
  5
ED
  8
TEAM-BODY
 10
563.425872
 20
358.633711
 30
0.0
 42
-0.257919
  0
VERTEX
  5
EE
  8
TEAM-BODY
 10
440.934214
 20
249.878653
 30
0.0
 42
0.350805
  0
VERTEX
  5
EF
  8
TEAM-BODY
 10
435.470215
 20
243.049253
 30
0.0
  0
VERTEX
  5
F0
  8
TEAM-BODY
 10
435.470215
 20
101.7
 30
0.0
  0
VERTEX
  5
F1
  8
TEAM-BODY
 10
420.554738
 20
67.977498
 30
0.0
 42
-0.296879
  0
VERTEX
  5
F2
  8
TEAM-BODY
 10
415.982049
 20
65.0
 30
0.0
  0
VERTEX
  5
F3
  8
TEAM-BODY
 10
0.0
 20
65.0
 30
0.0
  0
SEQEND
  5
F4
  8
TEAM-BODY
  0
DIMENSION
  5
2B
  8
TEAM-MAS
  2
*D2
 10
-41.439786
 20
229.995413
 30
0.0
 11
-41.439786
 21
114.997706
 31
0.0
 12
-8000.0
 22
-48000.0
 32
0.0
 13
0.0
 23
0.0
 33
0.0
 14
0.461289
 24
229.995413
 34
0.0
 50
90.0
1001
ACAD
1000
DSTYLE
1002
{
1070
    40
1040
1.0
1002
}
  0
DIMENSION
  5
3A
  8
TEAM-MAS
  2
*D0
 10
580.0
 20
433.808382
 30
0.0
 11
290.0
 21
433.808382
 31
0.0
 12
-8000.0
 22
-48000.0
 32
0.0
 13
0.0
 23
0.0
 33
0.0
 14
580.0
 24
382.65
 34
0.0
1001
ACAD
1000
DSTYLE
1002
{
1070
    40
1040
1.0
1002
}
  0
DIMENSION
  5
48
  8
TEAM-MAS
  2
*D1
 10
615.05553
 20
400.0
 30
0.0
 11
615.05553
 21
200.0
 31
0.0
 12
-8000.0
 22
-48000.0
 32
0.0
 13
0.0
 23
0.0
 33
0.0
 14
575.0
 24
400.0
 34
0.0
 50
90.0
1001
ACAD
1000
DSTYLE
1002
{
1070
    40
1040
1.0
1002
}
  0
LINE
  5
56
  8
TEAM-BODY
 10
-0.003984
 20
50.003509
 30
0.0
 11
-0.003984
 21
50.003509
 31
0.0
  0
LINE
  5
57
  8
TEAM-BODY
 10
-0.003984
 20
50.003509
 30
0.0
 11
-0.003984
 21
50.003509
 31
0.0
  0
CIRCLE
  5
58
  8
TEAM-INSP
 10
0.0
 20
0.0
 30
0.0
 40
10.0
  0
LINE
  5
5A
  8
TEAM-HIDE
 10
361.968678
 20
175.050056
 30
0.0
 11
336.405934
 21
108.587654
 31
0.0
  0
LINE
  5
5B
  8
TEAM-HIDE
 10
81.51712
 20
133.982151
 30
0.0
 11
0.0
 21
115.678711
 31
0.0
  0
LINE
  5
5C
  8
TEAM-HIDE
 10
18.408482
 20
119.812058
 30
0.0
 11
18.408482
 21
101.7
 31
0.0
  0
LINE
  5
5D
  8
TEAM-HIDE
 10
87.726074
 20
177.551762
 30
0.0
 11
29.145177
 21
179.0
 31
0.0
  0
ARC
  5
5E
  8
TEAM-HIDE
 10
282.362511
 20
133.882061
 30
0.0
 40
59.669913
 50
308.577333
 51
334.918593
  0
LINE
  5
5F
  8
TEAM-HIDE
 10
82.826207
 20
162.780769
 30
0.0
 11
80.049683
 21
101.7
 31
0.0
  0
ARC
  5
60
  8
TEAM-HIDE
 10
264.215762
 20
159.780835
 30
0.0
 40
91.236997
 50
232.748398
 51
307.787561
  0
ARC
  5
61
  8
TEAM-HIDE
 10
517.302158
 20
303.60121
 30
0.0
 40
377.699075
 50
198.790842
 51
214.096888
  0
ARC
  5
62
  8
TEAM-HIDE
 10
110.911909
 20
161.662311
 30
0.0
 40
28.107964
 50
110.413518
 51
177.719513
  0
ARC
  5
63
  8
TEAM-HIDE
 10
221.094851
 20
103.077248
 30
0.0
 40
20.0
 50
214.096888
 51
232.748398
  0
LINE
  5
64
  8
TEAM-BODY
 10
389.178959
 20
98.181205
 30
0.0
 11
373.70631
 21
65.0
 31
0.0
  0
LINE
  5
65
  8
TEAM-BODY
 10
99.962668
 20
96.555104
 30
0.0
 11
99.962668
 21
65.0
 31
0.0
  0
LINE
  5
66
  8
TEAM-BODY
 10
435.470215
 20
101.7
 30
0.0
 11
0.0
 21
101.7
 31
0.0
  0
LINE
  5
67
  8
TEAM-BODY
 10
0.0
 20
363.3
 30
0.0
 11
573.0
 21
363.3
 31
0.0
  0
LINE
  5
68
  8
TEAM-BODY
 10
500.129134
 20
400.0
 30
0.0
 11
500.129134
 21
363.3
 31
0.0
  0
TEXT
  5
69
  8
TEAM-TXT
 10
176.748127
 20
306.175034
 30
0.0
 40
30.0
  1
team 342021
 41
0.8
 51
15.0
  7
TEAM
  0
LINE
  5
6C
  8
TEAM-AXE
 10
86.32642
 20
230.0
 30
0.0
 11
15.065312
 21
230.0
 31
0.0
  0
LINE
  5
6F
  8
TEAM-HIDE
 10
143.101712
 20
325.661804
 30
0.0
 11
61.353734
 21
330.470581
 31
0.0
  0
LINE
  5
70
  8
TEAM-HIDE
 10
21.897862
 20
330.470581
 30
0.0
 11
21.897862
 21
399.529419
 31
0.0
  0
LINE
  5
71
  8
TEAM-HIDE
 10
62.055943
 20
330.429274
 30
0.0
 11
62.055943
 21
399.529419
 31
0.0
  0
LINE
  5
72
  8
TEAM-HIDE
 10
61.631993
 20
330.470581
 30
0.0
 11
21.897862
 21
330.470581
 31
0.0
  0
LINE
  5
73
  8
TEAM-AXE
 10
65.159733
 20
365.0
 30
0.0
 11
17.887517
 21
365.0
 31
0.0
  0
LINE
  5
74
  8
TEAM-HIDE
 10
51.928589
 20
399.529419
 30
0.0
 11
51.928589
 21
330.470581
 31
0.0
  0
ARC
  5
75
  8
TEAM-HIDE
 10
437.893551
 20
173.723376
 30
0.0
 40
74.62526
 50
98.222986
 51
137.567889
  0
ARC
  5
76
  8
TEAM-HIDE
 10
397.575886
 20
210.57992
 30
0.0
 40
20.0
 50
137.567889
 51
154.27358
  0
LINE
  5
77
  8
TEAM-BODY
 10
69.748756
 20
368.522361
 30
0.0
 11
69.748756
 21
400.0
 31
0.0
  0
LINE
  5
78
  8
TEAM-HIDE
 10
62.055943
 20
392.5
 30
0.0
 11
21.897862
 21
392.5
 31
0.0
  0
LINE
  5
79
  8
TEAM-HIDE
 10
62.055943
 20
337.5
 30
0.0
 11
21.897862
 21
337.5
 31
0.0
  0
LINE
  5
7A
  8
TEAM-HIDE
 10
29.145177
 20
281.0
 30
0.0
 11
175.017795
 21
289.2856
 31
0.0
  0
LINE
  5
7B
  8
TEAM-BODY
 10
381.586775
 20
246.517156
 30
0.0
 11
107.921612
 21
246.517156
 31
0.0
  0
ARC
  5
7C
  8
TEAM-BODY
 10
248.010672
 20
352.844321
 30
0.0
 40
178.568284
 50
178.090618
 51
213.905753
  0
LINE
  5
7D
  8
TEAM-DET1
 10
43.448896
 20
358.794008
 30
0.0
 11
43.448896
 21
260.130872
 31
0.0
  0
LINE
  5
7F
  8
TEAM-DET1
 10
43.448896
 20
255.120282
 30
0.0
 11
0.0
 21
255.120282
 31
0.0
  0
LINE
  5
80
  8
TEAM-DET1
 10
50.965046
 20
303.561772
 30
0.0
 11
-11.825497
 21
303.561772
 31
0.0
  0
LINE
  5
81
  8
TEAM-BODY
 10
27.0
 20
400.0
 30
0.0
 11
0.0
 21
400.0
 31
0.0
  0
ARC
  5
82
  8
TEAM-BODY
 10
352.45177
 20
392.302128
 30
0.0
 40
150.498263
 50
287.65774
 51
348.889173
  0
ENDSEC
  0
EOF
