  0
SECTION
  2
HEADER
  9
$ACADVER
  1
AC1009
  9
$INSBASE
 10
0.0
 20
0.0
 30
0.0
  9
$EXTMIN
 10
-184.329728
 20
-599.530306
 30
0.0
  9
$EXTMAX
 10
234.543353
 20
62.103281
 30
0.0
  9
$LIMMIN
 10
-184.329728
 20
-599.530306
  9
$LIMMAX
 10
234.543353
 20
62.103281
  9
$ORTHOMODE
 70
     1
  9
$REGENMODE
 70
     1
  9
$FILLMODE
 70
     1
  9
$QTEXTMODE
 70
     0
  9
$MIRRTEXT
 70
     0
  9
$DRAGMODE
 70
     2
  9
$LTSCALE
 40
50.0
  9
$OSMODE
 70
     0
  9
$ATTMODE
 70
     1
  9
$TEXTSIZE
 40
200.0
  9
$TRACEWID
 40
1.0
  9
$TEXTSTYLE
  7
STANDARD
  9
$CLAYER
  8
TEAM-MAS
  9
$CELTYPE
  6
BYLAYER
  9
$CECOLOR
 62
   256
  9
$DIMSCALE
 40
1.0
  9
$DIMASZ
 40
20.0
  9
$DIMEXO
 40
10.0
  9
$DIMDLI
 40
1.0
  9
$DIMRND
 40
0.0
  9
$DIMDLE
 40
0.0
  9
$DIMEXE
 40
1.0
  9
$DIMTP
 40
0.0
  9
$DIMTM
 40
0.0
  9
$DIMTXT
 40
35.0
  9
$DIMCEN
 40
1.0
  9
$DIMTSZ
 40
0.0
  9
$DIMTOL
 70
     0
  9
$DIMLIM
 70
     0
  9
$DIMTIH
 70
     0
  9
$DIMTOH
 70
     0
  9
$DIMSE1
 70
     0
  9
$DIMSE2
 70
     0
  9
$DIMTAD
 70
     0
  9
$DIMZIN
 70
     0
  9
$DIMBLK
  1

  9
$DIMASO
 70
     1
  9
$DIMSHO
 70
     0
  9
$DIMPOST
  1

  9
$DIMAPOST
  1

  9
$DIMALT
 70
     0
  9
$DIMALTD
 70
     2
  9
$DIMALTF
 40
25.4
  9
$DIMLFAC
 40
1.0
  9
$DIMTOFL
 70
     0
  9
$DIMTVP
 40
0.0
  9
$DIMTIX
 70
     0
  9
$DIMSOXD
 70
     0
  9
$DIMSAH
 70
     0
  9
$DIMBLK1
  1

  9
$DIMBLK2
  1

  9
$DIMSTYLE
  2
TEAM
  9
$DIMCLRD
 70
     9
  9
$DIMCLRE
 70
     9
  9
$DIMCLRT
 70
    11
  9
$DIMTFAC
 40
1.0
  9
$DIMGAP
 40
7.0
  9
$LUNITS
 70
     2
  9
$LUPREC
 70
     1
  9
$SKETCHINC
 40
1.0
  9
$FILLETRAD
 40
10.0
  9
$AUNITS
 70
     0
  9
$AUPREC
 70
     0
  9
$MENU
  1
ROPLANS
  9
$ELEVATION
 40
0.0
  9
$PELEVATION
 40
0.0
  9
$THICKNESS
 40
0.0
  9
$LIMCHECK
 70
     0
  9
$BLIPMODE
 70
     1
  9
$CHAMFERA
 40
0.0
  9
$CHAMFERB
 40
0.0
  9
$SKPOLY
 70
     0
  9
$TDCREATE
 40
2450392.957851
  9
$TDUPDATE
 40
2456128.567992
  9
$TDINDWG
 40
2.128216
  9
$TDUSRTIMER
 40
2.128216
  9
$USRTIMER
 70
     1
  9
$ANGBASE
 50
0.0
  9
$ANGDIR
 70
     0
  9
$PDMODE
 70
     0
  9
$PDSIZE
 40
0.0
  9
$PLINEWID
 40
0.0
  9
$COORDS
 70
     2
  9
$SPLFRAME
 70
     0
  9
$SPLINETYPE
 70
     6
  9
$SPLINESEGS
 70
     8
  9
$ATTDIA
 70
     0
  9
$ATTREQ
 70
     0
  9
$HANDLING
 70
     1
  9
$HANDSEED
  5
F3
  9
$SURFTAB1
 70
    24
  9
$SURFTAB2
 70
    24
  9
$SURFTYPE
 70
     6
  9
$SURFU
 70
     6
  9
$SURFV
 70
     6
  9
$UCSNAME
  2

  9
$UCSORG
 10
0.0
 20
0.0
 30
0.0
  9
$UCSXDIR
 10
1.0
 20
0.0
 30
0.0
  9
$UCSYDIR
 10
0.0
 20
1.0
 30
0.0
  9
$PUCSNAME
  2

  9
$PUCSORG
 10
0.0
 20
0.0
 30
0.0
  9
$PUCSXDIR
 10
1.0
 20
0.0
 30
0.0
  9
$PUCSYDIR
 10
0.0
 20
1.0
 30
0.0
  9
$USERI1
 70
     0
  9
$USERI2
 70
     0
  9
$USERI3
 70
     0
  9
$USERI4
 70
     0
  9
$USERI5
 70
     0
  9
$USERR1
 40
0.0
  9
$USERR2
 40
0.0
  9
$USERR3
 40
0.0
  9
$USERR4
 40
0.0
  9
$USERR5
 40
0.0
  9
$WORLDVIEW
 70
     1
  9
$SHADEDGE
 70
     0
  9
$SHADEDIF
 70
    70
  9
$TILEMODE
 70
     1
  9
$MAXACTVP
 70
    16
  9
$PLIMCHECK
 70
     0
  9
$PEXTMIN
 10
-0.805942
 20
0.005011
 30
0.0
  9
$PEXTMAX
 10
20.250094
 20
11.356329
 30
0.0
  9
$PLIMMIN
 10
0.0
 20
0.0
  9
$PLIMMAX
 10
12.0
 20
9.0
  9
$UNITMODE
 70
     0
  9
$VISRETAIN
 70
     0
  9
$PLINEGEN
 70
     0
  9
$PSLTSCALE
 70
     0
  0
ENDSEC
  0
SECTION
  2
TABLES
  0
TABLE
  2
VPORT
 70
     2
  0
VPORT
  2
*ACTIVE
 70
     0
 10
0.0
 20
0.0
 11
1.0
 21
1.0
 12
25.106813
 22
-268.713512
 13
0.0
 23
0.0
 14
1.0
 24
1.0
 15
50.0
 25
50.0
 16
0.0
 26
0.0
 36
1.0
 17
0.0
 27
0.0
 37
0.0
 40
665.799171
 41
1.911765
 42
50.0
 43
0.0
 44
0.0
 50
0.0
 51
0.0
 71
     0
 72
   100
 73
     1
 74
     1
 75
     0
 76
     0
 77
     0
 78
     0
  0
ENDTAB
  0
TABLE
  2
LTYPE
 70
     2
  0
LTYPE
  2
CONTINUOUS
 70
     0
  3
Solid Line
 72
    65
 73
     0
 40
0.0
  0
LTYPE
  2
31
 70
     0
  3

 72
    65
 73
     4
 40
2.1
 49
1.5
 49
-0.3
 49
0.0
 49
-0.3
  0
ENDTAB
  0
TABLE
  2
LAYER
 70
     8
  0
LAYER
  2
0
 70
     0
 62
     7
  6
CONTINUOUS
  0
LAYER
  2
DEFPOINTS
 70
     0
 62
     7
  6
CONTINUOUS
  0
LAYER
  2
TEAM-BODY
 70
     0
 62
     2
  6
CONTINUOUS
  0
LAYER
  2
TEAM-AXE
 70
     0
 62
    10
  6
31
  0
LAYER
  2
TEAM-MAS
 70
     0
 62
     9
  6
CONTINUOUS
  0
LAYER
  2
TEAM-TXT
 70
     0
 62
    11
  6
CONTINUOUS
  0
LAYER
  2
TEAM-DET1
 70
     0
 62
     4
  6
CONTINUOUS
  0
LAYER
  2
TEAM-INSP
 70
     0
 62
     5
  6
CONTINUOUS
  0
ENDTAB
  0
TABLE
  2
STYLE
 70
     2
  0
STYLE
  2
STANDARD
 70
     0
 40
0.0
 41
1.0
 50
0.0
 71
     0
 42
200.0
  3
txt
  4

  0
STYLE
  2
TEAM
 70
     0
 40
0.0
 41
0.8
 50
15.0
 71
     0
 42
7.0
  3
ROMANS.shx
  4

  0
ENDTAB
  0
TABLE
  2
VIEW
 70
     0
  0
ENDTAB
  0
TABLE
  2
UCS
 70
     0
  0
ENDTAB
  0
TABLE
  2
APPID
 70
     3
  0
APPID
  2
ACAD
 70
     0
  0
APPID
  2
GENIUS_GENODEF_13
 70
     0
  0
APPID
  2
GENIUS_GENOBJ-N-FIL_13
 70
     0
  0
ENDTAB
  0
TABLE
  2
DIMSTYLE
 70
     1
  0
DIMSTYLE
  2
TEAM
 70
     0
  3

  4

  5

  6

  7

 40
1.0
 41
20.0
 42
10.0
 43
1.0
 44
1.0
 45
0.0
 46
0.0
 47
0.0
 48
0.0
140
35.0
141
1.0
142
0.0
143
25.4
144
1.0
145
0.0
146
1.0
147
7.0
 71
     0
 72
     0
 73
     0
 74
     0
 75
     0
 76
     0
 77
     0
 78
     0
170
     0
171
     2
172
     0
173
     0
174
     0
175
     0
176
     9
177
     9
178
    11
  0
ENDTAB
  0
ENDSEC
  0
SECTION
  2
BLOCKS
  0
BLOCK
  8
0
  2
$MODEL_SPACE
 70
     0
 10
0.0
 20
0.0
 30
0.0
  3
$MODEL_SPACE
  1

  0
ENDBLK
  5
E7
  8
0
  0
BLOCK
 67
     1
  8
0
  2
$PAPER_SPACE
 70
     0
 10
0.0
 20
0.0
 30
0.0
  3
$PAPER_SPACE
  1

  0
ENDBLK
  5
E5
 67
     1
  8
0
  0
BLOCK
  8
0
  2
*D0
 70
     1
 10
0.0
 20
0.0
 30
0.0
  3
*D0
  1

  0
LINE
  5
4F
  8
0
  6
BYBLOCK
 62
     9
 10
4010.0
 20
16000.0
 30
0.0
 11
4218.028603
 21
16000.0
 31
0.0
  0
LINE
  5
50
  8
0
  6
BYBLOCK
 62
     9
 10
4009.998827
 20
15459.998735
 30
0.0
 11
4218.028603
 21
15459.998735
 31
0.0
  0
LINE
  5
51
  8
0
  6
BYBLOCK
 62
     9
 10
4217.028603
 20
15980.0
 30
0.0
 11
4217.028603
 21
15780.749367
 31
0.0
  0
LINE
  5
52
  8
0
  6
BYBLOCK
 62
     9
 10
4217.028603
 20
15479.998735
 30
0.0
 11
4217.028603
 21
15679.249367
 31
0.0
  0
SOLID
  5
53
  8
0
  6
BYBLOCK
 62
     9
 10
4213.695269
 20
15980.0
 30
0.0
 11
4220.361936
 21
15980.0
 31
0.0
 12
4217.028603
 22
16000.0
 32
0.0
 13
4217.028603
 23
16000.0
 33
0.0
  0
SOLID
  5
54
  8
0
  6
BYBLOCK
 62
     9
 10
4213.695269
 20
15479.998735
 30
0.0
 11
4220.361936
 21
15479.998735
 31
0.0
 12
4217.028603
 22
15459.998735
 32
0.0
 13
4217.028603
 23
15459.998735
 33
0.0
  0
TEXT
  5
55
  8
0
  6
BYBLOCK
 62
    11
 10
4234.528603
 20
15686.249367
 30
0.0
 40
35.0
  1
540
 50
90.0
  0
POINT
  5
56
  8
DEFPOINTS
  6
BYBLOCK
 62
     0
 10
4000.0
 20
16000.0
 30
0.0
  0
POINT
  5
57
  8
DEFPOINTS
  6
BYBLOCK
 62
     0
 10
3999.998827
 20
15459.998735
 30
0.0
  0
POINT
  5
58
  8
DEFPOINTS
  6
BYBLOCK
 62
     0
 10
4217.028603
 20
15459.998735
 30
0.0
  0
ENDBLK
  5
5A
  8
0
  0
BLOCK
  8
0
  2
*D1
 70
     1
 10
0.0
 20
0.0
 30
0.0
  3
*D1
  1

  0
LINE
  5
31
  8
0
  6
BYBLOCK
 62
     9
 10
4180.0
 20
15620.119099
 30
0.0
 11
4180.0
 21
15416.980711
 31
0.0
  0
LINE
  5
32
  8
0
  6
BYBLOCK
 62
     9
 10
3820.0
 20
15620.119099
 30
0.0
 11
3820.0
 21
15416.980711
 31
0.0
  0
LINE
  5
33
  8
0
  6
BYBLOCK
 62
     9
 10
4160.0
 20
15417.980711
 30
0.0
 11
4050.75
 21
15417.980711
 31
0.0
  0
LINE
  5
34
  8
0
  6
BYBLOCK
 62
     9
 10
3840.0
 20
15417.980711
 30
0.0
 11
3949.25
 21
15417.980711
 31
0.0
  0
SOLID
  5
35
  8
0
  6
BYBLOCK
 62
     9
 10
4160.0
 20
15421.314044
 30
0.0
 11
4160.0
 21
15414.647378
 31
0.0
 12
4180.0
 22
15417.980711
 32
0.0
 13
4180.0
 23
15417.980711
 33
0.0
  0
SOLID
  5
36
  8
0
  6
BYBLOCK
 62
     9
 10
3840.0
 20
15421.314044
 30
0.0
 11
3840.0
 21
15414.647378
 31
0.0
 12
3820.0
 22
15417.980711
 32
0.0
 13
3820.0
 23
15417.980711
 33
0.0
  0
TEXT
  5
37
  8
0
  6
BYBLOCK
 62
    11
 10
3956.25
 20
15400.480711
 30
0.0
 40
35.0
  1
360
  0
POINT
  5
38
  8
DEFPOINTS
  6
BYBLOCK
 62
     0
 10
4180.0
 20
15630.119099
 30
0.0
  0
POINT
  5
39
  8
DEFPOINTS
  6
BYBLOCK
 62
     0
 10
3820.0
 20
15630.119099
 30
0.0
  0
POINT
  5
3A
  8
DEFPOINTS
  6
BYBLOCK
 62
     0
 10
3820.0
 20
15417.980711
 30
0.0
  0
ENDBLK
  5
3C
  8
0
  0
BLOCK
  8
0
  2
*D2
 70
     1
 10
0.0
 20
0.0
 30
0.0
  3
*D2
  1

  0
LINE
  5
22
  8
0
  6
BYBLOCK
 62
     9
 10
3817.498827
 20
16009.998735
 30
0.0
 11
3817.498827
 21
16045.589711
 31
0.0
  0
LINE
  5
23
  8
0
  6
BYBLOCK
 62
     9
 10
4182.498827
 20
16009.998735
 30
0.0
 11
4182.498827
 21
16045.589711
 31
0.0
  0
LINE
  5
24
  8
0
  6
BYBLOCK
 62
     9
 10
3837.498827
 20
16044.589711
 30
0.0
 11
3946.33216
 21
16044.589711
 31
0.0
  0
LINE
  5
25
  8
0
  6
BYBLOCK
 62
     9
 10
4162.498827
 20
16044.589711
 30
0.0
 11
4053.665493
 21
16044.589711
 31
0.0
  0
SOLID
  5
26
  8
0
  6
BYBLOCK
 62
     9
 10
3837.498827
 20
16047.923044
 30
0.0
 11
3837.498827
 21
16041.256378
 31
0.0
 12
3817.498827
 22
16044.589711
 32
0.0
 13
3817.498827
 23
16044.589711
 33
0.0
  0
SOLID
  5
27
  8
0
  6
BYBLOCK
 62
     9
 10
4162.498827
 20
16047.923044
 30
0.0
 11
4162.498827
 21
16041.256378
 31
0.0
 12
4182.498827
 22
16044.589711
 32
0.0
 13
4182.498827
 23
16044.589711
 33
0.0
  0
TEXT
  5
28
  8
0
  6
BYBLOCK
 62
    11
 10
3953.33216
 20
16027.089711
 30
0.0
 40
35.0
  1
365
  0
POINT
  5
29
  8
DEFPOINTS
  6
BYBLOCK
 62
     0
 10
3817.498827
 20
15999.998735
 30
0.0
  0
POINT
  5
2B
  8
DEFPOINTS
  6
BYBLOCK
 62
     0
 10
4182.498827
 20
15999.998735
 30
0.0
  0
POINT
  5
2C
  8
DEFPOINTS
  6
BYBLOCK
 62
     0
 10
4182.498827
 20
16044.589711
 30
0.0
  0
ENDBLK
  5
2E
  8
0
  0
ENDSEC
  0
SECTION
  2
ENTITIES
  0
DIMENSION
  5
20
  8
TEAM-MAS
  2
*D2
 10
182.498827
 20
44.589711
 30
0.0
 11
-0.001173
 21
44.589711
 31
0.0
 12
-4000.0
 22
-16000.0
 32
0.0
 13
-182.501173
 23
-0.001265
 33
0.0
 14
182.498827
 24
-0.001265
 34
0.0
1001
ACAD
1000
DSTYLE
1002
{
1070
    40
1040
1.0
1002
}
  0
DIMENSION
  5
2F
  8
TEAM-MAS
  2
*D1
 10
-180.0
 20
-582.019289
 30
0.0
 11
0.0
 21
-582.019289
 31
0.0
 12
-4000.0
 22
-16000.0
 32
0.0
 13
180.0
 23
-369.880901
 33
0.0
 14
-180.0
 24
-369.880901
 34
0.0
1001
ACAD
1000
DSTYLE
1002
{
1070
    40
1040
1.0
1002
}
  0
LINE
  5
3D
  8
TEAM-DET1
 10
-172.299088
 20
-35.001265
 30
0.0
 11
172.296741
 21
-35.001265
 31
0.0
  0
TEXT
  5
3F
  8
TEAM-TXT
 10
-134.355617
 20
-392.369042
 30
0.0
 40
30.0
  1
team 342104
 41
0.8
 51
15.0
  7
TEAM
  0
ARC
  5
42
  8
TEAM-BODY
 10
-0.001173
 20
-300.001265
 30
0.0
 40
125.0
 50
2.318989
 51
177.681011
  0
ARC
  5
44
  8
TEAM-BODY
 10
-0.001173
 20
-365.001265
 30
0.0
 40
125.0
 50
182.318989
 51
357.681011
  0
POLYLINE
  5
45
  8
TEAM-BODY
 66
     1
 10
0.0
 20
0.0
 30
0.0
 70
     1
  0
VERTEX
  5
ED
  8
TEAM-BODY
 10
-182.501173
 20
-0.001265
 30
0.0
  0
VERTEX
  5
EE
  8
TEAM-BODY
 10
-179.996848
 20
-361.426482
 30
0.0
 42
0.992106
  0
VERTEX
  5
EF
  8
TEAM-BODY
 10
179.994502
 20
-361.426482
 30
0.0
  0
VERTEX
  5
F0
  8
TEAM-BODY
 10
182.498827
 20
-0.001265
 30
0.0
  0
SEQEND
  5
F1
  8
TEAM-BODY
  0
LINE
  5
46
  8
TEAM-AXE
 10
-146.501173
 20
-130.001265
 30
0.0
 11
-123.501173
 21
-130.001265
 31
0.0
  0
LINE
  5
49
  8
TEAM-AXE
 10
-135.001173
 20
-141.501265
 30
0.0
 11
-135.001173
 21
-118.501265
 31
0.0
  0
CIRCLE
  5
4A
  8
TEAM-DET1
 10
-135.001173
 20
-130.001265
 30
0.0
 40
7.5
  0
ARC
  5
4B
  8
TEAM-DET1
 10
-172.323497
 20
-25.060486
 30
0.0
 40
9.940809
 50
180.058223
 51
270.140692
  0
LINE
  5
4C
  8
TEAM-BODY
 10
-124.898803
 20
-370.059133
 30
0.0
 11
-124.898803
 21
-294.943397
 31
0.0
  0
DIMENSION
  5
4D
  8
TEAM-MAS
  2
*D0
 10
217.028603
 20
-540.001265
 30
0.0
 11
217.028603
 21
-270.000633
 31
0.0
 12
-4000.0
 22
-16000.0
 32
0.0
 13
0.0
 23
0.0
 33
0.0
 14
-0.001173
 24
-540.001265
 34
0.0
 50
90.0
1001
ACAD
1000
DSTYLE
1002
{
1070
    40
1040
1.0
1002
}
  0
LINE
  5
5B
  8
TEAM-MAS
 10
75.0003
 20
0.0
 30
0.0
 11
77.501439
 21
0.0
 31
0.0
  0
LINE
  5
5C
  8
TEAM-BODY
 10
-38.001173
 20
-231.383589
 30
0.0
 11
37.998827
 21
-231.383589
 31
0.0
  0
ARC
  5
5D
  8
TEAM-BODY
 10
51.998827
 20
-238.383589
 30
0.0
 40
7.0
 50
90.0
 51
180.0
1001
GENIUS_GENODEF_13
1002
{
1000
HIER
1070
     0
1002
}
1002
{
1000
MANEDIT
1070
     0
1002
}
1002
{
1000
NOSEL
1070
     0
1002
}
1002
{
1000
BEHIND
1070
     0
1002
}
1002
{
1000
OTHER
1070
     0
1002
}
1002
{
1000
REACTOR
1002
}
1001
GENIUS_GENOBJ-N-FIL_13
1002
{
1000
OWNER
1000
GEN
1002
}
  0
ARC
  5
60
  8
TEAM-BODY
 10
-52.001173
 20
-238.383589
 30
0.0
 40
7.0
 50
0.0
 51
90.0
1001
GENIUS_GENODEF_13
1002
{
1000
HIER
1070
     0
1002
}
1002
{
1000
MANEDIT
1070
     0
1002
}
1002
{
1000
NOSEL
1070
     0
1002
}
1002
{
1000
BEHIND
1070
     0
1002
}
1002
{
1000
OTHER
1070
     0
1002
}
1002
{
1000
REACTOR
1002
}
1001
GENIUS_GENOBJ-N-FIL_13
1002
{
1000
OWNER
1000
GEN
1002
}
  0
CIRCLE
  5
61
  8
TEAM-INSP
 10
0.0
 20
0.0
 30
0.0
 40
10.0
  0
ARC
  5
63
  8
TEAM-DET1
 10
172.321151
 20
-25.060486
 30
0.0
 40
9.940809
 50
269.859308
 51
359.941777
  0
LINE
  5
64
  8
TEAM-AXE
 10
146.498827
 20
-130.001265
 30
0.0
 11
123.498827
 21
-130.001265
 31
0.0
  0
LINE
  5
65
  8
TEAM-AXE
 10
134.998827
 20
-141.501265
 30
0.0
 11
134.998827
 21
-118.501265
 31
0.0
  0
CIRCLE
  5
66
  8
TEAM-DET1
 10
134.998827
 20
-130.001265
 30
0.0
 40
7.5
  0
ARC
  5
67
  8
TEAM-BODY
 10
-0.001173
 20
-301.383589
 30
0.0
 40
45.0
 50
180.0
 51
0.0
  0
LINE
  5
68
  8
TEAM-BODY
 10
124.896457
 20
-370.059133
 30
0.0
 11
124.896457
 21
-294.943397
 31
0.0
  0
LINE
  5
69
  8
TEAM-BODY
 10
-45.001173
 20
-238.383589
 30
0.0
 11
-45.001173
 21
-301.383589
 31
0.0
  0
LINE
  5
6A
  8
TEAM-BODY
 10
44.998827
 20
-238.383589
 30
0.0
 11
44.998827
 21
-301.383589
 31
0.0
  0
ENDSEC
  0
EOF
