  0
SECTION
  2
HEADER
  9
$ACADVER
  1
AC1009
  9
$INSBASE
 10
0.0
 20
0.0
 30
0.0
  9
$EXTMIN
 10
-207.514486
 20
-693.039714
 30
-0.001526
  9
$EXTMAX
 10
267.226597
 20
66.862251
 30
0.0
  9
$LIMMIN
 10
-207.514486
 20
-693.039714
  9
$LIMMAX
 10
267.226597
 20
66.862251
  9
$ORTHOMODE
 70
     1
  9
$REGENMODE
 70
     1
  9
$FILLMODE
 70
     1
  9
$QTEXTMODE
 70
     0
  9
$MIRRTEXT
 70
     0
  9
$DRAGMODE
 70
     2
  9
$LTSCALE
 40
25.0
  9
$OSMODE
 70
     0
  9
$ATTMODE
 70
     1
  9
$TEXTSIZE
 40
200.0
  9
$TRACEWID
 40
1.0
  9
$TEXTSTYLE
  7
STANDARD
  9
$CLAYER
  8
TEAM-MAS
  9
$CELTYPE
  6
BYLAYER
  9
$CECOLOR
 62
   256
  9
$DIMSCALE
 40
0.0
  9
$DIMASZ
 40
20.0
  9
$DIMEXO
 40
10.0
  9
$DIMDLI
 40
1.0
  9
$DIMRND
 40
0.0
  9
$DIMDLE
 40
0.0
  9
$DIMEXE
 40
1.0
  9
$DIMTP
 40
0.0
  9
$DIMTM
 40
0.0
  9
$DIMTXT
 40
35.0
  9
$DIMCEN
 40
1.0
  9
$DIMTSZ
 40
0.0
  9
$DIMTOL
 70
     0
  9
$DIMLIM
 70
     0
  9
$DIMTIH
 70
     0
  9
$DIMTOH
 70
     0
  9
$DIMSE1
 70
     0
  9
$DIMSE2
 70
     0
  9
$DIMTAD
 70
     0
  9
$DIMZIN
 70
     0
  9
$DIMBLK
  1

  9
$DIMASO
 70
     1
  9
$DIMSHO
 70
     0
  9
$DIMPOST
  1

  9
$DIMAPOST
  1

  9
$DIMALT
 70
     0
  9
$DIMALTD
 70
     2
  9
$DIMALTF
 40
25.4
  9
$DIMLFAC
 40
1.0
  9
$DIMTOFL
 70
     0
  9
$DIMTVP
 40
0.0
  9
$DIMTIX
 70
     0
  9
$DIMSOXD
 70
     0
  9
$DIMSAH
 70
     0
  9
$DIMBLK1
  1

  9
$DIMBLK2
  1

  9
$DIMSTYLE
  2
TEAM
  9
$DIMCLRD
 70
     9
  9
$DIMCLRE
 70
     9
  9
$DIMCLRT
 70
    11
  9
$DIMTFAC
 40
1.0
  9
$DIMGAP
 40
15.0
  9
$LUNITS
 70
     2
  9
$LUPREC
 70
     1
  9
$SKETCHINC
 40
1.0
  9
$FILLETRAD
 40
50.0
  9
$AUNITS
 70
     0
  9
$AUPREC
 70
     0
  9
$MENU
  1
ROPLANS
  9
$ELEVATION
 40
0.0
  9
$PELEVATION
 40
0.0
  9
$THICKNESS
 40
0.0
  9
$LIMCHECK
 70
     0
  9
$BLIPMODE
 70
     1
  9
$CHAMFERA
 40
0.0
  9
$CHAMFERB
 40
0.0
  9
$SKPOLY
 70
     0
  9
$TDCREATE
 40
2450392.957851
  9
$TDUPDATE
 40
2455535.949354
  9
$TDINDWG
 40
2.189584
  9
$TDUSRTIMER
 40
2.189584
  9
$USRTIMER
 70
     1
  9
$ANGBASE
 50
0.0
  9
$ANGDIR
 70
     0
  9
$PDMODE
 70
     0
  9
$PDSIZE
 40
0.0
  9
$PLINEWID
 40
0.0
  9
$COORDS
 70
     2
  9
$SPLFRAME
 70
     0
  9
$SPLINETYPE
 70
     6
  9
$SPLINESEGS
 70
     8
  9
$ATTDIA
 70
     0
  9
$ATTREQ
 70
     0
  9
$HANDLING
 70
     1
  9
$HANDSEED
  5
C0
  9
$SURFTAB1
 70
    48
  9
$SURFTAB2
 70
    48
  9
$SURFTYPE
 70
     6
  9
$SURFU
 70
     6
  9
$SURFV
 70
     6
  9
$UCSNAME
  2

  9
$UCSORG
 10
0.0
 20
0.0
 30
0.0
  9
$UCSXDIR
 10
1.0
 20
0.0
 30
0.0
  9
$UCSYDIR
 10
0.0
 20
1.0
 30
0.0
  9
$PUCSNAME
  2

  9
$PUCSORG
 10
0.0
 20
0.0
 30
0.0
  9
$PUCSXDIR
 10
1.0
 20
0.0
 30
0.0
  9
$PUCSYDIR
 10
0.0
 20
1.0
 30
0.0
  9
$USERI1
 70
     0
  9
$USERI2
 70
     0
  9
$USERI3
 70
     0
  9
$USERI4
 70
     0
  9
$USERI5
 70
     0
  9
$USERR1
 40
0.0
  9
$USERR2
 40
0.0
  9
$USERR3
 40
0.0
  9
$USERR4
 40
0.0
  9
$USERR5
 40
0.0
  9
$WORLDVIEW
 70
     1
  9
$SHADEDGE
 70
     0
  9
$SHADEDIF
 70
    70
  9
$TILEMODE
 70
     1
  9
$MAXACTVP
 70
    16
  9
$PLIMCHECK
 70
     0
  9
$PEXTMIN
 10
-0.805942
 20
0.005011
 30
0.0
  9
$PEXTMAX
 10
20.421406
 20
13.753816
 30
0.0
  9
$PLIMMIN
 10
0.0
 20
0.0
  9
$PLIMMAX
 10
12.0
 20
9.0
  9
$UNITMODE
 70
     0
  9
$VISRETAIN
 70
     0
  9
$PLINEGEN
 70
     0
  9
$PSLTSCALE
 70
     0
  0
ENDSEC
  0
SECTION
  2
TABLES
  0
TABLE
  2
VPORT
 70
     2
  0
VPORT
  2
*ACTIVE
 70
     0
 10
0.0
 20
0.0
 11
1.0
 21
1.0
 12
29.856055
 22
-313.088732
 13
0.0
 23
0.0
 14
1.0
 24
1.0
 15
50.0
 25
50.0
 16
0.0
 26
0.0
 36
1.0
 17
0.0
 27
0.0
 37
0.0
 40
764.568712
 41
1.865779
 42
50.0
 43
0.0
 44
0.0
 50
0.0
 51
0.0
 71
     0
 72
   100
 73
     1
 74
     1
 75
     0
 76
     0
 77
     0
 78
     0
  0
ENDTAB
  0
TABLE
  2
LTYPE
 70
     2
  0
LTYPE
  2
CONTINUOUS
 70
     0
  3
Solid Line
 72
    65
 73
     0
 40
0.0
  0
LTYPE
  2
31
 70
     0
  3

 72
    65
 73
     4
 40
2.1
 49
1.5
 49
-0.3
 49
0.0
 49
-0.3
  0
ENDTAB
  0
TABLE
  2
LAYER
 70
     9
  0
LAYER
  2
0
 70
     0
 62
     7
  6
CONTINUOUS
  0
LAYER
  2
DEFPOINTS
 70
     0
 62
     7
  6
CONTINUOUS
  0
LAYER
  2
TEAM-BODY
 70
     0
 62
     2
  6
CONTINUOUS
  0
LAYER
  2
TEAM-AXE
 70
     0
 62
    10
  6
31
  0
LAYER
  2
TEAM-MAS
 70
     0
 62
     9
  6
CONTINUOUS
  0
LAYER
  2
TEAM-TXT
 70
     0
 62
    11
  6
CONTINUOUS
  0
LAYER
  2
TEAM-DET1
 70
     0
 62
     4
  6
CONTINUOUS
  0
LAYER
  2
TEAM-NET
 70
     0
 62
    15
  6
CONTINUOUS
  0
LAYER
  2
TEAM-INSP
 70
     0
 62
     5
  6
CONTINUOUS
  0
ENDTAB
  0
TABLE
  2
STYLE
 70
     2
  0
STYLE
  2
STANDARD
 70
     0
 40
0.0
 41
1.0
 50
0.0
 71
     0
 42
200.0
  3
txt
  4

  0
STYLE
  2
TEAM
 70
     0
 40
0.0
 41
0.8
 50
15.0
 71
     0
 42
7.0
  3
ROMANS.shx
  4

  0
ENDTAB
  0
TABLE
  2
VIEW
 70
     0
  0
ENDTAB
  0
TABLE
  2
UCS
 70
     0
  0
ENDTAB
  0
TABLE
  2
APPID
 70
     1
  0
APPID
  2
ACAD
 70
     0
  0
ENDTAB
  0
TABLE
  2
DIMSTYLE
 70
     1
  0
DIMSTYLE
  2
TEAM
 70
     0
  3

  4

  5

  6

  7

 40
0.0
 41
20.0
 42
10.0
 43
1.0
 44
1.0
 45
0.0
 46
0.0
 47
0.0
 48
0.0
140
35.0
141
1.0
142
0.0
143
25.4
144
1.0
145
0.0
146
1.0
147
15.0
 71
     0
 72
     0
 73
     0
 74
     0
 75
     0
 76
     0
 77
     0
 78
     0
170
     0
171
     2
172
     0
173
     0
174
     0
175
     0
176
     9
177
     9
178
    11
  0
ENDTAB
  0
ENDSEC
  0
SECTION
  2
BLOCKS
  0
BLOCK
  8
0
  2
$MODEL_SPACE
 70
     0
 10
0.0
 20
0.0
 30
0.0
  3
$MODEL_SPACE
  1

  0
ENDBLK
  5
B0
  8
0
  0
BLOCK
 67
     1
  8
0
  2
$PAPER_SPACE
 70
     0
 10
0.0
 20
0.0
 30
0.0
  3
$PAPER_SPACE
  1

  0
ENDBLK
  5
AE
 67
     1
  8
0
  0
BLOCK
  8
0
  2
*D0
 70
     1
 10
0.0
 20
0.0
 30
0.0
  3
*D0
  1

  0
LINE
  5
40
  8
0
  6
BYBLOCK
 62
     9
 10
3792.5
 20
7557.497805
 30
0.0
 11
3792.5
 21
7323.179979
 31
0.0
  0
LINE
  5
41
  8
0
  6
BYBLOCK
 62
     9
 10
4207.5
 20
7557.497805
 30
0.0
 11
4207.5
 21
7323.179979
 31
0.0
  0
LINE
  5
42
  8
0
  6
BYBLOCK
 62
     9
 10
3812.5
 20
7324.179979
 30
0.0
 11
3944.166667
 21
7324.179979
 31
0.0
  0
LINE
  5
43
  8
0
  6
BYBLOCK
 62
     9
 10
4187.5
 20
7324.179979
 30
0.0
 11
4055.833333
 21
7324.179979
 31
0.0
  0
SOLID
  5
44
  8
0
  6
BYBLOCK
 62
     9
 10
3812.5
 20
7327.513313
 30
0.0
 11
3812.5
 21
7320.846646
 31
0.0
 12
3792.5
 22
7324.179979
 32
0.0
 13
3792.5
 23
7324.179979
 33
0.0
  0
SOLID
  5
45
  8
0
  6
BYBLOCK
 62
     9
 10
4187.5
 20
7327.513313
 30
0.0
 11
4187.5
 21
7320.846646
 31
0.0
 12
4207.5
 22
7324.179979
 32
0.0
 13
4207.5
 23
7324.179979
 33
0.0
  0
TEXT
  5
46
  8
0
  6
BYBLOCK
 62
    11
 10
3964.275126
 20
7306.679979
 30
0.0
 40
35.0
  1
415
  0
POINT
  5
47
  8
DEFPOINTS
  6
BYBLOCK
 62
     0
 10
3792.5
 20
7567.497805
 30
0.0
  0
POINT
  5
48
  8
DEFPOINTS
  6
BYBLOCK
 62
     0
 10
4207.5
 20
7567.497805
 30
0.0
  0
POINT
  5
49
  8
DEFPOINTS
  6
BYBLOCK
 62
     0
 10
4207.5
 20
7324.179979
 30
0.0
  0
ENDBLK
  5
4B
  8
0
  0
BLOCK
  8
0
  2
*D1
 70
     1
 10
0.0
 20
0.0
 30
0.0
  3
*D1
  1

  0
LINE
  5
32
  8
0
  6
BYBLOCK
 62
     9
 10
4010.0
 20
8000.0
 30
0.0
 11
4252.448329
 21
8000.0
 31
0.0
  0
LINE
  5
33
  8
0
  6
BYBLOCK
 62
     9
 10
4010.0
 20
7359.997805
 30
0.0
 11
4252.448329
 21
7359.997805
 31
0.0
  0
LINE
  5
34
  8
0
  6
BYBLOCK
 62
     9
 10
4251.448329
 20
7980.0
 30
0.0
 11
4251.448329
 21
7738.748902
 31
0.0
  0
LINE
  5
35
  8
0
  6
BYBLOCK
 62
     9
 10
4251.448329
 20
7379.997805
 30
0.0
 11
4251.448329
 21
7621.248902
 31
0.0
  0
SOLID
  5
36
  8
0
  6
BYBLOCK
 62
     9
 10
4248.114996
 20
7980.0
 30
0.0
 11
4254.781663
 21
7980.0
 31
0.0
 12
4251.448329
 22
8000.0
 32
0.0
 13
4251.448329
 23
8000.0
 33
0.0
  0
SOLID
  5
37
  8
0
  6
BYBLOCK
 62
     9
 10
4248.114996
 20
7379.997805
 30
0.0
 11
4254.781663
 21
7379.997805
 31
0.0
 12
4251.448329
 22
7359.997805
 32
0.0
 13
4251.448329
 23
7359.997805
 33
0.0
  0
TEXT
  5
38
  8
0
  6
BYBLOCK
 62
    11
 10
4268.948329
 20
7642.532367
 30
0.0
 40
35.0
  1
640
 50
90.0
  0
POINT
  5
39
  8
DEFPOINTS
  6
BYBLOCK
 62
     0
 10
4000.0
 20
8000.0
 30
0.0
  0
POINT
  5
3A
  8
DEFPOINTS
  6
BYBLOCK
 62
     0
 10
4000.0
 20
7359.997805
 30
0.0
  0
POINT
  5
3B
  8
DEFPOINTS
  6
BYBLOCK
 62
     0
 10
4251.448329
 20
7359.997805
 30
0.0
  0
ENDBLK
  5
3D
  8
0
  0
BLOCK
  8
0
  2
*D2
 70
     1
 10
0.0
 20
0.0
 30
0.0
  3
*D2
  1

  0
LINE
  5
22
  8
0
  6
BYBLOCK
 62
     9
 10
3792.5
 20
8010.0
 30
0.0
 11
3792.5
 21
8052.089104
 31
0.0
  0
LINE
  5
23
  8
0
  6
BYBLOCK
 62
     9
 10
4207.5
 20
8010.0
 30
0.0
 11
4207.5
 21
8052.089104
 31
0.0
  0
LINE
  5
24
  8
0
  6
BYBLOCK
 62
     9
 10
3812.5
 20
8051.089104
 30
0.0
 11
3944.166667
 21
8051.089104
 31
0.0
  0
LINE
  5
25
  8
0
  6
BYBLOCK
 62
     9
 10
4187.5
 20
8051.089104
 30
0.0
 11
4055.833333
 21
8051.089104
 31
0.0
  0
SOLID
  5
26
  8
0
  6
BYBLOCK
 62
     9
 10
3812.5
 20
8054.422437
 30
0.0
 11
3812.5
 21
8047.755771
 31
0.0
 12
3792.5
 22
8051.089104
 32
0.0
 13
3792.5
 23
8051.089104
 33
0.0
  0
SOLID
  5
27
  8
0
  6
BYBLOCK
 62
     9
 10
4187.5
 20
8054.422437
 30
0.0
 11
4187.5
 21
8047.755771
 31
0.0
 12
4207.5
 22
8051.089104
 32
0.0
 13
4207.5
 23
8051.089104
 33
0.0
  0
TEXT
  5
28
  8
0
  6
BYBLOCK
 62
    11
 10
3964.275126
 20
8033.589104
 30
0.0
 40
35.0
  1
415
  0
POINT
  5
29
  8
DEFPOINTS
  6
BYBLOCK
 62
     0
 10
3792.5
 20
8000.0
 30
0.0
  0
POINT
  5
2B
  8
DEFPOINTS
  6
BYBLOCK
 62
     0
 10
4207.5
 20
8000.0
 30
0.0
  0
POINT
  5
2C
  8
DEFPOINTS
  6
BYBLOCK
 62
     0
 10
4207.5
 20
8051.089104
 30
0.0
  0
ENDBLK
  5
2E
  8
0
  0
ENDSEC
  0
SECTION
  2
ENTITIES
  0
DIMENSION
  5
20
  8
TEAM-MAS
  2
*D2
 10
207.5
 20
51.089104
 30
0.0
 11
0.0
 21
51.089104
 31
0.0
 12
-4000.0
 22
-8000.0
 32
0.0
 13
-207.5
 23
0.0
 33
0.0
 14
207.5
 24
0.0
 34
0.0
1001
ACAD
1000
DSTYLE
1002
{
1070
    40
1040
1.0
1002
}
  0
DIMENSION
  5
2F
  8
TEAM-NET
  2
*D1
 10
251.448329
 20
-640.002195
 30
0.0
 11
251.448329
 21
-320.001098
 31
0.0
 12
-4000.0
 22
-8000.0
 32
0.0
 13
0.0
 23
0.0
 33
0.0
 14
0.0
 24
-640.002195
 34
0.0
 50
90.0
1001
ACAD
1000
DSTYLE
1002
{
1070
    40
1040
1.0
1002
}
  0
DIMENSION
  5
3E
  8
TEAM-NET
  2
*D0
 10
207.5
 20
-675.820021
 30
0.0
 11
0.0
 21
-675.820021
 31
0.0
 12
-4000.0
 22
-8000.0
 32
0.0
 13
-207.5
 23
-432.502195
 33
0.0
 14
207.5
 24
-432.502195
 34
0.0
1001
ACAD
1000
DSTYLE
1002
{
1070
    40
1040
1.0
1002
}
  0
TEXT
  5
4C
  8
TEAM-TXT
 10
-162.279957
 20
-540.828386
 30
0.0
 40
30.0
  1
team 343023
 41
0.8
 51
15.0
  7
TEAM
  0
POLYLINE
  5
4F
  8
TEAM-BODY
 66
     1
 10
0.0
 20
0.0
 30
0.0
 70
     1
  0
VERTEX
  5
B6
  8
TEAM-BODY
 10
-111.341463
 20
-114.997599
 30
0.0
 42
0.414214
  0
VERTEX
  5
B7
  8
TEAM-BODY
 10
-116.402439
 20
-120.058575
 30
0.0
  0
VERTEX
  5
B8
  8
TEAM-BODY
 10
-116.402439
 20
-258.063646
 30
0.0
 42
-0.245393
  0
VERTEX
  5
B9
  8
TEAM-BODY
 10
-118.571429
 20
-262.216945
 30
0.0
 42
3.186141
  0
VERTEX
  5
BA
  8
TEAM-BODY
 10
118.571429
 20
-262.216945
 30
0.0
 42
-0.245393
  0
VERTEX
  5
BB
  8
TEAM-BODY
 10
116.402439
 20
-258.063646
 30
0.0
  0
VERTEX
  5
BC
  8
TEAM-BODY
 10
116.402439
 20
-120.058575
 30
0.0
 42
0.414214
  0
VERTEX
  5
BD
  8
TEAM-BODY
 10
111.341463
 20
-114.997599
 30
0.0
  0
SEQEND
  5
BE
  8
TEAM-BODY
  0
LINE
  5
51
  8
TEAM-BODY
 10
-207.5
 20
0.0
 30
0.0
 11
-207.5
 21
-114.997599
 31
0.0
  0
LINE
  5
52
  8
TEAM-BODY
 10
-207.5
 20
-114.997599
 30
0.0
 11
207.5
 21
-114.997599
 31
0.0
  0
LINE
  5
53
  8
TEAM-BODY
 10
207.5
 20
-114.997599
 30
0.0
 11
207.5
 21
0.0
 31
0.0
  0
LINE
  5
54
  8
TEAM-BODY
 10
207.5
 20
0.0
 30
0.0
 11
-207.5
 21
0.0
 31
0.0
  0
LINE
  5
55
  8
TEAM-DET1
 10
-60.731707
 20
-432.502195
 30
0.0
 11
-60.731707
 21
-336.888723
 31
0.0
  0
LINE
  5
57
  8
TEAM-DET1
 10
60.731707
 20
-432.502195
 30
0.0
 11
60.731707
 21
-336.888723
 31
0.0
  0
ARC
  5
58
  8
TEAM-DET1
 10
0.0
 20
-431.897309
 30
0.0
 40
60.73472
 50
180.570646
 51
359.429354
  0
LINE
  5
59
  8
TEAM-DET1
 10
-55.670732
 20
-364.70355
 30
0.0
 11
55.670732
 21
-364.70355
 31
0.0
  0
LINE
  5
5A
  8
TEAM-DET1
 10
-58.707317
 20
-342.697612
 30
0.0
 11
58.707317
 21
-342.697612
 31
0.0
  0
ARC
  5
5B
  8
TEAM-DET1
 10
-55.670732
 20
-369.764526
 30
0.0
 40
5.060976
 50
90.0
 51
180.0
  0
ARC
  5
5C
  8
TEAM-DET1
 10
55.670732
 20
-369.764526
 30
0.0
 40
5.060976
 50
0.0
 51
90.0
  0
LINE
  5
5D
  8
TEAM-AXE
 10
0.0
 20
-100.309529
 30
0.0
 11
0.0
 21
-30.309529
 31
0.0
  0
CIRCLE
  5
60
  8
TEAM-BODY
 10
0.0
 20
-65.309529
 30
0.0
 40
18.700813
  0
CIRCLE
  5
61
  8
TEAM-DET1
 10
0.0
 20
-65.309529
 30
0.0
 40
30.0
  0
LINE
  5
62
  8
TEAM-AXE
 10
-35.0
 20
-65.309529
 30
0.0
 11
35.0
 21
-65.309529
 31
0.0
  0
CIRCLE
  5
63
  8
TEAM-INSP
 10
0.0
 20
0.0
 30
0.0
 40
10.0
  0
CIRCLE
  5
65
  8
TEAM-DET1
 10
65.792683
 20
-209.819268
 30
0.0
 40
10.121951
  0
CIRCLE
  5
66
  8
TEAM-DET1
 10
-65.792683
 20
-209.819268
 30
0.0
 40
10.121951
  0
LINE
  5
67
  8
TEAM-AXE
 10
65.792683
 20
-230.063171
 30
0.0
 11
65.792683
 21
-189.575366
 31
0.0
  0
LINE
  5
68
  8
TEAM-AXE
 10
45.54878
 20
-209.819268
 30
0.0
 11
86.036585
 21
-209.819268
 31
0.0
  0
LINE
  5
69
  8
TEAM-AXE
 10
-86.036585
 20
-209.819268
 30
0.0
 11
-45.54878
 21
-209.819268
 31
0.0
  0
LINE
  5
6A
  8
TEAM-AXE
 10
-65.792683
 20
-230.063171
 30
0.0
 11
-65.792683
 21
-189.575366
 31
0.0
  0
CIRCLE
  5
6B
  8
TEAM-BODY
 10
0.0
 20
-432.502195
 30
0.0
 40
167.012195
  0
ENDSEC
  0
EOF
