  0
SECTION
  2
HEADER
  9
$ACADVER
  1
AC1009
  9
$INSBASE
 10
0.0
 20
0.0
 30
0.0
  9
$EXTMIN
 10
-243.691876
 20
-40.008058
 30
-10.000696
  9
$EXTMAX
 10
655.257456
 20
1113.409286
 30
0.000071
  9
$LIMMIN
 10
-243.691876
 20
-40.008058
  9
$LIMMAX
 10
655.257456
 20
1113.409286
  9
$ORTHOMODE
 70
     1
  9
$REGENMODE
 70
     1
  9
$FILLMODE
 70
     1
  9
$QTEXTMODE
 70
     0
  9
$MIRRTEXT
 70
     0
  9
$DRAGMODE
 70
     2
  9
$LTSCALE
 40
50.0
  9
$OSMODE
 70
     7
  9
$ATTMODE
 70
     1
  9
$TEXTSIZE
 40
200.0
  9
$TRACEWID
 40
1.0
  9
$TEXTSTYLE
  7
STANDARD
  9
$CLAYER
  8
TEAM-MAS
  9
$CELTYPE
  6
BYLAYER
  9
$CECOLOR
 62
   256
  9
$DIMSCALE
 40
0.0
  9
$DIMASZ
 40
20.0
  9
$DIMEXO
 40
10.0
  9
$DIMDLI
 40
1.0
  9
$DIMRND
 40
0.0
  9
$DIMDLE
 40
0.0
  9
$DIMEXE
 40
1.0
  9
$DIMTP
 40
0.0
  9
$DIMTM
 40
0.0
  9
$DIMTXT
 40
35.0
  9
$DIMCEN
 40
1.0
  9
$DIMTSZ
 40
0.0
  9
$DIMTOL
 70
     0
  9
$DIMLIM
 70
     0
  9
$DIMTIH
 70
     0
  9
$DIMTOH
 70
     0
  9
$DIMSE1
 70
     0
  9
$DIMSE2
 70
     0
  9
$DIMTAD
 70
     0
  9
$DIMZIN
 70
     0
  9
$DIMBLK
  1

  9
$DIMASO
 70
     1
  9
$DIMSHO
 70
     0
  9
$DIMPOST
  1

  9
$DIMAPOST
  1

  9
$DIMALT
 70
     0
  9
$DIMALTD
 70
     2
  9
$DIMALTF
 40
25.4
  9
$DIMLFAC
 40
1.0
  9
$DIMTOFL
 70
     0
  9
$DIMTVP
 40
0.0
  9
$DIMTIX
 70
     0
  9
$DIMSOXD
 70
     0
  9
$DIMSAH
 70
     0
  9
$DIMBLK1
  1

  9
$DIMBLK2
  1

  9
$DIMSTYLE
  2
TEAM
  9
$DIMCLRD
 70
     9
  9
$DIMCLRE
 70
     9
  9
$DIMCLRT
 70
    11
  9
$DIMTFAC
 40
1.0
  9
$DIMGAP
 40
15.0
  9
$LUNITS
 70
     2
  9
$LUPREC
 70
     1
  9
$SKETCHINC
 40
1.0
  9
$FILLETRAD
 40
10.0
  9
$AUNITS
 70
     0
  9
$AUPREC
 70
     0
  9
$MENU
  1
ROPLANS
  9
$ELEVATION
 40
0.0
  9
$PELEVATION
 40
0.0
  9
$THICKNESS
 40
0.0
  9
$LIMCHECK
 70
     0
  9
$BLIPMODE
 70
     1
  9
$CHAMFERA
 40
0.0
  9
$CHAMFERB
 40
0.0
  9
$SKPOLY
 70
     0
  9
$TDCREATE
 40
2450392.957851
  9
$TDUPDATE
 40
2455904.710421
  9
$TDINDWG
 40
2.049913
  9
$TDUSRTIMER
 40
2.049913
  9
$USRTIMER
 70
     1
  9
$ANGBASE
 50
0.0
  9
$ANGDIR
 70
     0
  9
$PDMODE
 70
     0
  9
$PDSIZE
 40
0.0
  9
$PLINEWID
 40
0.0
  9
$COORDS
 70
     2
  9
$SPLFRAME
 70
     0
  9
$SPLINETYPE
 70
     6
  9
$SPLINESEGS
 70
     8
  9
$ATTDIA
 70
     0
  9
$ATTREQ
 70
     0
  9
$HANDLING
 70
     1
  9
$HANDSEED
  5
113
  9
$SURFTAB1
 70
    24
  9
$SURFTAB2
 70
    24
  9
$SURFTYPE
 70
     6
  9
$SURFU
 70
     6
  9
$SURFV
 70
     6
  9
$UCSNAME
  2

  9
$UCSORG
 10
0.0
 20
0.0
 30
0.0
  9
$UCSXDIR
 10
1.0
 20
0.0
 30
0.0
  9
$UCSYDIR
 10
0.0
 20
1.0
 30
0.0
  9
$PUCSNAME
  2

  9
$PUCSORG
 10
0.0
 20
0.0
 30
0.0
  9
$PUCSXDIR
 10
1.0
 20
0.0
 30
0.0
  9
$PUCSYDIR
 10
0.0
 20
1.0
 30
0.0
  9
$USERI1
 70
     0
  9
$USERI2
 70
     0
  9
$USERI3
 70
     0
  9
$USERI4
 70
     0
  9
$USERI5
 70
     0
  9
$USERR1
 40
0.0
  9
$USERR2
 40
0.0
  9
$USERR3
 40
0.0
  9
$USERR4
 40
0.0
  9
$USERR5
 40
0.0
  9
$WORLDVIEW
 70
     1
  9
$SHADEDGE
 70
     0
  9
$SHADEDIF
 70
    70
  9
$TILEMODE
 70
     1
  9
$MAXACTVP
 70
    16
  9
$PLIMCHECK
 70
     0
  9
$PEXTMIN
 10
-0.805942
 20
0.005011
 30
0.0
  9
$PEXTMAX
 10
20.250094
 20
11.356329
 30
0.0
  9
$PLIMMIN
 10
0.0
 20
0.0
  9
$PLIMMAX
 10
12.0
 20
9.0
  9
$UNITMODE
 70
     0
  9
$VISRETAIN
 70
     0
  9
$PLINEGEN
 70
     0
  9
$PSLTSCALE
 70
     0
  0
ENDSEC
  0
SECTION
  2
TABLES
  0
TABLE
  2
VPORT
 70
     2
  0
VPORT
  2
*ACTIVE
 70
     0
 10
0.0
 20
0.0
 11
1.0
 21
1.0
 12
205.78279
 22
536.700614
 13
0.0
 23
0.0
 14
1.0
 24
1.0
 15
50.0
 25
50.0
 16
0.0
 26
0.0
 36
1.0
 17
0.0
 27
0.0
 37
0.0
 40
1160.648801
 41
1.903766
 42
50.0
 43
0.0
 44
0.0
 50
0.0
 51
0.0
 71
     0
 72
   100
 73
     1
 74
     1
 75
     0
 76
     0
 77
     0
 78
     0
  0
ENDTAB
  0
TABLE
  2
LTYPE
 70
     3
  0
LTYPE
  2
CONTINUOUS
 70
     0
  3
Solid Line
 72
    65
 73
     0
 40
0.0
  0
LTYPE
  2
31
 70
     0
  3

 72
    65
 73
     4
 40
2.1
 49
1.5
 49
-0.3
 49
0.0
 49
-0.3
  0
LTYPE
  2
22
 70
     0
  3

 72
    65
 73
     2
 40
1.4
 49
1.2
 49
-0.2
  0
ENDTAB
  0
TABLE
  2
LAYER
 70
     8
  0
LAYER
  2
0
 70
     0
 62
     7
  6
CONTINUOUS
  0
LAYER
  2
DEFPOINTS
 70
     0
 62
     7
  6
CONTINUOUS
  0
LAYER
  2
TEAM-BODY
 70
     0
 62
     2
  6
CONTINUOUS
  0
LAYER
  2
TEAM-AXE
 70
     0
 62
    10
  6
31
  0
LAYER
  2
TEAM-MAS
 70
     0
 62
     9
  6
CONTINUOUS
  0
LAYER
  2
TEAM-TXT
 70
     0
 62
    11
  6
CONTINUOUS
  0
LAYER
  2
TEAM-HIDE
 70
     0
 62
     8
  6
22
  0
LAYER
  2
TEAM-INSP
 70
     0
 62
     5
  6
CONTINUOUS
  0
ENDTAB
  0
TABLE
  2
STYLE
 70
     2
  0
STYLE
  2
STANDARD
 70
     0
 40
0.0
 41
1.0
 50
0.0
 71
     0
 42
200.0
  3
txt
  4

  0
STYLE
  2
TEAM
 70
     0
 40
0.0
 41
0.8
 50
15.0
 71
     0
 42
7.0
  3
ROMANS.shx
  4

  0
ENDTAB
  0
TABLE
  2
VIEW
 70
     0
  0
ENDTAB
  0
TABLE
  2
UCS
 70
     0
  0
ENDTAB
  0
TABLE
  2
APPID
 70
     1
  0
APPID
  2
ACAD
 70
     0
  0
ENDTAB
  0
TABLE
  2
DIMSTYLE
 70
     1
  0
DIMSTYLE
  2
TEAM
 70
     0
  3

  4

  5

  6

  7

 40
0.0
 41
20.0
 42
10.0
 43
1.0
 44
1.0
 45
0.0
 46
0.0
 47
0.0
 48
0.0
140
35.0
141
1.0
142
0.0
143
25.4
144
1.0
145
0.0
146
1.0
147
15.0
 71
     0
 72
     0
 73
     0
 74
     0
 75
     0
 76
     0
 77
     0
 78
     0
170
     0
171
     2
172
     0
173
     0
174
     0
175
     0
176
     9
177
     9
178
    11
  0
ENDTAB
  0
ENDSEC
  0
SECTION
  2
BLOCKS
  0
BLOCK
  8
0
  2
$MODEL_SPACE
 70
     0
 10
0.0
 20
0.0
 30
0.0
  3
$MODEL_SPACE
  1

  0
ENDBLK
  5
FF
  8
0
  0
BLOCK
 67
     1
  8
0
  2
$PAPER_SPACE
 70
     0
 10
0.0
 20
0.0
 30
0.0
  3
$PAPER_SPACE
  1

  0
ENDBLK
  5
FD
 67
     1
  8
0
  0
BLOCK
  8
0
  2
*D0
 70
     1
 10
0.0
 20
0.0
 30
0.0
  3
*D0
  1

  0
LINE
  5
41
  8
0
  6
BYBLOCK
 62
     9
 10
7990.0
 20
0.0
 30
0.0
 11
7923.625274
 21
0.0
 31
0.0
  0
LINE
  5
42
  8
0
  6
BYBLOCK
 62
     9
 10
8011.704412
 20
180.0
 30
0.0
 11
7923.625274
 21
180.0
 31
0.0
  0
LINE
  5
43
  8
0
  6
BYBLOCK
 62
     9
 10
7924.625274
 20
-20.0
 30
0.0
 11
7924.625274
 21
-40.0
 31
0.0
  0
LINE
  5
44
  8
0
  6
BYBLOCK
 62
     9
 10
7924.625274
 20
200.0
 30
0.0
 11
7924.625274
 21
220.0
 31
0.0
  0
SOLID
  5
45
  8
0
  6
BYBLOCK
 62
     9
 10
7921.291941
 20
-20.0
 30
0.0
 11
7927.958607
 21
-20.0
 31
0.0
 12
7924.625274
 22
0.0
 32
0.0
 13
7924.625274
 23
0.0
 33
0.0
  0
SOLID
  5
46
  8
0
  6
BYBLOCK
 62
     9
 10
7921.291941
 20
200.0
 30
0.0
 11
7927.958607
 21
200.0
 31
0.0
 12
7924.625274
 22
180.0
 32
0.0
 13
7924.625274
 23
180.0
 33
0.0
  0
TEXT
  5
47
  8
0
  6
BYBLOCK
 62
    11
 10
7942.125274
 20
17.083333
 30
0.0
 40
35.0
  1
180.00
 50
90.0
  0
POINT
  5
48
  8
DEFPOINTS
  6
BYBLOCK
 62
     0
 10
8000.0
 20
0.0
 30
10.0
  0
POINT
  5
49
  8
DEFPOINTS
  6
BYBLOCK
 62
     0
 10
8021.704412
 20
180.0
 30
10.0
  0
POINT
  5
4A
  8
DEFPOINTS
  6
BYBLOCK
 62
     0
 10
7924.625274
 20
180.0
 30
0.0
  0
ENDBLK
  5
4C
  8
0
  0
BLOCK
  8
0
  2
*D1
 70
     1
 10
0.0
 20
0.0
 30
0.0
  3
*D1
  1

  0
LINE
  5
33
  8
0
  6
BYBLOCK
 62
     9
 10
8000.0
 20
10.0
 30
0.0
 11
8000.0
 21
1096.869075
 31
0.0
  0
LINE
  5
34
  8
0
  6
BYBLOCK
 62
     9
 10
8640.0
 20
388.790391
 30
0.0
 11
8640.0
 21
1096.869075
 31
0.0
  0
LINE
  5
35
  8
0
  6
BYBLOCK
 62
     9
 10
8020.0
 20
1095.869075
 30
0.0
 11
8226.25
 21
1095.869075
 31
0.0
  0
LINE
  5
36
  8
0
  6
BYBLOCK
 62
     9
 10
8620.0
 20
1095.869075
 30
0.0
 11
8413.75
 21
1095.869075
 31
0.0
  0
SOLID
  5
37
  8
0
  6
BYBLOCK
 62
     9
 10
8020.0
 20
1099.202408
 30
0.0
 11
8020.0
 21
1092.535742
 31
0.0
 12
8000.0
 22
1095.869075
 32
0.0
 13
8000.0
 23
1095.869075
 33
0.0
  0
SOLID
  5
38
  8
0
  6
BYBLOCK
 62
     9
 10
8620.0
 20
1099.202408
 30
0.0
 11
8620.0
 21
1092.535742
 31
0.0
 12
8640.0
 22
1095.869075
 32
0.0
 13
8640.0
 23
1095.869075
 33
0.0
  0
TEXT
  5
39
  8
0
  6
BYBLOCK
 62
    11
 10
8241.25
 20
1078.369075
 30
0.0
 40
35.0
  1
640.00
  0
POINT
  5
3A
  8
DEFPOINTS
  6
BYBLOCK
 62
     0
 10
8000.0
 20
0.0
 30
10.0
  0
POINT
  5
3B
  8
DEFPOINTS
  6
BYBLOCK
 62
     0
 10
8640.0
 20
378.790391
 30
10.0
  0
POINT
  5
3C
  8
DEFPOINTS
  6
BYBLOCK
 62
     0
 10
8640.0
 20
1095.869075
 30
0.0
  0
ENDBLK
  5
3E
  8
0
  0
BLOCK
  8
0
  2
*D2
 70
     1
 10
0.0
 20
0.0
 30
0.0
  3
*D2
  1

  0
LINE
  5
A6
  8
0
  6
BYBLOCK
 62
     9
 10
7990.0
 20
0.0
 30
0.0
 11
7772.813775
 21
0.0
 31
0.0
  0
LINE
  5
A7
  8
0
  6
BYBLOCK
 62
     9
 10
8058.197805
 20
1045.0
 30
0.0
 11
7772.813775
 21
1045.0
 31
0.0
  0
LINE
  5
A8
  8
0
  6
BYBLOCK
 62
     9
 10
7773.813775
 20
20.0
 30
0.0
 11
7773.813775
 21
417.083333
 31
0.0
  0
LINE
  5
A9
  8
0
  6
BYBLOCK
 62
     9
 10
7773.813775
 20
1025.0
 30
0.0
 11
7773.813775
 21
627.916667
 31
0.0
  0
SOLID
  5
AA
  8
0
  6
BYBLOCK
 62
     9
 10
7770.480442
 20
20.0
 30
0.0
 11
7777.147109
 21
20.0
 31
0.0
 12
7773.813775
 22
0.0
 32
0.0
 13
7773.813775
 23
0.0
 33
0.0
  0
SOLID
  5
AB
  8
0
  6
BYBLOCK
 62
     9
 10
7770.480442
 20
1025.0
 30
0.0
 11
7777.147109
 21
1025.0
 31
0.0
 12
7773.813775
 22
1045.0
 32
0.0
 13
7773.813775
 23
1045.0
 33
0.0
  0
TEXT
  5
AC
  8
0
  6
BYBLOCK
 62
    11
 10
7791.313775
 20
432.083333
 30
0.0
 40
35.0
  1
1045.00
 50
90.0
  0
POINT
  5
AD
  8
DEFPOINTS
  6
BYBLOCK
 62
     0
 10
8000.0
 20
0.0
 30
0.0
  0
POINT
  5
AE
  8
DEFPOINTS
  6
BYBLOCK
 62
     0
 10
8068.197805
 20
1045.0
 30
0.0
  0
POINT
  5
AF
  8
DEFPOINTS
  6
BYBLOCK
 62
     0
 10
7773.813775
 20
1045.0
 30
0.0
  0
ENDBLK
  5
B1
  8
0
  0
BLOCK
  8
0
  2
*D3
 70
     1
 10
0.0
 20
0.0
 30
0.0
  3
*D3
  1

  0
LINE
  5
22
  8
0
  6
BYBLOCK
 62
     9
 10
7990.0
 20
0.0
 30
0.0
 11
7847.827857
 21
0.0
 31
0.0
  0
LINE
  5
23
  8
0
  6
BYBLOCK
 62
     9
 10
7973.419244
 20
935.0
 30
0.0
 11
7847.827857
 21
935.0
 31
0.0
  0
LINE
  5
24
  8
0
  6
BYBLOCK
 62
     9
 10
7848.827857
 20
20.0
 30
0.0
 11
7848.827857
 21
370.833333
 31
0.0
  0
LINE
  5
25
  8
0
  6
BYBLOCK
 62
     9
 10
7848.827857
 20
915.0
 30
0.0
 11
7848.827857
 21
564.166667
 31
0.0
  0
SOLID
  5
26
  8
0
  6
BYBLOCK
 62
     9
 10
7845.494523
 20
20.0
 30
0.0
 11
7852.16119
 21
20.0
 31
0.0
 12
7848.827857
 22
0.0
 32
0.0
 13
7848.827857
 23
0.0
 33
0.0
  0
SOLID
  5
27
  8
0
  6
BYBLOCK
 62
     9
 10
7845.494523
 20
915.0
 30
0.0
 11
7852.16119
 21
915.0
 31
0.0
 12
7848.827857
 22
935.0
 32
0.0
 13
7848.827857
 23
935.0
 33
0.0
  0
TEXT
  5
28
  8
0
  6
BYBLOCK
 62
    11
 10
7866.327857
 20
385.833333
 30
0.0
 40
35.0
  1
935.00
 50
90.0
  0
POINT
  5
29
  8
DEFPOINTS
  6
BYBLOCK
 62
     0
 10
8000.0
 20
0.0
 30
10.0
  0
POINT
  5
2B
  8
DEFPOINTS
  6
BYBLOCK
 62
     0
 10
7983.419244
 20
935.0
 30
10.0
  0
POINT
  5
2C
  8
DEFPOINTS
  6
BYBLOCK
 62
     0
 10
7848.827857
 20
935.0
 30
0.0
  0
ENDBLK
  5
2E
  8
0
  0
ENDSEC
  0
SECTION
  2
ENTITIES
  0
DIMENSION
  5
20
  8
TEAM-MAS
  2
*D3
 10
-151.172143
 20
935.0
 30
-10.0
 11
-151.172143
 21
467.5
 31
-10.0
 12
-8000.0
 22
0.0
 32
-10.0
 13
0.0
 23
0.0
 33
0.0
 14
-16.580756
 24
935.0
 34
0.0
 50
90.0
  0
LINE
  5
2F
  8
TEAM-BODY
 10
142.6796
 20
997.997772
 30
0.0
 11
0.0
 21
997.997772
 31
-10.0
  0
DIMENSION
  5
31
  8
TEAM-MAS
  2
*D1
 10
640.0
 20
1095.869075
 30
-10.0
 11
320.0
 21
1095.869075
 31
-10.0
 12
-8000.0
 22
0.0
 32
-10.0
 13
0.0
 23
0.0
 33
0.0
 14
640.0
 24
378.790391
 34
0.0
  0
DIMENSION
  5
3F
  8
TEAM-MAS
  2
*D0
 10
-75.374726
 20
180.0
 30
-10.0
 11
-75.374726
 21
90.0
 31
-10.0
 12
-8000.0
 22
0.0
 32
-10.0
 13
0.0
 23
0.0
 33
0.0
 14
21.704412
 24
180.0
 34
0.0
 50
90.0
  0
ARC
  5
4D
  8
TEAM-HIDE
 10
709.61921
 20
366.108244
 30
0.0
 40
490.32305
 50
177.791893
 51
195.99476
  0
LINE
  5
50
  8
TEAM-HIDE
 10
220.0
 20
231.0
 30
0.0
 11
238.278086
 21
231.0
 31
0.0
  0
LINE
  5
51
  8
TEAM-HIDE
 10
253.23774
 20
318.708431
 30
0.0
 11
243.564082
 21
385.0
 31
0.0
  0
ARC
  5
52
  8
TEAM-HIDE
 10
258.163021
 20
319.569602
 30
0.0
 40
5.0
 50
189.917739
 51
273.849274
  0
LINE
  5
53
  8
TEAM-HIDE
 10
618.487749
 20
349.76745
 30
0.0
 11
258.49868
 21
314.580881
 31
0.0
  0
LINE
  5
54
  8
TEAM-HIDE
 10
239.097407
 20
306.311707
 30
0.0
 11
254.01221
 21
314.279015
 31
0.0
  0
ARC
  5
55
  8
TEAM-BODY
 10
1263.228742
 20
436.553495
 30
0.0
 40
1058.732792
 50
182.791041
 51
204.351655
  0
POLYLINE
  5
56
  8
TEAM-HIDE
 66
     1
 10
0.0
 20
0.0
 30
0.0
 70
     1
  0
VERTEX
  5
105
  8
TEAM-HIDE
 10
10.0
 20
10.0
 30
0.0
  0
VERTEX
  5
106
  8
TEAM-HIDE
 10
49.146594
 20
10.0
 30
0.0
  0
VERTEX
  5
107
  8
TEAM-HIDE
 10
49.146594
 20
97.65495
 30
0.0
  0
VERTEX
  5
108
  8
TEAM-HIDE
 10
10.0
 20
85.551041
 30
0.0
  0
SEQEND
  5
109
  8
TEAM-HIDE
  0
POLYLINE
  5
57
  8
TEAM-HIDE
 66
     1
 10
0.0
 20
0.0
 30
0.0
 70
     1
  0
VERTEX
  5
10A
  8
TEAM-HIDE
 10
0.0
 20
0.0
 30
0.0
  0
VERTEX
  5
10B
  8
TEAM-HIDE
 10
59.146594
 20
0.0
 30
0.0
  0
VERTEX
  5
10C
  8
TEAM-HIDE
 10
59.146594
 20
111.213991
 30
0.0
  0
VERTEX
  5
10D
  8
TEAM-HIDE
 10
0.0
 20
92.926193
 30
0.0
  0
SEQEND
  5
10E
  8
TEAM-HIDE
  0
ARC
  5
58
  8
TEAM-HIDE
 10
231.242152
 20
312.5
 30
0.0
 40
10.0
 50
270.0
 51
321.769306
  0
ARC
  5
59
  8
TEAM-HIDE
 10
-101.908244
 20
7.097237
 30
0.0
 40
453.667448
 50
7.791265
 51
41.265244
  0
LINE
  5
5A
  8
TEAM-HIDE
 10
0.0
 20
302.5
 30
0.0
 11
231.242152
 21
302.5
 31
0.0
  0
LINE
  5
5B
  8
TEAM-BODY
 10
0.0
 20
0.0
 30
0.0
 11
0.0
 21
380.0
 31
0.0
  0
LINE
  5
5C
  8
TEAM-BODY
 10
537.744092
 20
0.0
 30
0.0
 11
0.0
 21
0.0
 31
0.0
  0
ARC
  5
5D
  8
TEAM-HIDE
 10
442.277627
 20
103.898328
 30
0.0
 40
10.0
 50
97.811382
 51
164.63751
  0
ARC
  5
5E
  8
TEAM-HIDE
 10
461.247796
 20
126.688079
 30
0.0
 40
10.0
 50
277.811382
 51
354.803714
  0
ARC
  5
5F
  8
TEAM-HIDE
 10
487.239798
 20
191.668869
 30
0.0
 40
10.0
 50
107.207934
 51
174.803714
  0
LINE
  5
60
  8
TEAM-HIDE
 10
462.60692
 20
116.78087
 30
0.0
 11
440.918503
 21
113.805537
 31
0.0
  0
LINE
  5
61
  8
TEAM-HIDE
 10
477.280895
 20
192.57455
 30
0.0
 11
471.206699
 21
125.782398
 31
0.0
  0
LINE
  5
62
  8
TEAM-HIDE
 10
509.430007
 20
0.0
 30
0.0
 11
506.667547
 21
209.683191
 31
0.0
  0
ARC
  5
63
  8
TEAM-BODY
 10
-531.810082
 20
473.812632
 30
0.0
 40
1175.656453
 50
336.635979
 51
355.364021
  0
ARC
  5
64
  8
TEAM-BODY
 10
537.744092
 20
10.0
 30
0.0
 40
10.0
 50
270.0
 51
346.0
  0
ARC
  5
65
  8
TEAM-BODY
 10
635.148521
 20
380.0
 30
0.0
 40
5.0
 50
346.0
 51
90.0
  0
LINE
  5
66
  8
TEAM-BODY
 10
137.503565
 20
385.0
 30
0.0
 11
635.148521
 21
385.0
 31
0.0
  0
ARC
  5
67
  8
TEAM-BODY
 10
149.998985
 20
408.127124
 30
0.0
 40
26.286868
 50
204.807631
 51
241.617963
  0
ARC
  5
68
  8
TEAM-BODY
 10
121.599219
 20
395.0
 30
0.0
 40
5.0
 50
24.807631
 51
90.0
  0
LINE
  5
69
  8
TEAM-BODY
 10
10.0
 20
400.0
 30
0.0
 11
121.599219
 21
400.0
 31
0.0
  0
ARC
  5
6A
  8
TEAM-BODY
 10
10.0
 20
395.0
 30
0.0
 40
5.0
 50
90.0
 51
180.0
  0
LINE
  5
6B
  8
TEAM-BODY
 10
5.0
 20
385.0
 30
0.0
 11
5.0
 21
395.0
 31
0.0
  0
ARC
  5
6C
  8
TEAM-BODY
 10
5.0
 20
380.0
 30
0.0
 40
5.0
 50
90.0
 51
180.0
  0
ARC
  5
6D
  8
TEAM-BODY
 10
132.6796
 20
1035.0
 30
0.0
 40
10.0
 50
0.0
 51
90.0
  0
LINE
  5
6E
  8
TEAM-BODY
 10
142.6796
 20
1035.0
 30
0.0
 11
142.6796
 21
997.997772
 31
0.0
  0
LINE
  5
6F
  8
TEAM-AXE
 10
21.704412
 20
180.0
 30
0.0
 11
274.891008
 21
180.0
 31
0.0
  0
CIRCLE
  5
72
  8
TEAM-BODY
 10
264.92631
 20
27.5
 30
0.0
 40
10.0
  0
LINE
  5
73
  8
TEAM-BODY
 10
121.599219
 20
385.0
 30
0.0
 11
121.599219
 21
0.0
 31
0.0
  0
ARC
  5
74
  8
TEAM-HIDE
 10
426.271255
 20
388.529897
 30
0.0
 40
196.085971
 50
287.207934
 51
348.598624
  0
ARC
  5
75
  8
TEAM-HIDE
 10
604.102961
 20
358.822197
 30
0.0
 40
5.0
 50
166.0
 51
273.849274
  0
LINE
  5
76
  8
TEAM-HIDE
 10
634.278122
 20
355.841191
 30
0.0
 11
604.438621
 21
353.833477
 31
0.0
  0
LINE
  5
77
  8
TEAM-HIDE
 10
605.476753
 20
385.0
 30
0.0
 11
599.251483
 21
360.031807
 31
0.0
  0
ARC
  5
78
  8
TEAM-HIDE
 10
236.729399
 20
160.370993
 30
0.0
 40
203.164809
 50
319.432905
 51
344.63751
  0
ARC
  5
79
  8
TEAM-HIDE
 10
338.282031
 20
85.941079
 30
0.0
 40
78.195879
 50
251.402395
 51
312.452426
  0
ARC
  5
7A
  8
TEAM-HIDE
 10
1270.104856
 20
300.954986
 30
0.0
 40
1027.797736
 50
189.865481
 51
193.743641
  0
ARC
  5
7B
  8
TEAM-HIDE
 10
336.997795
 20
75.460192
 30
0.0
 40
67.885997
 50
195.978505
 51
249.608276
  0
LINE
  5
7C
  8
TEAM-HIDE
 10
220.0
 20
231.0
 30
0.0
 11
220.0
 21
129.0
 31
0.0
  0
ARC
  5
7D
  8
TEAM-HIDE
 10
252.579379
 20
124.0
 30
0.0
 40
5.0
 50
9.865481
 51
90.0
  0
LINE
  5
7E
  8
TEAM-HIDE
 10
220.0
 20
129.0
 30
0.0
 11
252.579379
 21
129.0
 31
0.0
  0
LINE
  5
7F
  8
TEAM-HIDE
 10
87.5
 20
387.00388
 30
0.0
 11
87.5
 21
372.00388
 31
0.0
  0
LINE
  5
80
  8
TEAM-HIDE
 10
97.5
 20
393.691069
 30
0.0
 11
97.5
 21
387.00388
 31
0.0
  0
LINE
  5
81
  8
TEAM-HIDE
 10
120.0
 20
403.691069
 30
0.0
 11
120.0
 21
396.691069
 31
0.0
  0
ARC
  5
82
  8
TEAM-HIDE
 10
117.0
 20
396.691069
 30
0.0
 40
3.0
 50
270.0
 51
0.0
  0
TEXT
  5
83
  8
TEAM-TXT
 10
299.433564
 20
288.207658
 30
0.0
 40
30.0
  1
team 343023
 41
0.8
 51
15.0
  7
TEAM
  0
ARC
  5
86
  8
TEAM-BODY
 10
-9114.356605
 20
873.000622
 30
0.0
 40
9254.324034
 50
357.09254
 51
0.773911
  0
LINE
  5
87
  8
TEAM-AXE
 10
11.419244
 20
935.0
 30
0.0
 11
-16.580756
 21
935.0
 31
0.0
  0
CIRCLE
  5
88
  8
TEAM-INSP
 10
0.0
 20
0.0
 30
0.0
 40
10.0
  0
LINE
  5
8A
  8
TEAM-HIDE
 10
22.5
 20
387.00388
 30
0.0
 11
22.5
 21
372.00388
 31
0.0
  0
LINE
  5
8B
  8
TEAM-HIDE
 10
12.5
 20
393.691069
 30
0.0
 11
12.5
 21
387.00388
 31
0.0
  0
LINE
  5
8C
  8
TEAM-HIDE
 10
7.266079
 20
403.691069
 30
0.0
 11
7.266079
 21
396.691069
 31
0.0
  0
ARC
  5
8D
  8
TEAM-HIDE
 10
10.266079
 20
396.691069
 30
0.0
 40
3.0
 50
180.0
 51
270.0
  0
POLYLINE
  5
8E
  8
TEAM-AXE
 66
     1
 10
0.0
 20
0.0
 30
0.0
  0
VERTEX
  5
10F
  8
TEAM-AXE
 10
55.0
 20
360.331567
 30
0.0
  0
VERTEX
  5
110
  8
TEAM-AXE
 10
55.0
 20
420.324175
 30
0.0
  0
SEQEND
  5
111
  8
TEAM-AXE
  0
ARC
  5
8F
  8
TEAM-BODY
 10
-18120.100203
 20
724.345534
 30
0.0
 40
18122.937142
 50
358.986196
 51
1.013804
  0
LINE
  5
90
  8
TEAM-BODY
 10
137.503565
 20
385.0
 30
0.0
 11
5.0
 21
385.0
 31
0.0
  0
POLYLINE
  5
91
  8
TEAM-BODY
 66
     1
 10
0.0
 20
0.0
 30
0.0
 70
    12
 75
     6
  0
VERTEX
  5
92
  8
TEAM-BODY
 10
128.054903
 20
403.593718
 30
0.0
 70
    48
  0
VERTEX
  5
93
  8
TEAM-BODY
 10
128.054903
 20
403.593718
 30
0.0
 70
    40
  0
VERTEX
  5
94
  8
TEAM-BODY
 10
122.697291
 20
403.602084
 30
0.0
 70
    40
  0
VERTEX
  5
95
  8
TEAM-BODY
 10
108.572676
 20
403.62414
 30
0.0
 70
    40
  0
VERTEX
  5
96
  8
TEAM-BODY
 10
88.603394
 20
403.655323
 30
0.0
 70
    40
  0
VERTEX
  5
97
  8
TEAM-BODY
 10
65.711778
 20
403.691069
 30
0.0
 70
    40
  0
VERTEX
  5
98
  8
TEAM-BODY
 10
42.820162
 20
403.726815
 30
0.0
 70
    40
  0
VERTEX
  5
99
  8
TEAM-BODY
 10
22.85088
 20
403.757997
 30
0.0
 70
    40
  0
VERTEX
  5
9A
  8
TEAM-BODY
 10
8.726265
 20
403.780053
 30
0.0
 70
    40
  0
VERTEX
  5
9B
  8
TEAM-BODY
 10
3.368653
 20
403.788419
 30
0.0
 70
    40
  0
VERTEX
  5
9C
  8
TEAM-BODY
 10
128.054903
 20
403.593718
 30
0.0
 70
    48
  0
VERTEX
  5
9D
  8
TEAM-BODY
 10
3.368653
 20
403.788419
 30
0.0
 70
    48
  0
VERTEX
  5
9E
  8
TEAM-BODY
 10
3.368653
 20
403.788419
 30
0.0
 70
    48
  0
SEQEND
  5
9F
  8
TEAM-BODY
  0
LINE
  5
A0
  8
TEAM-HIDE
 10
22.5
 20
372.00388
 30
0.0
 11
87.5
 21
372.00388
 31
0.0
  0
LINE
  5
A1
  8
TEAM-HIDE
 10
12.5
 20
387.00388
 30
0.0
 11
97.5
 21
387.00388
 31
0.0
  0
LINE
  5
A2
  8
TEAM-HIDE
 10
10.266079
 20
393.691069
 30
0.0
 11
117.0
 21
393.691069
 31
0.0
  0
LINE
  5
A3
  8
TEAM-BODY
 10
132.6796
 20
1045.0
 30
0.0
 11
0.0
 21
1045.0
 31
0.0
  0
DIMENSION
  5
A4
  8
TEAM-MAS
  2
*D2
 10
-226.186225
 20
1045.0
 30
0.0
 11
-226.186225
 21
522.5
 31
0.0
 12
-8000.0
 22
0.0
 32
0.0
 13
0.0
 23
0.0
 33
0.0
 14
68.197805
 24
1045.0
 34
0.0
 50
90.0
  0
ENDSEC
  0
EOF
