  0
SECTION
  2
HEADER
  9
$ACADVER
  1
AC1009
  9
$INSBASE
 10
0.0
 20
0.0
 30
0.0
  9
$EXTMIN
 10
-265.493088
 20
-10.0359
 30
-10.000305
  9
$EXTMAX
 10
269.116519
 20
1166.491719
 30
0.000305
  9
$LIMMIN
 10
-265.493088
 20
-10.0359
  9
$LIMMAX
 10
269.116519
 20
1166.491719
  9
$ORTHOMODE
 70
     1
  9
$REGENMODE
 70
     1
  9
$FILLMODE
 70
     1
  9
$QTEXTMODE
 70
     0
  9
$MIRRTEXT
 70
     0
  9
$DRAGMODE
 70
     2
  9
$LTSCALE
 40
25.0
  9
$OSMODE
 70
     0
  9
$ATTMODE
 70
     1
  9
$TEXTSIZE
 40
200.0
  9
$TRACEWID
 40
1.0
  9
$TEXTSTYLE
  7
STANDARD
  9
$CLAYER
  8
TEAM-MAS
  9
$CELTYPE
  6
BYLAYER
  9
$CECOLOR
 62
   256
  9
$DIMSCALE
 40
0.0
  9
$DIMASZ
 40
20.0
  9
$DIMEXO
 40
10.0
  9
$DIMDLI
 40
1.0
  9
$DIMRND
 40
0.0
  9
$DIMDLE
 40
0.0
  9
$DIMEXE
 40
1.0
  9
$DIMTP
 40
0.0
  9
$DIMTM
 40
0.0
  9
$DIMTXT
 40
35.0
  9
$DIMCEN
 40
1.0
  9
$DIMTSZ
 40
0.0
  9
$DIMTOL
 70
     0
  9
$DIMLIM
 70
     0
  9
$DIMTIH
 70
     0
  9
$DIMTOH
 70
     0
  9
$DIMSE1
 70
     0
  9
$DIMSE2
 70
     0
  9
$DIMTAD
 70
     0
  9
$DIMZIN
 70
     0
  9
$DIMBLK
  1

  9
$DIMASO
 70
     1
  9
$DIMSHO
 70
     0
  9
$DIMPOST
  1

  9
$DIMAPOST
  1

  9
$DIMALT
 70
     0
  9
$DIMALTD
 70
     2
  9
$DIMALTF
 40
25.4
  9
$DIMLFAC
 40
1.0
  9
$DIMTOFL
 70
     0
  9
$DIMTVP
 40
0.0
  9
$DIMTIX
 70
     0
  9
$DIMSOXD
 70
     0
  9
$DIMSAH
 70
     0
  9
$DIMBLK1
  1

  9
$DIMBLK2
  1

  9
$DIMSTYLE
  2
TEAM
  9
$DIMCLRD
 70
     9
  9
$DIMCLRE
 70
     9
  9
$DIMCLRT
 70
    11
  9
$DIMTFAC
 40
1.0
  9
$DIMGAP
 40
15.0
  9
$LUNITS
 70
     2
  9
$LUPREC
 70
     1
  9
$SKETCHINC
 40
1.0
  9
$FILLETRAD
 40
50.0
  9
$AUNITS
 70
     0
  9
$AUPREC
 70
     0
  9
$MENU
  1
ROPLANS
  9
$ELEVATION
 40
0.0
  9
$PELEVATION
 40
0.0
  9
$THICKNESS
 40
0.0
  9
$LIMCHECK
 70
     0
  9
$BLIPMODE
 70
     1
  9
$CHAMFERA
 40
0.0
  9
$CHAMFERB
 40
0.0
  9
$SKPOLY
 70
     0
  9
$TDCREATE
 40
2450392.957851
  9
$TDUPDATE
 40
2455535.949354
  9
$TDINDWG
 40
2.189584
  9
$TDUSRTIMER
 40
2.189584
  9
$USRTIMER
 70
     1
  9
$ANGBASE
 50
0.0
  9
$ANGDIR
 70
     0
  9
$PDMODE
 70
     0
  9
$PDSIZE
 40
0.0
  9
$PLINEWID
 40
0.0
  9
$COORDS
 70
     2
  9
$SPLFRAME
 70
     0
  9
$SPLINETYPE
 70
     6
  9
$SPLINESEGS
 70
     8
  9
$ATTDIA
 70
     0
  9
$ATTREQ
 70
     0
  9
$HANDLING
 70
     1
  9
$HANDSEED
  5
EF
  9
$SURFTAB1
 70
    48
  9
$SURFTAB2
 70
    48
  9
$SURFTYPE
 70
     6
  9
$SURFU
 70
     6
  9
$SURFV
 70
     6
  9
$UCSNAME
  2

  9
$UCSORG
 10
0.0
 20
0.0
 30
0.0
  9
$UCSXDIR
 10
1.0
 20
0.0
 30
0.0
  9
$UCSYDIR
 10
0.0
 20
1.0
 30
0.0
  9
$PUCSNAME
  2

  9
$PUCSORG
 10
0.0
 20
0.0
 30
0.0
  9
$PUCSXDIR
 10
1.0
 20
0.0
 30
0.0
  9
$PUCSYDIR
 10
0.0
 20
1.0
 30
0.0
  9
$USERI1
 70
     0
  9
$USERI2
 70
     0
  9
$USERI3
 70
     0
  9
$USERI4
 70
     0
  9
$USERI5
 70
     0
  9
$USERR1
 40
0.0
  9
$USERR2
 40
0.0
  9
$USERR3
 40
0.0
  9
$USERR4
 40
0.0
  9
$USERR5
 40
0.0
  9
$WORLDVIEW
 70
     1
  9
$SHADEDGE
 70
     0
  9
$SHADEDIF
 70
    70
  9
$TILEMODE
 70
     1
  9
$MAXACTVP
 70
    16
  9
$PLIMCHECK
 70
     0
  9
$PEXTMIN
 10
-0.805942
 20
0.005011
 30
0.0
  9
$PEXTMAX
 10
20.421406
 20
13.753816
 30
0.0
  9
$PLIMMIN
 10
0.0
 20
0.0
  9
$PLIMMAX
 10
12.0
 20
9.0
  9
$UNITMODE
 70
     0
  9
$VISRETAIN
 70
     0
  9
$PLINEGEN
 70
     0
  9
$PSLTSCALE
 70
     0
  0
ENDSEC
  0
SECTION
  2
TABLES
  0
TABLE
  2
VPORT
 70
     2
  0
VPORT
  2
*ACTIVE
 70
     0
 10
0.0
 20
0.0
 11
1.0
 21
1.0
 12
1.811716
 22
578.22791
 13
0.0
 23
0.0
 14
1.0
 24
1.0
 15
50.0
 25
50.0
 16
0.0
 26
0.0
 36
1.0
 17
0.0
 27
0.0
 37
0.0
 40
1183.752967
 41
1.865779
 42
50.0
 43
0.0
 44
0.0
 50
0.0
 51
0.0
 71
     0
 72
   100
 73
     1
 74
     1
 75
     0
 76
     0
 77
     0
 78
     0
  0
ENDTAB
  0
TABLE
  2
LTYPE
 70
     3
  0
LTYPE
  2
CONTINUOUS
 70
     0
  3
Solid Line
 72
    65
 73
     0
 40
0.0
  0
LTYPE
  2
31
 70
     0
  3

 72
    65
 73
     4
 40
2.1
 49
1.5
 49
-0.3
 49
0.0
 49
-0.3
  0
LTYPE
  2
22
 70
     0
  3

 72
    65
 73
     2
 40
1.4
 49
1.2
 49
-0.2
  0
ENDTAB
  0
TABLE
  2
LAYER
 70
    10
  0
LAYER
  2
0
 70
     0
 62
     7
  6
CONTINUOUS
  0
LAYER
  2
DEFPOINTS
 70
     0
 62
     7
  6
CONTINUOUS
  0
LAYER
  2
TEAM-BODY
 70
     0
 62
     2
  6
CONTINUOUS
  0
LAYER
  2
TEAM-AXE
 70
     0
 62
    10
  6
31
  0
LAYER
  2
TEAM-MAS
 70
     0
 62
     9
  6
CONTINUOUS
  0
LAYER
  2
TEAM-TXT
 70
     0
 62
    11
  6
CONTINUOUS
  0
LAYER
  2
TEAM-COLD
 70
     0
 62
     3
  6
CONTINUOUS
  0
LAYER
  2
TEAM-HIDE
 70
     0
 62
     8
  6
22
  0
LAYER
  2
TEAM-NET
 70
     0
 62
    15
  6
CONTINUOUS
  0
LAYER
  2
TEAM-INSP
 70
     0
 62
     5
  6
CONTINUOUS
  0
ENDTAB
  0
TABLE
  2
STYLE
 70
     2
  0
STYLE
  2
STANDARD
 70
     0
 40
0.0
 41
1.0
 50
0.0
 71
     0
 42
200.0
  3
txt
  4

  0
STYLE
  2
TEAM
 70
     0
 40
0.0
 41
0.8
 50
15.0
 71
     0
 42
7.0
  3
ROMANS.shx
  4

  0
ENDTAB
  0
TABLE
  2
VIEW
 70
     0
  0
ENDTAB
  0
TABLE
  2
UCS
 70
     0
  0
ENDTAB
  0
TABLE
  2
APPID
 70
     1
  0
APPID
  2
ACAD
 70
     0
  0
ENDTAB
  0
TABLE
  2
DIMSTYLE
 70
     1
  0
DIMSTYLE
  2
TEAM
 70
     0
  3

  4

  5

  6

  7

 40
0.0
 41
20.0
 42
10.0
 43
1.0
 44
1.0
 45
0.0
 46
0.0
 47
0.0
 48
0.0
140
35.0
141
1.0
142
0.0
143
25.4
144
1.0
145
0.0
146
1.0
147
15.0
 71
     0
 72
     0
 73
     0
 74
     0
 75
     0
 76
     0
 77
     0
 78
     0
170
     0
171
     2
172
     0
173
     0
174
     0
175
     0
176
     9
177
     9
178
    11
  0
ENDTAB
  0
ENDSEC
  0
SECTION
  2
BLOCKS
  0
BLOCK
  8
0
  2
$MODEL_SPACE
 70
     0
 10
0.0
 20
0.0
 30
0.0
  3
$MODEL_SPACE
  1

  0
ENDBLK
  5
D7
  8
0
  0
BLOCK
 67
     1
  8
0
  2
$PAPER_SPACE
 70
     0
 10
0.0
 20
0.0
 30
0.0
  3
$PAPER_SPACE
  1

  0
ENDBLK
  5
D5
 67
     1
  8
0
  0
BLOCK
  8
0
  2
*D0
 70
     1
 10
0.0
 20
0.0
 30
0.0
  3
*D0
  1

  0
LINE
  5
22
  8
0
  6
BYBLOCK
 62
     9
 10
11990.0
 20
8000.0
 30
0.0
 11
11749.290099
 21
8000.0
 31
0.0
  0
LINE
  5
23
  8
0
  6
BYBLOCK
 62
     9
 10
11870.0
 20
8935.0
 30
0.0
 11
11749.290099
 21
8935.0
 31
0.0
  0
LINE
  5
24
  8
0
  6
BYBLOCK
 62
     9
 10
11750.290099
 20
8020.0
 30
0.0
 11
11750.290099
 21
8405.833333
 31
0.0
  0
LINE
  5
25
  8
0
  6
BYBLOCK
 62
     9
 10
11750.290099
 20
8915.0
 30
0.0
 11
11750.290099
 21
8529.166667
 31
0.0
  0
SOLID
  5
26
  8
0
  6
BYBLOCK
 62
     9
 10
11746.956766
 20
8020.0
 30
0.0
 11
11753.623433
 21
8020.0
 31
0.0
 12
11750.290099
 22
8000.0
 32
0.0
 13
11750.290099
 23
8000.0
 33
0.0
  0
SOLID
  5
27
  8
0
  6
BYBLOCK
 62
     9
 10
11746.956766
 20
8915.0
 30
0.0
 11
11753.623433
 21
8915.0
 31
0.0
 12
11750.290099
 22
8935.0
 32
0.0
 13
11750.290099
 23
8935.0
 33
0.0
  0
TEXT
  5
28
  8
0
  6
BYBLOCK
 62
    11
 10
11767.790099
 20
8430.627698
 30
0.0
 40
35.0
  1
935
 50
90.0
  0
POINT
  5
29
  8
DEFPOINTS
  6
BYBLOCK
 62
     0
 10
12000.0
 20
8000.0
 30
10.0
  0
POINT
  5
2B
  8
DEFPOINTS
  6
BYBLOCK
 62
     0
 10
11880.0
 20
8935.0
 30
10.0
  0
POINT
  5
2C
  8
DEFPOINTS
  6
BYBLOCK
 62
     0
 10
11750.290099
 20
8935.0
 30
0.0
  0
ENDBLK
  5
2E
  8
0
  0
BLOCK
  8
0
  2
*D1
 70
     1
 10
0.0
 20
0.0
 30
0.0
  3
*D1
  1

  0
LINE
  5
5D
  8
0
  6
BYBLOCK
 62
     9
 10
12000.0
 20
9060.192519
 30
0.0
 11
12000.0
 21
9095.28602
 31
0.0
  0
LINE
  5
5E
  8
0
  6
BYBLOCK
 62
     9
 10
11880.0
 20
8964.245104
 30
0.0
 11
11880.0
 21
9095.28602
 31
0.0
  0
LINE
  5
5F
  8
0
  6
BYBLOCK
 62
     9
 10
11980.0
 20
9094.28602
 30
0.0
 11
11965.0
 21
9094.28602
 31
0.0
  0
LINE
  5
60
  8
0
  6
BYBLOCK
 62
     9
 10
11900.0
 20
9094.28602
 30
0.0
 11
11915.0
 21
9094.28602
 31
0.0
  0
TEXT
  5
61
  8
0
  6
BYBLOCK
 62
    11
 10
11906.73622
 20
9076.78602
 30
0.0
 40
35.0
  1
120
  0
SOLID
  5
62
  8
0
  6
BYBLOCK
 62
     9
 10
11980.0
 20
9097.619354
 30
0.0
 11
11980.0
 21
9090.952687
 31
0.0
 12
12000.0
 22
9094.28602
 32
0.0
 13
12000.0
 23
9094.28602
 33
0.0
  0
SOLID
  5
63
  8
0
  6
BYBLOCK
 62
     9
 10
11900.0
 20
9097.619354
 30
0.0
 11
11900.0
 21
9090.952687
 31
0.0
 12
11880.0
 22
9094.28602
 32
0.0
 13
11880.0
 23
9094.28602
 33
0.0
  0
POINT
  5
64
  8
DEFPOINTS
  6
BYBLOCK
 62
     0
 10
12000.0
 20
9050.192519
 30
0.0
  0
POINT
  5
65
  8
DEFPOINTS
  6
BYBLOCK
 62
     0
 10
11880.0
 20
8954.245104
 30
0.0
  0
POINT
  5
66
  8
DEFPOINTS
  6
BYBLOCK
 62
     0
 10
11880.0
 20
9094.28602
 30
0.0
  0
ENDBLK
  5
68
  8
0
  0
BLOCK
  8
0
  2
*D2
 70
     1
 10
0.0
 20
0.0
 30
0.0
  3
*D2
  1

  0
LINE
  5
6B
  8
0
  6
BYBLOCK
 62
     9
 10
11792.5
 20
9045.0
 30
0.0
 11
11792.5
 21
9151.705814
 31
0.0
  0
LINE
  5
6C
  8
0
  6
BYBLOCK
 62
     9
 10
12207.5
 20
9045.0
 30
0.0
 11
12207.5
 21
9151.705814
 31
0.0
  0
LINE
  5
6D
  8
0
  6
BYBLOCK
 62
     9
 10
11812.5
 20
9150.705814
 30
0.0
 11
11944.166667
 21
9150.705814
 31
0.0
  0
LINE
  5
6E
  8
0
  6
BYBLOCK
 62
     9
 10
12187.5
 20
9150.705814
 30
0.0
 11
12055.833333
 21
9150.705814
 31
0.0
  0
SOLID
  5
6F
  8
0
  6
BYBLOCK
 62
     9
 10
11812.5
 20
9154.039147
 30
0.0
 11
11812.5
 21
9147.37248
 31
0.0
 12
11792.5
 22
9150.705814
 32
0.0
 13
11792.5
 23
9150.705814
 33
0.0
  0
SOLID
  5
70
  8
0
  6
BYBLOCK
 62
     9
 10
12187.5
 20
9154.039147
 30
0.0
 11
12187.5
 21
9147.37248
 31
0.0
 12
12207.5
 22
9150.705814
 32
0.0
 13
12207.5
 23
9150.705814
 33
0.0
  0
TEXT
  5
71
  8
0
  6
BYBLOCK
 62
    11
 10
11964.275126
 20
9133.205814
 30
0.0
 40
35.0
  1
415
  0
POINT
  5
72
  8
DEFPOINTS
  6
BYBLOCK
 62
     0
 10
11792.5
 20
9035.0
 30
0.0
  0
POINT
  5
73
  8
DEFPOINTS
  6
BYBLOCK
 62
     0
 10
12207.5
 20
9035.0
 30
0.0
  0
POINT
  5
74
  8
DEFPOINTS
  6
BYBLOCK
 62
     0
 10
12207.5
 20
9150.705814
 30
0.0
  0
ENDBLK
  5
76
  8
0
  0
BLOCK
  8
0
  2
*D3
 70
     1
 10
0.0
 20
0.0
 30
0.0
  3
*D3
  1

  0
LINE
  5
31
  8
0
  6
BYBLOCK
 62
     9
 10
12010.0
 20
8000.0
 30
0.0
 11
12252.912795
 21
8000.0
 31
0.0
  0
LINE
  5
32
  8
0
  6
BYBLOCK
 62
     9
 10
12207.5
 20
9045.0
 30
0.0
 11
12252.912795
 21
9045.0
 31
0.0
  0
LINE
  5
33
  8
0
  6
BYBLOCK
 62
     9
 10
12251.912795
 20
8020.0
 30
0.0
 11
12251.912795
 21
8452.083333
 31
0.0
  0
LINE
  5
34
  8
0
  6
BYBLOCK
 62
     9
 10
12251.912795
 20
9025.0
 30
0.0
 11
12251.912795
 21
8592.916667
 31
0.0
  0
SOLID
  5
35
  8
0
  6
BYBLOCK
 62
     9
 10
12248.579462
 20
8020.0
 30
0.0
 11
12255.246128
 21
8020.0
 31
0.0
 12
12251.912795
 22
8000.0
 32
0.0
 13
12251.912795
 23
8000.0
 33
0.0
  0
SOLID
  5
36
  8
0
  6
BYBLOCK
 62
     9
 10
12248.579462
 20
9025.0
 30
0.0
 11
12255.246128
 21
9025.0
 31
0.0
 12
12251.912795
 22
9045.0
 32
0.0
 13
12251.912795
 23
9045.0
 33
0.0
  0
TEXT
  5
37
  8
0
  6
BYBLOCK
 62
    11
 10
12269.412795
 20
8474.525126
 30
0.0
 40
35.0
  1
1045
 50
90.0
  0
POINT
  5
38
  8
DEFPOINTS
  6
BYBLOCK
 62
     0
 10
12000.0
 20
8000.0
 30
0.0
  0
POINT
  5
39
  8
DEFPOINTS
  6
BYBLOCK
 62
     0
 10
12197.5
 20
9045.0
 30
0.0
  0
POINT
  5
3A
  8
DEFPOINTS
  6
BYBLOCK
 62
     0
 10
12251.912795
 20
9045.0
 30
0.0
  0
ENDBLK
  5
3C
  8
0
  0
BLOCK
  8
0
  2
*D4
 70
     1
 10
0.0
 20
0.0
 30
0.0
  3
*D4
  1

  0
LINE
  5
45
  8
0
  6
BYBLOCK
 62
     9
 10
11990.0
 20
8000.0
 30
0.0
 11
11780.179544
 21
8000.0
 31
0.0
  0
LINE
  5
46
  8
0
  6
BYBLOCK
 62
     9
 10
11933.439148
 20
8180.0006
 30
0.0
 11
11780.179544
 21
8180.0006
 31
0.0
  0
LINE
  5
47
  8
0
  6
BYBLOCK
 62
     9
 10
11781.179544
 20
8020.0
 30
0.0
 11
11781.179544
 21
8037.083633
 31
0.0
  0
LINE
  5
48
  8
0
  6
BYBLOCK
 62
     9
 10
11781.179544
 20
8160.0006
 30
0.0
 11
11781.179544
 21
8142.916967
 31
0.0
  0
SOLID
  5
49
  8
0
  6
BYBLOCK
 62
     9
 10
11777.846211
 20
8020.0
 30
0.0
 11
11784.512878
 21
8020.0
 31
0.0
 12
11781.179544
 22
8000.0
 32
0.0
 13
11781.179544
 23
8000.0
 33
0.0
  0
SOLID
  5
4A
  8
0
  6
BYBLOCK
 62
     9
 10
11777.846211
 20
8160.0006
 30
0.0
 11
11784.512878
 21
8160.0006
 31
0.0
 12
11781.179544
 22
8180.0006
 32
0.0
 13
11781.179544
 23
8180.0006
 33
0.0
  0
TEXT
  5
4B
  8
0
  6
BYBLOCK
 62
    11
 10
11798.679544
 20
8056.73652
 30
0.0
 40
35.0
  1
180
 50
90.0
  0
POINT
  5
4C
  8
DEFPOINTS
  6
BYBLOCK
 62
     0
 10
12000.0
 20
8000.0
 30
0.0
  0
POINT
  5
4D
  8
DEFPOINTS
  6
BYBLOCK
 62
     0
 10
11943.439148
 20
8180.0006
 30
0.0
  0
POINT
  5
4E
  8
DEFPOINTS
  6
BYBLOCK
 62
     0
 10
11781.179544
 20
8180.0006
 30
0.0
  0
ENDBLK
  5
50
  8
0
  0
ENDSEC
  0
SECTION
  2
ENTITIES
  0
DIMENSION
  5
20
  8
TEAM-MAS
  2
*D0
 10
-249.709901
 20
935.0
 30
-10.0
 11
-249.709901
 21
467.5
 31
-10.0
 12
-12000.0
 22
-8000.0
 32
-10.0
 13
0.0
 23
0.0
 33
0.0
 14
-120.0
 24
935.0
 34
0.0
 50
90.0
  0
DIMENSION
  5
2F
  8
TEAM-MAS
  2
*D3
 10
251.912795
 20
1045.0
 30
0.0
 11
251.912795
 21
522.5
 31
0.0
 12
-12000.0
 22
-8000.0
 32
0.0
 13
0.0
 23
0.0
 33
0.0
 14
197.5
 24
1045.0
 34
0.0
 50
90.0
  0
LINE
  5
3D
  8
TEAM-AXE
 10
0.0
 20
0.0
 30
0.0
 11
0.0
 21
1045.0
 31
0.0
  0
POLYLINE
  5
40
  8
TEAM-BODY
 66
     1
 10
0.0
 20
0.0
 30
0.0
 70
     1
  0
VERTEX
  5
DD
  8
TEAM-BODY
 10
207.5
 20
1035.0
 30
0.0
 42
0.414214
  0
VERTEX
  5
DE
  8
TEAM-BODY
 10
197.5
 20
1045.0
 30
0.0
  0
VERTEX
  5
DF
  8
TEAM-BODY
 10
-197.5
 20
1045.0
 30
0.0
 42
0.414214
  0
VERTEX
  5
E0
  8
TEAM-BODY
 10
-207.5
 20
1035.0
 30
0.0
  0
VERTEX
  5
E1
  8
TEAM-BODY
 10
-207.5
 20
384.936492
 30
0.0
 42
0.490314
  0
VERTEX
  5
E2
  8
TEAM-BODY
 10
-210.0
 20
383.0
 30
0.0
  0
VERTEX
  5
E3
  8
TEAM-BODY
 10
-210.0
 20
382.0
 30
0.0
  0
VERTEX
  5
E4
  8
TEAM-BODY
 10
-190.0
 20
309.72973
 30
0.0
  0
VERTEX
  5
E5
  8
TEAM-BODY
 10
-190.0
 20
5.0
 30
0.0
 42
0.414214
  0
VERTEX
  5
E6
  8
TEAM-BODY
 10
-185.0
 20
0.0
 30
0.0
  0
VERTEX
  5
E7
  8
TEAM-BODY
 10
185.0
 20
0.0
 30
0.0
 42
0.414214
  0
VERTEX
  5
E8
  8
TEAM-BODY
 10
190.0
 20
5.0
 30
0.0
  0
VERTEX
  5
E9
  8
TEAM-BODY
 10
190.0
 20
309.72973
 30
0.0
  0
VERTEX
  5
EA
  8
TEAM-BODY
 10
210.0
 20
382.0
 30
0.0
  0
VERTEX
  5
EB
  8
TEAM-BODY
 10
210.0
 20
383.0
 30
0.0
 42
0.490314
  0
VERTEX
  5
EC
  8
TEAM-BODY
 10
207.5
 20
384.936492
 30
0.0
  0
SEQEND
  5
ED
  8
TEAM-BODY
  0
DIMENSION
  5
42
  8
TEAM-NET
  2
*D4
 10
-218.820456
 20
180.0006
 30
0.0
 11
-218.820456
 21
90.0003
 31
0.0
 12
-12000.0
 22
-8000.0
 32
0.0
 13
0.0
 23
0.0
 33
0.0
 14
-56.560852
 24
180.0006
 34
0.0
 50
90.0
1001
ACAD
1000
DSTYLE
1002
{
1070
    40
1040
1.0
1002
}
  0
LINE
  5
51
  8
TEAM-BODY
 10
-208.0
 20
378.0
 30
0.0
 11
208.0
 21
378.0
 31
0.0
  0
LINE
  5
52
  8
TEAM-BODY
 10
-208.0
 20
385.0
 30
0.0
 11
208.0
 21
385.0
 31
0.0
  0
LINE
  5
53
  8
TEAM-BODY
 10
115.0
 20
0.0
 30
0.0
 11
190.0
 21
309.72973
 31
0.0
  0
LINE
  5
54
  8
TEAM-BODY
 10
-190.0
 20
309.72973
 30
0.0
 11
-115.0
 21
0.0
 31
0.0
  0
CIRCLE
  5
55
  8
TEAM-HIDE
 10
0.0
 20
180.071545
 30
0.0
 40
55.0
  0
LINE
  5
58
  8
TEAM-AXE
 10
-55.992742
 20
180.071545
 30
0.0
 11
54.007258
 21
180.071545
 31
0.0
  0
CIRCLE
  5
59
  8
TEAM-INSP
 10
0.0
 20
0.0
 30
0.0
 40
10.0
  0
DIMENSION
  5
5B
  8
TEAM-MAS
  2
*D1
 10
-120.0
 20
1094.28602
 30
0.0
 11
-60.0
 21
1094.28602
 31
0.0
 12
-12000.0
 22
-8000.0
 32
0.0
 70
   128
 13
0.0
 23
1050.192519
 33
0.0
 14
-120.0
 24
954.245104
 34
0.0
  0
DIMENSION
  5
69
  8
TEAM-MAS
  2
*D2
 10
207.5
 20
1150.705814
 30
0.0
 11
0.0
 21
1150.705814
 31
0.0
 12
-12000.0
 22
-8000.0
 32
0.0
 13
-207.5
 23
1035.0
 33
0.0
 14
207.5
 24
1035.0
 34
0.0
  0
TEXT
  5
77
  8
TEAM-TXT
 10
-112.491011
 20
696.372837
 30
0.0
 40
30.0
  1
team 343023
 41
0.8
 51
15.0
  7
TEAM
  0
LINE
  5
7A
  8
TEAM-AXE
 10
-120.0
 20
954.245104
 30
0.0
 11
-120.0
 21
915.754896
 31
0.0
  0
LINE
  5
7B
  8
TEAM-AXE
 10
-139.245104
 20
935.0
 30
0.0
 11
-100.754896
 21
935.0
 31
0.0
  0
LINE
  5
7C
  8
TEAM-AXE
 10
-106.0
 20
935.0
 30
0.0
 11
-134.0
 21
935.0
 31
0.0
  0
CIRCLE
  5
7D
  8
TEAM-COLD
 10
-120.0
 20
935.0
 30
0.0
 40
9.0
  0
ENDSEC
  0
EOF
