  0
SECTION
  2
HEADER
  9
$ACADVER
  1
AC1009
  9
$INSBASE
 10
0.0
 20
0.0
 30
0.0
  9
$EXTMIN
 10
-59.572639
 20
-93.359413
 30
-10.000709
  9
$EXTMAX
 10
661.122933
 20
490.007824
 30
10.000503
  9
$LIMMIN
 10
-59.572639
 20
-93.359413
  9
$LIMMAX
 10
661.122933
 20
490.007824
  9
$ORTHOMODE
 70
     1
  9
$REGENMODE
 70
     1
  9
$FILLMODE
 70
     1
  9
$QTEXTMODE
 70
     0
  9
$MIRRTEXT
 70
     0
  9
$DRAGMODE
 70
     2
  9
$LTSCALE
 40
25.0
  9
$OSMODE
 70
     0
  9
$ATTMODE
 70
     1
  9
$TEXTSIZE
 40
200.0
  9
$TRACEWID
 40
1.0
  9
$TEXTSTYLE
  7
STANDARD
  9
$CLAYER
  8
TEAM-MAS
  9
$CELTYPE
  6
BYLAYER
  9
$CECOLOR
 62
   256
  9
$DIMSCALE
 40
0.0
  9
$DIMASZ
 40
20.0
  9
$DIMEXO
 40
10.0
  9
$DIMDLI
 40
1.0
  9
$DIMRND
 40
0.0
  9
$DIMDLE
 40
0.0
  9
$DIMEXE
 40
1.0
  9
$DIMTP
 40
0.0
  9
$DIMTM
 40
0.0
  9
$DIMTXT
 40
35.0
  9
$DIMCEN
 40
1.0
  9
$DIMTSZ
 40
0.0
  9
$DIMTOL
 70
     0
  9
$DIMLIM
 70
     0
  9
$DIMTIH
 70
     0
  9
$DIMTOH
 70
     0
  9
$DIMSE1
 70
     0
  9
$DIMSE2
 70
     0
  9
$DIMTAD
 70
     0
  9
$DIMZIN
 70
     0
  9
$DIMBLK
  1

  9
$DIMASO
 70
     1
  9
$DIMSHO
 70
     0
  9
$DIMPOST
  1

  9
$DIMAPOST
  1

  9
$DIMALT
 70
     0
  9
$DIMALTD
 70
     2
  9
$DIMALTF
 40
25.4
  9
$DIMLFAC
 40
1.0
  9
$DIMTOFL
 70
     0
  9
$DIMTVP
 40
0.0
  9
$DIMTIX
 70
     0
  9
$DIMSOXD
 70
     0
  9
$DIMSAH
 70
     0
  9
$DIMBLK1
  1

  9
$DIMBLK2
  1

  9
$DIMSTYLE
  2
TEAM
  9
$DIMCLRD
 70
     9
  9
$DIMCLRE
 70
     9
  9
$DIMCLRT
 70
    11
  9
$DIMTFAC
 40
1.0
  9
$DIMGAP
 40
15.0
  9
$LUNITS
 70
     2
  9
$LUPREC
 70
     1
  9
$SKETCHINC
 40
1.0
  9
$FILLETRAD
 40
20.0
  9
$AUNITS
 70
     0
  9
$AUPREC
 70
     0
  9
$MENU
  1
ROPLANS
  9
$ELEVATION
 40
0.0
  9
$PELEVATION
 40
0.0
  9
$THICKNESS
 40
0.0
  9
$LIMCHECK
 70
     0
  9
$BLIPMODE
 70
     1
  9
$CHAMFERA
 40
0.0
  9
$CHAMFERB
 40
0.0
  9
$SKPOLY
 70
     0
  9
$TDCREATE
 40
2450392.957851
  9
$TDUPDATE
 40
2455536.798295
  9
$TDINDWG
 40
2.489744
  9
$TDUSRTIMER
 40
2.489744
  9
$USRTIMER
 70
     1
  9
$ANGBASE
 50
0.0
  9
$ANGDIR
 70
     0
  9
$PDMODE
 70
     0
  9
$PDSIZE
 40
0.0
  9
$PLINEWID
 40
0.0
  9
$COORDS
 70
     2
  9
$SPLFRAME
 70
     0
  9
$SPLINETYPE
 70
     6
  9
$SPLINESEGS
 70
     8
  9
$ATTDIA
 70
     0
  9
$ATTREQ
 70
     0
  9
$HANDLING
 70
     1
  9
$HANDSEED
  5
10A
  9
$SURFTAB1
 70
    48
  9
$SURFTAB2
 70
    48
  9
$SURFTYPE
 70
     6
  9
$SURFU
 70
     6
  9
$SURFV
 70
     6
  9
$UCSNAME
  2

  9
$UCSORG
 10
0.0
 20
0.0
 30
0.0
  9
$UCSXDIR
 10
1.0
 20
0.0
 30
0.0
  9
$UCSYDIR
 10
0.0
 20
1.0
 30
0.0
  9
$PUCSNAME
  2

  9
$PUCSORG
 10
0.0
 20
0.0
 30
0.0
  9
$PUCSXDIR
 10
1.0
 20
0.0
 30
0.0
  9
$PUCSYDIR
 10
0.0
 20
1.0
 30
0.0
  9
$USERI1
 70
     0
  9
$USERI2
 70
     0
  9
$USERI3
 70
     0
  9
$USERI4
 70
     0
  9
$USERI5
 70
     0
  9
$USERR1
 40
0.0
  9
$USERR2
 40
0.0
  9
$USERR3
 40
0.0
  9
$USERR4
 40
0.0
  9
$USERR5
 40
0.0
  9
$WORLDVIEW
 70
     1
  9
$SHADEDGE
 70
     0
  9
$SHADEDIF
 70
    70
  9
$TILEMODE
 70
     1
  9
$MAXACTVP
 70
    16
  9
$PLIMCHECK
 70
     0
  9
$PEXTMIN
 10
-0.805942
 20
0.005011
 30
0.0
  9
$PEXTMAX
 10
20.421406
 20
13.753816
 30
0.0
  9
$PLIMMIN
 10
0.0
 20
0.0
  9
$PLIMMAX
 10
12.0
 20
9.0
  9
$UNITMODE
 70
     0
  9
$VISRETAIN
 70
     0
  9
$PLINEGEN
 70
     0
  9
$PSLTSCALE
 70
     0
  0
ENDSEC
  0
SECTION
  2
TABLES
  0
TABLE
  2
VPORT
 70
     2
  0
VPORT
  2
*ACTIVE
 70
     0
 10
0.0
 20
0.0
 11
1.0
 21
1.0
 12
300.775147
 22
198.324205
 13
0.0
 23
0.0
 14
1.0
 24
1.0
 15
50.0
 25
50.0
 16
0.0
 26
0.0
 36
1.0
 17
0.0
 27
0.0
 37
0.0
 40
586.949841
 41
1.865779
 42
50.0
 43
0.0
 44
0.0
 50
0.0
 51
0.0
 71
     0
 72
   100
 73
     1
 74
     1
 75
     0
 76
     0
 77
     0
 78
     0
  0
ENDTAB
  0
TABLE
  2
LTYPE
 70
     3
  0
LTYPE
  2
CONTINUOUS
 70
     0
  3
Solid Line
 72
    65
 73
     0
 40
0.0
  0
LTYPE
  2
31
 70
     0
  3

 72
    65
 73
     4
 40
2.1
 49
1.5
 49
-0.3
 49
0.0
 49
-0.3
  0
LTYPE
  2
22
 70
     0
  3

 72
    65
 73
     2
 40
1.4
 49
1.2
 49
-0.2
  0
ENDTAB
  0
TABLE
  2
LAYER
 70
     9
  0
LAYER
  2
0
 70
     0
 62
     7
  6
CONTINUOUS
  0
LAYER
  2
DEFPOINTS
 70
     0
 62
     7
  6
CONTINUOUS
  0
LAYER
  2
TEAM-BODY
 70
     0
 62
     2
  6
CONTINUOUS
  0
LAYER
  2
TEAM-AXE
 70
     0
 62
    10
  6
31
  0
LAYER
  2
TEAM-MAS
 70
     0
 62
     9
  6
CONTINUOUS
  0
LAYER
  2
TEAM-TXT
 70
     0
 62
    11
  6
CONTINUOUS
  0
LAYER
  2
TEAM-DET1
 70
     0
 62
     4
  6
CONTINUOUS
  0
LAYER
  2
TEAM-HIDE
 70
     0
 62
     8
  6
22
  0
LAYER
  2
TEAM-INSP
 70
     0
 62
     5
  6
CONTINUOUS
  0
ENDTAB
  0
TABLE
  2
STYLE
 70
     2
  0
STYLE
  2
STANDARD
 70
     0
 40
0.0
 41
1.0
 50
0.0
 71
     0
 42
200.0
  3
txt
  4

  0
STYLE
  2
TEAM
 70
     0
 40
0.0
 41
0.8
 50
15.0
 71
     0
 42
7.0
  3
ROMANS.shx
  4

  0
ENDTAB
  0
TABLE
  2
VIEW
 70
     0
  0
ENDTAB
  0
TABLE
  2
UCS
 70
     0
  0
ENDTAB
  0
TABLE
  2
APPID
 70
     1
  0
APPID
  2
ACAD
 70
     0
  0
ENDTAB
  0
TABLE
  2
DIMSTYLE
 70
     1
  0
DIMSTYLE
  2
TEAM
 70
     0
  3

  4

  5

  6

  7

 40
0.0
 41
20.0
 42
10.0
 43
1.0
 44
1.0
 45
0.0
 46
0.0
 47
0.0
 48
0.0
140
35.0
141
1.0
142
0.0
143
25.4
144
1.0
145
0.0
146
1.0
147
15.0
 71
     0
 72
     0
 73
     0
 74
     0
 75
     0
 76
     0
 77
     0
 78
     0
170
     0
171
     2
172
     0
173
     0
174
     0
175
     0
176
     9
177
     9
178
    11
  0
ENDTAB
  0
ENDSEC
  0
SECTION
  2
BLOCKS
  0
BLOCK
  8
0
  2
$MODEL_SPACE
 70
     0
 10
0.0
 20
0.0
 30
0.0
  3
$MODEL_SPACE
  1

  0
ENDBLK
  5
F2
  8
0
  0
BLOCK
 67
     1
  8
0
  2
$PAPER_SPACE
 70
     0
 10
0.0
 20
0.0
 30
0.0
  3
$PAPER_SPACE
  1

  0
ENDBLK
  5
F0
 67
     1
  8
0
  0
BLOCK
  8
0
  2
*D0
 70
     1
 10
0.0
 20
0.0
 30
0.0
  3
*D0
  1

  0
LINE
  5
57
  8
0
  6
BYBLOCK
 62
     9
 10
8000.0
 20
3990.0
 30
0.0
 11
8000.0
 21
3922.873884
 31
0.0
  0
LINE
  5
58
  8
0
  6
BYBLOCK
 62
     9
 10
8125.0
 20
4129.0
 30
0.0
 11
8125.0
 21
3922.873884
 31
0.0
  0
LINE
  5
59
  8
0
  6
BYBLOCK
 62
     9
 10
8020.0
 20
3923.873884
 30
0.0
 11
8105.0
 21
3923.873884
 31
0.0
  0
TEXT
  5
5A
  8
0
  6
BYBLOCK
 62
    11
 10
8041.025126
 20
3906.373884
 30
0.0
 40
35.0
  1
125
  0
SOLID
  5
5B
  8
0
  6
BYBLOCK
 62
     9
 10
8020.0
 20
3927.207218
 30
0.0
 11
8020.0
 21
3920.540551
 31
0.0
 12
8000.0
 22
3923.873884
 32
0.0
 13
8000.0
 23
3923.873884
 33
0.0
  0
SOLID
  5
5C
  8
0
  6
BYBLOCK
 62
     9
 10
8105.0
 20
3927.207218
 30
0.0
 11
8105.0
 21
3920.540551
 31
0.0
 12
8125.0
 22
3923.873884
 32
0.0
 13
8125.0
 23
3923.873884
 33
0.0
  0
POINT
  5
5D
  8
DEFPOINTS
  6
BYBLOCK
 62
     0
 10
8000.0
 20
4000.0
 30
0.0
  0
POINT
  5
5E
  8
DEFPOINTS
  6
BYBLOCK
 62
     0
 10
8125.0
 20
4139.0
 30
0.0
  0
POINT
  5
5F
  8
DEFPOINTS
  6
BYBLOCK
 62
     0
 10
8125.0
 20
3923.873884
 30
10.0
  0
ENDBLK
  5
61
  8
0
  0
BLOCK
  8
0
  2
*D1
 70
     1
 10
0.0
 20
0.0
 30
0.0
  3
*D1
  1

  0
LINE
  5
75
  8
0
  6
BYBLOCK
 62
     9
 10
8000.0
 20
4440.0
 30
0.0
 11
8000.0
 21
4473.667505
 31
0.0
  0
LINE
  5
76
  8
0
  6
BYBLOCK
 62
     9
 10
8560.0
 20
4380.0
 30
0.0
 11
8560.0
 21
4473.667505
 31
0.0
  0
LINE
  5
77
  8
0
  6
BYBLOCK
 62
     9
 10
8020.0
 20
4472.667505
 30
0.0
 11
8221.25
 21
4472.667505
 31
0.0
  0
LINE
  5
78
  8
0
  6
BYBLOCK
 62
     9
 10
8540.0
 20
4472.667505
 30
0.0
 11
8338.75
 21
4472.667505
 31
0.0
  0
SOLID
  5
79
  8
0
  6
BYBLOCK
 62
     9
 10
8020.0
 20
4476.000838
 30
0.0
 11
8020.0
 21
4469.334171
 31
0.0
 12
8000.0
 22
4472.667505
 32
0.0
 13
8000.0
 23
4472.667505
 33
0.0
  0
SOLID
  5
7A
  8
0
  6
BYBLOCK
 62
     9
 10
8540.0
 20
4476.000838
 30
0.0
 11
8540.0
 21
4469.334171
 31
0.0
 12
8560.0
 22
4472.667505
 32
0.0
 13
8560.0
 23
4472.667505
 33
0.0
  0
TEXT
  5
7B
  8
0
  6
BYBLOCK
 62
    11
 10
8243.23622
 20
4455.167505
 30
0.0
 40
35.0
  1
560
  0
POINT
  5
7C
  8
DEFPOINTS
  6
BYBLOCK
 62
     0
 10
8000.0
 20
4430.0
 30
10.0
  0
POINT
  5
7D
  8
DEFPOINTS
  6
BYBLOCK
 62
     0
 10
8560.0
 20
4370.0
 30
10.0
  0
POINT
  5
7E
  8
DEFPOINTS
  6
BYBLOCK
 62
     0
 10
8560.0
 20
4472.667505
 30
0.0
  0
ENDBLK
  5
80
  8
0
  0
BLOCK
  8
0
  2
*D2
 70
     1
 10
0.0
 20
0.0
 30
0.0
  3
*D2
  1

  0
LINE
  5
49
  8
0
  6
BYBLOCK
 62
     9
 10
7990.0
 20
4000.0
 30
0.0
 11
7955.223046
 21
4000.0
 31
0.0
  0
LINE
  5
4A
  8
0
  6
BYBLOCK
 62
     9
 10
8099.668641
 20
4185.0
 30
0.0
 11
7955.223046
 21
4185.0
 31
0.0
  0
LINE
  5
4B
  8
0
  6
BYBLOCK
 62
     9
 10
7956.223046
 20
4020.0
 30
0.0
 11
7956.223046
 21
4036.666667
 31
0.0
  0
LINE
  5
4C
  8
0
  6
BYBLOCK
 62
     9
 10
7956.223046
 20
4165.0
 30
0.0
 11
7956.223046
 21
4148.333333
 31
0.0
  0
SOLID
  5
4D
  8
0
  6
BYBLOCK
 62
     9
 10
7952.889713
 20
4020.0
 30
0.0
 11
7959.55638
 21
4020.0
 31
0.0
 12
7956.223046
 22
4000.0
 32
0.0
 13
7956.223046
 23
4000.0
 33
0.0
  0
SOLID
  5
4E
  8
0
  6
BYBLOCK
 62
     9
 10
7952.889713
 20
4165.0
 30
0.0
 11
7959.55638
 21
4165.0
 31
0.0
 12
7956.223046
 22
4185.0
 32
0.0
 13
7956.223046
 23
4185.0
 33
0.0
  0
TEXT
  5
4F
  8
0
  6
BYBLOCK
 62
    11
 10
7973.723046
 20
4058.525126
 30
0.0
 40
35.0
  1
185
 50
90.0
  0
POINT
  5
50
  8
DEFPOINTS
  6
BYBLOCK
 62
     0
 10
8000.0
 20
4000.0
 30
0.0
  0
POINT
  5
51
  8
DEFPOINTS
  6
BYBLOCK
 62
     0
 10
8109.668641
 20
4185.0
 30
0.0
  0
POINT
  5
52
  8
DEFPOINTS
  6
BYBLOCK
 62
     0
 10
7956.223046
 20
4185.0
 30
0.0
  0
ENDBLK
  5
54
  8
0
  0
BLOCK
  8
0
  2
*D3
 70
     1
 10
0.0
 20
0.0
 30
0.0
  3
*D3
  1

  0
LINE
  5
31
  8
0
  6
BYBLOCK
 62
     9
 10
8434.999999
 20
4000.0
 30
0.0
 11
8598.161101
 21
4000.0
 31
0.0
  0
LINE
  5
32
  8
0
  6
BYBLOCK
 62
     9
 10
8565.0
 20
4395.0
 30
0.0
 11
8598.161101
 21
4395.0
 31
0.0
  0
LINE
  5
33
  8
0
  6
BYBLOCK
 62
     9
 10
8597.161101
 20
4020.0
 30
0.0
 11
8597.161101
 21
4135.833333
 31
0.0
  0
LINE
  5
34
  8
0
  6
BYBLOCK
 62
     9
 10
8597.161101
 20
4375.0
 30
0.0
 11
8597.161101
 21
4259.166667
 31
0.0
  0
SOLID
  5
35
  8
0
  6
BYBLOCK
 62
     9
 10
8593.827767
 20
4020.0
 30
0.0
 11
8600.494434
 21
4020.0
 31
0.0
 12
8597.161101
 22
4000.0
 32
0.0
 13
8597.161101
 23
4000.0
 33
0.0
  0
SOLID
  5
36
  8
0
  6
BYBLOCK
 62
     9
 10
8593.827767
 20
4375.0
 30
0.0
 11
8600.494434
 21
4375.0
 31
0.0
 12
8597.161101
 22
4395.0
 32
0.0
 13
8597.161101
 23
4395.0
 33
0.0
  0
TEXT
  5
37
  8
0
  6
BYBLOCK
 62
    11
 10
8614.661101
 20
4159.963975
 30
0.0
 40
35.0
  1
395
 50
90.0
  0
POINT
  5
38
  8
DEFPOINTS
  6
BYBLOCK
 62
     0
 10
8424.999999
 20
4000.0
 30
10.0
  0
POINT
  5
39
  8
DEFPOINTS
  6
BYBLOCK
 62
     0
 10
8555.0
 20
4395.0
 30
10.0
  0
POINT
  5
3A
  8
DEFPOINTS
  6
BYBLOCK
 62
     0
 10
8597.161101
 20
4395.0
 30
0.0
  0
ENDBLK
  5
3C
  8
0
  0
BLOCK
  8
0
  2
*D4
 70
     1
 10
0.0
 20
0.0
 30
0.0
  3
*D4
  1

  0
LINE
  5
22
  8
0
  6
BYBLOCK
 62
     9
 10
8024.563151
 20
4430.0
 30
0.0
 11
8644.907284
 21
4430.0
 31
0.0
  0
LINE
  5
23
  8
0
  6
BYBLOCK
 62
     9
 10
8454.543457
 20
4000.0
 30
0.0
 11
8644.907284
 21
4000.0
 31
0.0
  0
LINE
  5
24
  8
0
  6
BYBLOCK
 62
     9
 10
8643.907284
 20
4410.0
 30
0.0
 11
8643.907284
 21
4273.75
 31
0.0
  0
LINE
  5
25
  8
0
  6
BYBLOCK
 62
     9
 10
8643.907284
 20
4020.0
 30
0.0
 11
8643.907284
 21
4156.25
 31
0.0
  0
SOLID
  5
26
  8
0
  6
BYBLOCK
 62
     9
 10
8640.573951
 20
4410.0
 30
0.0
 11
8647.240617
 21
4410.0
 31
0.0
 12
8643.907284
 22
4430.0
 32
0.0
 13
8643.907284
 23
4430.0
 33
0.0
  0
SOLID
  5
27
  8
0
  6
BYBLOCK
 62
     9
 10
8640.573951
 20
4020.0
 30
0.0
 11
8647.240617
 21
4020.0
 31
0.0
 12
8643.907284
 22
4000.0
 32
0.0
 13
8643.907284
 23
4000.0
 33
0.0
  0
TEXT
  5
28
  8
0
  6
BYBLOCK
 62
    11
 10
8661.407284
 20
4176.48622
 30
0.0
 40
35.0
  1
430
 50
90.0
  0
POINT
  5
29
  8
DEFPOINTS
  6
BYBLOCK
 62
     0
 10
8014.563151
 20
4430.0
 30
0.0
  0
POINT
  5
2B
  8
DEFPOINTS
  6
BYBLOCK
 62
     0
 10
8444.543457
 20
4000.0
 30
0.0
  0
POINT
  5
2C
  8
DEFPOINTS
  6
BYBLOCK
 62
     0
 10
8643.907284
 20
4000.0
 30
0.0
  0
ENDBLK
  5
2E
  8
0
  0
ENDSEC
  0
SECTION
  2
ENTITIES
  0
DIMENSION
  5
20
  8
TEAM-MAS
  2
*D4
 10
643.907284
 20
0.0
 30
0.0
 11
643.907284
 21
215.0
 31
0.0
 12
-8000.0
 22
-4000.0
 32
0.0
 13
14.563151
 23
430.0
 33
0.0
 14
444.543457
 24
0.0
 34
0.0
 50
90.0
1001
ACAD
1000
DSTYLE
1002
{
1070
    40
1040
1.0
1002
}
  0
DIMENSION
  5
2F
  8
TEAM-MAS
  2
*D3
 10
597.161101
 20
395.0
 30
-10.0
 11
597.161101
 21
197.5
 31
-10.0
 12
-8000.0
 22
-4000.0
 32
-10.0
 13
424.999999
 23
0.0
 33
0.0
 14
555.0
 24
395.0
 34
0.0
 50
90.0
  0
ARC
  5
3D
  8
TEAM-HIDE
 10
461.150109
 20
359.468664
 30
0.0
 40
277.07292
 50
197.550352
 51
211.577966
  0
ARC
  5
40
  8
TEAM-HIDE
 10
61.04563
 20
90.065641
 30
0.0
 40
205.835945
 50
358.372222
 51
37.152228
  0
ARC
  5
41
  8
TEAM-HIDE
 10
448.490344
 20
193.526672
 30
0.0
 40
40.0
 50
111.484882
 51
173.046956
  0
LINE
  5
42
  8
TEAM-HIDE
 10
125.0
 20
241.0
 30
0.0
 11
125.0
 21
139.0
 31
0.0
  0
POLYLINE
  5
43
  8
TEAM-BODY
 66
     1
 10
0.0
 20
0.0
 30
0.0
 70
     1
  0
VERTEX
  5
F8
  8
TEAM-BODY
 10
0.0
 20
430.0
 30
0.0
  0
VERTEX
  5
F9
  8
TEAM-BODY
 10
29.126303
 20
430.0
 30
0.0
 42
-0.36397
  0
VERTEX
  5
FA
  8
TEAM-BODY
 10
36.019957
 20
424.215537
 30
0.0
  0
VERTEX
  5
FB
  8
TEAM-BODY
 10
38.985822
 20
407.395277
 30
0.0
 42
0.36397
  0
VERTEX
  5
FC
  8
TEAM-BODY
 10
53.757939
 20
395.0
 30
0.0
  0
VERTEX
  5
FD
  8
TEAM-BODY
 10
555.0
 20
395.0
 30
0.0
 42
-0.414214
  0
VERTEX
  5
FE
  8
TEAM-BODY
 10
560.0
 20
390.0
 30
0.0
  0
VERTEX
  5
FF
  8
TEAM-BODY
 10
560.0
 20
355.0
 30
0.0
 42
-0.414214
  0
VERTEX
  5
100
  8
TEAM-BODY
 10
555.0
 20
350.0
 30
0.0
  0
VERTEX
  5
101
  8
TEAM-BODY
 10
544.640187
 20
350.0
 30
0.0
 42
0.390049
  0
VERTEX
  5
102
  8
TEAM-BODY
 10
539.657483
 20
345.415529
 30
0.0
 42
-0.201238
  0
VERTEX
  5
103
  8
TEAM-BODY
 10
444.412794
 20
162.634201
 30
0.0
 42
0.245992
  0
VERTEX
  5
104
  8
TEAM-BODY
 10
437.269731
 20
145.507642
 30
0.0
  0
VERTEX
  5
105
  8
TEAM-BODY
 10
449.524431
 20
5.435779
 30
0.0
 42
-0.440011
  0
VERTEX
  5
106
  8
TEAM-BODY
 10
444.543457
 20
0.0
 30
0.0
  0
VERTEX
  5
107
  8
TEAM-BODY
 10
0.0
 20
0.0
 30
0.0
  0
SEQEND
  5
108
  8
TEAM-BODY
  0
ARC
  5
45
  8
TEAM-DET1
 10
639.155501
 20
354.359077
 30
0.0
 40
580.036517
 50
180.430592
 51
199.048449
  0
DIMENSION
  5
47
  8
TEAM-MAS
  2
*D2
 10
-43.776954
 20
185.0
 30
0.0
 11
-43.776954
 21
92.5
 31
0.0
 12
-8000.0
 22
-4000.0
 32
0.0
 13
0.0
 23
0.0
 33
0.0
 14
109.668641
 24
185.0
 34
0.0
 50
90.0
  0
DIMENSION
  5
55
  8
TEAM-MAS
  2
*D0
 10
125.0
 20
-76.126116
 30
10.0
 11
75.0
 21
-76.126116
 31
0.0
 12
-8000.0
 22
-4000.0
 32
0.0
 70
   128
 13
0.0
 23
0.0
 33
0.0
 14
125.0
 24
139.0
 34
0.0
  0
LINE
  5
62
  8
TEAM-HIDE
 10
45.0
 20
51.776892
 30
0.0
 11
30.0
 21
50.235285
 31
0.0
  0
LINE
  5
63
  8
TEAM-HIDE
 10
45.0
 20
15.0
 30
0.0
 11
0.0
 21
15.0
 31
0.0
  0
LINE
  5
64
  8
TEAM-HIDE
 10
45.0
 20
63.268837
 30
0.0
 11
45.0
 21
15.0
 31
0.0
  0
LINE
  5
65
  8
TEAM-HIDE
 10
30.0
 20
50.235285
 30
0.0
 11
30.0
 21
15.0
 31
0.0
  0
CIRCLE
  5
66
  8
TEAM-INSP
 10
0.0
 20
0.0
 30
0.0
 40
10.0
  0
ARC
  5
68
  8
TEAM-HIDE
 10
270.66506
 20
79.906672
 30
0.0
 40
40.0
 50
191.407784
 51
215.53452
  0
ARC
  5
69
  8
TEAM-HIDE
 10
300.274491
 20
101.053801
 30
0.0
 40
76.385704
 50
215.53452
 51
335.234038
  0
ARC
  5
6A
  8
TEAM-HIDE
 10
149.478109
 20
55.453962
 30
0.0
 40
83.629334
 50
11.407784
 51
87.442563
  0
ARC
  5
6B
  8
TEAM-HIDE
 10
18.383334
 20
245.979404
 30
0.0
 40
393.293583
 50
333.265706
 51
353.046956
  0
LINE
  5
6C
  8
TEAM-HIDE
 10
153.209723
 20
139.0
 30
0.0
 11
125.0
 21
139.0
 31
0.0
  0
LINE
  5
6D
  8
TEAM-DET1
 10
427.262893
 20
154.94949
 30
0.0
 11
105.058721
 21
154.94949
 31
0.0
  0
ARC
  5
6E
  8
TEAM-DET1
 10
105.058721
 20
169.94949
 30
0.0
 40
15.0
 50
199.048449
 51
270.0
  0
LINE
  5
6F
  8
TEAM-AXE
 10
191.699463
 20
185.0
 30
0.0
 11
109.668641
 21
185.0
 31
0.0
  0
CIRCLE
  5
72
  8
TEAM-DET1
 10
227.797598
 20
20.247469
 30
0.0
 40
7.5
  0
DIMENSION
  5
73
  8
TEAM-MAS
  2
*D1
 10
560.0
 20
472.667505
 30
-10.0
 11
280.0
 21
472.667505
 31
-10.0
 12
-8000.0
 22
-4000.0
 32
-10.0
 13
0.0
 23
430.0
 33
0.0
 14
560.0
 24
370.0
 34
0.0
  0
LINE
  5
81
  8
TEAM-HIDE
 10
52.678378
 20
376.776516
 30
0.0
 11
107.27341
 21
376.776516
 31
0.0
  0
LINE
  5
82
  8
TEAM-DET1
 10
544.640187
 20
350.0
 30
0.0
 11
0.0
 21
350.0
 31
0.0
  0
LINE
  5
83
  8
TEAM-HIDE
 10
46.699043
 20
389.107458
 30
0.0
 11
52.678378
 21
376.776516
 31
0.0
  0
LINE
  5
84
  8
TEAM-HIDE
 10
0.0
 20
389.107458
 30
0.0
 11
46.699043
 21
389.107458
 31
0.0
  0
ARC
  5
85
  8
TEAM-HIDE
 10
524.299435
 20
383.728993
 30
0.0
 40
12.791969
 50
116.854493
 51
182.632633
  0
ARC
  5
86
  8
TEAM-HIDE
 10
518.520966
 20
357.141433
 30
0.0
 40
7.0
 50
180.0
 51
270.0
  0
ARC
  5
87
  8
TEAM-HIDE
 10
205.616002
 20
334.566414
 30
0.0
 40
7.0
 50
270.0
 51
14.036243
  0
ARC
  5
88
  8
TEAM-HIDE
 10
851.377732
 20
488.694865
 30
0.0
 40
688.126018
 50
193.541844
 51
198.011661
  0
ARC
  5
89
  8
TEAM-HIDE
 10
188.018591
 20
256.0
 30
0.0
 40
15.0
 50
270.0
 51
20.74787
  0
ARC
  5
8A
  8
TEAM-HIDE
 10
369.08107
 20
395.274954
 30
0.0
 40
176.813749
 50
291.484882
 51
345.163587
  0
LINE
  5
8B
  8
TEAM-HIDE
 10
511.520966
 20
357.141433
 30
0.0
 11
511.520966
 21
383.141433
 31
0.0
  0
LINE
  5
8C
  8
TEAM-HIDE
 10
107.27341
 20
376.776516
 30
0.0
 11
110.599901
 21
372.5
 31
0.0
  0
LINE
  5
8D
  8
TEAM-HIDE
 10
127.0
 20
372.5
 30
0.0
 11
95.0
 21
372.5
 31
0.0
  0
LINE
  5
8E
  8
TEAM-HIDE
 10
127.0
 20
332.5
 30
0.0
 11
127.0
 21
317.5
 31
0.0
  0
LINE
  5
8F
  8
TEAM-HIDE
 10
137.0
 20
317.5
 30
0.0
 11
95.0
 21
317.5
 31
0.0
  0
LINE
  5
90
  8
TEAM-HIDE
 10
180.697652
 20
327.566414
 30
0.0
 11
205.616002
 21
327.566414
 31
0.0
  0
LINE
  5
91
  8
TEAM-HIDE
 10
137.0
 20
317.5
 30
0.0
 11
180.697652
 21
327.566414
 31
0.0
  0
LINE
  5
92
  8
TEAM-HIDE
 10
188.018591
 20
241.0
 30
0.0
 11
125.0
 21
241.0
 31
0.0
  0
LINE
  5
93
  8
TEAM-HIDE
 10
127.0
 20
372.5
 30
0.0
 11
127.0
 21
357.5
 31
0.0
  0
LINE
  5
94
  8
TEAM-HIDE
 10
198.973041
 20
395.0
 30
0.0
 11
212.407
 21
336.264164
 31
0.0
  0
LINE
  5
95
  8
TEAM-HIDE
 10
95.0
 20
376.776516
 30
0.0
 11
95.0
 21
317.5
 31
0.0
  0
LINE
  5
96
  8
TEAM-AXE
 10
140.0
 20
409.473892
 30
0.0
 11
140.0
 21
370.473892
 31
0.0
  0
LINE
  5
97
  8
TEAM-AXE
 10
137.0
 20
345.0
 30
0.0
 11
81.516666
 21
345.0
 31
0.0
  0
TEXT
  5
98
  8
TEAM-TXT
 10
219.544425
 20
308.071737
 30
0.0
 40
30.0
  1
team 344009
 41
0.8
 51
15.0
  7
TEAM
  0
ENDSEC
  0
EOF
