  0
SECTION
  2
HEADER
  9
$ACADVER
  1
AC1009
  9
$INSBASE
 10
0.0
 20
0.0
 30
0.0
  9
$EXTMIN
 10
-95.658375
 20
-10.038673
 30
-0.001526
  9
$EXTMAX
 10
458.705373
 20
1261.614518
 30
0.0
  9
$LIMMIN
 10
-95.658375
 20
-10.038673
  9
$LIMMAX
 10
458.705373
 20
1261.614518
  9
$ORTHOMODE
 70
     1
  9
$REGENMODE
 70
     1
  9
$FILLMODE
 70
     1
  9
$QTEXTMODE
 70
     0
  9
$MIRRTEXT
 70
     0
  9
$DRAGMODE
 70
     2
  9
$LTSCALE
 40
25.0
  9
$OSMODE
 70
     0
  9
$ATTMODE
 70
     1
  9
$TEXTSIZE
 40
200.0
  9
$TRACEWID
 40
1.0
  9
$TEXTSTYLE
  7
STANDARD
  9
$CLAYER
  8
TEAM-MAS
  9
$CELTYPE
  6
BYLAYER
  9
$CECOLOR
 62
   256
  9
$DIMSCALE
 40
0.0
  9
$DIMASZ
 40
20.0
  9
$DIMEXO
 40
10.0
  9
$DIMDLI
 40
1.0
  9
$DIMRND
 40
0.0
  9
$DIMDLE
 40
0.0
  9
$DIMEXE
 40
1.0
  9
$DIMTP
 40
0.0
  9
$DIMTM
 40
0.0
  9
$DIMTXT
 40
35.0
  9
$DIMCEN
 40
1.0
  9
$DIMTSZ
 40
0.0
  9
$DIMTOL
 70
     0
  9
$DIMLIM
 70
     0
  9
$DIMTIH
 70
     0
  9
$DIMTOH
 70
     0
  9
$DIMSE1
 70
     0
  9
$DIMSE2
 70
     0
  9
$DIMTAD
 70
     0
  9
$DIMZIN
 70
     0
  9
$DIMBLK
  1

  9
$DIMASO
 70
     1
  9
$DIMSHO
 70
     0
  9
$DIMPOST
  1

  9
$DIMAPOST
  1

  9
$DIMALT
 70
     0
  9
$DIMALTD
 70
     2
  9
$DIMALTF
 40
25.4
  9
$DIMLFAC
 40
1.0
  9
$DIMTOFL
 70
     0
  9
$DIMTVP
 40
0.0
  9
$DIMTIX
 70
     0
  9
$DIMSOXD
 70
     0
  9
$DIMSAH
 70
     0
  9
$DIMBLK1
  1

  9
$DIMBLK2
  1

  9
$DIMSTYLE
  2
TEAM
  9
$DIMCLRD
 70
     9
  9
$DIMCLRE
 70
     9
  9
$DIMCLRT
 70
    11
  9
$DIMTFAC
 40
1.0
  9
$DIMGAP
 40
15.0
  9
$LUNITS
 70
     2
  9
$LUPREC
 70
     1
  9
$SKETCHINC
 40
1.0
  9
$FILLETRAD
 40
20.0
  9
$AUNITS
 70
     0
  9
$AUPREC
 70
     0
  9
$MENU
  1
ROPLANS
  9
$ELEVATION
 40
0.0
  9
$PELEVATION
 40
0.0
  9
$THICKNESS
 40
0.0
  9
$LIMCHECK
 70
     0
  9
$BLIPMODE
 70
     1
  9
$CHAMFERA
 40
0.0
  9
$CHAMFERB
 40
0.0
  9
$SKPOLY
 70
     0
  9
$TDCREATE
 40
2450392.957851
  9
$TDUPDATE
 40
2455536.798295
  9
$TDINDWG
 40
2.489744
  9
$TDUSRTIMER
 40
2.489744
  9
$USRTIMER
 70
     1
  9
$ANGBASE
 50
0.0
  9
$ANGDIR
 70
     0
  9
$PDMODE
 70
     0
  9
$PDSIZE
 40
0.0
  9
$PLINEWID
 40
0.0
  9
$COORDS
 70
     2
  9
$SPLFRAME
 70
     0
  9
$SPLINETYPE
 70
     6
  9
$SPLINESEGS
 70
     8
  9
$ATTDIA
 70
     0
  9
$ATTREQ
 70
     0
  9
$HANDLING
 70
     1
  9
$HANDSEED
  5
210
  9
$SURFTAB1
 70
    48
  9
$SURFTAB2
 70
    48
  9
$SURFTYPE
 70
     6
  9
$SURFU
 70
     6
  9
$SURFV
 70
     6
  9
$UCSNAME
  2

  9
$UCSORG
 10
0.0
 20
0.0
 30
0.0
  9
$UCSXDIR
 10
1.0
 20
0.0
 30
0.0
  9
$UCSYDIR
 10
0.0
 20
1.0
 30
0.0
  9
$PUCSNAME
  2

  9
$PUCSORG
 10
0.0
 20
0.0
 30
0.0
  9
$PUCSXDIR
 10
1.0
 20
0.0
 30
0.0
  9
$PUCSYDIR
 10
0.0
 20
1.0
 30
0.0
  9
$USERI1
 70
     0
  9
$USERI2
 70
     0
  9
$USERI3
 70
     0
  9
$USERI4
 70
     0
  9
$USERI5
 70
     0
  9
$USERR1
 40
0.0
  9
$USERR2
 40
0.0
  9
$USERR3
 40
0.0
  9
$USERR4
 40
0.0
  9
$USERR5
 40
0.0
  9
$WORLDVIEW
 70
     1
  9
$SHADEDGE
 70
     0
  9
$SHADEDIF
 70
    70
  9
$TILEMODE
 70
     1
  9
$MAXACTVP
 70
    16
  9
$PLIMCHECK
 70
     0
  9
$PEXTMIN
 10
-0.805942
 20
0.005011
 30
0.0
  9
$PEXTMAX
 10
20.421406
 20
13.753816
 30
0.0
  9
$PLIMMIN
 10
0.0
 20
0.0
  9
$PLIMMAX
 10
12.0
 20
9.0
  9
$UNITMODE
 70
     0
  9
$VISRETAIN
 70
     0
  9
$PLINEGEN
 70
     0
  9
$PSLTSCALE
 70
     0
  0
ENDSEC
  0
SECTION
  2
TABLES
  0
TABLE
  2
VPORT
 70
     2
  0
VPORT
  2
*ACTIVE
 70
     0
 10
0.0
 20
0.0
 11
1.0
 21
1.0
 12
181.523499
 22
625.787923
 13
0.0
 23
0.0
 14
1.0
 24
1.0
 15
50.0
 25
50.0
 16
0.0
 26
0.0
 36
1.0
 17
0.0
 27
0.0
 37
0.0
 40
1279.462729
 41
1.865779
 42
50.0
 43
0.0
 44
0.0
 50
0.0
 51
0.0
 71
     0
 72
   100
 73
     1
 74
     1
 75
     0
 76
     0
 77
     0
 78
     0
  0
ENDTAB
  0
TABLE
  2
LTYPE
 70
     2
  0
LTYPE
  2
CONTINUOUS
 70
     0
  3
Solid Line
 72
    65
 73
     0
 40
0.0
  0
LTYPE
  2
22
 70
     0
  3

 72
    65
 73
     2
 40
1.4
 49
1.2
 49
-0.2
  0
ENDTAB
  0
TABLE
  2
LAYER
 70
    10
  0
LAYER
  2
0
 70
     0
 62
     7
  6
CONTINUOUS
  0
LAYER
  2
DEFPOINTS
 70
     0
 62
     7
  6
CONTINUOUS
  0
LAYER
  2
TEAM-BODY
 70
     0
 62
     2
  6
CONTINUOUS
  0
LAYER
  2
TEAM-MAS
 70
     0
 62
     9
  6
CONTINUOUS
  0
LAYER
  2
TEAM-TXT
 70
     0
 62
    11
  6
CONTINUOUS
  0
LAYER
  2
TEAM-DET1
 70
     0
 62
     4
  6
CONTINUOUS
  0
LAYER
  2
TEAM-COLD
 70
     0
 62
     3
  6
CONTINUOUS
  0
LAYER
  2
TEAM-HIDE
 70
     0
 62
     8
  6
22
  0
LAYER
  2
TEAM-DET3
 70
     0
 62
    14
  6
CONTINUOUS
  0
LAYER
  2
TEAM-INSP
 70
     0
 62
     5
  6
CONTINUOUS
  0
ENDTAB
  0
TABLE
  2
STYLE
 70
     2
  0
STYLE
  2
STANDARD
 70
     0
 40
0.0
 41
1.0
 50
0.0
 71
     0
 42
200.0
  3
txt
  4

  0
STYLE
  2
TEAM
 70
     0
 40
0.0
 41
0.8
 50
15.0
 71
     0
 42
7.0
  3
ROMANS.shx
  4

  0
ENDTAB
  0
TABLE
  2
VIEW
 70
     0
  0
ENDTAB
  0
TABLE
  2
UCS
 70
     0
  0
ENDTAB
  0
TABLE
  2
APPID
 70
     1
  0
APPID
  2
ACAD
 70
     0
  0
ENDTAB
  0
TABLE
  2
DIMSTYLE
 70
     1
  0
DIMSTYLE
  2
TEAM
 70
     0
  3

  4

  5

  6

  7

 40
0.0
 41
20.0
 42
10.0
 43
1.0
 44
1.0
 45
0.0
 46
0.0
 47
0.0
 48
0.0
140
35.0
141
1.0
142
0.0
143
25.4
144
1.0
145
0.0
146
1.0
147
15.0
 71
     0
 72
     0
 73
     0
 74
     0
 75
     0
 76
     0
 77
     0
 78
     0
170
     0
171
     2
172
     0
173
     0
174
     0
175
     0
176
     9
177
     9
178
    11
  0
ENDTAB
  0
ENDSEC
  0
SECTION
  2
BLOCKS
  0
BLOCK
  8
0
  2
$MODEL_SPACE
 70
     0
 10
0.0
 20
0.0
 30
0.0
  3
$MODEL_SPACE
  1

  0
ENDBLK
  5
18C
  8
0
  0
BLOCK
 67
     1
  8
0
  2
$PAPER_SPACE
 70
     0
 10
0.0
 20
0.0
 30
0.0
  3
$PAPER_SPACE
  1

  0
ENDBLK
  5
18A
 67
     1
  8
0
  0
BLOCK
  8
0
  2
*D0
 70
     1
 10
0.0
 20
0.0
 30
0.0
  3
*D0
  1

  0
LINE
  5
31
  8
0
  6
BYBLOCK
 62
     9
 10
8327.047123
 20
12700.002871
 30
0.0
 11
8348.384542
 21
12700.002871
 31
0.0
  0
LINE
  5
32
  8
0
  6
BYBLOCK
 62
     9
 10
8048.244304
 20
12889.999152
 30
0.0
 11
8348.384542
 21
12889.999152
 31
0.0
  0
LINE
  5
33
  8
0
  6
BYBLOCK
 62
     9
 10
8347.384542
 20
12720.002871
 30
0.0
 11
8347.384542
 21
12742.084345
 31
0.0
  0
LINE
  5
34
  8
0
  6
BYBLOCK
 62
     9
 10
8347.384542
 20
12869.999152
 30
0.0
 11
8347.384542
 21
12847.917678
 31
0.0
  0
SOLID
  5
35
  8
0
  6
BYBLOCK
 62
     9
 10
8344.051209
 20
12720.002871
 30
0.0
 11
8350.717875
 21
12720.002871
 31
0.0
 12
8347.384542
 22
12700.002871
 32
0.0
 13
8347.384542
 23
12700.002871
 33
0.0
  0
SOLID
  5
36
  8
0
  6
BYBLOCK
 62
     9
 10
8344.051209
 20
12869.999152
 30
0.0
 11
8350.717875
 21
12869.999152
 31
0.0
 12
8347.384542
 22
12889.999152
 32
0.0
 13
8347.384542
 23
12889.999152
 33
0.0
  0
TEXT
  5
37
  8
0
  6
BYBLOCK
 62
    11
 10
8364.884542
 20
12761.676081
 30
0.0
 40
35.0
  1
190
 50
90.0
  0
POINT
  5
38
  8
DEFPOINTS
  6
BYBLOCK
 62
     0
 10
8317.047123
 20
12700.002871
 30
0.0
  0
POINT
  5
39
  8
DEFPOINTS
  6
BYBLOCK
 62
     0
 10
8038.244304
 20
12889.999152
 30
0.0
  0
POINT
  5
3A
  8
DEFPOINTS
  6
BYBLOCK
 62
     0
 10
8347.384542
 20
12889.999152
 30
0.0
  0
ENDBLK
  5
3C
  8
0
  0
BLOCK
  8
0
  2
*D1
 70
     1
 10
0.0
 20
0.0
 30
0.0
  3
*D1
  1

  0
LINE
  5
55
  8
0
  6
BYBLOCK
 62
     9
 10
8010.0
 20
12000.0
 30
0.0
 11
8442.504291
 21
12000.0
 31
0.0
  0
LINE
  5
56
  8
0
  6
BYBLOCK
 62
     9
 10
8010.0
 20
12845.0
 30
0.0
 11
8442.504291
 21
12845.0
 31
0.0
  0
LINE
  5
57
  8
0
  6
BYBLOCK
 62
     9
 10
8441.504291
 20
12020.0
 30
0.0
 11
8441.504291
 21
12360.833333
 31
0.0
  0
LINE
  5
58
  8
0
  6
BYBLOCK
 62
     9
 10
8441.504291
 20
12825.0
 30
0.0
 11
8441.504291
 21
12484.166667
 31
0.0
  0
SOLID
  5
59
  8
0
  6
BYBLOCK
 62
     9
 10
8438.170957
 20
12020.0
 30
0.0
 11
8444.837624
 21
12020.0
 31
0.0
 12
8441.504291
 22
12000.0
 32
0.0
 13
8441.504291
 23
12000.0
 33
0.0
  0
SOLID
  5
5A
  8
0
  6
BYBLOCK
 62
     9
 10
8438.170957
 20
12825.0
 30
0.0
 11
8444.837624
 21
12825.0
 31
0.0
 12
8441.504291
 22
12845.0
 32
0.0
 13
8441.504291
 23
12845.0
 33
0.0
  0
TEXT
  5
5B
  8
0
  6
BYBLOCK
 62
    11
 10
8459.004291
 20
12383.275126
 30
0.0
 40
35.0
  1
845
 50
90.0
  0
POINT
  5
5C
  8
DEFPOINTS
  6
BYBLOCK
 62
     0
 10
8000.0
 20
12000.0
 30
0.0
  0
POINT
  5
5D
  8
DEFPOINTS
  6
BYBLOCK
 62
     0
 10
8000.0
 20
12845.0
 30
0.0
  0
POINT
  5
5E
  8
DEFPOINTS
  6
BYBLOCK
 62
     0
 10
8441.504291
 20
12845.0
 30
0.0
  0
ENDBLK
  5
60
  8
0
  0
BLOCK
  8
0
  2
*D2
 70
     1
 10
0.0
 20
0.0
 30
0.0
  3
*D2
  1

  0
LINE
  5
22
  8
0
  6
BYBLOCK
 62
     9
 10
7988.529905
 20
12889.999152
 30
0.0
 11
7919.108497
 21
12889.999152
 31
0.0
  0
LINE
  5
23
  8
0
  6
BYBLOCK
 62
     9
 10
7990.159444
 20
12335.00256
 30
0.0
 11
7919.108497
 21
12335.00256
 31
0.0
  0
LINE
  5
24
  8
0
  6
BYBLOCK
 62
     9
 10
7920.108497
 20
12869.999152
 30
0.0
 11
7920.108497
 21
12674.167523
 31
0.0
  0
LINE
  5
25
  8
0
  6
BYBLOCK
 62
     9
 10
7920.108497
 20
12355.00256
 30
0.0
 11
7920.108497
 21
12550.834189
 31
0.0
  0
SOLID
  5
26
  8
0
  6
BYBLOCK
 62
     9
 10
7916.775163
 20
12869.999152
 30
0.0
 11
7923.44183
 21
12869.999152
 31
0.0
 12
7920.108497
 22
12889.999152
 32
0.0
 13
7920.108497
 23
12889.999152
 33
0.0
  0
SOLID
  5
27
  8
0
  6
BYBLOCK
 62
     9
 10
7916.775163
 20
12355.00256
 30
0.0
 11
7923.44183
 21
12355.00256
 31
0.0
 12
7920.108497
 22
12335.00256
 32
0.0
 13
7920.108497
 23
12335.00256
 33
0.0
  0
TEXT
  5
28
  8
0
  6
BYBLOCK
 62
    11
 10
7937.608497
 20
12575.025982
 30
0.0
 40
35.0
  1
555
 50
90.0
  0
POINT
  5
29
  8
DEFPOINTS
  6
BYBLOCK
 62
     0
 10
7998.529905
 20
12889.999152
 30
0.0
  0
POINT
  5
2B
  8
DEFPOINTS
  6
BYBLOCK
 62
     0
 10
8000.159444
 20
12335.00256
 30
0.0
  0
POINT
  5
2C
  8
DEFPOINTS
  6
BYBLOCK
 62
     0
 10
7920.108497
 20
12335.00256
 30
0.0
  0
ENDBLK
  5
2E
  8
0
  0
BLOCK
  8
0
  2
*D3
 70
     1
 10
0.0
 20
0.0
 30
0.0
  3
*D3
  1

  0
LINE
  5
7F
  8
0
  6
BYBLOCK
 62
     9
 10
7990.0
 20
12845.0
 30
0.0
 11
7964.673498
 21
12845.0
 31
0.0
  0
LINE
  5
80
  8
0
  6
BYBLOCK
 62
     9
 10
7990.0
 20
12440.0
 30
0.0
 11
7964.673498
 21
12440.0
 31
0.0
  0
LINE
  5
81
  8
0
  6
BYBLOCK
 62
     9
 10
7965.673498
 20
12825.0
 30
0.0
 11
7965.673498
 21
12701.25
 31
0.0
  0
LINE
  5
82
  8
0
  6
BYBLOCK
 62
     9
 10
7965.673498
 20
12460.0
 30
0.0
 11
7965.673498
 21
12583.75
 31
0.0
  0
SOLID
  5
83
  8
0
  6
BYBLOCK
 62
     9
 10
7962.340164
 20
12825.0
 30
0.0
 11
7969.006831
 21
12825.0
 31
0.0
 12
7965.673498
 22
12845.0
 32
0.0
 13
7965.673498
 23
12845.0
 33
0.0
  0
SOLID
  5
84
  8
0
  6
BYBLOCK
 62
     9
 10
7962.340164
 20
12460.0
 30
0.0
 11
7969.006831
 21
12460.0
 31
0.0
 12
7965.673498
 22
12440.0
 32
0.0
 13
7965.673498
 23
12440.0
 33
0.0
  0
TEXT
  5
85
  8
0
  6
BYBLOCK
 62
    11
 10
7983.173498
 20
12603.275126
 30
0.0
 40
35.0
  1
405
 50
90.0
  0
POINT
  5
86
  8
DEFPOINTS
  6
BYBLOCK
 62
     0
 10
8000.0
 20
12845.0
 30
0.0
  0
POINT
  5
87
  8
DEFPOINTS
  6
BYBLOCK
 62
     0
 10
8000.0
 20
12440.0
 30
0.0
  0
POINT
  5
88
  8
DEFPOINTS
  6
BYBLOCK
 62
     0
 10
7965.673498
 20
12440.0
 30
0.0
  0
ENDBLK
  5
8A
  8
0
  0
BLOCK
  8
0
  2
*D4
 70
     1
 10
0.0
 20
0.0
 30
0.0
  3
*D4
  1

  0
LINE
  5
71
  8
0
  6
BYBLOCK
 62
     9
 10
7990.0
 20
12000.0
 30
0.0
 11
7964.673498
 21
12000.0
 31
0.0
  0
LINE
  5
72
  8
0
  6
BYBLOCK
 62
     9
 10
7990.0
 20
12440.0
 30
0.0
 11
7964.673498
 21
12440.0
 31
0.0
  0
LINE
  5
73
  8
0
  6
BYBLOCK
 62
     9
 10
7965.673498
 20
12020.0
 30
0.0
 11
7965.673498
 21
12161.25
 31
0.0
  0
LINE
  5
74
  8
0
  6
BYBLOCK
 62
     9
 10
7965.673498
 20
12420.0
 30
0.0
 11
7965.673498
 21
12278.75
 31
0.0
  0
SOLID
  5
75
  8
0
  6
BYBLOCK
 62
     9
 10
7962.340164
 20
12020.0
 30
0.0
 11
7969.006831
 21
12020.0
 31
0.0
 12
7965.673498
 22
12000.0
 32
0.0
 13
7965.673498
 23
12000.0
 33
0.0
  0
SOLID
  5
76
  8
0
  6
BYBLOCK
 62
     9
 10
7962.340164
 20
12420.0
 30
0.0
 11
7969.006831
 21
12420.0
 31
0.0
 12
7965.673498
 22
12440.0
 32
0.0
 13
7965.673498
 23
12440.0
 33
0.0
  0
TEXT
  5
77
  8
0
  6
BYBLOCK
 62
    11
 10
7983.173498
 20
12179.73622
 30
0.0
 40
35.0
  1
440
 50
90.0
  0
POINT
  5
78
  8
DEFPOINTS
  6
BYBLOCK
 62
     0
 10
8000.0
 20
12000.0
 30
0.0
  0
POINT
  5
79
  8
DEFPOINTS
  6
BYBLOCK
 62
     0
 10
8000.0
 20
12440.0
 30
0.0
  0
POINT
  5
7A
  8
DEFPOINTS
  6
BYBLOCK
 62
     0
 10
7965.673498
 20
12440.0
 30
0.0
  0
ENDBLK
  5
7C
  8
0
  0
BLOCK
  8
0
  2
*D5
 70
     1
 10
0.0
 20
0.0
 30
0.0
  3
*D5
  1

  0
LINE
  5
47
  8
0
  6
BYBLOCK
 62
     9
 10
8010.159444
 20
12335.00256
 30
0.0
 11
8348.384542
 21
12335.00256
 31
0.0
  0
LINE
  5
48
  8
0
  6
BYBLOCK
 62
     9
 10
8327.047123
 20
12700.002871
 30
0.0
 11
8348.384542
 21
12700.002871
 31
0.0
  0
LINE
  5
49
  8
0
  6
BYBLOCK
 62
     9
 10
8347.384542
 20
12355.00256
 30
0.0
 11
8347.384542
 21
12455.836049
 31
0.0
  0
LINE
  5
4A
  8
0
  6
BYBLOCK
 62
     9
 10
8347.384542
 20
12680.002871
 30
0.0
 11
8347.384542
 21
12579.169382
 31
0.0
  0
SOLID
  5
4B
  8
0
  6
BYBLOCK
 62
     9
 10
8344.051209
 20
12355.00256
 30
0.0
 11
8350.717875
 21
12355.00256
 31
0.0
 12
8347.384542
 22
12335.00256
 32
0.0
 13
8347.384542
 23
12335.00256
 33
0.0
  0
SOLID
  5
4C
  8
0
  6
BYBLOCK
 62
     9
 10
8344.051209
 20
12680.002871
 30
0.0
 11
8350.717875
 21
12680.002871
 31
0.0
 12
8347.384542
 22
12700.002871
 32
0.0
 13
8347.384542
 23
12700.002871
 33
0.0
  0
TEXT
  5
4D
  8
0
  6
BYBLOCK
 62
    11
 10
8364.884542
 20
12480.027842
 30
0.0
 40
35.0
  1
365
 50
90.0
  0
POINT
  5
4E
  8
DEFPOINTS
  6
BYBLOCK
 62
     0
 10
8000.159444
 20
12335.00256
 30
0.0
  0
POINT
  5
4F
  8
DEFPOINTS
  6
BYBLOCK
 62
     0
 10
8317.047123
 20
12700.002871
 30
0.0
  0
POINT
  5
50
  8
DEFPOINTS
  6
BYBLOCK
 62
     0
 10
8347.384542
 20
12700.002871
 30
0.0
  0
ENDBLK
  5
52
  8
0
  0
BLOCK
  8
0
  2
*D6
 70
     1
 10
0.0
 20
0.0
 30
0.0
  3
*D6
  1

  0
LINE
  5
B1
  8
0
  6
BYBLOCK
 62
     9
 10
8179.291701
 20
12000.0
 30
0.0
 11
8396.995535
 21
12000.0
 31
0.0
  0
LINE
  5
B2
  8
0
  6
BYBLOCK
 62
     9
 10
8309.369008
 20
12700.002871
 30
0.0
 11
8396.995535
 21
12700.002871
 31
0.0
  0
LINE
  5
B3
  8
0
  6
BYBLOCK
 62
     9
 10
8395.995535
 20
12020.0
 30
0.0
 11
8395.995535
 21
12294.168102
 31
0.0
  0
LINE
  5
B4
  8
0
  6
BYBLOCK
 62
     9
 10
8395.995535
 20
12680.002871
 30
0.0
 11
8395.995535
 21
12405.834769
 31
0.0
  0
SOLID
  5
B5
  8
0
  6
BYBLOCK
 62
     9
 10
8392.662201
 20
12020.0
 30
0.0
 11
8399.328868
 21
12020.0
 31
0.0
 12
8395.995535
 22
12000.0
 32
0.0
 13
8395.995535
 23
12000.0
 33
0.0
  0
SOLID
  5
B6
  8
0
  6
BYBLOCK
 62
     9
 10
8392.662201
 20
12680.002871
 30
0.0
 11
8399.328868
 21
12680.002871
 31
0.0
 12
8395.995535
 22
12700.002871
 32
0.0
 13
8395.995535
 23
12700.002871
 33
0.0
  0
TEXT
  5
B7
  8
0
  6
BYBLOCK
 62
    11
 10
8413.495535
 20
12313.237656
 30
0.0
 40
35.0
  1
700
 50
90.0
  0
POINT
  5
B8
  8
DEFPOINTS
  6
BYBLOCK
 62
     0
 10
8169.291701
 20
12000.0
 30
0.0
  0
POINT
  5
B9
  8
DEFPOINTS
  6
BYBLOCK
 62
     0
 10
8299.369008
 20
12700.002871
 30
0.0
  0
POINT
  5
BA
  8
DEFPOINTS
  6
BYBLOCK
 62
     0
 10
8395.995535
 20
12700.002871
 30
0.0
  0
ENDBLK
  5
BC
  8
0
  0
ENDSEC
  0
SECTION
  2
ENTITIES
  0
DIMENSION
  5
20
  8
TEAM-MAS
  2
*D2
 10
-79.891503
 20
335.00256
 30
0.0
 11
-79.891503
 21
612.500856
 31
0.0
 12
-8000.0
 22
-12000.0
 32
0.0
 13
-1.470095
 23
889.999152
 33
0.0
 14
0.159444
 24
335.00256
 34
0.0
 50
90.0
1001
ACAD
1000
DSTYLE
1002
{
1070
    40
1040
1.0
1002
}
  0
DIMENSION
  5
2F
  8
TEAM-MAS
  2
*D0
 10
347.384542
 20
889.999152
 30
0.0
 11
347.384542
 21
795.001012
 31
0.0
 12
-8000.0
 22
-12000.0
 32
0.0
 13
317.047123
 23
700.002871
 33
0.0
 14
38.244304
 24
889.999152
 34
0.0
 50
90.0
1001
ACAD
1000
DSTYLE
1002
{
1070
    78
1070
     0
1070
    40
1040
1.0
1002
}
  0
LINE
  5
3D
  8
TEAM-HIDE
 10
17.470608
 20
862.5
 30
0.0
 11
17.470608
 21
827.5
 31
0.0
  0
CIRCLE
  5
40
  8
TEAM-COLD
 10
0.0
 20
845.0
 30
0.0
 40
10.0
  0
LINE
  5
42
  8
TEAM-HIDE
 10
67.917667
 20
862.275253
 30
0.0
 11
26.964212
 21
810.352122
 31
0.0
  0
POLYLINE
  5
43
  8
TEAM-BODY
 66
     1
 10
0.0
 20
0.0
 30
0.0
 70
     1
  0
VERTEX
  5
192
  8
TEAM-BODY
 10
37.916189
 20
889.31256
 30
0.0
 42
-0.156317
  0
VERTEX
  5
193
  8
TEAM-BODY
 10
41.984856
 20
888.008694
 30
0.0
  0
VERTEX
  5
194
  8
TEAM-BODY
 10
314.185611
 20
694.019584
 30
0.0
 42
-0.42822
  0
VERTEX
  5
195
  8
TEAM-BODY
 10
315.613104
 20
683.98845
 30
0.0
  0
VERTEX
  5
196
  8
TEAM-BODY
 10
254.618599
 20
606.656131
 30
0.0
 42
-0.229655
  0
VERTEX
  5
197
  8
TEAM-BODY
 10
250.69277
 20
604.75256
 30
0.0
  0
VERTEX
  5
198
  8
TEAM-BODY
 10
245.296973
 20
604.75256
 30
0.0
 42
0.262847
  0
VERTEX
  5
199
  8
TEAM-BODY
 10
241.015298
 20
602.334662
 30
0.0
 42
-0.073741
  0
VERTEX
  5
19A
  8
TEAM-BODY
 10
22.164047
 20
336.813035
 30
0.0
 42
-0.186028
  0
VERTEX
  5
19B
  8
TEAM-BODY
 10
17.4663
 20
335.00256
 30
0.0
  0
VERTEX
  5
19C
  8
TEAM-BODY
 10
0.159444
 20
335.00256
 30
0.0
  0
VERTEX
  5
19D
  8
TEAM-BODY
 10
0.159444
 20
889.31256
 30
0.0
  0
SEQEND
  5
19E
  8
TEAM-BODY
  0
DIMENSION
  5
45
  8
TEAM-MAS
  2
*D5
 10
347.384542
 20
700.002871
 30
0.0
 11
347.384542
 21
517.502715
 31
0.0
 12
-8000.0
 22
-12000.0
 32
0.0
 13
0.159444
 23
335.00256
 33
0.0
 14
317.047123
 24
700.002871
 34
0.0
 50
90.0
1001
ACAD
1000
DSTYLE
1002
{
1070
    78
1070
     0
1070
    40
1040
1.0
1002
}
  0
DIMENSION
  5
53
  8
TEAM-MAS
  2
*D1
 10
441.504291
 20
845.0
 30
0.0
 11
441.504291
 21
422.5
 31
0.0
 12
-8000.0
 22
-12000.0
 32
0.0
 13
0.0
 23
0.0
 33
0.0
 14
0.0
 24
845.0
 34
0.0
 50
90.0
1001
ACAD
1000
DSTYLE
1002
{
1070
    78
1070
     0
1070
    40
1040
1.0
1002
}
  0
LINE
  5
61
  8
TEAM-DET1
 10
0.491603
 20
788.01965
 30
0.0
 11
254.627643
 21
606.493908
 31
0.0
  0
LINE
  5
63
  8
TEAM-HIDE
 10
47.222164
 20
836.036312
 30
0.0
 11
278.547355
 21
670.804033
 31
0.0
  0
POLYLINE
  5
64
  8
TEAM-HIDE
 66
     1
 10
0.0
 20
0.0
 30
0.0
 70
   129
210
0.0
220
0.0
230
-1.0
  0
VERTEX
  5
19F
  8
TEAM-HIDE
 10
-46.122596
 20
552.942333
 30
0.0
  0
VERTEX
  5
1A0
  8
TEAM-HIDE
 10
-47.007641
 20
554.590983
 30
0.0
  0
VERTEX
  5
1A1
  8
TEAM-HIDE
 10
-48.860758
 20
554.76341
 30
0.0
  0
VERTEX
  5
1A2
  8
TEAM-HIDE
 10
-50.027612
 20
553.322241
 30
0.0
  0
VERTEX
  5
1A3
  8
TEAM-HIDE
 10
-50.196817
 20
552.942333
 30
0.0
  0
VERTEX
  5
1A4
  8
TEAM-HIDE
 10
-53.811813
 20
552.942333
 30
0.0
  0
VERTEX
  5
1A5
  8
TEAM-HIDE
 10
-59.162006
 20
552.942333
 30
0.0
  0
VERTEX
  5
1A6
  8
TEAM-HIDE
 10
-61.909402
 20
552.942333
 30
0.0
  0
VERTEX
  5
1A7
  8
TEAM-HIDE
 10
-63.661405
 20
553.929008
 30
0.0
  0
VERTEX
  5
1A8
  8
TEAM-HIDE
 10
-67.611961
 20
553.929008
 30
0.0
  0
VERTEX
  5
1A9
  8
TEAM-HIDE
 10
-68.975982
 20
553.696809
 30
0.0
  0
VERTEX
  5
1AA
  8
TEAM-HIDE
 10
-70.733153
 20
551.538887
 30
0.0
  0
VERTEX
  5
1AB
  8
TEAM-HIDE
 10
-70.78948
 20
550.254364
 30
0.0
  0
VERTEX
  5
1AC
  8
TEAM-HIDE
 10
-70.78948
 20
547.52697
 30
0.0
  0
VERTEX
  5
1AD
  8
TEAM-HIDE
 10
-70.78948
 20
543.111771
 30
0.0
  0
VERTEX
  5
1AE
  8
TEAM-HIDE
 10
-70.78948
 20
530.685616
 30
0.0
  0
VERTEX
  5
1AF
  8
TEAM-HIDE
 10
-70.78948
 20
501.723869
 30
0.0
  0
VERTEX
  5
1B0
  8
TEAM-HIDE
 10
-70.78948
 20
491.058902
 30
0.0
  0
VERTEX
  5
1B1
  8
TEAM-HIDE
 10
-70.78948
 20
487.964594
 30
0.0
  0
VERTEX
  5
1B2
  8
TEAM-HIDE
 10
-70.78948
 20
486.851621
 30
0.0
  0
VERTEX
  5
1B3
  8
TEAM-HIDE
 10
-69.45175
 20
484.376751
 30
0.0
  0
VERTEX
  5
1B4
  8
TEAM-HIDE
 10
-68.108593
 20
483.899766
 30
0.0
  0
VERTEX
  5
1B5
  8
TEAM-HIDE
 10
-65.357254
 20
483.886083
 30
0.0
  0
VERTEX
  5
1B6
  8
TEAM-HIDE
 10
-63.345843
 20
483.886083
 30
0.0
  0
VERTEX
  5
1B7
  8
TEAM-HIDE
 10
-62.848406
 20
483.928716
 30
0.0
  0
VERTEX
  5
1B8
  8
TEAM-HIDE
 10
-62.062709
 20
484.723241
 30
0.0
  0
VERTEX
  5
1B9
  8
TEAM-HIDE
 10
-61.77637
 20
484.87827
 30
0.0
  0
VERTEX
  5
1BA
  8
TEAM-HIDE
 10
-58.161375
 20
484.87827
 30
0.0
  0
VERTEX
  5
1BB
  8
TEAM-HIDE
 10
-52.811182
 20
484.87827
 30
0.0
  0
VERTEX
  5
1BC
  8
TEAM-HIDE
 10
-50.063786
 20
484.87827
 30
0.0
  0
VERTEX
  5
1BD
  8
TEAM-HIDE
 10
-49.178052
 20
483.22583
 30
0.0
  0
VERTEX
  5
1BE
  8
TEAM-HIDE
 10
-47.326313
 20
483.057193
 30
0.0
  0
VERTEX
  5
1BF
  8
TEAM-HIDE
 10
-46.159545
 20
484.500602
 30
0.0
  0
VERTEX
  5
1C0
  8
TEAM-HIDE
 10
-46.122596
 20
485.642662
 30
0.0
  0
VERTEX
  5
1C1
  8
TEAM-HIDE
 10
-46.122596
 20
488.53769
 30
0.0
  0
VERTEX
  5
1C2
  8
TEAM-HIDE
 10
-46.122596
 20
493.22426
 30
0.0
  0
VERTEX
  5
1C3
  8
TEAM-HIDE
 10
-46.122596
 20
506.414165
 30
0.0
  0
VERTEX
  5
1C4
  8
TEAM-HIDE
 10
-46.122596
 20
537.15599
 30
0.0
  0
VERTEX
  5
1C5
  8
TEAM-HIDE
 10
-46.122596
 20
543.478317
 30
0.0
  0
VERTEX
  5
1C6
  8
TEAM-HIDE
 10
-46.122596
 20
548.47646
 30
0.0
  0
VERTEX
  5
1C7
  8
TEAM-HIDE
 10
-46.122596
 20
551.760954
 30
0.0
  0
SEQEND
  5
1C8
  8
TEAM-HIDE
  0
LINE
  5
65
  8
TEAM-HIDE
 10
76.422805
 20
520.0
 30
0.0
 11
26.408235
 21
520.0
 31
0.0
  0
LINE
  5
66
  8
TEAM-HIDE
 10
98.518091
 20
545.0
 30
0.0
 11
33.838118
 21
545.0
 31
0.0
  0
LINE
  5
67
  8
TEAM-HIDE
 10
129.853162
 20
495.0
 30
0.0
 11
33.838118
 21
495.0
 31
0.0
  0
ARC
  5
68
  8
TEAM-HIDE
 10
16.079996
 20
582.355261
 30
0.0
 40
85.038725
 50
16.925498
 51
65.591428
  0
LINE
  5
69
  8
TEAM-HIDE
 10
43.961833
 20
499.231916
 30
0.0
 11
70.949333
 21
499.110649
 31
0.0
  0
LINE
  5
6A
  8
TEAM-HIDE
 10
43.939784
 20
540.010822
 30
0.0
 11
71.153282
 21
540.010822
 31
0.0
  0
LINE
  5
6B
  8
TEAM-HIDE
 10
14.983365
 20
632.929105
 30
0.0
 11
77.494813
 21
605.835574
 31
0.0
  0
TEXT
  5
6C
  8
TEAM-TXT
 10
12.262517
 20
650.309774
 30
0.0
 40
30.0
  1
team 347135
 41
0.8
 51
15.0
  7
TEAM
  0
DIMENSION
  5
6F
  8
TEAM-MAS
  2
*D4
 10
-34.326502
 20
440.0
 30
0.0
 11
-34.326502
 21
220.0
 31
0.0
 12
-8000.0
 22
-12000.0
 32
0.0
 13
0.0
 23
0.0
 33
0.0
 14
0.0
 24
440.0
 34
0.0
 50
90.0
1001
ACAD
1000
DSTYLE
1002
{
1070
    40
1040
1.0
1002
}
  0
DIMENSION
  5
7D
  8
TEAM-MAS
  2
*D3
 10
-34.326502
 20
440.0
 30
0.0
 11
-34.326502
 21
642.5
 31
0.0
 12
-8000.0
 22
-12000.0
 32
0.0
 13
0.0
 23
845.0
 33
0.0
 14
0.0
 24
440.0
 34
0.0
 50
90.0
  0
ARC
  5
8B
  8
TEAM-HIDE
 10
23.038383
 20
813.448551
 30
0.0
 40
5.0
 50
288.421513
 51
321.736011
  0
LINE
  5
8C
  8
TEAM-HIDE
 10
19.069603
 20
806.856607
 30
0.0
 11
17.470608
 21
806.324025
 31
0.0
  0
LINE
  5
8D
  8
TEAM-HIDE
 10
24.61841
 20
808.704763
 30
0.0
 11
24.584599
 21
808.693502
 31
0.0
  0
LINE
  5
8E
  8
TEAM-HIDE
 10
17.470608
 20
806.324025
 30
0.0
 11
17.470608
 21
732.483844
 31
0.0
  0
LINE
  5
8F
  8
TEAM-HIDE
 10
17.470608
 20
827.5
 30
0.0
 11
0.491603
 21
827.5
 31
0.0
  0
LINE
  5
90
  8
TEAM-HIDE
 10
25.807495
 20
845.0
 30
0.0
 11
-9.192505
 21
845.0
 31
0.0
  0
POLYLINE
  5
91
  8
TEAM-HIDE
 66
     1
 10
0.0
 20
0.0
 30
0.0
 70
   128
210
0.0
220
0.0
230
-1.0
  0
VERTEX
  5
1C9
  8
TEAM-HIDE
 10
-1.622987
 20
550.219329
 30
0.0
  0
VERTEX
  5
1CA
  8
TEAM-HIDE
 10
-2.817832
 20
556.139554
 30
0.0
  0
VERTEX
  5
1CB
  8
TEAM-HIDE
 10
-6.076117
 20
560.973539
 30
0.0
  0
VERTEX
  5
1CC
  8
TEAM-HIDE
 10
-10.908467
 20
564.232428
 30
0.0
  0
VERTEX
  5
1CD
  8
TEAM-HIDE
 10
-16.825504
 20
565.427359
 30
0.0
  0
VERTEX
  5
1CE
  8
TEAM-HIDE
 10
-17.305062
 20
565.427359
 30
0.0
  0
SEQEND
  5
1CF
  8
TEAM-HIDE
  0
ARC
  5
92
  8
TEAM-HIDE
 10
99.580761
 20
725.556821
 30
0.0
 40
82.401825
 50
175.177799
 51
228.509744
  0
ARC
  5
93
  8
TEAM-HIDE
 10
61.552473
 20
682.558928
 30
0.0
 40
25.0
 50
228.509744
 51
245.591428
  0
LINE
  5
94
  8
TEAM-HIDE
 10
8.960086
 20
827.5
 30
0.0
 11
8.960086
 21
642.104381
 31
0.0
  0
ARC
  5
95
  8
TEAM-HIDE
 10
18.960086
 20
642.104381
 30
0.0
 40
10.0
 50
180.0
 51
246.567266
  0
LINE
  5
96
  8
TEAM-HIDE
 10
36.509402
 20
549.982307
 30
0.0
 11
46.10606
 21
549.982307
 31
0.0
  0
CIRCLE
  5
97
  8
TEAM-INSP
 10
0.0
 20
0.0
 30
0.0
 40
10.0
  0
POLYLINE
  5
99
  8
TEAM-MAS
 66
     1
 10
0.0
 20
0.0
 30
0.0
  0
VERTEX
  5
1D0
  8
TEAM-MAS
 10
0.0
 20
0.0
 30
0.0
  0
VERTEX
  5
1D1
  8
TEAM-MAS
 10
0.0
 20
440.0
 30
0.0
  0
SEQEND
  5
1D2
  8
TEAM-MAS
  0
POLYLINE
  5
9A
  8
TEAM-HIDE
 66
     1
 10
0.0
 20
0.0
 30
0.0
 70
   128
  0
VERTEX
  5
1D3
  8
TEAM-HIDE
 10
21.240739
 20
426.405354
 30
0.0
  0
VERTEX
  5
1D4
  8
TEAM-HIDE
 10
21.370963
 20
426.405354
 30
0.0
  0
VERTEX
  5
1D5
  8
TEAM-HIDE
 10
21.393346
 20
426.405354
 30
0.0
  0
VERTEX
  5
1D6
  8
TEAM-HIDE
 10
22.176816
 20
426.425123
 30
0.0
  0
VERTEX
  5
1D7
  8
TEAM-HIDE
 10
24.457015
 20
426.714034
 30
0.0
  0
VERTEX
  5
1D8
  8
TEAM-HIDE
 10
32.142399
 20
430.856417
 30
0.0
  0
VERTEX
  5
1D9
  8
TEAM-HIDE
 10
36.288464
 20
438.54277
 30
0.0
  0
VERTEX
  5
1DA
  8
TEAM-HIDE
 10
36.577796
 20
440.825164
 30
0.0
  0
VERTEX
  5
1DB
  8
TEAM-HIDE
 10
36.597596
 20
441.942772
 30
0.0
  0
VERTEX
  5
1DC
  8
TEAM-HIDE
 10
36.597596
 20
446.267363
 30
0.0
  0
VERTEX
  5
1DD
  8
TEAM-HIDE
 10
36.597596
 20
461.993147
 30
0.0
  0
VERTEX
  5
1DE
  8
TEAM-HIDE
 10
36.597596
 20
468.676605
 30
0.0
  0
VERTEX
  5
1DF
  8
TEAM-HIDE
 10
36.597596
 20
471.428618
 30
0.0
  0
SEQEND
  5
1E0
  8
TEAM-HIDE
  0
POLYLINE
  5
9B
  8
TEAM-HIDE
 66
     1
 10
0.0
 20
0.0
 30
0.0
 70
   128
  0
VERTEX
  5
1E1
  8
TEAM-HIDE
 10
1.622987
 20
471.02623
 30
0.0
  0
VERTEX
  5
1E2
  8
TEAM-HIDE
 10
2.817832
 20
465.110915
 30
0.0
  0
VERTEX
  5
1E3
  8
TEAM-HIDE
 10
6.076117
 20
460.282356
 30
0.0
  0
VERTEX
  5
1E4
  8
TEAM-HIDE
 10
10.908467
 20
457.02786
 30
0.0
  0
VERTEX
  5
1E5
  8
TEAM-HIDE
 10
16.825504
 20
455.834737
 30
0.0
  0
VERTEX
  5
1E6
  8
TEAM-HIDE
 10
17.354671
 20
455.834737
 30
0.0
  0
SEQEND
  5
1E7
  8
TEAM-HIDE
  0
LINE
  5
9C
  8
TEAM-HIDE
 10
17.32711
 20
452.951881
 30
0.0
 11
19.278412
 21
452.951881
 31
0.0
  0
LINE
  5
9D
  8
TEAM-HIDE
 10
45.870932
 20
488.191074
 30
0.0
 11
36.564523
 21
488.191074
 31
0.0
  0
LINE
  5
9E
  8
TEAM-HIDE
 10
-70.975754
 20
465.183348
 30
0.0
 11
-70.975754
 21
416.141725
 31
0.0
  0
POLYLINE
  5
9F
  8
TEAM-HIDE
 66
     1
 10
0.0
 20
0.0
 30
0.0
 70
   128
  0
VERTEX
  5
1E8
  8
TEAM-HIDE
 10
21.246251
 20
565.427359
 30
0.0
  0
VERTEX
  5
1E9
  8
TEAM-HIDE
 10
21.336685
 20
565.427359
 30
0.0
  0
VERTEX
  5
1EA
  8
TEAM-HIDE
 10
21.377057
 20
565.427359
 30
0.0
  0
VERTEX
  5
1EB
  8
TEAM-HIDE
 10
21.77088
 20
565.422393
 30
0.0
  0
VERTEX
  5
1EC
  8
TEAM-HIDE
 10
23.693616
 20
565.252161
 30
0.0
  0
VERTEX
  5
1ED
  8
TEAM-HIDE
 10
27.296441
 20
564.232428
 30
0.0
  0
VERTEX
  5
1EE
  8
TEAM-HIDE
 10
33.112456
 20
559.893612
 30
0.0
  0
VERTEX
  5
1EF
  8
TEAM-HIDE
 10
36.277429
 20
553.284668
 30
0.0
  0
VERTEX
  5
1F0
  8
TEAM-HIDE
 10
36.58662
 20
549.992152
 30
0.0
  0
VERTEX
  5
1F1
  8
TEAM-HIDE
 10
36.587122
 20
547.584433
 30
0.0
  0
VERTEX
  5
1F2
  8
TEAM-HIDE
 10
36.588098
 20
542.910982
 30
0.0
  0
VERTEX
  5
1F3
  8
TEAM-HIDE
 10
36.589453
 20
536.424944
 30
0.0
  0
VERTEX
  5
1F4
  8
TEAM-HIDE
 10
36.591091
 20
528.579467
 30
0.0
  0
VERTEX
  5
1F5
  8
TEAM-HIDE
 10
36.59484
 20
510.62278
 30
0.0
  0
VERTEX
  5
1F6
  8
TEAM-HIDE
 10
36.59859
 20
492.666093
 30
0.0
  0
VERTEX
  5
1F7
  8
TEAM-HIDE
 10
36.600228
 20
484.820615
 30
0.0
  0
VERTEX
  5
1F8
  8
TEAM-HIDE
 10
36.601582
 20
478.334578
 30
0.0
  0
VERTEX
  5
1F9
  8
TEAM-HIDE
 10
36.602558
 20
473.661127
 30
0.0
  0
VERTEX
  5
1FA
  8
TEAM-HIDE
 10
36.603061
 20
471.253408
 30
0.0
  0
VERTEX
  5
1FB
  8
TEAM-HIDE
 10
36.293976
 20
467.963185
 30
0.0
  0
VERTEX
  5
1FC
  8
TEAM-HIDE
 10
33.129454
 20
461.360963
 30
0.0
  0
VERTEX
  5
1FD
  8
TEAM-HIDE
 10
27.315303
 20
457.02786
 30
0.0
  0
VERTEX
  5
1FE
  8
TEAM-HIDE
 10
23.714255
 20
456.009659
 30
0.0
  0
VERTEX
  5
1FF
  8
TEAM-HIDE
 10
21.792674
 20
455.839695
 30
0.0
  0
VERTEX
  5
200
  8
TEAM-HIDE
 10
21.398858
 20
455.834737
 30
0.0
  0
VERTEX
  5
201
  8
TEAM-HIDE
 10
21.351757
 20
455.834737
 30
0.0
  0
VERTEX
  5
202
  8
TEAM-HIDE
 10
21.246251
 20
455.834737
 30
0.0
  0
SEQEND
  5
203
  8
TEAM-HIDE
  0
LINE
  5
A0
  8
TEAM-HIDE
 10
33.838118
 20
545.0
 30
0.0
 11
33.838118
 21
495.0
 31
0.0
  0
LINE
  5
A1
  8
TEAM-HIDE
 10
50.063786
 20
552.942333
 30
0.0
 11
50.063786
 21
484.87827
 31
0.0
  0
LINE
  5
A2
  8
TEAM-HIDE
 10
17.32711
 20
416.141725
 30
0.0
 11
17.32711
 21
569.390597
 31
0.0
  0
POLYLINE
  5
A3
  8
TEAM-HIDE
 66
     1
 10
0.0
 20
0.0
 30
0.0
 70
     1
  0
VERTEX
  5
204
  8
TEAM-HIDE
 10
1.622987
 20
465.243982
 30
0.0
  0
VERTEX
  5
205
  8
TEAM-HIDE
 10
1.622987
 20
583.611951
 30
0.0
  0
VERTEX
  5
206
  8
TEAM-HIDE
 10
3.590826
 20
583.611951
 30
0.0
  0
VERTEX
  5
207
  8
TEAM-HIDE
 10
3.590826
 20
569.390597
 30
0.0
  0
VERTEX
  5
208
  8
TEAM-HIDE
 10
19.278412
 20
569.390597
 30
0.0
  0
VERTEX
  5
209
  8
TEAM-HIDE
 10
19.278412
 20
416.141725
 30
0.0
  0
VERTEX
  5
20A
  8
TEAM-HIDE
 10
-71.008827
 20
416.141725
 30
0.0
  0
VERTEX
  5
20B
  8
TEAM-HIDE
 10
-73.919243
 20
416.935475
 30
0.0
  0
VERTEX
  5
20C
  8
TEAM-HIDE
 10
-73.919243
 20
464.411647
 30
0.0
  0
VERTEX
  5
20D
  8
TEAM-HIDE
 10
-71.008827
 20
465.183348
 30
0.0
  0
SEQEND
  5
20E
  8
TEAM-HIDE
  0
DIMENSION
  5
AF
  8
TEAM-MAS
  2
*D6
 10
395.995535
 20
700.002871
 30
0.0
 11
395.995535
 21
350.001435
 31
0.0
 12
-8000.0
 22
-12000.0
 32
0.0
 13
169.291701
 23
0.0
 33
0.0
 14
299.369008
 24
700.002871
 34
0.0
 50
90.0
1001
ACAD
1000
DSTYLE
1002
{
1070
    78
1070
     0
1070
    40
1040
1.0
1002
}
  0
LINE
  5
BD
  8
TEAM-HIDE
 10
290.33729
 20
662.382651
 30
0.0
 11
295.692107
 21
658.557782
 31
0.0
  0
ARC
  5
BE
  8
TEAM-HIDE
 10
297.414614
 20
697.881239
 30
0.0
 40
7.0
 50
73.787579
 51
141.736011
  0
ARC
  5
BF
  8
TEAM-HIDE
 10
278.425655
 20
677.035479
 30
0.0
 40
5.0
 50
141.736011
 51
234.462322
  0
LINE
  5
C0
  8
TEAM-HIDE
 10
291.918453
 20
702.216238
 30
0.0
 11
274.499826
 21
680.131908
 31
0.0
  0
ARC
  5
C1
  8
TEAM-HIDE
 10
163.492016
 20
553.646655
 30
0.0
 40
25.0
 50
124.649655
 51
171.863625
  0
LINE
  5
C2
  8
TEAM-HIDE
 10
98.518091
 20
599.834213
 30
0.0
 11
98.518091
 21
545.0
 31
0.0
  0
LINE
  5
C3
  8
TEAM-HIDE
 10
83.518091
 20
596.660298
 30
0.0
 11
83.518091
 21
545.0
 31
0.0
  0
ARC
  5
C4
  8
TEAM-HIDE
 10
73.518091
 20
596.660298
 30
0.0
 40
10.0
 50
0.0
 51
66.567266
  0
ARC
  5
C5
  8
TEAM-HIDE
 10
73.518091
 20
599.834213
 30
0.0
 40
25.0
 50
0.0
 51
16.925498
  0
ARC
  5
C6
  8
TEAM-HIDE
 10
248.247018
 20
431.014798
 30
0.0
 40
174.070395
 50
91.792649
 51
124.649655
  0
LINE
  5
C7
  8
TEAM-HIDE
 10
126.602814
 20
472.265347
 30
0.0
 11
126.602814
 21
443.768396
 31
0.0
  0
LINE
  5
C8
  8
TEAM-HIDE
 10
138.743666
 20
557.184899
 30
0.0
 11
126.602814
 21
472.265347
 31
0.0
  0
LINE
  5
C9
  8
TEAM-HIDE
 10
62.890565
 20
553.929008
 30
0.0
 11
62.890565
 21
483.886083
 31
0.0
  0
LINE
  5
CA
  8
TEAM-HIDE
 10
61.909402
 20
552.942333
 30
0.0
 11
61.909402
 21
484.87827
 31
0.0
  0
LINE
  5
CB
  8
TEAM-DET3
 10
75.282122
 20
876.009931
 30
0.0
 11
57.21097
 21
889.252856
 31
0.0
  0
ARC
  5
CD
  8
TEAM-DET3
 10
75.518029
 20
1238.618081
 30
0.0
 40
18.708745
 50
88.636056
 51
185.287159
  0
LINE
  5
CE
  8
TEAM-HIDE
 10
17.470608
 20
862.5
 30
0.0
 11
0.491603
 21
862.5
 31
0.0
  0
LINE
  5
CF
  8
TEAM-DET3
 10
57.21097
 20
889.252856
 30
0.0
 11
57.21097
 21
1238.719758
 31
0.0
  0
LINE
  5
D0
  8
TEAM-DET3
 10
67.572721
 20
880.59553
 30
0.0
 11
58.649357
 21
867.977364
 31
0.0
  0
ARC
  5
D1
  8
TEAM-HIDE
 10
62.421507
 20
866.610253
 30
0.0
 40
7.0
 50
321.736011
 51
21.785562
  0
LINE
  5
D2
  8
TEAM-DET3
 10
75.282122
 20
1257.321525
 30
0.0
 11
75.282122
 21
876.009931
 31
0.0
  0
ENDSEC
  0
EOF
