  0
SECTION
  2
HEADER
  9
$ACADVER
  1
AC1009
  9
$INSBASE
 10
0.0
 20
0.0
 30
0.0
  9
$EXTMIN
 10
-275.137948
 20
-10.027464
 30
-0.001526
  9
$EXTMAX
 10
294.921334
 20
891.472236
 30
0.0
  9
$LIMMIN
 10
-275.137948
 20
-10.027464
  9
$LIMMAX
 10
294.921334
 20
891.472236
  9
$ORTHOMODE
 70
     1
  9
$REGENMODE
 70
     1
  9
$FILLMODE
 70
     1
  9
$QTEXTMODE
 70
     0
  9
$MIRRTEXT
 70
     0
  9
$DRAGMODE
 70
     2
  9
$LTSCALE
 40
25.0
  9
$OSMODE
 70
     0
  9
$ATTMODE
 70
     1
  9
$TEXTSIZE
 40
200.0
  9
$TRACEWID
 40
1.0
  9
$TEXTSTYLE
  7
STANDARD
  9
$CLAYER
  8
TEAM-MAS
  9
$CELTYPE
  6
BYLAYER
  9
$CECOLOR
 62
   256
  9
$DIMSCALE
 40
0.0
  9
$DIMASZ
 40
20.0
  9
$DIMEXO
 40
10.0
  9
$DIMDLI
 40
1.0
  9
$DIMRND
 40
0.0
  9
$DIMDLE
 40
0.0
  9
$DIMEXE
 40
1.0
  9
$DIMTP
 40
0.0
  9
$DIMTM
 40
0.0
  9
$DIMTXT
 40
35.0
  9
$DIMCEN
 40
1.0
  9
$DIMTSZ
 40
0.0
  9
$DIMTOL
 70
     0
  9
$DIMLIM
 70
     0
  9
$DIMTIH
 70
     0
  9
$DIMTOH
 70
     0
  9
$DIMSE1
 70
     0
  9
$DIMSE2
 70
     0
  9
$DIMTAD
 70
     0
  9
$DIMZIN
 70
     0
  9
$DIMBLK
  1

  9
$DIMASO
 70
     1
  9
$DIMSHO
 70
     0
  9
$DIMPOST
  1

  9
$DIMAPOST
  1

  9
$DIMALT
 70
     0
  9
$DIMALTD
 70
     2
  9
$DIMALTF
 40
25.4
  9
$DIMLFAC
 40
1.0
  9
$DIMTOFL
 70
     0
  9
$DIMTVP
 40
0.0
  9
$DIMTIX
 70
     0
  9
$DIMSOXD
 70
     0
  9
$DIMSAH
 70
     0
  9
$DIMBLK1
  1

  9
$DIMBLK2
  1

  9
$DIMSTYLE
  2
TEAM
  9
$DIMCLRD
 70
     9
  9
$DIMCLRE
 70
     9
  9
$DIMCLRT
 70
    11
  9
$DIMTFAC
 40
1.0
  9
$DIMGAP
 40
15.0
  9
$LUNITS
 70
     2
  9
$LUPREC
 70
     1
  9
$SKETCHINC
 40
1.0
  9
$FILLETRAD
 40
20.0
  9
$AUNITS
 70
     0
  9
$AUPREC
 70
     0
  9
$MENU
  1
ROPLANS
  9
$ELEVATION
 40
0.0
  9
$PELEVATION
 40
0.0
  9
$THICKNESS
 40
0.0
  9
$LIMCHECK
 70
     0
  9
$BLIPMODE
 70
     1
  9
$CHAMFERA
 40
0.0
  9
$CHAMFERB
 40
0.0
  9
$SKPOLY
 70
     0
  9
$TDCREATE
 40
2450392.957851
  9
$TDUPDATE
 40
2455536.798295
  9
$TDINDWG
 40
2.489744
  9
$TDUSRTIMER
 40
2.489744
  9
$USRTIMER
 70
     1
  9
$ANGBASE
 50
0.0
  9
$ANGDIR
 70
     0
  9
$PDMODE
 70
     0
  9
$PDSIZE
 40
0.0
  9
$PLINEWID
 40
0.0
  9
$COORDS
 70
     2
  9
$SPLFRAME
 70
     0
  9
$SPLINETYPE
 70
     6
  9
$SPLINESEGS
 70
     8
  9
$ATTDIA
 70
     0
  9
$ATTREQ
 70
     0
  9
$HANDLING
 70
     1
  9
$HANDSEED
  5
219
  9
$SURFTAB1
 70
    48
  9
$SURFTAB2
 70
    48
  9
$SURFTYPE
 70
     6
  9
$SURFU
 70
     6
  9
$SURFV
 70
     6
  9
$UCSNAME
  2

  9
$UCSORG
 10
0.0
 20
0.0
 30
0.0
  9
$UCSXDIR
 10
1.0
 20
0.0
 30
0.0
  9
$UCSYDIR
 10
0.0
 20
1.0
 30
0.0
  9
$PUCSNAME
  2

  9
$PUCSORG
 10
0.0
 20
0.0
 30
0.0
  9
$PUCSXDIR
 10
1.0
 20
0.0
 30
0.0
  9
$PUCSYDIR
 10
0.0
 20
1.0
 30
0.0
  9
$USERI1
 70
     0
  9
$USERI2
 70
     0
  9
$USERI3
 70
     0
  9
$USERI4
 70
     0
  9
$USERI5
 70
     0
  9
$USERR1
 40
0.0
  9
$USERR2
 40
0.0
  9
$USERR3
 40
0.0
  9
$USERR4
 40
0.0
  9
$USERR5
 40
0.0
  9
$WORLDVIEW
 70
     1
  9
$SHADEDGE
 70
     0
  9
$SHADEDIF
 70
    70
  9
$TILEMODE
 70
     1
  9
$MAXACTVP
 70
    16
  9
$PLIMCHECK
 70
     0
  9
$PEXTMIN
 10
-0.805942
 20
0.005011
 30
0.0
  9
$PEXTMAX
 10
20.421406
 20
13.753816
 30
0.0
  9
$PLIMMIN
 10
0.0
 20
0.0
  9
$PLIMMAX
 10
12.0
 20
9.0
  9
$UNITMODE
 70
     0
  9
$VISRETAIN
 70
     0
  9
$PLINEGEN
 70
     0
  9
$PSLTSCALE
 70
     0
  0
ENDSEC
  0
SECTION
  2
TABLES
  0
TABLE
  2
VPORT
 70
     2
  0
VPORT
  2
*ACTIVE
 70
     0
 10
0.0
 20
0.0
 11
1.0
 21
1.0
 12
9.891693
 22
440.722386
 13
0.0
 23
0.0
 14
1.0
 24
1.0
 15
50.0
 25
50.0
 16
0.0
 26
0.0
 36
1.0
 17
0.0
 27
0.0
 37
0.0
 40
907.036034
 41
1.865779
 42
50.0
 43
0.0
 44
0.0
 50
0.0
 51
0.0
 71
     0
 72
   100
 73
     1
 74
     1
 75
     0
 76
     0
 77
     0
 78
     0
  0
ENDTAB
  0
TABLE
  2
LTYPE
 70
     3
  0
LTYPE
  2
CONTINUOUS
 70
     0
  3
Solid Line
 72
    65
 73
     0
 40
0.0
  0
LTYPE
  2
31
 70
     0
  3

 72
    65
 73
     4
 40
2.1
 49
1.5
 49
-0.3
 49
0.0
 49
-0.3
  0
LTYPE
  2
22
 70
     0
  3

 72
    65
 73
     2
 40
1.4
 49
1.2
 49
-0.2
  0
ENDTAB
  0
TABLE
  2
LAYER
 70
    11
  0
LAYER
  2
0
 70
     0
 62
     7
  6
CONTINUOUS
  0
LAYER
  2
DEFPOINTS
 70
     0
 62
     7
  6
CONTINUOUS
  0
LAYER
  2
TEAM-BODY
 70
     0
 62
     2
  6
CONTINUOUS
  0
LAYER
  2
TEAM-AXE
 70
     0
 62
    10
  6
31
  0
LAYER
  2
TEAM-MAS
 70
     0
 62
     9
  6
CONTINUOUS
  0
LAYER
  2
TEAM-TXT
 70
     0
 62
    11
  6
CONTINUOUS
  0
LAYER
  2
TEAM-DET1
 70
     0
 62
     4
  6
CONTINUOUS
  0
LAYER
  2
TEAM-COLD
 70
     0
 62
     3
  6
CONTINUOUS
  0
LAYER
  2
TEAM-HIDE
 70
     0
 62
     8
  6
22
  0
LAYER
  2
TEAM-KAN
 70
     0
 62
     6
  6
CONTINUOUS
  0
LAYER
  2
TEAM-INSP
 70
     0
 62
     5
  6
CONTINUOUS
  0
ENDTAB
  0
TABLE
  2
STYLE
 70
     2
  0
STYLE
  2
STANDARD
 70
     0
 40
0.0
 41
1.0
 50
0.0
 71
     0
 42
200.0
  3
txt
  4

  0
STYLE
  2
TEAM
 70
     0
 40
0.0
 41
0.8
 50
15.0
 71
     0
 42
7.0
  3
ROMANS.shx
  4

  0
ENDTAB
  0
TABLE
  2
VIEW
 70
     0
  0
ENDTAB
  0
TABLE
  2
UCS
 70
     0
  0
ENDTAB
  0
TABLE
  2
APPID
 70
     3
  0
APPID
  2
ACAD
 70
     0
  0
APPID
  2
GENIUS_GENODEF_13
 70
     0
  0
APPID
  2
GENIUS_GENOBJ-N-FIL_13
 70
     0
  0
ENDTAB
  0
TABLE
  2
DIMSTYLE
 70
     1
  0
DIMSTYLE
  2
TEAM
 70
     0
  3

  4

  5

  6

  7

 40
0.0
 41
20.0
 42
10.0
 43
1.0
 44
1.0
 45
0.0
 46
0.0
 47
0.0
 48
0.0
140
35.0
141
1.0
142
0.0
143
25.4
144
1.0
145
0.0
146
1.0
147
15.0
 71
     0
 72
     0
 73
     0
 74
     0
 75
     0
 76
     0
 77
     0
 78
     0
170
     0
171
     2
172
     0
173
     0
174
     0
175
     0
176
     9
177
     9
178
    11
  0
ENDTAB
  0
ENDSEC
  0
SECTION
  2
BLOCKS
  0
BLOCK
  8
0
  2
$MODEL_SPACE
 70
     0
 10
0.0
 20
0.0
 30
0.0
  3
$MODEL_SPACE
  1

  0
ENDBLK
  5
1B5
  8
0
  0
BLOCK
 67
     1
  8
0
  2
$PAPER_SPACE
 70
     0
 10
0.0
 20
0.0
 30
0.0
  3
$PAPER_SPACE
  1

  0
ENDBLK
  5
1B3
 67
     1
  8
0
  0
BLOCK
  8
0
  2
*D0
 70
     1
 10
0.0
 20
0.0
 30
0.0
  3
*D0
  1

  0
LINE
  5
56
  8
0
  6
BYBLOCK
 62
     9
 10
11970.0
 20
12520.002808
 30
0.0
 11
11841.501108
 21
12520.002808
 31
0.0
  0
LINE
  5
57
  8
0
  6
BYBLOCK
 62
     9
 10
11970.0
 20
12440.002808
 30
0.0
 11
11841.501108
 21
12440.002808
 31
0.0
  0
LINE
  5
58
  8
0
  6
BYBLOCK
 62
     9
 10
11842.501108
 20
12500.002808
 30
0.0
 11
11842.501108
 21
12460.002808
 31
0.0
  0
TEXT
  5
59
  8
0
  6
BYBLOCK
 62
    11
 10
11838.150164
 20
12421.092186
 30
0.0
 40
35.0
  1
80
 50
90.0
  0
SOLID
  5
5A
  8
0
  6
BYBLOCK
 62
     9
 10
11839.167775
 20
12500.002808
 30
0.0
 11
11845.834442
 21
12500.002808
 31
0.0
 12
11842.501108
 22
12520.002808
 32
0.0
 13
11842.501108
 23
12520.002808
 33
0.0
  0
SOLID
  5
5B
  8
0
  6
BYBLOCK
 62
     9
 10
11839.167775
 20
12460.002808
 30
0.0
 11
11845.834442
 21
12460.002808
 31
0.0
 12
11842.501108
 22
12440.002808
 32
0.0
 13
11842.501108
 23
12440.002808
 33
0.0
  0
POINT
  5
5C
  8
DEFPOINTS
  6
BYBLOCK
 62
     0
 10
11980.0
 20
12520.002808
 30
0.0
  0
POINT
  5
5D
  8
DEFPOINTS
  6
BYBLOCK
 62
     0
 10
11980.0
 20
12440.002808
 30
0.0
  0
POINT
  5
5E
  8
DEFPOINTS
  6
BYBLOCK
 62
     0
 10
11842.501108
 20
12440.002808
 30
0.0
  0
ENDBLK
  5
60
  8
0
  0
BLOCK
  8
0
  2
*D1
 70
     1
 10
0.0
 20
0.0
 30
0.0
  3
*D1
  1

  0
LINE
  5
3A
  8
0
  6
BYBLOCK
 62
     9
 10
11905.0
 20
12639.0
 30
0.0
 11
11905.0
 21
12731.571331
 31
0.0
  0
LINE
  5
3B
  8
0
  6
BYBLOCK
 62
     9
 10
12095.0
 20
12639.0
 30
0.0
 11
12095.0
 21
12731.571331
 31
0.0
  0
LINE
  5
3C
  8
0
  6
BYBLOCK
 62
     9
 10
11925.0
 20
12730.571331
 30
0.0
 11
11947.083333
 21
12730.571331
 31
0.0
  0
LINE
  5
3D
  8
0
  6
BYBLOCK
 62
     9
 10
12075.0
 20
12730.571331
 30
0.0
 11
12052.916667
 21
12730.571331
 31
0.0
  0
TEXT
  5
3E
  8
0
  6
BYBLOCK
 62
    11
 10
11966.67507
 20
12714.309418
 30
0.0
 40
35.0
  1
190
  0
SOLID
  5
3F
  8
0
  6
BYBLOCK
 62
     9
 10
11925.0
 20
12733.904664
 30
0.0
 11
11925.0
 21
12727.237998
 31
0.0
 12
11905.0
 22
12730.571331
 32
0.0
 13
11905.0
 23
12730.571331
 33
0.0
  0
SOLID
  5
40
  8
0
  6
BYBLOCK
 62
     9
 10
12075.0
 20
12733.904664
 30
0.0
 11
12075.0
 21
12727.237998
 31
0.0
 12
12095.0
 22
12730.571331
 32
0.0
 13
12095.0
 23
12730.571331
 33
0.0
  0
POINT
  5
41
  8
DEFPOINTS
  6
BYBLOCK
 62
     0
 10
11905.0
 20
12629.0
 30
0.0
  0
POINT
  5
42
  8
DEFPOINTS
  6
BYBLOCK
 62
     0
 10
12095.0
 20
12629.0
 30
0.0
  0
POINT
  5
43
  8
DEFPOINTS
  6
BYBLOCK
 62
     0
 10
12095.0
 20
12730.571331
 30
0.0
  0
ENDBLK
  5
45
  8
0
  0
BLOCK
  8
0
  2
*D2
 70
     1
 10
0.0
 20
0.0
 30
0.0
  3
*D2
  1

  0
LINE
  5
22
  8
0
  6
BYBLOCK
 62
     9
 10
11881.373662
 20
12335.002808
 30
0.0
 11
11739.629402
 21
12335.002808
 31
0.0
  0
LINE
  5
23
  8
0
  6
BYBLOCK
 62
     9
 10
11849.5
 20
12890.002808
 30
0.0
 11
11739.629402
 21
12890.002808
 31
0.0
  0
LINE
  5
24
  8
0
  6
BYBLOCK
 62
     9
 10
11740.629402
 20
12355.002808
 30
0.0
 11
11740.629402
 21
12550.836142
 31
0.0
  0
LINE
  5
25
  8
0
  6
BYBLOCK
 62
     9
 10
11740.629402
 20
12870.002808
 30
0.0
 11
11740.629402
 21
12674.169475
 31
0.0
  0
SOLID
  5
26
  8
0
  6
BYBLOCK
 62
     9
 10
11737.296068
 20
12355.002808
 30
0.0
 11
11743.962735
 21
12355.002808
 31
0.0
 12
11740.629402
 22
12335.002808
 32
0.0
 13
11740.629402
 23
12335.002808
 33
0.0
  0
SOLID
  5
27
  8
0
  6
BYBLOCK
 62
     9
 10
11737.296068
 20
12870.002808
 30
0.0
 11
11743.962735
 21
12870.002808
 31
0.0
 12
11740.629402
 22
12890.002808
 32
0.0
 13
11740.629402
 23
12890.002808
 33
0.0
  0
TEXT
  5
28
  8
0
  6
BYBLOCK
 62
    11
 10
11758.129402
 20
12575.027935
 30
0.0
 40
35.0
  1
555
 50
90.0
  0
POINT
  5
29
  8
DEFPOINTS
  6
BYBLOCK
 62
     0
 10
11891.373662
 20
12335.002808
 30
0.0
  0
POINT
  5
2B
  8
DEFPOINTS
  6
BYBLOCK
 62
     0
 10
11859.5
 20
12890.002808
 30
0.0
  0
POINT
  5
2C
  8
DEFPOINTS
  6
BYBLOCK
 62
     0
 10
11740.629402
 20
12890.002808
 30
0.0
  0
ENDBLK
  5
2E
  8
0
  0
BLOCK
  8
0
  2
*D3
 70
     1
 10
0.0
 20
0.0
 30
0.0
  3
*D3
  1

  0
LINE
  5
8D
  8
0
  6
BYBLOCK
 62
     9
 10
11970.0
 20
12440.002808
 30
0.0
 11
11790.212219
 21
12440.002808
 31
0.0
  0
LINE
  5
8E
  8
0
  6
BYBLOCK
 62
     9
 10
11990.0
 20
12845.0
 30
0.0
 11
11790.212219
 21
12845.0
 31
0.0
  0
LINE
  5
8F
  8
0
  6
BYBLOCK
 62
     9
 10
11791.212219
 20
12460.002808
 30
0.0
 11
11791.212219
 21
12583.751404
 31
0.0
  0
LINE
  5
90
  8
0
  6
BYBLOCK
 62
     9
 10
11791.212219
 20
12825.0
 30
0.0
 11
11791.212219
 21
12701.251404
 31
0.0
  0
SOLID
  5
91
  8
0
  6
BYBLOCK
 62
     9
 10
11787.878886
 20
12460.002808
 30
0.0
 11
11794.545552
 21
12460.002808
 31
0.0
 12
11791.212219
 22
12440.002808
 32
0.0
 13
11791.212219
 23
12440.002808
 33
0.0
  0
SOLID
  5
92
  8
0
  6
BYBLOCK
 62
     9
 10
11787.878886
 20
12825.0
 30
0.0
 11
11794.545552
 21
12825.0
 31
0.0
 12
11791.212219
 22
12845.0
 32
0.0
 13
11791.212219
 23
12845.0
 33
0.0
  0
TEXT
  5
93
  8
0
  6
BYBLOCK
 62
    11
 10
11808.712219
 20
12603.27653
 30
0.0
 40
35.0
  1
405
 50
90.0
  0
POINT
  5
94
  8
DEFPOINTS
  6
BYBLOCK
 62
     0
 10
11980.0
 20
12440.002808
 30
0.0
  0
POINT
  5
95
  8
DEFPOINTS
  6
BYBLOCK
 62
     0
 10
12000.0
 20
12845.0
 30
0.0
  0
POINT
  5
96
  8
DEFPOINTS
  6
BYBLOCK
 62
     0
 10
11791.212219
 20
12845.0
 30
0.0
  0
ENDBLK
  5
98
  8
0
  0
BLOCK
  8
0
  2
*D4
 70
     1
 10
0.0
 20
0.0
 30
0.0
  3
*D4
  1

  0
LINE
  5
48
  8
0
  6
BYBLOCK
 62
     9
 10
11990.0
 20
12000.0
 30
0.0
 11
11841.501108
 21
12000.0
 31
0.0
  0
LINE
  5
49
  8
0
  6
BYBLOCK
 62
     9
 10
11970.0
 20
12440.002808
 30
0.0
 11
11841.501108
 21
12440.002808
 31
0.0
  0
LINE
  5
4A
  8
0
  6
BYBLOCK
 62
     9
 10
11842.501108
 20
12020.0
 30
0.0
 11
11842.501108
 21
12148.716404
 31
0.0
  0
LINE
  5
4B
  8
0
  6
BYBLOCK
 62
     9
 10
11842.501108
 20
12420.002808
 30
0.0
 11
11842.501108
 21
12266.216404
 31
0.0
  0
TEXT
  5
4C
  8
0
  6
BYBLOCK
 62
    11
 10
11860.001108
 20
12167.202625
 30
0.0
 40
35.0
  1
440
 50
90.0
  0
SOLID
  5
4D
  8
0
  6
BYBLOCK
 62
     9
 10
11839.167775
 20
12020.0
 30
0.0
 11
11845.834442
 21
12020.0
 31
0.0
 12
11842.501108
 22
12000.0
 32
0.0
 13
11842.501108
 23
12000.0
 33
0.0
  0
SOLID
  5
4E
  8
0
  6
BYBLOCK
 62
     9
 10
11839.167775
 20
12420.002808
 30
0.0
 11
11845.834442
 21
12420.002808
 31
0.0
 12
11842.501108
 22
12440.002808
 32
0.0
 13
11842.501108
 23
12440.002808
 33
0.0
  0
POINT
  5
4F
  8
DEFPOINTS
  6
BYBLOCK
 62
     0
 10
12000.0
 20
12000.0
 30
0.0
  0
POINT
  5
50
  8
DEFPOINTS
  6
BYBLOCK
 62
     0
 10
11980.0
 20
12440.002808
 30
0.0
  0
POINT
  5
51
  8
DEFPOINTS
  6
BYBLOCK
 62
     0
 10
11842.501108
 20
12440.002808
 30
0.0
  0
ENDBLK
  5
53
  8
0
  0
BLOCK
  8
0
  2
*D5
 70
     1
 10
0.0
 20
0.0
 30
0.0
  3
*D5
  1

  0
LINE
  5
7F
  8
0
  6
BYBLOCK
 62
     9
 10
12010.0
 20
12000.0
 30
0.0
 11
12278.679168
 21
12000.0
 31
0.0
  0
LINE
  5
80
  8
0
  6
BYBLOCK
 62
     9
 10
12010.0
 20
12845.0
 30
0.0
 11
12278.679168
 21
12845.0
 31
0.0
  0
LINE
  5
81
  8
0
  6
BYBLOCK
 62
     9
 10
12277.679168
 20
12020.0
 30
0.0
 11
12277.679168
 21
12360.833333
 31
0.0
  0
LINE
  5
82
  8
0
  6
BYBLOCK
 62
     9
 10
12277.679168
 20
12825.0
 30
0.0
 11
12277.679168
 21
12484.166667
 31
0.0
  0
SOLID
  5
83
  8
0
  6
BYBLOCK
 62
     9
 10
12274.345834
 20
12020.0
 30
0.0
 11
12281.012501
 21
12020.0
 31
0.0
 12
12277.679168
 22
12000.0
 32
0.0
 13
12277.679168
 23
12000.0
 33
0.0
  0
SOLID
  5
84
  8
0
  6
BYBLOCK
 62
     9
 10
12274.345834
 20
12825.0
 30
0.0
 11
12281.012501
 21
12825.0
 31
0.0
 12
12277.679168
 22
12845.0
 32
0.0
 13
12277.679168
 23
12845.0
 33
0.0
  0
TEXT
  5
85
  8
0
  6
BYBLOCK
 62
    11
 10
12295.179168
 20
12383.275126
 30
0.0
 40
35.0
  1
845
 50
90.0
  0
POINT
  5
86
  8
DEFPOINTS
  6
BYBLOCK
 62
     0
 10
12000.0
 20
12000.0
 30
0.0
  0
POINT
  5
87
  8
DEFPOINTS
  6
BYBLOCK
 62
     0
 10
12000.0
 20
12845.0
 30
0.0
  0
POINT
  5
88
  8
DEFPOINTS
  6
BYBLOCK
 62
     0
 10
12277.679168
 20
12845.0
 30
0.0
  0
ENDBLK
  5
8A
  8
0
  0
BLOCK
  8
0
  2
*D6
 70
     1
 10
0.0
 20
0.0
 30
0.0
  3
*D6
  1

  0
LINE
  5
63
  8
0
  6
BYBLOCK
 62
     9
 10
12125.0
 20
12615.0
 30
0.0
 11
12181.14371
 21
12615.0
 31
0.0
  0
LINE
  5
64
  8
0
  6
BYBLOCK
 62
     9
 10
12010.0
 20
12000.0
 30
0.0
 11
12181.14371
 21
12000.0
 31
0.0
  0
LINE
  5
65
  8
0
  6
BYBLOCK
 62
     9
 10
12180.14371
 20
12595.0
 30
0.0
 11
12180.14371
 21
12363.333333
 31
0.0
  0
LINE
  5
66
  8
0
  6
BYBLOCK
 62
     9
 10
12180.14371
 20
12020.0
 30
0.0
 11
12180.14371
 21
12251.666667
 31
0.0
  0
SOLID
  5
67
  8
0
  6
BYBLOCK
 62
     9
 10
12176.810376
 20
12595.0
 30
0.0
 11
12183.477043
 21
12595.0
 31
0.0
 12
12180.14371
 22
12615.0
 32
0.0
 13
12180.14371
 23
12615.0
 33
0.0
  0
SOLID
  5
68
  8
0
  6
BYBLOCK
 62
     9
 10
12176.810376
 20
12020.0
 30
0.0
 11
12183.477043
 21
12020.0
 31
0.0
 12
12180.14371
 22
12000.0
 32
0.0
 13
12180.14371
 23
12000.0
 33
0.0
  0
TEXT
  5
69
  8
0
  6
BYBLOCK
 62
    11
 10
12197.64371
 20
12274.57237
 30
0.0
 40
35.0
  1
615
 50
90.0
  0
POINT
  5
6A
  8
DEFPOINTS
  6
BYBLOCK
 62
     0
 10
12115.0
 20
12615.0
 30
0.0
  0
POINT
  5
6B
  8
DEFPOINTS
  6
BYBLOCK
 62
     0
 10
12000.0
 20
12000.0
 30
0.0
  0
POINT
  5
6C
  8
DEFPOINTS
  6
BYBLOCK
 62
     0
 10
12180.14371
 20
12000.0
 30
0.0
  0
ENDBLK
  5
6E
  8
0
  0
BLOCK
  8
0
  2
*D7
 70
     1
 10
0.0
 20
0.0
 30
0.0
  3
*D7
  1

  0
LINE
  5
71
  8
0
  6
BYBLOCK
 62
     9
 10
12010.0
 20
12000.0
 30
0.0
 11
12229.340714
 21
12000.0
 31
0.0
  0
LINE
  5
72
  8
0
  6
BYBLOCK
 62
     9
 10
12010.0
 20
12700.0
 30
0.0
 11
12229.340714
 21
12700.0
 31
0.0
  0
LINE
  5
73
  8
0
  6
BYBLOCK
 62
     9
 10
12228.340714
 20
12020.0
 30
0.0
 11
12228.340714
 21
12294.166667
 31
0.0
  0
LINE
  5
74
  8
0
  6
BYBLOCK
 62
     9
 10
12228.340714
 20
12680.0
 30
0.0
 11
12228.340714
 21
12405.833333
 31
0.0
  0
SOLID
  5
75
  8
0
  6
BYBLOCK
 62
     9
 10
12225.007381
 20
12020.0
 30
0.0
 11
12231.674047
 21
12020.0
 31
0.0
 12
12228.340714
 22
12000.0
 32
0.0
 13
12228.340714
 23
12000.0
 33
0.0
  0
SOLID
  5
76
  8
0
  6
BYBLOCK
 62
     9
 10
12225.007381
 20
12680.0
 30
0.0
 11
12231.674047
 21
12680.0
 31
0.0
 12
12228.340714
 22
12700.0
 32
0.0
 13
12228.340714
 23
12700.0
 33
0.0
  0
TEXT
  5
77
  8
0
  6
BYBLOCK
 62
    11
 10
12245.840714
 20
12313.23622
 30
0.0
 40
35.0
  1
700
 50
90.0
  0
POINT
  5
78
  8
DEFPOINTS
  6
BYBLOCK
 62
     0
 10
12000.0
 20
12000.0
 30
0.0
  0
POINT
  5
79
  8
DEFPOINTS
  6
BYBLOCK
 62
     0
 10
12000.0
 20
12700.0
 30
0.0
  0
POINT
  5
7A
  8
DEFPOINTS
  6
BYBLOCK
 62
     0
 10
12228.340714
 20
12700.0
 30
0.0
  0
ENDBLK
  5
7C
  8
0
  0
ENDSEC
  0
SECTION
  2
ENTITIES
  0
DIMENSION
  5
20
  8
TEAM-MAS
  2
*D2
 10
-259.370598
 20
890.002808
 30
0.0
 11
-259.370598
 21
612.502808
 31
0.0
 12
-12000.0
 22
-12000.0
 32
0.0
 13
-108.626338
 23
335.002808
 33
0.0
 14
-140.5
 24
890.002808
 34
0.0
 50
90.0
1001
ACAD
1000
DSTYLE
1002
{
1070
    40
1040
1.0
1002
}
  0
CIRCLE
  5
2F
  8
TEAM-COLD
 10
0.0
 20
845.0
 30
0.0
 40
10.0
  0
LINE
  5
31
  8
TEAM-AXE
 10
0.0
 20
827.502808
 30
0.0
 11
0.0
 21
862.502808
 31
0.0
  0
ARC
  5
34
  8
TEAM-BODY
 10
87.5
 20
835.002808
 30
0.0
 40
20.0
 50
360.0
 51
90.0
  0
ARC
  5
36
  8
TEAM-BODY
 10
-87.5
 20
835.002808
 30
0.0
 40
20.0
 50
90.0
 51
180.0
  0
POLYLINE
  5
37
  8
TEAM-BODY
 66
     1
 10
0.0
 20
0.0
 30
0.0
 70
     1
  0
VERTEX
  5
1BB
  8
TEAM-BODY
 10
147.5
 20
883.002808
 30
0.0
 42
0.414214
  0
VERTEX
  5
1BC
  8
TEAM-BODY
 10
140.5
 20
890.002808
 30
0.0
  0
VERTEX
  5
1BD
  8
TEAM-BODY
 10
-140.5
 20
890.002808
 30
0.0
 42
0.414214
  0
VERTEX
  5
1BE
  8
TEAM-BODY
 10
-147.5
 20
883.002808
 30
0.0
  0
VERTEX
  5
1BF
  8
TEAM-BODY
 10
-147.5
 20
612.002808
 30
0.0
 42
0.414214
  0
VERTEX
  5
1C0
  8
TEAM-BODY
 10
-140.5
 20
605.002808
 30
0.0
  0
VERTEX
  5
1C1
  8
TEAM-BODY
 10
-127.918158
 20
605.002808
 30
0.0
  0
VERTEX
  5
1C2
  8
TEAM-BODY
 10
-113.618682
 20
339.72623
 30
0.0
 42
0.398095
  0
VERTEX
  5
1C3
  8
TEAM-BODY
 10
-108.626338
 20
335.002808
 30
0.0
  0
VERTEX
  5
1C4
  8
TEAM-BODY
 10
108.626338
 20
335.002808
 30
0.0
 42
0.398095
  0
VERTEX
  5
1C5
  8
TEAM-BODY
 10
113.618682
 20
339.72623
 30
0.0
  0
VERTEX
  5
1C6
  8
TEAM-BODY
 10
127.918158
 20
605.002808
 30
0.0
  0
VERTEX
  5
1C7
  8
TEAM-BODY
 10
140.5
 20
605.002808
 30
0.0
 42
0.414214
  0
VERTEX
  5
1C8
  8
TEAM-BODY
 10
147.5
 20
612.002808
 30
0.0
  0
SEQEND
  5
1C9
  8
TEAM-BODY
  0
DIMENSION
  5
38
  8
TEAM-MAS
  2
*D1
 10
95.0
 20
730.571331
 30
0.0
 11
0.0
 21
731.809418
 31
0.0
 12
-12000.0
 22
-12000.0
 32
0.0
 70
   128
 13
-95.0
 23
629.0
 33
0.0
 14
95.0
 24
629.0
 34
0.0
  0
DIMENSION
  5
46
  8
TEAM-MAS
  2
*D4
 10
-157.498892
 20
440.002808
 30
0.0
 11
-157.498892
 21
207.466404
 31
0.0
 12
-12000.0
 22
-12000.0
 32
0.0
 70
   128
 13
0.0
 23
0.0
 33
0.0
 14
-20.0
 24
440.002808
 34
0.0
 50
90.0
  0
DIMENSION
  5
54
  8
TEAM-MAS
  2
*D0
 10
-157.498892
 20
440.002808
 30
0.0
 11
-179.349836
 21
445.605965
 31
0.0
 12
-12000.0
 22
-12000.0
 32
0.0
 70
   128
 13
-20.0
 23
520.002808
 33
0.0
 14
-20.0
 24
440.002808
 34
0.0
 50
90.0
1001
ACAD
1000
DSTYLE
1002
{
1070
    40
1040
1.0
1002
}
  0
DIMENSION
  5
61
  8
TEAM-MAS
  2
*D6
 10
180.14371
 20
0.0
 30
0.0
 11
180.14371
 21
307.5
 31
0.0
 12
-12000.0
 22
-12000.0
 32
0.0
 13
115.0
 23
615.0
 33
0.0
 14
0.0
 24
0.0
 34
0.0
 50
90.0
  0
DIMENSION
  5
6F
  8
TEAM-MAS
  2
*D7
 10
228.340714
 20
700.0
 30
0.0
 11
228.340714
 21
350.0
 31
0.0
 12
-12000.0
 22
-12000.0
 32
0.0
 13
0.0
 23
0.0
 33
0.0
 14
0.0
 24
700.0
 34
0.0
 50
90.0
1001
ACAD
1000
DSTYLE
1002
{
1070
    78
1070
     0
1070
    40
1040
1.0
1002
}
  0
DIMENSION
  5
7D
  8
TEAM-MAS
  2
*D5
 10
277.679168
 20
845.0
 30
0.0
 11
277.679168
 21
422.5
 31
0.0
 12
-12000.0
 22
-12000.0
 32
0.0
 13
0.0
 23
0.0
 33
0.0
 14
0.0
 24
845.0
 34
0.0
 50
90.0
1001
ACAD
1000
DSTYLE
1002
{
1070
    40
1040
1.0
1002
}
  0
DIMENSION
  5
8B
  8
TEAM-MAS
  2
*D3
 10
-208.787781
 20
845.0
 30
0.0
 11
-208.787781
 21
642.501404
 31
0.0
 12
-12000.0
 22
-12000.0
 32
0.0
 13
-20.0
 23
440.002808
 33
0.0
 14
0.0
 24
845.0
 34
0.0
 50
90.0
  0
ARC
  5
99
  8
TEAM-HIDE
 10
5.170052
 20
549.863259
 30
0.0
 40
42.813212
 50
46.074281
 51
121.18694
  0
LINE
  5
9C
  8
TEAM-HIDE
 10
0.0
 20
611.842026
 30
0.0
 11
0.0
 21
597.643053
 31
0.0
  0
ARC
  5
9D
  8
TEAM-HIDE
 10
0.0
 20
520.002808
 30
0.0
 40
35.0
 50
79.195179
 51
100.804821
  0
ARC
  5
9E
  8
TEAM-HIDE
 10
0.0
 20
520.002808
 30
0.0
 40
17.5
 50
79.129915
 51
100.870085
  0
ARC
  5
9F
  8
TEAM-HIDE
 10
0.0
 20
520.002808
 30
0.0
 40
35.0
 50
34.195179
 51
55.804821
  0
ARC
  5
A0
  8
TEAM-HIDE
 10
0.0
 20
520.002808
 30
0.0
 40
35.0
 50
124.195179
 51
145.804821
  0
ARC
  5
A1
  8
TEAM-HIDE
 10
-19.916916
 20
543.835599
 30
0.0
 40
28.103476
 50
133.877449
 51
182.182813
  0
LINE
  5
A2
  8
TEAM-HIDE
 10
-17.0
 20
586.489205
 30
0.0
 11
-39.395946
 21
564.093259
 31
0.0
  0
ARC
  5
A3
  8
TEAM-HIDE
 10
5.177834
 20
549.865073
 30
0.0
 40
42.806915
 50
12.367032
 51
28.506157
  0
LINE
  5
A4
  8
TEAM-HIDE
 10
0.0
 20
581.842979
 30
0.0
 11
0.0
 21
567.574007
 31
0.0
  0
LINE
  5
A5
  8
TEAM-AXE
 10
-95.0
 20
629.0
 30
0.0
 11
-95.0
 21
601.0
 31
0.0
  0
LINE
  5
A6
  8
TEAM-AXE
 10
-120.0
 20
615.0
 30
0.0
 11
-70.0
 21
615.0
 31
0.0
  0
LINE
  5
A7
  8
TEAM-AXE
 10
70.0
 20
615.0
 30
0.0
 11
120.0
 21
615.0
 31
0.0
  0
LINE
  5
A8
  8
TEAM-AXE
 10
95.0
 20
629.0
 30
0.0
 11
95.0
 21
601.0
 31
0.0
  0
POLYLINE
  5
A9
  8
TEAM-HIDE
 66
     1
 10
0.0
 20
0.0
 30
0.0
 70
     1
  0
VERTEX
  5
1CA
  8
TEAM-HIDE
 10
106.0
 20
606.0
 30
0.0
 42
1.0
  0
VERTEX
  5
1CB
  8
TEAM-HIDE
 10
106.0
 20
624.0
 30
0.0
  0
VERTEX
  5
1CC
  8
TEAM-HIDE
 10
84.0
 20
624.0
 30
0.0
 42
1.0
  0
VERTEX
  5
1CD
  8
TEAM-HIDE
 10
84.0
 20
606.0
 30
0.0
  0
SEQEND
  5
1CE
  8
TEAM-HIDE
  0
POLYLINE
  5
AA
  8
TEAM-HIDE
 66
     1
 10
0.0
 20
0.0
 30
0.0
 70
     1
  0
VERTEX
  5
1CF
  8
TEAM-HIDE
 10
-84.0
 20
606.0
 30
0.0
 42
1.0
  0
VERTEX
  5
1D0
  8
TEAM-HIDE
 10
-84.0
 20
624.0
 30
0.0
  0
VERTEX
  5
1D1
  8
TEAM-HIDE
 10
-106.0
 20
624.0
 30
0.0
 42
1.0
  0
VERTEX
  5
1D2
  8
TEAM-HIDE
 10
-106.0
 20
606.0
 30
0.0
  0
SEQEND
  5
1D3
  8
TEAM-HIDE
  0
LINE
  5
AB
  8
TEAM-AXE
 10
95.0
 20
602.306662
 30
0.0
 11
95.0
 21
627.698955
 31
0.0
  0
LINE
  5
AC
  8
TEAM-AXE
 10
82.303853
 20
615.002808
 30
0.0
 11
107.696147
 21
615.002808
 31
0.0
  0
LINE
  5
AD
  8
TEAM-AXE
 10
-95.0
 20
602.306662
 30
0.0
 11
-95.0
 21
627.698955
 31
0.0
  0
LINE
  5
AE
  8
TEAM-AXE
 10
-107.696147
 20
615.002808
 30
0.0
 11
-82.303853
 21
615.002808
 31
0.0
  0
LINE
  5
AF
  8
TEAM-DET1
 10
-125.080706
 20
607.176898
 30
0.0
 11
-125.080706
 21
622.828719
 31
0.0
  0
LINE
  5
B1
  8
TEAM-DET1
 10
-84.295571
 20
604.675221
 30
0.0
 11
-84.295571
 21
625.330396
 31
0.0
  0
LINE
  5
B2
  8
TEAM-DET1
 10
-133.934626
 20
607.719979
 30
0.0
 11
-133.934626
 21
622.285638
 31
0.0
  0
LINE
  5
B3
  8
TEAM-DET1
 10
-84.295571
 20
604.675221
 30
0.0
 11
-133.934626
 21
607.719979
 31
0.0
  0
LINE
  5
B4
  8
TEAM-DET1
 10
-84.295571
 20
625.330396
 30
0.0
 11
-133.934626
 21
622.285638
 31
0.0
  0
LINE
  5
B5
  8
TEAM-DET1
 10
84.295571
 20
604.675221
 30
0.0
 11
133.934626
 21
607.719979
 31
0.0
  0
LINE
  5
B6
  8
TEAM-DET1
 10
84.295571
 20
625.330396
 30
0.0
 11
133.934626
 21
622.285638
 31
0.0
  0
LINE
  5
B7
  8
TEAM-DET1
 10
84.295571
 20
604.675221
 30
0.0
 11
84.295571
 21
625.330396
 31
0.0
  0
LINE
  5
B8
  8
TEAM-DET1
 10
133.934626
 20
607.719979
 30
0.0
 11
133.934626
 21
622.285638
 31
0.0
  0
LINE
  5
B9
  8
TEAM-DET1
 10
125.080706
 20
607.176898
 30
0.0
 11
125.080706
 21
622.828719
 31
0.0
  0
LINE
  5
BA
  8
TEAM-BODY
 10
-142.877083
 20
690.002808
 30
0.0
 11
142.694551
 21
690.002808
 31
0.0
  0
LINE
  5
BB
  8
TEAM-BODY
 10
-107.5
 20
800.354931
 30
0.0
 11
-107.5
 21
720.002808
 31
0.0
  0
LINE
  5
BC
  8
TEAM-BODY
 10
107.5
 20
800.354931
 30
0.0
 11
107.5
 21
720.002808
 31
0.0
  0
LINE
  5
BD
  8
TEAM-BODY
 10
-87.5
 20
700.002808
 30
0.0
 11
87.5
 21
700.002808
 31
0.0
  0
ARC
  5
BE
  8
TEAM-BODY
 10
-87.5
 20
720.002808
 30
0.0
 40
20.0
 50
180.0
 51
270.0
  0
ARC
  5
BF
  8
TEAM-BODY
 10
87.5
 20
720.002808
 30
0.0
 40
20.0
 50
270.0
 51
0.0
  0
LINE
  5
C0
  8
TEAM-BODY
 10
-142.877083
 20
675.528328
 30
0.0
 11
142.694551
 21
675.528328
 31
0.0
  0
LINE
  5
C1
  8
TEAM-BODY
 10
97.5
 20
810.354931
 30
0.0
 11
-97.5
 21
810.354931
 31
0.0
  0
LINE
  5
C2
  8
TEAM-BODY
 10
-127.918158
 20
605.002808
 30
0.0
 11
127.918158
 21
605.002808
 31
0.0
  0
ARC
  5
C3
  8
TEAM-BODY
 10
-97.5
 20
800.354931
 30
0.0
 40
10.0
 50
90.0
 51
180.0
1001
GENIUS_GENOBJ-N-FIL_13
1002
{
1000
OWNER
1000
GEN
1002
}
1001
GENIUS_GENODEF_13
1002
{
1000
HIER
1070
     0
1002
}
1002
{
1000
MANEDIT
1070
     0
1002
}
1002
{
1000
NOSEL
1070
     0
1002
}
1002
{
1000
BEHIND
1070
     0
1002
}
1002
{
1000
OTHER
1070
     0
1002
}
1002
{
1000
REACTOR
1002
}
  0
ARC
  5
C6
  8
TEAM-BODY
 10
97.5
 20
800.354931
 30
0.0
 40
10.0
 50
0.0
 51
90.0
1001
GENIUS_GENOBJ-N-FIL_13
1002
{
1000
OWNER
1000
GEN
1002
}
1001
GENIUS_GENODEF_13
1002
{
1000
HIER
1070
     0
1002
}
1002
{
1000
MANEDIT
1070
     0
1002
}
1002
{
1000
NOSEL
1070
     0
1002
}
1002
{
1000
BEHIND
1070
     0
1002
}
1002
{
1000
OTHER
1070
     0
1002
}
1002
{
1000
REACTOR
1002
}
  0
LINE
  5
C7
  8
TEAM-BODY
 10
-107.5
 20
800.354931
 30
0.0
 11
-107.5
 21
835.002808
 31
0.0
  0
LINE
  5
C8
  8
TEAM-BODY
 10
107.5
 20
800.354931
 30
0.0
 11
107.5
 21
835.002808
 31
0.0
  0
ARC
  5
C9
  8
TEAM-BODY
 10
142.694551
 20
694.956062
 30
0.0
 40
4.953254
 50
270.0
 51
345.967907
  0
ARC
  5
CA
  8
TEAM-BODY
 10
142.694551
 20
680.481582
 30
0.0
 40
4.953254
 50
270.0
 51
345.967907
  0
ARC
  5
CB
  8
TEAM-BODY
 10
142.694551
 20
680.481582
 30
0.0
 40
4.953254
 50
270.0
 51
345.967907
  0
ARC
  5
CC
  8
TEAM-BODY
 10
-142.694551
 20
694.956062
 30
0.0
 40
4.953254
 50
194.032093
 51
270.0
  0
ARC
  5
CD
  8
TEAM-BODY
 10
-142.694551
 20
680.481582
 30
0.0
 40
4.953254
 50
194.032093
 51
270.0
  0
TEXT
  5
CE
  8
TEAM-TXT
 10
-147.941339
 20
761.517997
 30
0.0
 40
30.0
  1
team 347135
 41
0.8
 51
15.0
  7
TEAM
  0
CIRCLE
  5
D1
  8
TEAM-INSP
 10
0.0
 20
0.0
 30
0.0
 40
10.0
  0
LINE
  5
D3
  8
TEAM-AXE
 10
-20.0
 20
520.002808
 30
0.0
 11
20.0
 21
520.002808
 31
0.0
  0
CIRCLE
  5
D4
  8
TEAM-KAN
 10
0.0
 20
440.002808
 30
0.0
 40
20.0
  0
LINE
  5
D6
  8
TEAM-AXE
 10
-20.0
 20
440.002808
 30
0.0
 11
20.0
 21
440.002808
 31
0.0
  0
LINE
  5
D7
  8
TEAM-AXE
 10
0.0
 20
420.002808
 30
0.0
 11
0.0
 21
460.002808
 31
0.0
  0
LINE
  5
D8
  8
TEAM-HIDE
 10
0.0
 20
397.766719
 30
0.0
 11
0.0
 21
428.569313
 31
0.0
  0
LINE
  5
D9
  8
TEAM-HIDE
 10
25.080415
 20
520.002808
 30
0.0
 11
7.533435
 21
520.002808
 31
0.0
  0
ARC
  5
DA
  8
TEAM-HIDE
 10
0.0
 20
520.002808
 30
0.0
 40
17.5
 50
304.129915
 51
325.870085
  0
LINE
  5
DB
  8
TEAM-HIDE
 10
0.0
 20
494.922394
 30
0.0
 11
0.0
 21
512.469374
 31
0.0
  0
ARC
  5
DC
  8
TEAM-HIDE
 10
0.0
 20
520.002808
 30
0.0
 40
17.5
 50
259.129915
 51
280.870085
  0
ARC
  5
DD
  8
TEAM-HIDE
 10
0.0
 20
520.002808
 30
0.0
 40
35.0
 50
304.195179
 51
325.804821
  0
ARC
  5
DE
  8
TEAM-HIDE
 10
0.0
 20
520.002808
 30
0.0
 40
17.5
 50
349.129915
 51
10.870085
  0
ARC
  5
DF
  8
TEAM-HIDE
 10
0.0
 20
520.002808
 30
0.0
 40
35.0
 50
349.195179
 51
10.804821
  0
LINE
  5
E0
  8
TEAM-HIDE
 10
-58.2121
 20
520.002808
 30
0.0
 11
-40.665119
 21
520.002808
 31
0.0
  0
ARC
  5
E1
  8
TEAM-HIDE
 10
0.0
 20
520.002808
 30
0.0
 40
35.0
 50
214.195179
 51
235.804821
  0
ARC
  5
E2
  8
TEAM-HIDE
 10
0.0
 20
520.002808
 30
0.0
 40
17.5
 50
169.129915
 51
190.870085
  0
ARC
  5
E3
  8
TEAM-HIDE
 10
0.0
 20
520.002808
 30
0.0
 40
35.0
 50
169.195179
 51
190.804821
  0
ARC
  5
E4
  8
TEAM-HIDE
 10
0.0
 20
520.002808
 30
0.0
 40
17.5
 50
214.129915
 51
235.870085
  0
LINE
  5
E5
  8
TEAM-HIDE
 10
-25.080415
 20
520.002808
 30
0.0
 11
-7.533435
 21
520.002808
 31
0.0
  0
ARC
  5
E6
  8
TEAM-HIDE
 10
0.0
 20
440.002808
 30
0.0
 40
25.200771
 50
78.618018
 51
101.381982
  0
ARC
  5
E7
  8
TEAM-HIDE
 10
0.0
 20
520.002808
 30
0.0
 40
35.0
 50
259.195179
 51
280.804821
  0
ARC
  5
E8
  8
TEAM-HIDE
 10
0.0
 20
440.002808
 30
0.0
 40
25.200771
 50
348.618018
 51
11.381982
  0
LINE
  5
E9
  8
TEAM-HIDE
 10
38.392398
 20
440.002808
 30
0.0
 11
11.433496
 21
440.002808
 31
0.0
  0
LINE
  5
EA
  8
TEAM-HIDE
 10
0.0
 20
478.395206
 30
0.0
 11
0.0
 21
451.436304
 31
0.0
  0
ARC
  5
EB
  8
TEAM-HIDE
 10
0.0
 20
440.002808
 30
0.0
 40
25.200771
 50
33.618018
 51
56.381982
  0
ARC
  5
EC
  8
TEAM-HIDE
 10
0.0
 20
440.002808
 30
0.0
 40
25.200771
 50
168.618018
 51
191.381982
  0
ARC
  5
ED
  8
TEAM-HIDE
 10
4.084177
 20
489.676741
 30
0.0
 40
52.180183
 50
183.476165
 51
235.859277
  0
ARC
  5
EE
  8
TEAM-HIDE
 10
0.0
 20
440.002808
 30
0.0
 40
25.200771
 50
123.618018
 51
146.381982
  0
LINE
  5
EF
  8
TEAM-HIDE
 10
-38.392398
 20
440.002808
 30
0.0
 11
-11.433496
 21
440.002808
 31
0.0
  0
ARC
  5
F0
  8
TEAM-HIDE
 10
0.0
 20
440.002808
 30
0.0
 40
25.200771
 50
258.618018
 51
281.381982
  0
ARC
  5
F1
  8
TEAM-HIDE
 10
0.0
 20
440.002808
 30
0.0
 40
25.200771
 50
303.618018
 51
326.381982
  0
ARC
  5
F2
  8
TEAM-HIDE
 10
0.0
 20
440.002808
 30
0.0
 40
25.200771
 50
213.618018
 51
236.381982
  0
ARC
  5
F3
  8
TEAM-HIDE
 10
18.0
 20
488.739037
 30
0.0
 40
30.0
 50
270.0
 51
0.0
  0
LINE
  5
F4
  8
TEAM-HIDE
 10
58.2121
 20
520.002808
 30
0.0
 11
40.665119
 21
520.002808
 31
0.0
  0
CIRCLE
  5
F5
  8
TEAM-KAN
 10
0.0
 20
520.002808
 30
0.0
 40
20.0
  0
LINE
  5
F6
  8
TEAM-AXE
 10
0.0
 20
500.002808
 30
0.0
 11
0.0
 21
540.002808
 31
0.0
  0
ARC
  5
F7
  8
TEAM-HIDE
 10
0.0
 20
520.002808
 30
0.0
 40
17.5
 50
34.129915
 51
55.870085
  0
LINE
  5
F8
  8
TEAM-HIDE
 10
0.0
 20
545.083223
 30
0.0
 11
0.0
 21
527.536243
 31
0.0
  0
LINE
  5
F9
  8
TEAM-HIDE
 10
48.0
 20
501.104102
 30
0.0
 11
47.94317
 21
547.951623
 31
0.0
  0
ARC
  5
FA
  8
TEAM-HIDE
 10
0.0
 20
520.002808
 30
0.0
 40
17.5
 50
124.129915
 51
145.870085
  0
LINE
  5
FB
  8
TEAM-HIDE
 10
-48.0
 20
542.765192
 30
0.0
 11
-48.0
 21
486.512884
 31
0.0
  0
POLYLINE
  5
FC
  8
TEAM-HIDE
 66
     1
 10
0.0
 20
0.0
 30
0.0
 70
   129
210
0.0
220
0.0
230
-1.0
  0
VERTEX
  5
1D4
  8
TEAM-HIDE
 10
-81.214692
 20
870.187762
 30
0.0
  0
VERTEX
  5
1D5
  8
TEAM-HIDE
 10
-81.103986
 20
869.466475
 30
0.0
  0
VERTEX
  5
1D6
  8
TEAM-HIDE
 10
-80.775869
 20
868.771258
 30
0.0
  0
VERTEX
  5
1D7
  8
TEAM-HIDE
 10
-80.242201
 20
868.127237
 30
0.0
  0
VERTEX
  5
1D8
  8
TEAM-HIDE
 10
-79.522269
 20
867.557688
 30
0.0
  0
VERTEX
  5
1D9
  8
TEAM-HIDE
 10
-78.642093
 20
867.083197
 30
0.0
  0
VERTEX
  5
1DA
  8
TEAM-HIDE
 10
-77.633486
 20
866.720914
 30
0.0
  0
VERTEX
  5
1DB
  8
TEAM-HIDE
 10
-76.532901
 20
866.483931
 30
0.0
  0
VERTEX
  5
1DC
  8
TEAM-HIDE
 10
-75.380116
 20
866.380814
 30
0.0
  0
VERTEX
  5
1DD
  8
TEAM-HIDE
 10
-74.216797
 20
866.41529
 30
0.0
  0
VERTEX
  5
1DE
  8
TEAM-HIDE
 10
-73.084987
 20
866.586114
 30
0.0
  0
VERTEX
  5
1DF
  8
TEAM-HIDE
 10
-72.025594
 20
866.88711
 30
0.0
  0
VERTEX
  5
1E0
  8
TEAM-HIDE
 10
-71.076907
 20
867.3074
 30
0.0
  0
VERTEX
  5
1E1
  8
TEAM-HIDE
 10
-70.273214
 20
867.831794
 30
0.0
  0
VERTEX
  5
1E2
  8
TEAM-HIDE
 10
-69.643563
 20
868.441339
 30
0.0
  0
VERTEX
  5
1E3
  8
TEAM-HIDE
 10
-69.21071
 20
869.114004
 30
0.0
  0
VERTEX
  5
1E4
  8
TEAM-HIDE
 10
-68.9903
 20
869.825478
 30
0.0
  0
VERTEX
  5
1E5
  8
TEAM-HIDE
 10
-68.9903
 20
870.550045
 30
0.0
  0
VERTEX
  5
1E6
  8
TEAM-HIDE
 10
-69.21071
 20
871.261519
 30
0.0
  0
VERTEX
  5
1E7
  8
TEAM-HIDE
 10
-69.643563
 20
871.934184
 30
0.0
  0
VERTEX
  5
1E8
  8
TEAM-HIDE
 10
-70.273214
 20
872.543729
 30
0.0
  0
VERTEX
  5
1E9
  8
TEAM-HIDE
 10
-71.076907
 20
873.068123
 30
0.0
  0
VERTEX
  5
1EA
  8
TEAM-HIDE
 10
-72.025594
 20
873.488413
 30
0.0
  0
VERTEX
  5
1EB
  8
TEAM-HIDE
 10
-73.084987
 20
873.78941
 30
0.0
  0
VERTEX
  5
1EC
  8
TEAM-HIDE
 10
-74.216797
 20
873.960233
 30
0.0
  0
VERTEX
  5
1ED
  8
TEAM-HIDE
 10
-75.380116
 20
873.994709
 30
0.0
  0
VERTEX
  5
1EE
  8
TEAM-HIDE
 10
-76.532901
 20
873.891592
 30
0.0
  0
VERTEX
  5
1EF
  8
TEAM-HIDE
 10
-77.633486
 20
873.65461
 30
0.0
  0
VERTEX
  5
1F0
  8
TEAM-HIDE
 10
-78.642093
 20
873.292326
 30
0.0
  0
VERTEX
  5
1F1
  8
TEAM-HIDE
 10
-79.522269
 20
872.817835
 30
0.0
  0
VERTEX
  5
1F2
  8
TEAM-HIDE
 10
-80.242201
 20
872.248287
 30
0.0
  0
VERTEX
  5
1F3
  8
TEAM-HIDE
 10
-80.775869
 20
871.604265
 30
0.0
  0
VERTEX
  5
1F4
  8
TEAM-HIDE
 10
-81.103986
 20
870.909048
 30
0.0
  0
SEQEND
  5
1F5
  8
TEAM-HIDE
  0
POLYLINE
  5
FD
  8
TEAM-HIDE
 66
     1
 10
0.0
 20
0.0
 30
0.0
 70
   129
  0
VERTEX
  5
1F6
  8
TEAM-HIDE
 10
-80.625085
 20
870.187762
 30
0.0
  0
VERTEX
  5
1F7
  8
TEAM-HIDE
 10
-80.514379
 20
869.466475
 30
0.0
  0
VERTEX
  5
1F8
  8
TEAM-HIDE
 10
-80.186262
 20
868.771258
 30
0.0
  0
VERTEX
  5
1F9
  8
TEAM-HIDE
 10
-79.652594
 20
868.127237
 30
0.0
  0
VERTEX
  5
1FA
  8
TEAM-HIDE
 10
-78.932661
 20
867.557688
 30
0.0
  0
VERTEX
  5
1FB
  8
TEAM-HIDE
 10
-78.052486
 20
867.083197
 30
0.0
  0
VERTEX
  5
1FC
  8
TEAM-HIDE
 10
-77.043879
 20
866.720914
 30
0.0
  0
VERTEX
  5
1FD
  8
TEAM-HIDE
 10
-75.943294
 20
866.483931
 30
0.0
  0
VERTEX
  5
1FE
  8
TEAM-HIDE
 10
-74.790509
 20
866.380814
 30
0.0
  0
VERTEX
  5
1FF
  8
TEAM-HIDE
 10
-73.627189
 20
866.41529
 30
0.0
  0
VERTEX
  5
200
  8
TEAM-HIDE
 10
-72.49538
 20
866.586114
 30
0.0
  0
VERTEX
  5
201
  8
TEAM-HIDE
 10
-71.435987
 20
866.88711
 30
0.0
  0
VERTEX
  5
202
  8
TEAM-HIDE
 10
-70.4873
 20
867.3074
 30
0.0
  0
VERTEX
  5
203
  8
TEAM-HIDE
 10
-69.683607
 20
867.831794
 30
0.0
  0
VERTEX
  5
204
  8
TEAM-HIDE
 10
-69.053955
 20
868.441339
 30
0.0
  0
VERTEX
  5
205
  8
TEAM-HIDE
 10
-68.621103
 20
869.114004
 30
0.0
  0
VERTEX
  5
206
  8
TEAM-HIDE
 10
-68.400693
 20
869.825478
 30
0.0
  0
VERTEX
  5
207
  8
TEAM-HIDE
 10
-68.400693
 20
870.550045
 30
0.0
  0
VERTEX
  5
208
  8
TEAM-HIDE
 10
-68.621103
 20
871.261519
 30
0.0
  0
VERTEX
  5
209
  8
TEAM-HIDE
 10
-69.053955
 20
871.934184
 30
0.0
  0
VERTEX
  5
20A
  8
TEAM-HIDE
 10
-69.683607
 20
872.543729
 30
0.0
  0
VERTEX
  5
20B
  8
TEAM-HIDE
 10
-70.4873
 20
873.068123
 30
0.0
  0
VERTEX
  5
20C
  8
TEAM-HIDE
 10
-71.435987
 20
873.488413
 30
0.0
  0
VERTEX
  5
20D
  8
TEAM-HIDE
 10
-72.49538
 20
873.78941
 30
0.0
  0
VERTEX
  5
20E
  8
TEAM-HIDE
 10
-73.627189
 20
873.960233
 30
0.0
  0
VERTEX
  5
20F
  8
TEAM-HIDE
 10
-74.790509
 20
873.994709
 30
0.0
  0
VERTEX
  5
210
  8
TEAM-HIDE
 10
-75.943294
 20
873.891592
 30
0.0
  0
VERTEX
  5
211
  8
TEAM-HIDE
 10
-77.043879
 20
873.65461
 30
0.0
  0
VERTEX
  5
212
  8
TEAM-HIDE
 10
-78.052486
 20
873.292326
 30
0.0
  0
VERTEX
  5
213
  8
TEAM-HIDE
 10
-78.932661
 20
872.817835
 30
0.0
  0
VERTEX
  5
214
  8
TEAM-HIDE
 10
-79.652594
 20
872.248287
 30
0.0
  0
VERTEX
  5
215
  8
TEAM-HIDE
 10
-80.186262
 20
871.604265
 30
0.0
  0
VERTEX
  5
216
  8
TEAM-HIDE
 10
-80.514379
 20
870.909048
 30
0.0
  0
SEQEND
  5
217
  8
TEAM-HIDE
  0
LINE
  5
FE
  8
TEAM-AXE
 10
75.294804
 20
866.387054
 30
0.0
 11
75.294804
 21
873.988469
 31
0.0
  0
LINE
  5
FF
  8
TEAM-AXE
 10
81.506701
 20
870.187762
 30
0.0
 11
68.842217
 21
870.187762
 31
0.0
  0
LINE
  5
100
  8
TEAM-AXE
 10
-80.917094
 20
870.187762
 30
0.0
 11
-68.25261
 21
870.187762
 31
0.0
  0
LINE
  5
101
  8
TEAM-AXE
 10
-74.705196
 20
866.387054
 30
0.0
 11
-74.705196
 21
873.988469
 31
0.0
  0
LINE
  5
102
  8
TEAM-BODY
 10
-87.5
 20
855.002808
 30
0.0
 11
87.5
 21
855.002808
 31
0.0
  0
ENDSEC
  0
EOF
