  0
SECTION
  2
HEADER
  9
$ACADVER
  1
AC1009
  9
$INSBASE
 10
0.0
 20
0.0
 30
0.0
  9
$EXTMIN
 10
-253.472023
 20
-365.477451
 30
0.0
  9
$EXTMAX
 10
304.827886
 20
64.958808
 30
0.000005
  9
$LIMMIN
 10
-253.472023
 20
-365.477451
  9
$LIMMAX
 10
304.827886
 20
64.958808
  9
$ORTHOMODE
 70
     1
  9
$REGENMODE
 70
     1
  9
$FILLMODE
 70
     1
  9
$QTEXTMODE
 70
     0
  9
$MIRRTEXT
 70
     0
  9
$DRAGMODE
 70
     2
  9
$LTSCALE
 40
50.0
  9
$OSMODE
 70
     0
  9
$ATTMODE
 70
     1
  9
$TEXTSIZE
 40
200.0
  9
$TRACEWID
 40
1.0
  9
$TEXTSTYLE
  7
STANDARD
  9
$CLAYER
  8
TEAM-MAS
  9
$CELTYPE
  6
BYLAYER
  9
$CECOLOR
 62
   256
  9
$DIMSCALE
 40
0.0
  9
$DIMASZ
 40
20.0
  9
$DIMEXO
 40
10.0
  9
$DIMDLI
 40
1.0
  9
$DIMRND
 40
0.0
  9
$DIMDLE
 40
0.0
  9
$DIMEXE
 40
1.0
  9
$DIMTP
 40
0.0
  9
$DIMTM
 40
0.0
  9
$DIMTXT
 40
35.0
  9
$DIMCEN
 40
1.0
  9
$DIMTSZ
 40
0.0
  9
$DIMTOL
 70
     0
  9
$DIMLIM
 70
     0
  9
$DIMTIH
 70
     0
  9
$DIMTOH
 70
     0
  9
$DIMSE1
 70
     0
  9
$DIMSE2
 70
     0
  9
$DIMTAD
 70
     0
  9
$DIMZIN
 70
     0
  9
$DIMBLK
  1

  9
$DIMASO
 70
     1
  9
$DIMSHO
 70
     0
  9
$DIMPOST
  1

  9
$DIMAPOST
  1

  9
$DIMALT
 70
     0
  9
$DIMALTD
 70
     2
  9
$DIMALTF
 40
25.4
  9
$DIMLFAC
 40
1.0
  9
$DIMTOFL
 70
     0
  9
$DIMTVP
 40
0.0
  9
$DIMTIX
 70
     0
  9
$DIMSOXD
 70
     0
  9
$DIMSAH
 70
     0
  9
$DIMBLK1
  1

  9
$DIMBLK2
  1

  9
$DIMSTYLE
  2
TEAM
  9
$DIMCLRD
 70
     9
  9
$DIMCLRE
 70
     9
  9
$DIMCLRT
 70
    11
  9
$DIMTFAC
 40
1.0
  9
$DIMGAP
 40
7.0
  9
$LUNITS
 70
     2
  9
$LUPREC
 70
     1
  9
$SKETCHINC
 40
1.0
  9
$FILLETRAD
 40
50.0
  9
$AUNITS
 70
     0
  9
$AUPREC
 70
     0
  9
$MENU
  1
ROPLANS
  9
$ELEVATION
 40
0.0
  9
$PELEVATION
 40
0.0
  9
$THICKNESS
 40
0.0
  9
$LIMCHECK
 70
     0
  9
$BLIPMODE
 70
     1
  9
$CHAMFERA
 40
0.0
  9
$CHAMFERB
 40
0.0
  9
$SKPOLY
 70
     0
  9
$TDCREATE
 40
2450392.957851
  9
$TDUPDATE
 40
2456272.033233
  9
$TDINDWG
 40
2.315654
  9
$TDUSRTIMER
 40
2.315654
  9
$USRTIMER
 70
     1
  9
$ANGBASE
 50
0.0
  9
$ANGDIR
 70
     0
  9
$PDMODE
 70
     0
  9
$PDSIZE
 40
0.0
  9
$PLINEWID
 40
0.0
  9
$COORDS
 70
     2
  9
$SPLFRAME
 70
     0
  9
$SPLINETYPE
 70
     6
  9
$SPLINESEGS
 70
     8
  9
$ATTDIA
 70
     0
  9
$ATTREQ
 70
     0
  9
$HANDLING
 70
     1
  9
$HANDSEED
  5
A4
  9
$SURFTAB1
 70
    24
  9
$SURFTAB2
 70
    24
  9
$SURFTYPE
 70
     6
  9
$SURFU
 70
     6
  9
$SURFV
 70
     6
  9
$UCSNAME
  2

  9
$UCSORG
 10
0.0
 20
0.0
 30
0.0
  9
$UCSXDIR
 10
1.0
 20
0.0
 30
0.0
  9
$UCSYDIR
 10
0.0
 20
1.0
 30
0.0
  9
$PUCSNAME
  2

  9
$PUCSORG
 10
0.0
 20
0.0
 30
0.0
  9
$PUCSXDIR
 10
1.0
 20
0.0
 30
0.0
  9
$PUCSYDIR
 10
0.0
 20
1.0
 30
0.0
  9
$USERI1
 70
     0
  9
$USERI2
 70
     0
  9
$USERI3
 70
     0
  9
$USERI4
 70
     0
  9
$USERI5
 70
     0
  9
$USERR1
 40
0.0
  9
$USERR2
 40
0.0
  9
$USERR3
 40
0.0
  9
$USERR4
 40
0.0
  9
$USERR5
 40
0.0
  9
$WORLDVIEW
 70
     1
  9
$SHADEDGE
 70
     0
  9
$SHADEDIF
 70
    70
  9
$TILEMODE
 70
     1
  9
$MAXACTVP
 70
    16
  9
$PLIMCHECK
 70
     0
  9
$PEXTMIN
 10
-0.805942
 20
0.005011
 30
0.0
  9
$PEXTMAX
 10
20.250094
 20
11.356329
 30
0.0
  9
$PLIMMIN
 10
0.0
 20
0.0
  9
$PLIMMAX
 10
12.0
 20
9.0
  9
$UNITMODE
 70
     0
  9
$VISRETAIN
 70
     0
  9
$PLINEGEN
 70
     0
  9
$PSLTSCALE
 70
     0
  0
ENDSEC
  0
SECTION
  2
TABLES
  0
TABLE
  2
VPORT
 70
     2
  0
VPORT
  2
*ACTIVE
 70
     0
 10
0.0
 20
0.0
 11
1.0
 21
1.0
 12
25.677932
 22
-150.259322
 13
0.0
 23
0.0
 14
1.0
 24
1.0
 15
50.0
 25
50.0
 16
0.0
 26
0.0
 36
1.0
 17
0.0
 27
0.0
 37
0.0
 40
433.146246
 41
1.911765
 42
50.0
 43
0.0
 44
0.0
 50
0.0
 51
0.0
 71
     0
 72
   100
 73
     1
 74
     1
 75
     0
 76
     0
 77
     0
 78
     0
  0
ENDTAB
  0
TABLE
  2
LTYPE
 70
     2
  0
LTYPE
  2
CONTINUOUS
 70
     0
  3
Solid Line
 72
    65
 73
     0
 40
0.0
  0
LTYPE
  2
31
 70
     0
  3

 72
    65
 73
     4
 40
2.1
 49
1.5
 49
-0.3
 49
0.0
 49
-0.3
  0
ENDTAB
  0
TABLE
  2
LAYER
 70
    10
  0
LAYER
  2
0
 70
     0
 62
     7
  6
CONTINUOUS
  0
LAYER
  2
DEFPOINTS
 70
     0
 62
     7
  6
CONTINUOUS
  0
LAYER
  2
TEAM-BODY
 70
     0
 62
     2
  6
CONTINUOUS
  0
LAYER
  2
TEAM-AXE
 70
     0
 62
    10
  6
31
  0
LAYER
  2
TEAM-MAS
 70
     0
 62
     9
  6
CONTINUOUS
  0
LAYER
  2
TEAM-TXT
 70
     0
 62
    11
  6
CONTINUOUS
  0
LAYER
  2
TEAM-DET1
 70
     0
 62
     4
  6
CONTINUOUS
  0
LAYER
  2
TEAM-COLD
 70
     0
 62
     3
  6
CONTINUOUS
  0
LAYER
  2
TEAM-WARM
 70
     0
 62
     1
  6
CONTINUOUS
  0
LAYER
  2
TEAM-INSP
 70
     0
 62
     5
  6
CONTINUOUS
  0
ENDTAB
  0
TABLE
  2
STYLE
 70
     2
  0
STYLE
  2
STANDARD
 70
     0
 40
0.0
 41
1.0
 50
0.0
 71
     0
 42
200.0
  3
txt
  4

  0
STYLE
  2
TEAM
 70
     0
 40
0.0
 41
0.8
 50
15.0
 71
     0
 42
7.0
  3
ROMANS.shx
  4

  0
ENDTAB
  0
TABLE
  2
VIEW
 70
     0
  0
ENDTAB
  0
TABLE
  2
UCS
 70
     0
  0
ENDTAB
  0
TABLE
  2
APPID
 70
     1
  0
APPID
  2
ACAD
 70
     0
  0
ENDTAB
  0
TABLE
  2
DIMSTYLE
 70
     1
  0
DIMSTYLE
  2
TEAM
 70
     0
  3

  4

  5

  6

  7

 40
0.0
 41
20.0
 42
10.0
 43
1.0
 44
1.0
 45
0.0
 46
0.0
 47
0.0
 48
0.0
140
35.0
141
1.0
142
0.0
143
25.4
144
1.0
145
0.0
146
1.0
147
7.0
 71
     0
 72
     0
 73
     0
 74
     0
 75
     0
 76
     0
 77
     0
 78
     0
170
     0
171
     2
172
     0
173
     0
174
     0
175
     0
176
     9
177
     9
178
    11
  0
ENDTAB
  0
ENDSEC
  0
SECTION
  2
BLOCKS
  0
BLOCK
  8
0
  2
$MODEL_SPACE
 70
     0
 10
0.0
 20
0.0
 30
0.0
  3
$MODEL_SPACE
  1

  0
ENDBLK
  5
9D
  8
0
  0
BLOCK
 67
     1
  8
0
  2
$PAPER_SPACE
 70
     0
 10
0.0
 20
0.0
 30
0.0
  3
$PAPER_SPACE
  1

  0
ENDBLK
  5
9B
 67
     1
  8
0
  0
BLOCK
  8
0
  2
*D0
 70
     1
 10
0.0
 20
0.0
 30
0.0
  3
*D0
  1

  0
LINE
  5
22
  8
0
  6
BYBLOCK
 62
     9
 10
3750.0
 20
7960.0
 30
0.0
 11
3750.0
 21
8048.43662
 31
0.0
  0
LINE
  5
23
  8
0
  6
BYBLOCK
 62
     9
 10
4250.0
 20
7960.0
 30
0.0
 11
4250.0
 21
8048.43662
 31
0.0
  0
LINE
  5
24
  8
0
  6
BYBLOCK
 62
     9
 10
3770.0
 20
8047.43662
 30
0.0
 11
3952.166667
 21
8047.43662
 31
0.0
  0
LINE
  5
25
  8
0
  6
BYBLOCK
 62
     9
 10
4230.0
 20
8047.43662
 30
0.0
 11
4047.833333
 21
8047.43662
 31
0.0
  0
SOLID
  5
26
  8
0
  6
BYBLOCK
 62
     9
 10
3770.0
 20
8050.769954
 30
0.0
 11
3770.0
 21
8044.103287
 31
0.0
 12
3750.0
 22
8047.43662
 32
0.0
 13
3750.0
 23
8047.43662
 33
0.0
  0
SOLID
  5
27
  8
0
  6
BYBLOCK
 62
     9
 10
4230.0
 20
8050.769954
 30
0.0
 11
4230.0
 21
8044.103287
 31
0.0
 12
4250.0
 22
8047.43662
 32
0.0
 13
4250.0
 23
8047.43662
 33
0.0
  0
TEXT
  5
28
  8
0
  6
BYBLOCK
 62
    11
 10
3959.166667
 20
8029.93662
 30
0.0
 40
35.0
  1
500
  0
POINT
  5
29
  8
DEFPOINTS
  6
BYBLOCK
 62
     0
 10
3750.0
 20
7950.0
 30
0.0
  0
POINT
  5
2B
  8
DEFPOINTS
  6
BYBLOCK
 62
     0
 10
4250.0
 20
7950.0
 30
0.0
  0
POINT
  5
2C
  8
DEFPOINTS
  6
BYBLOCK
 62
     0
 10
4250.0
 20
8047.43662
 30
0.0
  0
ENDBLK
  5
2E
  8
0
  0
BLOCK
  8
0
  2
*D1
 70
     1
 10
0.0
 20
0.0
 30
0.0
  3
*D1
  1

  0
LINE
  5
4B
  8
0
  6
BYBLOCK
 62
     9
 10
4240.0
 20
8000.0
 30
0.0
 11
4288.310622
 21
8000.0
 31
0.0
  0
LINE
  5
4C
  8
0
  6
BYBLOCK
 62
     9
 10
4110.0
 20
7650.0
 30
0.0
 11
4288.310622
 21
7650.0
 31
0.0
  0
LINE
  5
4D
  8
0
  6
BYBLOCK
 62
     9
 10
4287.310622
 20
7980.0
 30
0.0
 11
4287.310622
 21
7875.75
 31
0.0
  0
LINE
  5
4E
  8
0
  6
BYBLOCK
 62
     9
 10
4287.310622
 20
7670.0
 30
0.0
 11
4287.310622
 21
7774.25
 31
0.0
  0
SOLID
  5
4F
  8
0
  6
BYBLOCK
 62
     9
 10
4283.977289
 20
7980.0
 30
0.0
 11
4290.643955
 21
7980.0
 31
0.0
 12
4287.310622
 22
8000.0
 32
0.0
 13
4287.310622
 23
8000.0
 33
0.0
  0
SOLID
  5
50
  8
0
  6
BYBLOCK
 62
     9
 10
4283.977289
 20
7670.0
 30
0.0
 11
4290.643955
 21
7670.0
 31
0.0
 12
4287.310622
 22
7650.0
 32
0.0
 13
4287.310622
 23
7650.0
 33
0.0
  0
TEXT
  5
51
  8
0
  6
BYBLOCK
 62
    11
 10
4304.810622
 20
7781.25
 30
0.0
 40
35.0
  1
350
 50
90.0
  0
POINT
  5
52
  8
DEFPOINTS
  6
BYBLOCK
 62
     0
 10
4230.0
 20
8000.0
 30
0.0
  0
POINT
  5
53
  8
DEFPOINTS
  6
BYBLOCK
 62
     0
 10
4100.0
 20
7650.0
 30
0.0
  0
POINT
  5
54
  8
DEFPOINTS
  6
BYBLOCK
 62
     0
 10
4287.310622
 20
7650.0
 30
0.0
  0
ENDBLK
  5
56
  8
0
  0
ENDSEC
  0
SECTION
  2
ENTITIES
  0
DIMENSION
  5
20
  8
TEAM-MAS
  2
*D0
 10
250.0
 20
47.43662
 30
0.0
 11
0.0
 21
47.43662
 31
0.0
 12
-4000.0
 22
-8000.0
 32
0.0
 13
-250.0
 23
-50.0
 33
0.0
 14
250.0
 24
-50.0
 34
0.0
  0
ARC
  5
2F
  8
TEAM-DET1
 10
0.0
 20
-270.105763
 30
0.0
 40
210.105763
 50
6.361895
 51
173.638105
  0
TEXT
  5
31
  8
TEAM-TXT
 10
-106.59353
 20
-281.801895
 30
0.0
 40
30.0
  1
team 411005
 41
0.8
 51
15.0
  7
TEAM
  0
ARC
  5
34
  8
TEAM-BODY
 10
0.0
 20
-270.105763
 30
0.0
 40
230.105763
 50
3.790145
 51
176.209855
  0
LINE
  5
36
  8
TEAM-BODY
 10
230.0
 20
0.0
 30
0.0
 11
-230.0
 21
0.0
 31
0.0
  0
LINE
  5
37
  8
TEAM-BODY
 10
230.0
 20
-20.0
 30
0.0
 11
-230.0
 21
-20.0
 31
0.0
  0
LINE
  5
38
  8
TEAM-BODY
 10
-100.0
 20
-330.0
 30
0.0
 11
100.0
 21
-330.0
 31
0.0
  0
LINE
  5
39
  8
TEAM-BODY
 10
-100.0
 20
-350.0
 30
0.0
 11
100.0
 21
-350.0
 31
0.0
  0
LINE
  5
3A
  8
TEAM-DET1
 10
-100.0
 20
-310.0
 30
0.0
 11
100.0
 21
-310.0
 31
0.0
  0
CIRCLE
  5
3B
  8
TEAM-WARM
 10
-76.5
 20
0.0
 30
0.0
 40
15.0
  0
LINE
  5
3D
  8
TEAM-AXE
 10
-96.5
 20
0.0
 30
0.0
 11
-56.5
 21
0.0
 31
0.0
  0
ARC
  5
40
  8
TEAM-BODY
 10
-89.285714
 20
-149.285714
 30
0.0
 40
181.000051
 50
221.618765
 51
266.944407
  0
ARC
  5
41
  8
TEAM-BODY
 10
-89.285714
 20
-149.285714
 30
0.0
 40
201.000051
 50
218.974427
 51
266.944407
  0
ARC
  5
42
  8
TEAM-DET1
 10
-89.285714
 20
-149.285714
 30
0.0
 40
161.000051
 50
225.030304
 51
266.944407
  0
ARC
  5
43
  8
TEAM-DET1
 10
-188.93506
 20
-249.040525
 30
0.0
 40
20.0
 50
173.638105
 51
225.030304
  0
ARC
  5
44
  8
TEAM-BODY
 10
-209.646231
 20
-256.217293
 30
0.0
 40
20.0
 50
176.209855
 51
221.618765
  0
LINE
  5
45
  8
TEAM-BODY
 10
-230.0
 20
-20.0
 30
0.0
 11
-250.0
 21
-50.0
 31
0.0
  0
LINE
  5
46
  8
TEAM-BODY
 10
-230.0
 20
-20.0
 30
0.0
 11
-230.0
 21
0.0
 31
0.0
  0
LINE
  5
47
  8
TEAM-BODY
 10
-250.0
 20
-50.0
 30
0.0
 11
-250.0
 21
-263.129942
 31
0.0
  0
ARC
  5
48
  8
TEAM-BODY
 10
-230.0
 20
-263.129942
 30
0.0
 40
20.0
 50
180.0
 51
218.974427
  0
DIMENSION
  5
49
  8
TEAM-MAS
  2
*D1
 10
287.310622
 20
-350.0
 30
0.0
 11
287.310622
 21
-175.0
 31
0.0
 12
-4000.0
 22
-8000.0
 32
0.0
 13
230.0
 23
0.0
 33
0.0
 14
100.0
 24
-350.0
 34
0.0
 50
90.0
  0
ARC
  5
57
  8
TEAM-BODY
 10
89.285714
 20
-149.285714
 30
0.0
 40
181.000051
 50
273.055593
 51
318.381235
  0
ARC
  5
58
  8
TEAM-BODY
 10
89.285714
 20
-149.285714
 30
0.0
 40
201.000051
 50
273.055593
 51
321.025573
  0
ARC
  5
59
  8
TEAM-DET1
 10
89.285714
 20
-149.285714
 30
0.0
 40
161.000051
 50
273.055593
 51
314.969696
  0
LINE
  5
5A
  8
TEAM-AXE
 10
-76.5
 20
-20.0
 30
0.0
 11
-76.5
 21
20.0
 31
0.0
  0
CIRCLE
  5
5B
  8
TEAM-BODY
 10
0.0
 20
-120.0
 30
0.0
 40
26.0
  0
CIRCLE
  5
5C
  8
TEAM-DET1
 10
0.0
 20
-120.0
 30
0.0
 40
21.0
  0
LINE
  5
5D
  8
TEAM-AXE
 10
31.0
 20
-120.0
 30
0.0
 11
-31.0
 21
-120.0
 31
0.0
  0
LINE
  5
5E
  8
TEAM-AXE
 10
0.0
 20
-151.0
 30
0.0
 11
0.0
 21
-89.0
 31
0.0
  0
CIRCLE
  5
5F
  8
TEAM-COLD
 10
76.5
 20
0.0
 30
0.0
 40
15.0
  0
LINE
  5
61
  8
TEAM-AXE
 10
56.5
 20
0.0
 30
0.0
 11
96.5
 21
0.0
 31
0.0
  0
LINE
  5
62
  8
TEAM-AXE
 10
76.5
 20
-20.0
 30
0.0
 11
76.5
 21
20.0
 31
0.0
  0
CIRCLE
  5
63
  8
TEAM-INSP
 10
0.0
 20
0.0
 30
0.0
 40
10.0
  0
ARC
  5
65
  8
TEAM-DET1
 10
188.93506
 20
-249.040525
 30
0.0
 40
20.0
 50
314.969696
 51
6.361895
  0
ARC
  5
66
  8
TEAM-BODY
 10
209.646231
 20
-256.217293
 30
0.0
 40
20.0
 50
318.381235
 51
3.790145
  0
LINE
  5
67
  8
TEAM-BODY
 10
230.0
 20
-20.0
 30
0.0
 11
250.0
 21
-50.0
 31
0.0
  0
LINE
  5
68
  8
TEAM-BODY
 10
230.0
 20
-20.0
 30
0.0
 11
230.0
 21
0.0
 31
0.0
  0
LINE
  5
69
  8
TEAM-BODY
 10
250.0
 20
-263.129942
 30
0.0
 11
250.0
 21
-50.0
 31
0.0
  0
ARC
  5
6A
  8
TEAM-BODY
 10
230.0
 20
-263.129942
 30
0.0
 40
20.0
 50
321.025573
 51
0.0
  0
ENDSEC
  0
EOF
