  0
SECTION
  2
HEADER
  9
$ACADVER
  1
AC1009
  9
$INSBASE
 10
0.0
 20
0.0
 30
0.0
  9
$EXTMIN
 10
-366.942824
 20
-10.070875
 30
0.0
  9
$EXTMAX
 10
350.000595
 20
920.054289
 30
0.000005
  9
$LIMMIN
 10
-366.942824
 20
-10.070875
  9
$LIMMAX
 10
350.000595
 20
920.054289
  9
$ORTHOMODE
 70
     1
  9
$REGENMODE
 70
     1
  9
$FILLMODE
 70
     1
  9
$QTEXTMODE
 70
     0
  9
$MIRRTEXT
 70
     0
  9
$DRAGMODE
 70
     2
  9
$LTSCALE
 40
50.0
  9
$OSMODE
 70
     0
  9
$ATTMODE
 70
     1
  9
$TEXTSIZE
 40
200.0
  9
$TRACEWID
 40
1.0
  9
$TEXTSTYLE
  7
STANDARD
  9
$CLAYER
  8
TEAM-MAS
  9
$CELTYPE
  6
BYLAYER
  9
$CECOLOR
 62
   256
  9
$DIMSCALE
 40
0.0
  9
$DIMASZ
 40
20.0
  9
$DIMEXO
 40
10.0
  9
$DIMDLI
 40
1.0
  9
$DIMRND
 40
0.0
  9
$DIMDLE
 40
0.0
  9
$DIMEXE
 40
1.0
  9
$DIMTP
 40
0.0
  9
$DIMTM
 40
0.0
  9
$DIMTXT
 40
35.0
  9
$DIMCEN
 40
1.0
  9
$DIMTSZ
 40
0.0
  9
$DIMTOL
 70
     0
  9
$DIMLIM
 70
     0
  9
$DIMTIH
 70
     0
  9
$DIMTOH
 70
     0
  9
$DIMSE1
 70
     0
  9
$DIMSE2
 70
     0
  9
$DIMTAD
 70
     0
  9
$DIMZIN
 70
     0
  9
$DIMBLK
  1

  9
$DIMASO
 70
     1
  9
$DIMSHO
 70
     0
  9
$DIMPOST
  1

  9
$DIMAPOST
  1

  9
$DIMALT
 70
     0
  9
$DIMALTD
 70
     2
  9
$DIMALTF
 40
25.4
  9
$DIMLFAC
 40
1.0
  9
$DIMTOFL
 70
     0
  9
$DIMTVP
 40
0.0
  9
$DIMTIX
 70
     0
  9
$DIMSOXD
 70
     0
  9
$DIMSAH
 70
     0
  9
$DIMBLK1
  1

  9
$DIMBLK2
  1

  9
$DIMSTYLE
  2
TEAM
  9
$DIMCLRD
 70
     9
  9
$DIMCLRE
 70
     9
  9
$DIMCLRT
 70
    11
  9
$DIMTFAC
 40
1.0
  9
$DIMGAP
 40
7.0
  9
$LUNITS
 70
     2
  9
$LUPREC
 70
     1
  9
$SKETCHINC
 40
1.0
  9
$FILLETRAD
 40
50.0
  9
$AUNITS
 70
     0
  9
$AUPREC
 70
     0
  9
$MENU
  1
ROPLANS
  9
$ELEVATION
 40
0.0
  9
$PELEVATION
 40
0.0
  9
$THICKNESS
 40
0.0
  9
$LIMCHECK
 70
     0
  9
$BLIPMODE
 70
     1
  9
$CHAMFERA
 40
0.0
  9
$CHAMFERB
 40
0.0
  9
$SKPOLY
 70
     0
  9
$TDCREATE
 40
2450392.957851
  9
$TDUPDATE
 40
2456272.033233
  9
$TDINDWG
 40
2.315654
  9
$TDUSRTIMER
 40
2.315654
  9
$USRTIMER
 70
     1
  9
$ANGBASE
 50
0.0
  9
$ANGDIR
 70
     0
  9
$PDMODE
 70
     0
  9
$PDSIZE
 40
0.0
  9
$PLINEWID
 40
0.0
  9
$COORDS
 70
     2
  9
$SPLFRAME
 70
     0
  9
$SPLINETYPE
 70
     6
  9
$SPLINESEGS
 70
     8
  9
$ATTDIA
 70
     0
  9
$ATTREQ
 70
     0
  9
$HANDLING
 70
     1
  9
$HANDSEED
  5
E7
  9
$SURFTAB1
 70
    24
  9
$SURFTAB2
 70
    24
  9
$SURFTYPE
 70
     6
  9
$SURFU
 70
     6
  9
$SURFV
 70
     6
  9
$UCSNAME
  2

  9
$UCSORG
 10
0.0
 20
0.0
 30
0.0
  9
$UCSXDIR
 10
1.0
 20
0.0
 30
0.0
  9
$UCSYDIR
 10
0.0
 20
1.0
 30
0.0
  9
$PUCSNAME
  2

  9
$PUCSORG
 10
0.0
 20
0.0
 30
0.0
  9
$PUCSXDIR
 10
1.0
 20
0.0
 30
0.0
  9
$PUCSYDIR
 10
0.0
 20
1.0
 30
0.0
  9
$USERI1
 70
     0
  9
$USERI2
 70
     0
  9
$USERI3
 70
     0
  9
$USERI4
 70
     0
  9
$USERI5
 70
     0
  9
$USERR1
 40
0.0
  9
$USERR2
 40
0.0
  9
$USERR3
 40
0.0
  9
$USERR4
 40
0.0
  9
$USERR5
 40
0.0
  9
$WORLDVIEW
 70
     1
  9
$SHADEDGE
 70
     0
  9
$SHADEDIF
 70
    70
  9
$TILEMODE
 70
     1
  9
$MAXACTVP
 70
    16
  9
$PLIMCHECK
 70
     0
  9
$PEXTMIN
 10
-0.805942
 20
0.005011
 30
0.0
  9
$PEXTMAX
 10
20.250094
 20
11.356329
 30
0.0
  9
$PLIMMIN
 10
0.0
 20
0.0
  9
$PLIMMAX
 10
12.0
 20
9.0
  9
$UNITMODE
 70
     0
  9
$VISRETAIN
 70
     0
  9
$PLINEGEN
 70
     0
  9
$PSLTSCALE
 70
     0
  0
ENDSEC
  0
SECTION
  2
TABLES
  0
TABLE
  2
VPORT
 70
     2
  0
VPORT
  2
*ACTIVE
 70
     0
 10
0.0
 20
0.0
 11
1.0
 21
1.0
 12
-8.471114
 22
454.991707
 13
0.0
 23
0.0
 14
1.0
 24
1.0
 15
50.0
 25
50.0
 16
0.0
 26
0.0
 36
1.0
 17
0.0
 27
0.0
 37
0.0
 40
935.981146
 41
1.911765
 42
50.0
 43
0.0
 44
0.0
 50
0.0
 51
0.0
 71
     0
 72
   100
 73
     1
 74
     1
 75
     0
 76
     0
 77
     0
 78
     0
  0
ENDTAB
  0
TABLE
  2
LTYPE
 70
     2
  0
LTYPE
  2
CONTINUOUS
 70
     0
  3
Solid Line
 72
    65
 73
     0
 40
0.0
  0
LTYPE
  2
31
 70
     0
  3

 72
    65
 73
     4
 40
2.1
 49
1.5
 49
-0.3
 49
0.0
 49
-0.3
  0
ENDTAB
  0
TABLE
  2
LAYER
 70
    10
  0
LAYER
  2
0
 70
     0
 62
     7
  6
CONTINUOUS
  0
LAYER
  2
DEFPOINTS
 70
     0
 62
     7
  6
CONTINUOUS
  0
LAYER
  2
TEAM-BODY
 70
     0
 62
     2
  6
CONTINUOUS
  0
LAYER
  2
TEAM-AXE
 70
     0
 62
    10
  6
31
  0
LAYER
  2
TEAM-MAS
 70
     0
 62
     9
  6
CONTINUOUS
  0
LAYER
  2
TEAM-TXT
 70
     0
 62
    11
  6
CONTINUOUS
  0
LAYER
  2
TEAM-COLD
 70
     0
 62
     3
  6
CONTINUOUS
  0
LAYER
  2
TEAM-KAN
 70
     0
 62
     6
  6
CONTINUOUS
  0
LAYER
  2
TEAM-WARM
 70
     0
 62
     1
  6
CONTINUOUS
  0
LAYER
  2
TEAM-INSP
 70
     0
 62
     5
  6
CONTINUOUS
  0
ENDTAB
  0
TABLE
  2
STYLE
 70
     2
  0
STYLE
  2
STANDARD
 70
     0
 40
0.0
 41
1.0
 50
0.0
 71
     0
 42
200.0
  3
txt
  4

  0
STYLE
  2
TEAM
 70
     0
 40
0.0
 41
0.8
 50
15.0
 71
     0
 42
7.0
  3
ROMANS.shx
  4

  0
ENDTAB
  0
TABLE
  2
VIEW
 70
     0
  0
ENDTAB
  0
TABLE
  2
UCS
 70
     0
  0
ENDTAB
  0
TABLE
  2
APPID
 70
     1
  0
APPID
  2
ACAD
 70
     0
  0
ENDTAB
  0
TABLE
  2
DIMSTYLE
 70
     1
  0
DIMSTYLE
  2
TEAM
 70
     0
  3

  4

  5

  6

  7

 40
0.0
 41
20.0
 42
10.0
 43
1.0
 44
1.0
 45
0.0
 46
0.0
 47
0.0
 48
0.0
140
35.0
141
1.0
142
0.0
143
25.4
144
1.0
145
0.0
146
1.0
147
7.0
 71
     0
 72
     0
 73
     0
 74
     0
 75
     0
 76
     0
 77
     0
 78
     0
170
     0
171
     2
172
     0
173
     0
174
     0
175
     0
176
     9
177
     9
178
    11
  0
ENDTAB
  0
ENDSEC
  0
SECTION
  2
BLOCKS
  0
BLOCK
  8
0
  2
$MODEL_SPACE
 70
     0
 10
0.0
 20
0.0
 30
0.0
  3
$MODEL_SPACE
  1

  0
ENDBLK
  5
E0
  8
0
  0
BLOCK
 67
     1
  8
0
  2
$PAPER_SPACE
 70
     0
 10
0.0
 20
0.0
 30
0.0
  3
$PAPER_SPACE
  1

  0
ENDBLK
  5
DE
 67
     1
  8
0
  0
BLOCK
  8
0
  2
*D0
 70
     1
 10
0.0
 20
0.0
 30
0.0
  3
*D0
  1

  0
LINE
  5
22
  8
0
  6
BYBLOCK
 62
     9
 10
7990.0
 20
8000.0
 30
0.0
 11
7791.832236
 21
8000.0
 31
0.0
  0
LINE
  5
23
  8
0
  6
BYBLOCK
 62
     9
 10
7990.0
 20
8700.0
 30
0.0
 11
7791.832236
 21
8700.0
 31
0.0
  0
LINE
  5
24
  8
0
  6
BYBLOCK
 62
     9
 10
7792.832236
 20
8020.0
 30
0.0
 11
7792.832236
 21
8302.166667
 31
0.0
  0
LINE
  5
25
  8
0
  6
BYBLOCK
 62
     9
 10
7792.832236
 20
8680.0
 30
0.0
 11
7792.832236
 21
8397.833333
 31
0.0
  0
SOLID
  5
26
  8
0
  6
BYBLOCK
 62
     9
 10
7789.498902
 20
8020.0
 30
0.0
 11
7796.165569
 21
8020.0
 31
0.0
 12
7792.832236
 22
8000.0
 32
0.0
 13
7792.832236
 23
8000.0
 33
0.0
  0
SOLID
  5
27
  8
0
  6
BYBLOCK
 62
     9
 10
7789.498902
 20
8680.0
 30
0.0
 11
7796.165569
 21
8680.0
 31
0.0
 12
7792.832236
 22
8700.0
 32
0.0
 13
7792.832236
 23
8700.0
 33
0.0
  0
TEXT
  5
28
  8
0
  6
BYBLOCK
 62
    11
 10
7810.332236
 20
8309.166667
 30
0.0
 40
35.0
  1
700
 50
90.0
  0
POINT
  5
29
  8
DEFPOINTS
  6
BYBLOCK
 62
     0
 10
8000.0
 20
8000.0
 30
0.0
  0
POINT
  5
2B
  8
DEFPOINTS
  6
BYBLOCK
 62
     0
 10
8000.0
 20
8700.0
 30
0.0
  0
POINT
  5
2C
  8
DEFPOINTS
  6
BYBLOCK
 62
     0
 10
7792.832236
 20
8700.0
 30
0.0
  0
ENDBLK
  5
2E
  8
0
  0
BLOCK
  8
0
  2
*D1
 70
     1
 10
0.0
 20
0.0
 30
0.0
  3
*D1
  1

  0
LINE
  5
31
  8
0
  6
BYBLOCK
 62
     9
 10
7990.0
 20
8000.0
 30
0.0
 11
7839.827745
 21
8000.0
 31
0.0
  0
LINE
  5
32
  8
0
  6
BYBLOCK
 62
     9
 10
7990.0
 20
8400.0
 30
0.0
 11
7839.827745
 21
8400.0
 31
0.0
  0
LINE
  5
33
  8
0
  6
BYBLOCK
 62
     9
 10
7840.827745
 20
8020.0
 30
0.0
 11
7840.827745
 21
8085.083333
 31
0.0
  0
LINE
  5
34
  8
0
  6
BYBLOCK
 62
     9
 10
7840.827745
 20
8380.0
 30
0.0
 11
7840.827745
 21
8314.916667
 31
0.0
  0
SOLID
  5
35
  8
0
  6
BYBLOCK
 62
     9
 10
7837.494412
 20
8020.0
 30
0.0
 11
7844.161079
 21
8020.0
 31
0.0
 12
7840.827745
 22
8000.0
 32
0.0
 13
7840.827745
 23
8000.0
 33
0.0
  0
SOLID
  5
36
  8
0
  6
BYBLOCK
 62
     9
 10
7837.494412
 20
8380.0
 30
0.0
 11
7844.161079
 21
8380.0
 31
0.0
 12
7840.827745
 22
8400.0
 32
0.0
 13
7840.827745
 23
8400.0
 33
0.0
  0
TEXT
  5
37
  8
0
  6
BYBLOCK
 62
    11
 10
7858.327745
 20
8092.083333
 30
0.0
 40
35.0
  1
300-450
 50
90.0
  0
POINT
  5
38
  8
DEFPOINTS
  6
BYBLOCK
 62
     0
 10
8000.0
 20
8000.0
 30
0.0
  0
POINT
  5
39
  8
DEFPOINTS
  6
BYBLOCK
 62
     0
 10
8000.0
 20
8400.0
 30
0.0
  0
POINT
  5
3A
  8
DEFPOINTS
  6
BYBLOCK
 62
     0
 10
7840.827745
 20
8400.0
 30
0.0
  0
ENDBLK
  5
3C
  8
0
  0
BLOCK
  8
0
  2
*D2
 70
     1
 10
0.0
 20
0.0
 30
0.0
  3
*D2
  1

  0
LINE
  5
3F
  8
0
  6
BYBLOCK
 62
     9
 10
7990.0
 20
8000.0
 30
0.0
 11
7899.827745
 21
8000.0
 31
0.0
  0
LINE
  5
40
  8
0
  6
BYBLOCK
 62
     9
 10
7990.0
 20
8400.0
 30
0.0
 11
7899.827745
 21
8400.0
 31
0.0
  0
LINE
  5
41
  8
0
  6
BYBLOCK
 62
     9
 10
7900.827745
 20
8020.0
 30
0.0
 11
7900.827745
 21
8152.166667
 31
0.0
  0
LINE
  5
42
  8
0
  6
BYBLOCK
 62
     9
 10
7900.827745
 20
8380.0
 30
0.0
 11
7900.827745
 21
8247.833333
 31
0.0
  0
SOLID
  5
43
  8
0
  6
BYBLOCK
 62
     9
 10
7897.494412
 20
8020.0
 30
0.0
 11
7904.161079
 21
8020.0
 31
0.0
 12
7900.827745
 22
8000.0
 32
0.0
 13
7900.827745
 23
8000.0
 33
0.0
  0
SOLID
  5
44
  8
0
  6
BYBLOCK
 62
     9
 10
7897.494412
 20
8380.0
 30
0.0
 11
7904.161079
 21
8380.0
 31
0.0
 12
7900.827745
 22
8400.0
 32
0.0
 13
7900.827745
 23
8400.0
 33
0.0
  0
TEXT
  5
45
  8
0
  6
BYBLOCK
 62
    11
 10
7918.327745
 20
8159.166667
 30
0.0
 40
35.0
  1
400
 50
90.0
  0
POINT
  5
46
  8
DEFPOINTS
  6
BYBLOCK
 62
     0
 10
8000.0
 20
8000.0
 30
0.0
  0
POINT
  5
47
  8
DEFPOINTS
  6
BYBLOCK
 62
     0
 10
8000.0
 20
8400.0
 30
0.0
  0
POINT
  5
48
  8
DEFPOINTS
  6
BYBLOCK
 62
     0
 10
7900.827745
 20
8400.0
 30
0.0
  0
ENDBLK
  5
4A
  8
0
  0
BLOCK
  8
0
  2
*D3
 70
     1
 10
0.0
 20
0.0
 30
0.0
  3
*D3
  1

  0
LINE
  5
4D
  8
0
  6
BYBLOCK
 62
     9
 10
7990.0
 20
8000.0
 30
0.0
 11
7745.551251
 21
8000.0
 31
0.0
  0
LINE
  5
4E
  8
0
  6
BYBLOCK
 62
     9
 10
7990.0
 20
8700.0
 30
0.0
 11
7745.551251
 21
8700.0
 31
0.0
  0
LINE
  5
4F
  8
0
  6
BYBLOCK
 62
     9
 10
7746.551251
 20
8020.0
 30
0.0
 11
7746.551251
 21
8235.083333
 31
0.0
  0
LINE
  5
50
  8
0
  6
BYBLOCK
 62
     9
 10
7746.551251
 20
8680.0
 30
0.0
 11
7746.551251
 21
8464.916667
 31
0.0
  0
SOLID
  5
51
  8
0
  6
BYBLOCK
 62
     9
 10
7743.217917
 20
8020.0
 30
0.0
 11
7749.884584
 21
8020.0
 31
0.0
 12
7746.551251
 22
8000.0
 32
0.0
 13
7746.551251
 23
8000.0
 33
0.0
  0
SOLID
  5
52
  8
0
  6
BYBLOCK
 62
     9
 10
7743.217917
 20
8680.0
 30
0.0
 11
7749.884584
 21
8680.0
 31
0.0
 12
7746.551251
 22
8700.0
 32
0.0
 13
7746.551251
 23
8700.0
 33
0.0
  0
TEXT
  5
53
  8
0
  6
BYBLOCK
 62
    11
 10
7764.051251
 20
8242.083333
 30
0.0
 40
35.0
  1
650-800
 50
90.0
  0
POINT
  5
54
  8
DEFPOINTS
  6
BYBLOCK
 62
     0
 10
8000.0
 20
8000.0
 30
0.0
  0
POINT
  5
55
  8
DEFPOINTS
  6
BYBLOCK
 62
     0
 10
8000.0
 20
8700.0
 30
0.0
  0
POINT
  5
56
  8
DEFPOINTS
  6
BYBLOCK
 62
     0
 10
7746.551251
 20
8700.0
 30
0.0
  0
ENDBLK
  5
58
  8
0
  0
BLOCK
  8
0
  2
*D4
 70
     1
 10
0.0
 20
0.0
 30
0.0
  3
*D4
  1

  0
LINE
  5
5B
  8
0
  6
BYBLOCK
 62
     9
 10
7990.0
 20
8000.0
 30
0.0
 11
7699.268857
 21
8000.0
 31
0.0
  0
LINE
  5
5C
  8
0
  6
BYBLOCK
 62
     9
 10
7990.0
 20
8900.0
 30
0.0
 11
7699.268857
 21
8900.0
 31
0.0
  0
LINE
  5
5D
  8
0
  6
BYBLOCK
 62
     9
 10
7700.268857
 20
8020.0
 30
0.0
 11
7700.268857
 21
8402.166667
 31
0.0
  0
LINE
  5
5E
  8
0
  6
BYBLOCK
 62
     9
 10
7700.268857
 20
8880.0
 30
0.0
 11
7700.268857
 21
8497.833333
 31
0.0
  0
SOLID
  5
5F
  8
0
  6
BYBLOCK
 62
     9
 10
7696.935523
 20
8020.0
 30
0.0
 11
7703.60219
 21
8020.0
 31
0.0
 12
7700.268857
 22
8000.0
 32
0.0
 13
7700.268857
 23
8000.0
 33
0.0
  0
SOLID
  5
60
  8
0
  6
BYBLOCK
 62
     9
 10
7696.935523
 20
8880.0
 30
0.0
 11
7703.60219
 21
8880.0
 31
0.0
 12
7700.268857
 22
8900.0
 32
0.0
 13
7700.268857
 23
8900.0
 33
0.0
  0
TEXT
  5
61
  8
0
  6
BYBLOCK
 62
    11
 10
7717.768857
 20
8409.166667
 30
0.0
 40
35.0
  1
900
 50
90.0
  0
POINT
  5
62
  8
DEFPOINTS
  6
BYBLOCK
 62
     0
 10
8000.0
 20
8000.0
 30
0.0
  0
POINT
  5
63
  8
DEFPOINTS
  6
BYBLOCK
 62
     0
 10
8000.0
 20
8900.0
 30
0.0
  0
POINT
  5
64
  8
DEFPOINTS
  6
BYBLOCK
 62
     0
 10
7700.268857
 20
8900.0
 30
0.0
  0
ENDBLK
  5
66
  8
0
  0
BLOCK
  8
0
  2
*D5
 70
     1
 10
0.0
 20
0.0
 30
0.0
  3
*D5
  1

  0
LINE
  5
69
  8
0
  6
BYBLOCK
 62
     9
 10
7990.0
 20
8000.0
 30
0.0
 11
7649.557414
 21
8000.0
 31
0.0
  0
LINE
  5
6A
  8
0
  6
BYBLOCK
 62
     9
 10
7997.579317
 20
8900.0
 30
0.0
 11
7649.557414
 21
8900.0
 31
0.0
  0
LINE
  5
6B
  8
0
  6
BYBLOCK
 62
     9
 10
7650.557414
 20
8020.0
 30
0.0
 11
7650.557414
 21
8326.333333
 31
0.0
  0
LINE
  5
6C
  8
0
  6
BYBLOCK
 62
     9
 10
7650.557414
 20
8880.0
 30
0.0
 11
7650.557414
 21
8573.666667
 31
0.0
  0
SOLID
  5
6D
  8
0
  6
BYBLOCK
 62
     9
 10
7647.22408
 20
8020.0
 30
0.0
 11
7653.890747
 21
8020.0
 31
0.0
 12
7650.557414
 22
8000.0
 32
0.0
 13
7650.557414
 23
8000.0
 33
0.0
  0
SOLID
  5
6E
  8
0
  6
BYBLOCK
 62
     9
 10
7647.22408
 20
8880.0
 30
0.0
 11
7653.890747
 21
8880.0
 31
0.0
 12
7650.557414
 22
8900.0
 32
0.0
 13
7650.557414
 23
8900.0
 33
0.0
  0
TEXT
  5
6F
  8
0
  6
BYBLOCK
 62
    11
 10
7668.057414
 20
8333.333333
 30
0.0
 40
35.0
  1
850-1000
 50
90.0
  0
POINT
  5
70
  8
DEFPOINTS
  6
BYBLOCK
 62
     0
 10
8000.0
 20
8000.0
 30
0.0
  0
POINT
  5
71
  8
DEFPOINTS
  6
BYBLOCK
 62
     0
 10
8007.579317
 20
8900.0
 30
0.0
  0
POINT
  5
72
  8
DEFPOINTS
  6
BYBLOCK
 62
     0
 10
7650.557414
 20
8900.0
 30
0.0
  0
ENDBLK
  5
74
  8
0
  0
BLOCK
  8
0
  2
*D6
 70
     1
 10
0.0
 20
0.0
 30
0.0
  3
*D6
  1

  0
LINE
  5
77
  8
0
  6
BYBLOCK
 62
     9
 10
7990.0
 20
8760.0
 30
0.0
 11
7899.827745
 21
8760.0
 31
0.0
  0
LINE
  5
78
  8
0
  6
BYBLOCK
 62
     9
 10
7990.0
 20
8555.0
 30
0.0
 11
7899.827745
 21
8555.0
 31
0.0
  0
LINE
  5
79
  8
0
  6
BYBLOCK
 62
     9
 10
7900.827745
 20
8740.0
 30
0.0
 11
7900.827745
 21
8708.25
 31
0.0
  0
LINE
  5
7A
  8
0
  6
BYBLOCK
 62
     9
 10
7900.827745
 20
8575.0
 30
0.0
 11
7900.827745
 21
8606.75
 31
0.0
  0
SOLID
  5
7B
  8
0
  6
BYBLOCK
 62
     9
 10
7897.494412
 20
8740.0
 30
0.0
 11
7904.161079
 21
8740.0
 31
0.0
 12
7900.827745
 22
8760.0
 32
0.0
 13
7900.827745
 23
8760.0
 33
0.0
  0
SOLID
  5
7C
  8
0
  6
BYBLOCK
 62
     9
 10
7897.494412
 20
8575.0
 30
0.0
 11
7904.161079
 21
8575.0
 31
0.0
 12
7900.827745
 22
8555.0
 32
0.0
 13
7900.827745
 23
8555.0
 33
0.0
  0
TEXT
  5
7D
  8
0
  6
BYBLOCK
 62
    11
 10
7918.327745
 20
8613.75
 30
0.0
 40
35.0
  1
205
 50
90.0
  0
POINT
  5
7E
  8
DEFPOINTS
  6
BYBLOCK
 62
     0
 10
8000.0
 20
8760.0
 30
0.0
  0
POINT
  5
7F
  8
DEFPOINTS
  6
BYBLOCK
 62
     0
 10
8000.0
 20
8555.0
 30
0.0
  0
POINT
  5
80
  8
DEFPOINTS
  6
BYBLOCK
 62
     0
 10
7900.827745
 20
8555.0
 30
0.0
  0
ENDBLK
  5
82
  8
0
  0
ENDSEC
  0
SECTION
  2
ENTITIES
  0
DIMENSION
  5
20
  8
TEAM-MAS
  2
*D0
 10
-207.167764
 20
700.0
 30
0.0
 11
-207.167764
 21
350.0
 31
0.0
 12
-8000.0
 22
-8000.0
 32
0.0
 13
0.0
 23
0.0
 33
0.0
 14
0.0
 24
700.0
 34
0.0
 50
90.0
  0
DIMENSION
  5
2F
  8
TEAM-MAS
  2
*D1
 10
-159.172255
 20
400.0
 30
0.0
 11
-159.172255
 21
200.0
 31
0.0
 12
-8000.0
 22
-8000.0
 32
0.0
  1
300-450
 13
0.0
 23
0.0
 33
0.0
 14
0.0
 24
400.0
 34
0.0
 50
90.0
  0
DIMENSION
  5
3D
  8
TEAM-MAS
  2
*D2
 10
-99.172255
 20
400.0
 30
0.0
 11
-99.172255
 21
200.0
 31
0.0
 12
-8000.0
 22
-8000.0
 32
0.0
 13
0.0
 23
0.0
 33
0.0
 14
0.0
 24
400.0
 34
0.0
 50
90.0
  0
DIMENSION
  5
4B
  8
TEAM-MAS
  2
*D3
 10
-253.448749
 20
700.0
 30
0.0
 11
-253.448749
 21
350.0
 31
0.0
 12
-8000.0
 22
-8000.0
 32
0.0
  1
650-800
 13
0.0
 23
0.0
 33
0.0
 14
0.0
 24
700.0
 34
0.0
 50
90.0
  0
DIMENSION
  5
59
  8
TEAM-MAS
  2
*D4
 10
-299.731143
 20
900.0
 30
0.0
 11
-299.731143
 21
450.0
 31
0.0
 12
-8000.0
 22
-8000.0
 32
0.0
 13
0.0
 23
0.0
 33
0.0
 14
0.0
 24
900.0
 34
0.0
 50
90.0
  0
DIMENSION
  5
67
  8
TEAM-MAS
  2
*D5
 10
-349.442586
 20
900.0
 30
0.0
 11
-349.442586
 21
450.0
 31
0.0
 12
-8000.0
 22
-8000.0
 32
0.0
  1
850-1000
 13
0.0
 23
0.0
 33
0.0
 14
7.579317
 24
900.0
 34
0.0
 50
90.0
  0
DIMENSION
  5
75
  8
TEAM-MAS
  2
*D6
 10
-99.172255
 20
555.0
 30
0.0
 11
-99.172255
 21
657.5
 31
0.0
 12
-8000.0
 22
-8000.0
 32
0.0
 13
0.0
 23
760.0
 33
0.0
 14
0.0
 24
555.0
 34
0.0
 50
90.0
1001
ACAD
1000
DSTYLE
1002
{
1070
    78
1070
     0
1070
    40
1040
1.0
1002
}
  0
ARC
  5
83
  8
TEAM-BODY
 10
300.0
 20
575.0
 30
0.0
 40
20.0
 50
270.0
 51
0.0
  0
LINE
  5
85
  8
TEAM-BODY
 10
320.0
 20
575.0
 30
0.0
 11
320.0
 21
670.0
 31
0.0
  0
LINE
  5
86
  8
TEAM-BODY
 10
151.0
 20
555.0
 30
0.0
 11
151.0
 21
532.0
 31
0.0
  0
LINE
  5
87
  8
TEAM-BODY
 10
89.0
 20
555.0
 30
0.0
 11
89.0
 21
532.0
 31
0.0
  0
LINE
  5
88
  8
TEAM-BODY
 10
151.0
 20
532.0
 30
0.0
 11
89.0
 21
532.0
 31
0.0
  0
LINE
  5
89
  8
TEAM-BODY
 10
99.0
 20
532.0
 30
0.0
 11
99.0
 21
505.0
 31
0.0
  0
LINE
  5
8A
  8
TEAM-BODY
 10
141.0
 20
532.0
 30
0.0
 11
141.0
 21
505.0
 31
0.0
  0
LINE
  5
8B
  8
TEAM-BODY
 10
350.0
 20
670.0
 30
0.0
 11
350.0
 21
700.0
 31
0.0
  0
LINE
  5
8C
  8
TEAM-KAN
 10
120.0
 20
505.0
 30
0.0
 11
120.0
 21
325.980383
 31
0.0
  0
LINE
  5
8E
  8
TEAM-BODY
 10
99.0
 20
505.0
 30
0.0
 11
141.0
 21
505.0
 31
0.0
  0
LINE
  5
8F
  8
TEAM-AXE
 10
120.0
 20
700.0
 30
0.0
 11
120.0
 21
505.0
 31
0.0
  0
CIRCLE
  5
92
  8
TEAM-INSP
 10
0.0
 20
0.0
 30
0.0
 40
10.0
  0
LINE
  5
94
  8
TEAM-BODY
 10
0.0
 20
760.0
 30
0.0
 11
0.0
 21
555.0
 31
0.0
  0
CIRCLE
  5
95
  8
TEAM-COLD
 10
7.579317
 20
900.0
 30
0.0
 40
15.0
  0
LINE
  5
97
  8
TEAM-AXE
 10
-12.420683
 20
900.0
 30
0.0
 11
27.579317
 21
900.0
 31
0.0
  0
LINE
  5
98
  8
TEAM-AXE
 10
7.579317
 20
880.0
 30
0.0
 11
7.579317
 21
920.0
 31
0.0
  0
CIRCLE
  5
99
  8
TEAM-WARM
 10
0.0
 20
900.0
 30
0.0
 40
15.0
  0
LINE
  5
9B
  8
TEAM-AXE
 10
-20.0
 20
900.0
 30
0.0
 11
20.0
 21
900.0
 31
0.0
  0
LINE
  5
9C
  8
TEAM-AXE
 10
0.0
 20
880.0
 30
0.0
 11
0.0
 21
920.0
 31
0.0
  0
LINE
  5
9D
  8
TEAM-BODY
 10
30.0
 20
760.0
 30
0.0
 11
0.0
 21
760.0
 31
0.0
  0
LINE
  5
9E
  8
TEAM-BODY
 10
30.0
 20
760.0
 30
0.0
 11
30.0
 21
700.0
 31
0.0
  0
LINE
  5
9F
  8
TEAM-AXE
 10
-30.0
 20
400.0
 30
0.0
 11
30.0
 21
400.0
 31
0.0
  0
LINE
  5
A0
  8
TEAM-AXE
 10
0.0
 20
370.0
 30
0.0
 11
0.0
 21
430.0
 31
0.0
  0
CIRCLE
  5
A1
  8
TEAM-KAN
 10
0.0
 20
400.0
 30
0.0
 40
20.0
  0
TEXT
  5
A2
  8
TEAM-TXT
 10
9.871366
 20
622.543257
 30
0.0
 40
30.0
  1
team 411005
 41
0.8
 51
15.0
  7
TEAM
  0
LINE
  5
A5
  8
TEAM-BODY
 10
0.0
 20
555.0
 30
0.0
 11
300.0
 21
555.0
 31
0.0
  0
LINE
  5
A6
  8
TEAM-BODY
 10
350.0
 20
670.0
 30
0.0
 11
0.0
 21
670.0
 31
0.0
  0
LINE
  5
A7
  8
TEAM-BODY
 10
350.0
 20
700.0
 30
0.0
 11
0.0
 21
700.0
 31
0.0
  0
LINE
  5
A8
  8
TEAM-KAN
 10
30.0
 20
400.0
 30
0.0
 11
120.0
 21
400.0
 31
0.0
  0
ENDSEC
  0
EOF
