  0
SECTION
  2
HEADER
  9
$ACADVER
  1
AC1009
  9
$INSBASE
 10
0.0
 20
0.0
 30
0.0
  9
$EXTMIN
 10
-306.230125
 20
-10.067822
 30
-0.000004
  9
$EXTMAX
 10
634.572966
 20
1111.841413
 30
0.000002
  9
$LIMMIN
 10
-306.230125
 20
-10.067822
  9
$LIMMAX
 10
634.572966
 20
1111.841413
  9
$ORTHOMODE
 70
     1
  9
$REGENMODE
 70
     1
  9
$FILLMODE
 70
     1
  9
$QTEXTMODE
 70
     0
  9
$MIRRTEXT
 70
     0
  9
$DRAGMODE
 70
     2
  9
$LTSCALE
 40
50.0
  9
$OSMODE
 70
     0
  9
$ATTMODE
 70
     1
  9
$TEXTSIZE
 40
200.0
  9
$TRACEWID
 40
1.0
  9
$TEXTSTYLE
  7
STANDARD
  9
$CLAYER
  8
TEAM-MAS
  9
$CELTYPE
  6
BYLAYER
  9
$CECOLOR
 62
   256
  9
$DIMSCALE
 40
0.0
  9
$DIMASZ
 40
20.0
  9
$DIMEXO
 40
10.0
  9
$DIMDLI
 40
1.0
  9
$DIMRND
 40
0.0
  9
$DIMDLE
 40
0.0
  9
$DIMEXE
 40
1.0
  9
$DIMTP
 40
0.0
  9
$DIMTM
 40
0.0
  9
$DIMTXT
 40
35.0
  9
$DIMCEN
 40
1.0
  9
$DIMTSZ
 40
0.0
  9
$DIMTOL
 70
     0
  9
$DIMLIM
 70
     0
  9
$DIMTIH
 70
     0
  9
$DIMTOH
 70
     0
  9
$DIMSE1
 70
     0
  9
$DIMSE2
 70
     0
  9
$DIMTAD
 70
     0
  9
$DIMZIN
 70
     0
  9
$DIMBLK
  1

  9
$DIMASO
 70
     1
  9
$DIMSHO
 70
     0
  9
$DIMPOST
  1

  9
$DIMAPOST
  1

  9
$DIMALT
 70
     0
  9
$DIMALTD
 70
     2
  9
$DIMALTF
 40
25.4
  9
$DIMLFAC
 40
1.0
  9
$DIMTOFL
 70
     0
  9
$DIMTVP
 40
0.0
  9
$DIMTIX
 70
     0
  9
$DIMSOXD
 70
     0
  9
$DIMSAH
 70
     0
  9
$DIMBLK1
  1

  9
$DIMBLK2
  1

  9
$DIMSTYLE
  2
TEAM
  9
$DIMCLRD
 70
     9
  9
$DIMCLRE
 70
     9
  9
$DIMCLRT
 70
    11
  9
$DIMTFAC
 40
1.0
  9
$DIMGAP
 40
7.0
  9
$LUNITS
 70
     2
  9
$LUPREC
 70
     1
  9
$SKETCHINC
 40
1.0
  9
$FILLETRAD
 40
10.0
  9
$AUNITS
 70
     0
  9
$AUPREC
 70
     0
  9
$MENU
  1
ROPLANS
  9
$ELEVATION
 40
0.0
  9
$PELEVATION
 40
0.0
  9
$THICKNESS
 40
0.0
  9
$LIMCHECK
 70
     0
  9
$BLIPMODE
 70
     1
  9
$CHAMFERA
 40
0.0
  9
$CHAMFERB
 40
0.0
  9
$SKPOLY
 70
     0
  9
$TDCREATE
 40
2450392.957851
  9
$TDUPDATE
 40
2457298.749309
  9
$TDINDWG
 40
2.224856
  9
$TDUSRTIMER
 40
2.224856
  9
$USRTIMER
 70
     1
  9
$ANGBASE
 50
0.0
  9
$ANGDIR
 70
     0
  9
$PDMODE
 70
     0
  9
$PDSIZE
 40
0.0
  9
$PLINEWID
 40
0.0
  9
$COORDS
 70
     2
  9
$SPLFRAME
 70
     0
  9
$SPLINETYPE
 70
     6
  9
$SPLINESEGS
 70
     8
  9
$ATTDIA
 70
     0
  9
$ATTREQ
 70
     0
  9
$HANDLING
 70
     1
  9
$HANDSEED
  5
17C
  9
$SURFTAB1
 70
    36
  9
$SURFTAB2
 70
    36
  9
$SURFTYPE
 70
     6
  9
$SURFU
 70
     6
  9
$SURFV
 70
     6
  9
$UCSNAME
  2

  9
$UCSORG
 10
0.0
 20
0.0
 30
0.0
  9
$UCSXDIR
 10
1.0
 20
0.0
 30
0.0
  9
$UCSYDIR
 10
0.0
 20
1.0
 30
0.0
  9
$PUCSNAME
  2

  9
$PUCSORG
 10
0.0
 20
0.0
 30
0.0
  9
$PUCSXDIR
 10
1.0
 20
0.0
 30
0.0
  9
$PUCSYDIR
 10
0.0
 20
1.0
 30
0.0
  9
$USERI1
 70
     0
  9
$USERI2
 70
     0
  9
$USERI3
 70
     0
  9
$USERI4
 70
     0
  9
$USERI5
 70
     0
  9
$USERR1
 40
0.0
  9
$USERR2
 40
0.0
  9
$USERR3
 40
0.0
  9
$USERR4
 40
0.0
  9
$USERR5
 40
0.0
  9
$WORLDVIEW
 70
     1
  9
$SHADEDGE
 70
     0
  9
$SHADEDIF
 70
    70
  9
$TILEMODE
 70
     1
  9
$MAXACTVP
 70
    16
  9
$PLIMCHECK
 70
     0
  9
$PEXTMIN
 10
-0.805942
 20
0.005011
 30
0.0
  9
$PEXTMAX
 10
20.250094
 20
11.356329
 30
0.0
  9
$PLIMMIN
 10
0.0
 20
0.0
  9
$PLIMMAX
 10
12.0
 20
9.0
  9
$UNITMODE
 70
     0
  9
$VISRETAIN
 70
     0
  9
$PLINEGEN
 70
     0
  9
$PSLTSCALE
 70
     0
  0
ENDSEC
  0
SECTION
  2
TABLES
  0
TABLE
  2
VPORT
 70
     2
  0
VPORT
  2
*ACTIVE
 70
     0
 10
0.0
 20
0.0
 11
1.0
 21
1.0
 12
164.17142
 22
550.886795
 13
0.0
 23
0.0
 14
1.0
 24
1.0
 15
50.0
 25
50.0
 16
0.0
 26
0.0
 36
1.0
 17
0.0
 27
0.0
 37
0.0
 40
1128.877616
 41
1.926425
 42
50.0
 43
0.0
 44
0.0
 50
0.0
 51
0.0
 71
     0
 72
   100
 73
     1
 74
     1
 75
     0
 76
     0
 77
     0
 78
     0
  0
ENDTAB
  0
TABLE
  2
LTYPE
 70
     3
  0
LTYPE
  2
CONTINUOUS
 70
     0
  3
Solid Line
 72
    65
 73
     0
 40
0.0
  0
LTYPE
  2
31
 70
     0
  3

 72
    65
 73
     4
 40
2.1
 49
1.5
 49
-0.3
 49
0.0
 49
-0.3
  0
LTYPE
  2
22
 70
     0
  3

 72
    65
 73
     2
 40
1.4
 49
1.2
 49
-0.2
  0
ENDTAB
  0
TABLE
  2
LAYER
 70
    11
  0
LAYER
  2
0
 70
     0
 62
     7
  6
CONTINUOUS
  0
LAYER
  2
DEFPOINTS
 70
     0
 62
     7
  6
CONTINUOUS
  0
LAYER
  2
TEAM-BODY
 70
     0
 62
     2
  6
CONTINUOUS
  0
LAYER
  2
TEAM-AXE
 70
     0
 62
    10
  6
31
  0
LAYER
  2
TEAM-MAS
 70
     0
 62
     9
  6
CONTINUOUS
  0
LAYER
  2
TEAM-TXT
 70
     0
 62
    11
  6
CONTINUOUS
  0
LAYER
  2
TEAM-COLD
 70
     0
 62
     3
  6
CONTINUOUS
  0
LAYER
  2
TEAM-HIDE
 70
     0
 62
     8
  6
22
  0
LAYER
  2
TEAM-KAN
 70
     0
 62
     6
  6
CONTINUOUS
  0
LAYER
  2
TEAM-WARM
 70
     0
 62
     1
  6
CONTINUOUS
  0
LAYER
  2
TEAM-INSP
 70
     0
 62
     5
  6
CONTINUOUS
  0
ENDTAB
  0
TABLE
  2
STYLE
 70
     2
  0
STYLE
  2
STANDARD
 70
     0
 40
0.0
 41
1.0
 50
0.0
 71
     0
 42
200.0
  3
txt
  4

  0
STYLE
  2
TEAM
 70
     0
 40
0.0
 41
0.8
 50
15.0
 71
     0
 42
7.0
  3
ROMANS.shx
  4

  0
ENDTAB
  0
TABLE
  2
VIEW
 70
     0
  0
ENDTAB
  0
TABLE
  2
UCS
 70
     0
  0
ENDTAB
  0
TABLE
  2
APPID
 70
     1
  0
APPID
  2
ACAD
 70
     0
  0
ENDTAB
  0
TABLE
  2
DIMSTYLE
 70
     1
  0
DIMSTYLE
  2
TEAM
 70
     0
  3

  4

  5

  6

  7

 40
0.0
 41
20.0
 42
10.0
 43
1.0
 44
1.0
 45
0.0
 46
0.0
 47
0.0
 48
0.0
140
35.0
141
1.0
142
0.0
143
25.4
144
1.0
145
0.0
146
1.0
147
7.0
 71
     0
 72
     0
 73
     0
 74
     0
 75
     0
 76
     0
 77
     0
 78
     0
170
     0
171
     2
172
     0
173
     0
174
     0
175
     0
176
     9
177
     9
178
    11
  0
ENDTAB
  0
ENDSEC
  0
SECTION
  2
BLOCKS
  0
BLOCK
  8
0
  2
$MODEL_SPACE
 70
     0
 10
0.0
 20
0.0
 30
0.0
  3
$MODEL_SPACE
  1

  0
ENDBLK
  5
16B
  8
0
  0
BLOCK
 67
     1
  8
0
  2
$PAPER_SPACE
 70
     0
 10
0.0
 20
0.0
 30
0.0
  3
$PAPER_SPACE
  1

  0
ENDBLK
  5
169
 67
     1
  8
0
  0
BLOCK
  8
0
  2
*D0
 70
     1
 10
0.0
 20
0.0
 30
0.0
  3
*D0
  1

  0
LINE
  5
70
  8
0
  6
BYBLOCK
 62
     9
 10
12010.0
 20
0.0
 30
0.0
 11
12618.05806
 21
0.0
 31
0.0
  0
LINE
  5
71
  8
0
  6
BYBLOCK
 62
     9
 10
12086.5
 20
1000.0
 30
0.0
 11
12618.05806
 21
1000.0
 31
0.0
  0
LINE
  5
72
  8
0
  6
BYBLOCK
 62
     9
 10
12617.05806
 20
20.0
 30
0.0
 11
12617.05806
 21
334.666667
 31
0.0
  0
LINE
  5
73
  8
0
  6
BYBLOCK
 62
     9
 10
12617.05806
 20
980.0
 30
0.0
 11
12617.05806
 21
605.333333
 31
0.0
  0
TEXT
  5
74
  8
0
  6
BYBLOCK
 62
    11
 10
12634.55806
 20
341.666667
 30
0.0
 40
35.0
  1
1050-1200
 50
90.0
  0
SOLID
  5
75
  8
0
  6
BYBLOCK
 62
     9
 10
12613.724727
 20
20.0
 30
0.0
 11
12620.391393
 21
20.0
 31
0.0
 12
12617.05806
 22
0.0
 32
0.0
 13
12617.05806
 23
0.0
 33
0.0
  0
SOLID
  5
76
  8
0
  6
BYBLOCK
 62
     9
 10
12613.724727
 20
980.0
 30
0.0
 11
12620.391393
 21
980.0
 31
0.0
 12
12617.05806
 22
1000.0
 32
0.0
 13
12617.05806
 23
1000.0
 33
0.0
  0
POINT
  5
77
  8
DEFPOINTS
  6
BYBLOCK
 62
     0
 10
12000.0
 20
0.0
 30
0.0
  0
POINT
  5
78
  8
DEFPOINTS
  6
BYBLOCK
 62
     0
 10
12076.5
 20
1000.0
 30
0.0
  0
POINT
  5
79
  8
DEFPOINTS
  6
BYBLOCK
 62
     0
 10
12617.05806
 20
1000.0
 30
0.0
  0
ENDBLK
  5
7B
  8
0
  0
BLOCK
  8
0
  2
*D1
 70
     1
 10
0.0
 20
0.0
 30
0.0
  3
*D1
  1

  0
LINE
  5
62
  8
0
  6
BYBLOCK
 62
     9
 10
12010.0
 20
0.0
 30
0.0
 11
12525.255183
 21
0.0
 31
0.0
  0
LINE
  5
63
  8
0
  6
BYBLOCK
 62
     9
 10
12310.0
 20
850.0
 30
0.0
 11
12525.255183
 21
850.0
 31
0.0
  0
LINE
  5
64
  8
0
  6
BYBLOCK
 62
     9
 10
12524.255183
 20
20.0
 30
0.0
 11
12524.255183
 21
277.166667
 31
0.0
  0
LINE
  5
65
  8
0
  6
BYBLOCK
 62
     9
 10
12524.255183
 20
830.0
 30
0.0
 11
12524.255183
 21
512.833333
 31
0.0
  0
TEXT
  5
66
  8
0
  6
BYBLOCK
 62
    11
 10
12541.755183
 20
284.166667
 30
0.0
 40
35.0
  1
650-850
 50
90.0
  0
SOLID
  5
67
  8
0
  6
BYBLOCK
 62
     9
 10
12520.92185
 20
20.0
 30
0.0
 11
12527.588516
 21
20.0
 31
0.0
 12
12524.255183
 22
0.0
 32
0.0
 13
12524.255183
 23
0.0
 33
0.0
  0
SOLID
  5
68
  8
0
  6
BYBLOCK
 62
     9
 10
12520.92185
 20
830.0
 30
0.0
 11
12527.588516
 21
830.0
 31
0.0
 12
12524.255183
 22
850.0
 32
0.0
 13
12524.255183
 23
850.0
 33
0.0
  0
POINT
  5
69
  8
DEFPOINTS
  6
BYBLOCK
 62
     0
 10
12000.0
 20
0.0
 30
0.0
  0
POINT
  5
6A
  8
DEFPOINTS
  6
BYBLOCK
 62
     0
 10
12300.0
 20
850.0
 30
0.0
  0
POINT
  5
6B
  8
DEFPOINTS
  6
BYBLOCK
 62
     0
 10
12524.255183
 20
850.0
 30
0.0
  0
ENDBLK
  5
6D
  8
0
  0
BLOCK
  8
0
  2
*D2
 70
     1
 10
0.0
 20
0.0
 30
0.0
  3
*D2
  1

  0
LINE
  5
7E
  8
0
  6
BYBLOCK
 62
     9
 10
12010.0
 20
0.0
 30
0.0
 11
12434.052717
 21
0.0
 31
0.0
  0
LINE
  5
7F
  8
0
  6
BYBLOCK
 62
     9
 10
12040.0
 20
470.0
 30
0.0
 11
12434.052717
 21
470.0
 31
0.0
  0
LINE
  5
80
  8
0
  6
BYBLOCK
 62
     9
 10
12433.052717
 20
20.0
 30
0.0
 11
12433.052717
 21
128.833333
 31
0.0
  0
LINE
  5
81
  8
0
  6
BYBLOCK
 62
     9
 10
12433.052717
 20
450.0
 30
0.0
 11
12433.052717
 21
341.166667
 31
0.0
  0
SOLID
  5
82
  8
0
  6
BYBLOCK
 62
     9
 10
12429.719384
 20
20.0
 30
0.0
 11
12436.38605
 21
20.0
 31
0.0
 12
12433.052717
 22
0.0
 32
0.0
 13
12433.052717
 23
0.0
 33
0.0
  0
SOLID
  5
83
  8
0
  6
BYBLOCK
 62
     9
 10
12429.719384
 20
450.0
 30
0.0
 11
12436.38605
 21
450.0
 31
0.0
 12
12433.052717
 22
470.0
 32
0.0
 13
12433.052717
 23
470.0
 33
0.0
  0
TEXT
  5
84
  8
0
  6
BYBLOCK
 62
    11
 10
12450.552717
 20
135.833333
 30
0.0
 40
35.0
  1
310-510
 50
90.0
  0
POINT
  5
85
  8
DEFPOINTS
  6
BYBLOCK
 62
     0
 10
12000.0
 20
0.0
 30
0.0
  0
POINT
  5
86
  8
DEFPOINTS
  6
BYBLOCK
 62
     0
 10
12030.0
 20
470.0
 30
0.0
  0
POINT
  5
87
  8
DEFPOINTS
  6
BYBLOCK
 62
     0
 10
12433.052717
 20
470.0
 30
0.0
  0
ENDBLK
  5
89
  8
0
  0
BLOCK
  8
0
  2
*D3
 70
     1
 10
0.0
 20
0.0
 30
0.0
  3
*D3
  1

  0
LINE
  5
54
  8
0
  6
BYBLOCK
 62
     9
 10
12010.0
 20
0.0
 30
0.0
 11
12570.857121
 21
0.0
 31
0.0
  0
LINE
  5
55
  8
0
  6
BYBLOCK
 62
     9
 10
12086.5
 20
1000.0
 30
0.0
 11
12570.857121
 21
1000.0
 31
0.0
  0
LINE
  5
56
  8
0
  6
BYBLOCK
 62
     9
 10
12569.857121
 20
20.0
 30
0.0
 11
12569.857121
 21
378.416667
 31
0.0
  0
LINE
  5
57
  8
0
  6
BYBLOCK
 62
     9
 10
12569.857121
 20
980.0
 30
0.0
 11
12569.857121
 21
561.583333
 31
0.0
  0
TEXT
  5
58
  8
0
  6
BYBLOCK
 62
    11
 10
12587.357121
 20
385.416667
 30
0.0
 40
35.0
  1
1000.00
 50
90.0
  0
SOLID
  5
59
  8
0
  6
BYBLOCK
 62
     9
 10
12566.523787
 20
20.0
 30
0.0
 11
12573.190454
 21
20.0
 31
0.0
 12
12569.857121
 22
0.0
 32
0.0
 13
12569.857121
 23
0.0
 33
0.0
  0
SOLID
  5
5A
  8
0
  6
BYBLOCK
 62
     9
 10
12566.523787
 20
980.0
 30
0.0
 11
12573.190454
 21
980.0
 31
0.0
 12
12569.857121
 22
1000.0
 32
0.0
 13
12569.857121
 23
1000.0
 33
0.0
  0
POINT
  5
5B
  8
DEFPOINTS
  6
BYBLOCK
 62
     0
 10
12000.0
 20
0.0
 30
0.0
  0
POINT
  5
5C
  8
DEFPOINTS
  6
BYBLOCK
 62
     0
 10
12076.5
 20
1000.0
 30
0.0
  0
POINT
  5
5D
  8
DEFPOINTS
  6
BYBLOCK
 62
     0
 10
12569.857121
 20
1000.0
 30
0.0
  0
ENDBLK
  5
5F
  8
0
  0
BLOCK
  8
0
  2
*D4
 70
     1
 10
0.0
 20
0.0
 30
0.0
  3
*D4
  1

  0
LINE
  5
46
  8
0
  6
BYBLOCK
 62
     9
 10
12010.0
 20
0.0
 30
0.0
 11
12481.253656
 21
0.0
 31
0.0
  0
LINE
  5
47
  8
0
  6
BYBLOCK
 62
     9
 10
12310.0
 20
850.0
 30
0.0
 11
12481.253656
 21
850.0
 31
0.0
  0
LINE
  5
48
  8
0
  6
BYBLOCK
 62
     9
 10
12480.253656
 20
20.0
 30
0.0
 11
12480.253656
 21
309.25
 31
0.0
  0
LINE
  5
49
  8
0
  6
BYBLOCK
 62
     9
 10
12480.253656
 20
830.0
 30
0.0
 11
12480.253656
 21
480.75
 31
0.0
  0
TEXT
  5
4A
  8
0
  6
BYBLOCK
 62
    11
 10
12497.753656
 20
316.25
 30
0.0
 40
35.0
  1
850.00
 50
90.0
  0
SOLID
  5
4B
  8
0
  6
BYBLOCK
 62
     9
 10
12476.920323
 20
20.0
 30
0.0
 11
12483.58699
 21
20.0
 31
0.0
 12
12480.253656
 22
0.0
 32
0.0
 13
12480.253656
 23
0.0
 33
0.0
  0
SOLID
  5
4C
  8
0
  6
BYBLOCK
 62
     9
 10
12476.920323
 20
830.0
 30
0.0
 11
12483.58699
 21
830.0
 31
0.0
 12
12480.253656
 22
850.0
 32
0.0
 13
12480.253656
 23
850.0
 33
0.0
  0
POINT
  5
4D
  8
DEFPOINTS
  6
BYBLOCK
 62
     0
 10
12000.0
 20
0.0
 30
0.0
  0
POINT
  5
4E
  8
DEFPOINTS
  6
BYBLOCK
 62
     0
 10
12300.0
 20
850.0
 30
0.0
  0
POINT
  5
4F
  8
DEFPOINTS
  6
BYBLOCK
 62
     0
 10
12480.253656
 20
850.0
 30
0.0
  0
ENDBLK
  5
51
  8
0
  0
BLOCK
  8
0
  2
*D5
 70
     1
 10
0.0
 20
0.0
 30
0.0
  3
*D5
  1

  0
LINE
  5
38
  8
0
  6
BYBLOCK
 62
     9
 10
12310.0
 20
850.0
 30
0.0
 11
12434.052717
 21
850.0
 31
0.0
  0
LINE
  5
39
  8
0
  6
BYBLOCK
 62
     9
 10
12010.0
 20
470.0
 30
0.0
 11
12434.052717
 21
470.0
 31
0.0
  0
LINE
  5
3A
  8
0
  6
BYBLOCK
 62
     9
 10
12433.052717
 20
830.0
 30
0.0
 11
12433.052717
 21
745.75
 31
0.0
  0
LINE
  5
3B
  8
0
  6
BYBLOCK
 62
     9
 10
12433.052717
 20
490.0
 30
0.0
 11
12433.052717
 21
574.25
 31
0.0
  0
TEXT
  5
3C
  8
0
  6
BYBLOCK
 62
    11
 10
12450.552717
 20
581.25
 30
0.0
 40
35.0
  1
380.00
 50
90.0
  0
SOLID
  5
3D
  8
0
  6
BYBLOCK
 62
     9
 10
12429.719384
 20
830.0
 30
0.0
 11
12436.38605
 21
830.0
 31
0.0
 12
12433.052717
 22
850.0
 32
0.0
 13
12433.052717
 23
850.0
 33
0.0
  0
SOLID
  5
3E
  8
0
  6
BYBLOCK
 62
     9
 10
12429.719384
 20
490.0
 30
0.0
 11
12436.38605
 21
490.0
 31
0.0
 12
12433.052717
 22
470.0
 32
0.0
 13
12433.052717
 23
470.0
 33
0.0
  0
POINT
  5
3F
  8
DEFPOINTS
  6
BYBLOCK
 62
     0
 10
12300.0
 20
850.0
 30
0.0
  0
POINT
  5
40
  8
DEFPOINTS
  6
BYBLOCK
 62
     0
 10
12000.0
 20
470.0
 30
0.0
  0
POINT
  5
41
  8
DEFPOINTS
  6
BYBLOCK
 62
     0
 10
12433.052717
 20
470.0
 30
0.0
  0
ENDBLK
  5
43
  8
0
  0
BLOCK
  8
0
  2
*D6
 70
     1
 10
0.0
 20
0.0
 30
0.0
  3
*D6
  1

  0
LINE
  5
10C
  8
0
  6
BYBLOCK
 62
     9
 10
12305.472342
 20
850.0
 30
0.0
 11
12344.450662
 21
850.0
 31
0.0
  0
LINE
  5
10D
  8
0
  6
BYBLOCK
 62
     9
 10
12215.710615
 20
795.0
 30
0.0
 11
12344.450662
 21
795.0
 31
0.0
  0
LINE
  5
10E
  8
0
  6
BYBLOCK
 62
     9
 10
12343.450662
 20
830.0
 30
0.0
 11
12343.450662
 21
815.0
 31
0.0
  0
TEXT
  5
10F
  8
0
  6
BYBLOCK
 62
    11
 10
12360.950662
 20
681.566667
 30
0.0
 40
35.0
  1
55.00
 50
90.0
  0
SOLID
  5
110
  8
0
  6
BYBLOCK
 62
     9
 10
12340.117328
 20
830.0
 30
0.0
 11
12346.783995
 21
830.0
 31
0.0
 12
12343.450662
 22
850.0
 32
0.0
 13
12343.450662
 23
850.0
 33
0.0
  0
SOLID
  5
111
  8
0
  6
BYBLOCK
 62
     9
 10
12340.117328
 20
815.0
 30
0.0
 11
12346.783995
 21
815.0
 31
0.0
 12
12343.450662
 22
795.0
 32
0.0
 13
12343.450662
 23
795.0
 33
0.0
  0
POINT
  5
112
  8
DEFPOINTS
  6
BYBLOCK
 62
     0
 10
12295.472342
 20
850.0
 30
0.0
  0
POINT
  5
113
  8
DEFPOINTS
  6
BYBLOCK
 62
     0
 10
12205.710615
 20
795.0
 30
0.0
  0
POINT
  5
114
  8
DEFPOINTS
  6
BYBLOCK
 62
     0
 10
12343.450662
 20
795.0
 30
0.0
  0
ENDBLK
  5
116
  8
0
  0
BLOCK
  8
0
  2
*D7
 70
     1
 10
0.0
 20
0.0
 30
0.0
  3
*D7
  1

  0
LINE
  5
C2
  8
0
  6
BYBLOCK
 62
     9
 10
12310.0
 20
850.0
 30
0.0
 11
12390.05119
 21
850.0
 31
0.0
  0
LINE
  5
C3
  8
0
  6
BYBLOCK
 62
     9
 10
12075.262521
 20
615.0
 30
0.0
 11
12390.05119
 21
615.0
 31
0.0
  0
LINE
  5
C4
  8
0
  6
BYBLOCK
 62
     9
 10
12389.05119
 20
830.0
 30
0.0
 11
12389.05119
 21
821.166667
 31
0.0
  0
LINE
  5
C5
  8
0
  6
BYBLOCK
 62
     9
 10
12389.05119
 20
635.0
 30
0.0
 11
12389.05119
 21
643.833333
 31
0.0
  0
SOLID
  5
C6
  8
0
  6
BYBLOCK
 62
     9
 10
12385.717857
 20
830.0
 30
0.0
 11
12392.384524
 21
830.0
 31
0.0
 12
12389.05119
 22
850.0
 32
0.0
 13
12389.05119
 23
850.0
 33
0.0
  0
SOLID
  5
C7
  8
0
  6
BYBLOCK
 62
     9
 10
12385.717857
 20
635.0
 30
0.0
 11
12392.384524
 21
635.0
 31
0.0
 12
12389.05119
 22
615.0
 32
0.0
 13
12389.05119
 23
615.0
 33
0.0
  0
TEXT
  5
C8
  8
0
  6
BYBLOCK
 62
    11
 10
12406.55119
 20
650.833333
 30
0.0
 40
35.0
  1
235.00
 50
90.0
  0
POINT
  5
C9
  8
DEFPOINTS
  6
BYBLOCK
 62
     0
 10
12300.0
 20
850.0
 30
0.0
  0
POINT
  5
CA
  8
DEFPOINTS
  6
BYBLOCK
 62
     0
 10
12065.262521
 20
615.0
 30
0.0
  0
POINT
  5
CB
  8
DEFPOINTS
  6
BYBLOCK
 62
     0
 10
12389.05119
 20
615.0
 30
0.0
  0
ENDBLK
  5
CD
  8
0
  0
BLOCK
  8
0
  2
*D8
 70
     1
 10
0.0
 20
0.0
 30
0.0
  3
*D8
  1

  0
LINE
  5
B4
  8
0
  6
BYBLOCK
 62
     9
 10
11800.0
 20
815.0
 30
0.0
 11
11800.0
 21
1049.594074
 31
0.0
  0
LINE
  5
B5
  8
0
  6
BYBLOCK
 62
     9
 10
12000.0
 20
1033.707822
 30
0.0
 11
12000.0
 21
1049.594074
 31
0.0
  0
LINE
  5
B6
  8
0
  6
BYBLOCK
 62
     9
 10
11780.0
 20
1048.594074
 30
0.0
 11
11760.0
 21
1048.594074
 31
0.0
  0
LINE
  5
B7
  8
0
  6
BYBLOCK
 62
     9
 10
12020.0
 20
1048.594074
 30
0.0
 11
12040.0
 21
1048.594074
 31
0.0
  0
SOLID
  5
B8
  8
0
  6
BYBLOCK
 62
     9
 10
11780.0
 20
1051.927407
 30
0.0
 11
11780.0
 21
1045.26074
 31
0.0
 12
11800.0
 22
1048.594074
 32
0.0
 13
11800.0
 23
1048.594074
 33
0.0
  0
SOLID
  5
B9
  8
0
  6
BYBLOCK
 62
     9
 10
12020.0
 20
1051.927407
 30
0.0
 11
12020.0
 21
1045.26074
 31
0.0
 12
12000.0
 22
1048.594074
 32
0.0
 13
12000.0
 23
1048.594074
 33
0.0
  0
TEXT
  5
BA
  8
0
  6
BYBLOCK
 62
    11
 10
11824.166667
 20
1031.094074
 30
0.0
 40
35.0
  1
200.00
  0
POINT
  5
BB
  8
DEFPOINTS
  6
BYBLOCK
 62
     0
 10
11800.0
 20
805.0
 30
0.0
  0
POINT
  5
BC
  8
DEFPOINTS
  6
BYBLOCK
 62
     0
 10
12000.0
 20
1023.707822
 30
0.0
  0
POINT
  5
BD
  8
DEFPOINTS
  6
BYBLOCK
 62
     0
 10
12000.0
 20
1048.594074
 30
0.0
  0
ENDBLK
  5
BF
  8
0
  0
BLOCK
  8
0
  2
*D9
 70
     1
 10
0.0
 20
0.0
 30
0.0
  3
*D9
  1

  0
LINE
  5
90
  8
0
  6
BYBLOCK
 62
     9
 10
12010.0
 20
0.0
 30
0.0
 11
12390.05119
 21
0.0
 31
0.0
  0
LINE
  5
91
  8
0
  6
BYBLOCK
 62
     9
 10
12040.0
 20
470.0
 30
0.0
 11
12390.05119
 21
470.0
 31
0.0
  0
LINE
  5
92
  8
0
  6
BYBLOCK
 62
     9
 10
12389.05119
 20
20.0
 30
0.0
 11
12389.05119
 21
149.25
 31
0.0
  0
LINE
  5
93
  8
0
  6
BYBLOCK
 62
     9
 10
12389.05119
 20
450.0
 30
0.0
 11
12389.05119
 21
320.75
 31
0.0
  0
SOLID
  5
94
  8
0
  6
BYBLOCK
 62
     9
 10
12385.717857
 20
20.0
 30
0.0
 11
12392.384524
 21
20.0
 31
0.0
 12
12389.05119
 22
0.0
 32
0.0
 13
12389.05119
 23
0.0
 33
0.0
  0
SOLID
  5
95
  8
0
  6
BYBLOCK
 62
     9
 10
12385.717857
 20
450.0
 30
0.0
 11
12392.384524
 21
450.0
 31
0.0
 12
12389.05119
 22
470.0
 32
0.0
 13
12389.05119
 23
470.0
 33
0.0
  0
TEXT
  5
96
  8
0
  6
BYBLOCK
 62
    11
 10
12406.55119
 20
156.25
 30
0.0
 40
35.0
  1
470.00
 50
90.0
  0
POINT
  5
97
  8
DEFPOINTS
  6
BYBLOCK
 62
     0
 10
12000.0
 20
0.0
 30
0.0
  0
POINT
  5
98
  8
DEFPOINTS
  6
BYBLOCK
 62
     0
 10
12030.0
 20
470.0
 30
0.0
  0
POINT
  5
99
  8
DEFPOINTS
  6
BYBLOCK
 62
     0
 10
12389.05119
 20
470.0
 30
0.0
  0
ENDBLK
  5
9B
  8
0
  0
BLOCK
  8
0
  2
*D10
 70
     1
 10
0.0
 20
0.0
 30
0.0
  3
*D10
  1

  0
LINE
  5
FF
  8
0
  6
BYBLOCK
 62
     9
 10
11923.5
 20
990.0
 30
0.0
 11
11923.5
 21
920.641685
 31
0.0
  0
LINE
  5
100
  8
0
  6
BYBLOCK
 62
     9
 10
12076.5
 20
990.0
 30
0.0
 11
12076.5
 21
920.641685
 31
0.0
  0
LINE
  5
101
  8
0
  6
BYBLOCK
 62
     9
 10
11943.5
 20
921.641685
 30
0.0
 11
12056.5
 21
921.641685
 31
0.0
  0
TEXT
  5
102
  8
0
  6
BYBLOCK
 62
    11
 10
11924.166667
 20
904.141685
 30
0.0
 40
35.0
  1
153.00
  0
SOLID
  5
103
  8
0
  6
BYBLOCK
 62
     9
 10
11943.5
 20
924.975019
 30
0.0
 11
11943.5
 21
918.308352
 31
0.0
 12
11923.5
 22
921.641685
 32
0.0
 13
11923.5
 23
921.641685
 33
0.0
  0
SOLID
  5
104
  8
0
  6
BYBLOCK
 62
     9
 10
12056.5
 20
924.975019
 30
0.0
 11
12056.5
 21
918.308352
 31
0.0
 12
12076.5
 22
921.641685
 32
0.0
 13
12076.5
 23
921.641685
 33
0.0
  0
POINT
  5
105
  8
DEFPOINTS
  6
BYBLOCK
 62
     0
 10
11923.5
 20
1000.0
 30
0.0
  0
POINT
  5
106
  8
DEFPOINTS
  6
BYBLOCK
 62
     0
 10
12076.5
 20
1000.0
 30
0.0
  0
POINT
  5
107
  8
DEFPOINTS
  6
BYBLOCK
 62
     0
 10
12076.5
 20
921.641685
 30
0.0
  0
ENDBLK
  5
109
  8
0
  0
BLOCK
  8
0
  2
*D11
 70
     1
 10
0.0
 20
0.0
 30
0.0
  3
*D11
  1

  0
LINE
  5
A6
  8
0
  6
BYBLOCK
 62
     9
 10
12000.0
 20
1023.441665
 30
0.0
 11
12000.0
 21
1049.594074
 31
0.0
  0
LINE
  5
A7
  8
0
  6
BYBLOCK
 62
     9
 10
12200.0
 20
815.0
 30
0.0
 11
12200.0
 21
1049.594074
 31
0.0
  0
LINE
  5
A8
  8
0
  6
BYBLOCK
 62
     9
 10
11980.0
 20
1048.594074
 30
0.0
 11
11960.0
 21
1048.594074
 31
0.0
  0
LINE
  5
A9
  8
0
  6
BYBLOCK
 62
     9
 10
12220.0
 20
1048.594074
 30
0.0
 11
12240.0
 21
1048.594074
 31
0.0
  0
SOLID
  5
AA
  8
0
  6
BYBLOCK
 62
     9
 10
11980.0
 20
1051.927407
 30
0.0
 11
11980.0
 21
1045.26074
 31
0.0
 12
12000.0
 22
1048.594074
 32
0.0
 13
12000.0
 23
1048.594074
 33
0.0
  0
SOLID
  5
AB
  8
0
  6
BYBLOCK
 62
     9
 10
12220.0
 20
1051.927407
 30
0.0
 11
12220.0
 21
1045.26074
 31
0.0
 12
12200.0
 22
1048.594074
 32
0.0
 13
12200.0
 23
1048.594074
 33
0.0
  0
TEXT
  5
AC
  8
0
  6
BYBLOCK
 62
    11
 10
12024.166667
 20
1031.094074
 30
0.0
 40
35.0
  1
200.00
  0
POINT
  5
AD
  8
DEFPOINTS
  6
BYBLOCK
 62
     0
 10
12000.0
 20
1013.441665
 30
0.0
  0
POINT
  5
AE
  8
DEFPOINTS
  6
BYBLOCK
 62
     0
 10
12200.0
 20
805.0
 30
0.0
  0
POINT
  5
AF
  8
DEFPOINTS
  6
BYBLOCK
 62
     0
 10
12200.0
 20
1048.594074
 30
0.0
  0
ENDBLK
  5
B1
  8
0
  0
BLOCK
  8
0
  2
*D12
 70
     1
 10
0.0
 20
0.0
 30
0.0
  3
*D12
  1

  0
LINE
  5
F1
  8
0
  6
BYBLOCK
 62
     9
 10
11700.0
 20
860.0
 30
0.0
 11
11700.0
 21
1095.334359
 31
0.0
  0
LINE
  5
F2
  8
0
  6
BYBLOCK
 62
     9
 10
12300.0
 20
860.0
 30
0.0
 11
12300.0
 21
1095.334359
 31
0.0
  0
LINE
  5
F3
  8
0
  6
BYBLOCK
 62
     9
 10
11720.0
 20
1094.334359
 30
0.0
 11
11917.166667
 21
1094.334359
 31
0.0
  0
LINE
  5
F4
  8
0
  6
BYBLOCK
 62
     9
 10
12280.0
 20
1094.334359
 30
0.0
 11
12082.833333
 21
1094.334359
 31
0.0
  0
SOLID
  5
F5
  8
0
  6
BYBLOCK
 62
     9
 10
11720.0
 20
1097.667692
 30
0.0
 11
11720.0
 21
1091.001026
 31
0.0
 12
11700.0
 22
1094.334359
 32
0.0
 13
11700.0
 23
1094.334359
 33
0.0
  0
SOLID
  5
F6
  8
0
  6
BYBLOCK
 62
     9
 10
12280.0
 20
1097.667692
 30
0.0
 11
12280.0
 21
1091.001026
 31
0.0
 12
12300.0
 22
1094.334359
 32
0.0
 13
12300.0
 23
1094.334359
 33
0.0
  0
TEXT
  5
F7
  8
0
  6
BYBLOCK
 62
    11
 10
11924.166667
 20
1076.834359
 30
0.0
 40
35.0
  1
600.00
  0
POINT
  5
F8
  8
DEFPOINTS
  6
BYBLOCK
 62
     0
 10
11700.0
 20
850.0
 30
0.0
  0
POINT
  5
F9
  8
DEFPOINTS
  6
BYBLOCK
 62
     0
 10
12300.0
 20
850.0
 30
0.0
  0
POINT
  5
FA
  8
DEFPOINTS
  6
BYBLOCK
 62
     0
 10
12300.0
 20
1094.334359
 30
0.0
  0
ENDBLK
  5
FC
  8
0
  0
BLOCK
  8
0
  2
*D13
 70
     1
 10
0.0
 20
0.0
 30
0.0
  3
*D13
  1

  0
LINE
  5
22
  8
0
  6
BYBLOCK
 62
     9
 10
12075.262521
 20
615.0
 30
0.0
 11
12390.05119
 21
615.0
 31
0.0
  0
LINE
  5
23
  8
0
  6
BYBLOCK
 62
     9
 10
12040.0
 20
550.0
 30
0.0
 11
12390.05119
 21
550.0
 31
0.0
  0
LINE
  5
24
  8
0
  6
BYBLOCK
 62
     9
 10
12389.05119
 20
595.0
 30
0.0
 11
12389.05119
 21
570.0
 31
0.0
  0
TEXT
  5
25
  8
0
  6
BYBLOCK
 62
    11
 10
12406.55119
 20
460.936989
 30
0.0
 40
35.0
  1
65.00
 50
90.0
  0
SOLID
  5
26
  8
0
  6
BYBLOCK
 62
     9
 10
12385.717857
 20
595.0
 30
0.0
 11
12392.384524
 21
595.0
 31
0.0
 12
12389.05119
 22
615.0
 32
0.0
 13
12389.05119
 23
615.0
 33
0.0
  0
SOLID
  5
27
  8
0
  6
BYBLOCK
 62
     9
 10
12385.717857
 20
570.0
 30
0.0
 11
12392.384524
 21
570.0
 31
0.0
 12
12389.05119
 22
550.0
 32
0.0
 13
12389.05119
 23
550.0
 33
0.0
  0
POINT
  5
28
  8
DEFPOINTS
  6
BYBLOCK
 62
     0
 10
12065.262521
 20
615.0
 30
0.0
  0
POINT
  5
2A
  8
DEFPOINTS
  6
BYBLOCK
 62
     0
 10
12030.0
 20
550.0
 30
0.0
  0
POINT
  5
2B
  8
DEFPOINTS
  6
BYBLOCK
 62
     0
 10
12389.05119
 20
550.0
 30
0.0
  0
ENDBLK
  5
2D
  8
0
  0
ENDSEC
  0
SECTION
  2
ENTITIES
  0
DIMENSION
  5
20
  8
TEAM-MAS
  2
*D13
 10
389.05119
 20
550.0
 30
0.0
 11
389.05119
 21
525.103656
 31
0.0
 12
-12000.0
 22
0.0
 32
0.0
 70
   128
 13
65.262521
 23
615.0
 33
0.0
 14
30.0
 24
550.0
 34
0.0
 50
90.0
1001
ACAD
1000
DSTYLE
1002
{
1070
    40
1040
1.0
1002
}
  0
CIRCLE
  5
2E
  8
TEAM-KAN
 10
0.0
 20
470.0
 30
0.0
 40
20.0
  0
LINE
  5
30
  8
TEAM-BODY
 10
21.0
 20
525.0
 30
0.0
 11
21.0
 21
375.0
 31
0.0
  0
LINE
  5
32
  8
TEAM-BODY
 10
-21.0
 20
525.0
 30
0.0
 11
-21.0
 21
375.0
 31
0.0
  0
LINE
  5
33
  8
TEAM-AXE
 10
0.0
 20
1023.707822
 30
0.0
 11
0.0
 21
375.0
 31
0.0
  0
DIMENSION
  5
36
  8
TEAM-MAS
  2
*D5
 10
433.052717
 20
470.0
 30
0.0
 11
433.052717
 21
660.0
 31
0.0
 12
-12000.0
 22
0.0
 32
0.0
 70
   128
 13
300.0
 23
850.0
 33
0.0
 14
0.0
 24
470.0
 34
0.0
 50
90.0
  0
DIMENSION
  5
44
  8
TEAM-MAS
  2
*D4
 10
480.253656
 20
850.0
 30
0.0
 11
480.253656
 21
395.0
 31
0.0
 12
-12000.0
 22
0.0
 32
0.0
 70
   128
 13
0.0
 23
0.0
 33
0.0
 14
300.0
 24
850.0
 34
0.0
 50
90.0
  0
DIMENSION
  5
52
  8
TEAM-MAS
  2
*D3
 10
569.857121
 20
1000.0
 30
0.0
 11
569.857121
 21
470.0
 31
0.0
 12
-12000.0
 22
0.0
 32
0.0
 70
   128
 13
0.0
 23
0.0
 33
0.0
 14
76.5
 24
1000.0
 34
0.0
 50
90.0
  0
DIMENSION
  5
60
  8
TEAM-MAS
  2
*D1
 10
524.255183
 20
850.0
 30
0.0
 11
524.255183
 21
395.0
 31
0.0
 12
-12000.0
 22
0.0
 32
0.0
 70
   128
  1
650-850
 13
0.0
 23
0.0
 33
0.0
 14
300.0
 24
850.0
 34
0.0
 50
90.0
  0
DIMENSION
  5
6E
  8
TEAM-MAS
  2
*D0
 10
617.05806
 20
1000.0
 30
0.0
 11
617.05806
 21
470.0
 31
0.0
 12
-12000.0
 22
0.0
 32
0.0
 70
   128
  1
1050-1200
 13
0.0
 23
0.0
 33
0.0
 14
76.5
 24
1000.0
 34
0.0
 50
90.0
  0
DIMENSION
  5
7C
  8
TEAM-MAS
  2
*D2
 10
433.052717
 20
470.0
 30
0.0
 11
433.052717
 21
235.0
 31
0.0
 12
-12000.0
 22
0.0
 32
0.0
  1
310-510
 13
0.0
 23
0.0
 33
0.0
 14
30.0
 24
470.0
 34
0.0
 50
90.0
  0
LINE
  5
8A
  8
TEAM-AXE
 10
-30.0
 20
470.0
 30
0.0
 11
30.0
 21
470.0
 31
0.0
  0
LINE
  5
8B
  8
TEAM-BODY
 10
-21.0
 20
375.0
 30
0.0
 11
21.0
 21
375.0
 31
0.0
  0
CIRCLE
  5
8C
  8
TEAM-INSP
 10
0.0
 20
0.0
 30
0.0
 40
10.0
  0
DIMENSION
  5
8E
  8
TEAM-MAS
  2
*D9
 10
389.05119
 20
470.0
 30
0.0
 11
389.05119
 21
235.0
 31
0.0
 12
-12000.0
 22
0.0
 32
0.0
 13
0.0
 23
0.0
 33
0.0
 14
30.0
 24
470.0
 34
0.0
 50
90.0
  0
ARC
  5
9C
  8
TEAM-HIDE
 10
265.0
 20
690.0
 30
0.0
 40
10.0
 50
270.0
 51
0.0
  0
LINE
  5
9F
  8
TEAM-HIDE
 10
275.0
 20
690.0
 30
0.0
 11
275.0
 21
850.0
 31
0.0
  0
LINE
  5
A0
  8
TEAM-HIDE
 10
-265.0
 20
680.0
 30
0.0
 11
265.0
 21
680.0
 31
0.0
  0
ARC
  5
A1
  8
TEAM-HIDE
 10
-265.0
 20
690.0
 30
0.0
 40
10.0
 50
180.0
 51
270.0
  0
LINE
  5
A2
  8
TEAM-HIDE
 10
-275.0
 20
850.0
 30
0.0
 11
-275.0
 21
690.0
 31
0.0
  0
ARC
  5
A3
  8
TEAM-BODY
 10
-270.0
 20
685.0
 30
0.0
 40
30.0
 50
180.0
 51
270.0
  0
DIMENSION
  5
A4
  8
TEAM-MAS
  2
*D11
 10
200.0
 20
1048.594074
 30
0.0
 11
100.0
 21
1048.594074
 31
0.0
 12
-12000.0
 22
0.0
 32
0.0
 13
0.0
 23
1013.441665
 33
0.0
 14
200.0
 24
805.0
 34
0.0
  0
DIMENSION
  5
B2
  8
TEAM-MAS
  2
*D8
 10
0.0
 20
1048.594074
 30
0.0
 11
-100.0
 21
1048.594074
 31
0.0
 12
-12000.0
 22
0.0
 32
0.0
 13
-200.0
 23
805.0
 33
0.0
 14
0.0
 24
1023.707822
 34
0.0
  0
DIMENSION
  5
C0
  8
TEAM-MAS
  2
*D7
 10
389.05119
 20
615.0
 30
0.0
 11
389.05119
 21
732.5
 31
0.0
 12
-12000.0
 22
0.0
 32
0.0
 13
300.0
 23
850.0
 33
0.0
 14
65.262521
 24
615.0
 34
0.0
 50
90.0
  0
POLYLINE
  5
CE
  8
TEAM-BODY
 66
     1
 10
0.0
 20
0.0
 30
0.0
 70
     1
  0
VERTEX
  5
171
  8
TEAM-BODY
 10
-62.258141
 20
615.0
 30
0.0
  0
VERTEX
  5
172
  8
TEAM-BODY
 10
65.262521
 20
615.0
 30
0.0
  0
VERTEX
  5
173
  8
TEAM-BODY
 10
65.262521
 20
655.0
 30
0.0
  0
VERTEX
  5
174
  8
TEAM-BODY
 10
-62.258141
 20
655.0
 30
0.0
  0
SEQEND
  5
175
  8
TEAM-BODY
  0
POLYLINE
  5
CF
  8
TEAM-BODY
 66
     1
 10
0.0
 20
0.0
 30
0.0
 70
     1
  0
VERTEX
  5
176
  8
TEAM-BODY
 10
45.146608
 20
615.0
 30
0.0
  0
VERTEX
  5
177
  8
TEAM-BODY
 10
-45.146608
 20
615.0
 30
0.0
  0
VERTEX
  5
178
  8
TEAM-BODY
 10
-45.146608
 20
591.683481
 30
0.0
  0
VERTEX
  5
179
  8
TEAM-BODY
 10
45.146608
 20
591.683481
 30
0.0
  0
SEQEND
  5
17A
  8
TEAM-BODY
  0
LINE
  5
D0
  8
TEAM-BODY
 10
0.0
 20
550.0
 30
0.0
 11
30.0
 21
550.0
 31
0.0
  0
LINE
  5
D1
  8
TEAM-BODY
 10
30.0
 20
550.0
 30
0.0
 11
30.0
 21
591.683481
 31
0.0
  0
LINE
  5
D2
  8
TEAM-BODY
 10
0.0
 20
550.0
 30
0.0
 11
-30.0
 21
550.0
 31
0.0
  0
LINE
  5
D3
  8
TEAM-BODY
 10
-30.0
 20
550.0
 30
0.0
 11
-30.0
 21
591.683481
 31
0.0
  0
TEXT
  5
D4
  8
TEAM-TXT
 10
6.921532
 20
696.888189
 30
0.0
 40
30.0
  1
team 415004
 41
0.8
 51
15.0
  7
TEAM
  0
ARC
  5
D7
  8
TEAM-BODY
 10
270.0
 20
685.0
 30
0.0
 40
30.0
 50
270.0
 51
0.0
  0
LINE
  5
D8
  8
TEAM-BODY
 10
-270.0
 20
655.0
 30
0.0
 11
270.0
 21
655.0
 31
0.0
  0
LINE
  5
D9
  8
TEAM-BODY
 10
300.0
 20
685.0
 30
0.0
 11
300.0
 21
850.0
 31
0.0
  0
LINE
  5
DA
  8
TEAM-BODY
 10
-300.0
 20
850.0
 30
0.0
 11
-300.0
 21
685.0
 31
0.0
  0
LINE
  5
DB
  8
TEAM-KAN
 10
0.0
 20
525.0
 30
0.0
 11
0.0
 21
615.0
 31
0.0
  0
LINE
  5
DC
  8
TEAM-BODY
 10
300.0
 20
850.0
 30
0.0
 11
-300.0
 21
850.0
 31
0.0
  0
LINE
  5
DD
  8
TEAM-AXE
 10
56.5
 20
1000.0
 30
0.0
 11
96.5
 21
1000.0
 31
0.0
  0
LINE
  5
DE
  8
TEAM-AXE
 10
-190.0
 20
795.0
 30
0.0
 11
-210.0
 21
795.0
 31
0.0
  0
LINE
  5
DF
  8
TEAM-AXE
 10
10.0
 20
795.0
 30
0.0
 11
-10.0
 21
795.0
 31
0.0
  0
CIRCLE
  5
E0
  8
TEAM-WARM
 10
-76.5
 20
1000.0
 30
0.0
 40
15.0
  0
LINE
  5
E2
  8
TEAM-AXE
 10
-96.5
 20
1000.0
 30
0.0
 11
-56.5
 21
1000.0
 31
0.0
  0
LINE
  5
E3
  8
TEAM-AXE
 10
-76.5
 20
980.0
 30
0.0
 11
-76.5
 21
1020.0
 31
0.0
  0
LINE
  5
E4
  8
TEAM-BODY
 10
-21.0
 20
525.0
 30
0.0
 11
21.0
 21
525.0
 31
0.0
  0
LINE
  5
E5
  8
TEAM-AXE
 10
-200.0
 20
805.0
 30
0.0
 11
-200.0
 21
785.0
 31
0.0
  0
CIRCLE
  5
E6
  8
TEAM-HIDE
 10
-200.0
 20
795.0
 30
0.0
 40
5.0
  0
CIRCLE
  5
E7
  8
TEAM-HIDE
 10
0.0
 20
795.0
 30
0.0
 40
5.0
  0
LINE
  5
E8
  8
TEAM-AXE
 10
0.0
 20
805.0
 30
0.0
 11
0.0
 21
785.0
 31
0.0
  0
LINE
  5
E9
  8
TEAM-AXE
 10
210.0
 20
795.0
 30
0.0
 11
190.0
 21
795.0
 31
0.0
  0
CIRCLE
  5
EA
  8
TEAM-COLD
 10
76.5
 20
1000.0
 30
0.0
 40
15.0
  0
LINE
  5
EC
  8
TEAM-AXE
 10
76.5
 20
980.0
 30
0.0
 11
76.5
 21
1020.0
 31
0.0
  0
LINE
  5
ED
  8
TEAM-AXE
 10
200.0
 20
805.0
 30
0.0
 11
200.0
 21
785.0
 31
0.0
  0
CIRCLE
  5
EE
  8
TEAM-HIDE
 10
200.0
 20
795.0
 30
0.0
 40
5.0
  0
DIMENSION
  5
EF
  8
TEAM-MAS
  2
*D12
 10
300.0
 20
1094.334359
 30
0.0
 11
0.0
 21
1094.334359
 31
0.0
 12
-12000.0
 22
0.0
 32
0.0
 13
-300.0
 23
850.0
 33
0.0
 14
300.0
 24
850.0
 34
0.0
  0
DIMENSION
  5
FD
  8
TEAM-MAS
  2
*D10
 10
76.5
 20
921.641685
 30
0.0
 11
0.0
 21
921.641685
 31
0.0
 12
-12000.0
 22
0.0
 32
0.0
 70
   128
 13
-76.5
 23
1000.0
 33
0.0
 14
76.5
 24
1000.0
 34
0.0
  0
DIMENSION
  5
10A
  8
TEAM-MAS
  2
*D6
 10
343.450662
 20
795.0
 30
0.0
 11
343.450662
 21
745.733333
 31
0.0
 12
-12000.0
 22
0.0
 32
0.0
 70
   128
 13
295.472342
 23
850.0
 33
0.0
 14
205.710615
 24
795.0
 34
0.0
 50
90.0
  0
ENDSEC
  0
EOF
