  0
SECTION
  2
HEADER
  9
$ACADVER
  1
AC1009
  9
$INSBASE
 10
0.0
 20
0.0
 30
0.0
  9
$EXTMIN
 10
-500.004076
 20
-380.713862
 30
0.0
  9
$EXTMAX
 10
597.76959
 20
95.121123
 30
0.000005
  9
$LIMMIN
 10
-500.004076
 20
-380.713862
  9
$LIMMAX
 10
597.76959
 20
95.121123
  9
$ORTHOMODE
 70
     1
  9
$REGENMODE
 70
     1
  9
$FILLMODE
 70
     1
  9
$QTEXTMODE
 70
     0
  9
$MIRRTEXT
 70
     0
  9
$DRAGMODE
 70
     2
  9
$LTSCALE
 40
50.0
  9
$OSMODE
 70
     0
  9
$ATTMODE
 70
     1
  9
$TEXTSIZE
 40
200.0
  9
$TRACEWID
 40
1.0
  9
$TEXTSTYLE
  7
STANDARD
  9
$CLAYER
  8
TEAM-MAS
  9
$CELTYPE
  6
BYLAYER
  9
$CECOLOR
 62
   256
  9
$DIMSCALE
 40
0.0
  9
$DIMASZ
 40
20.0
  9
$DIMEXO
 40
10.0
  9
$DIMDLI
 40
1.0
  9
$DIMRND
 40
0.0
  9
$DIMDLE
 40
0.0
  9
$DIMEXE
 40
1.0
  9
$DIMTP
 40
0.0
  9
$DIMTM
 40
0.0
  9
$DIMTXT
 40
35.0
  9
$DIMCEN
 40
1.0
  9
$DIMTSZ
 40
0.0
  9
$DIMTOL
 70
     0
  9
$DIMLIM
 70
     0
  9
$DIMTIH
 70
     0
  9
$DIMTOH
 70
     0
  9
$DIMSE1
 70
     0
  9
$DIMSE2
 70
     0
  9
$DIMTAD
 70
     0
  9
$DIMZIN
 70
     0
  9
$DIMBLK
  1

  9
$DIMASO
 70
     1
  9
$DIMSHO
 70
     0
  9
$DIMPOST
  1

  9
$DIMAPOST
  1

  9
$DIMALT
 70
     0
  9
$DIMALTD
 70
     2
  9
$DIMALTF
 40
25.4
  9
$DIMLFAC
 40
1.0
  9
$DIMTOFL
 70
     0
  9
$DIMTVP
 40
0.0
  9
$DIMTIX
 70
     0
  9
$DIMSOXD
 70
     0
  9
$DIMSAH
 70
     0
  9
$DIMBLK1
  1

  9
$DIMBLK2
  1

  9
$DIMSTYLE
  2
TEAM
  9
$DIMCLRD
 70
     9
  9
$DIMCLRE
 70
     9
  9
$DIMCLRT
 70
    11
  9
$DIMTFAC
 40
1.0
  9
$DIMGAP
 40
7.0
  9
$LUNITS
 70
     2
  9
$LUPREC
 70
     1
  9
$SKETCHINC
 40
1.0
  9
$FILLETRAD
 40
50.0
  9
$AUNITS
 70
     0
  9
$AUPREC
 70
     0
  9
$MENU
  1
ROPLANS
  9
$ELEVATION
 40
0.0
  9
$PELEVATION
 40
0.0
  9
$THICKNESS
 40
0.0
  9
$LIMCHECK
 70
     0
  9
$BLIPMODE
 70
     1
  9
$CHAMFERA
 40
0.0
  9
$CHAMFERB
 40
0.0
  9
$SKPOLY
 70
     0
  9
$TDCREATE
 40
2450392.957851
  9
$TDUPDATE
 40
2456272.033233
  9
$TDINDWG
 40
2.315654
  9
$TDUSRTIMER
 40
2.315654
  9
$USRTIMER
 70
     1
  9
$ANGBASE
 50
0.0
  9
$ANGDIR
 70
     0
  9
$PDMODE
 70
     0
  9
$PDSIZE
 40
0.0
  9
$PLINEWID
 40
0.0
  9
$COORDS
 70
     2
  9
$SPLFRAME
 70
     0
  9
$SPLINETYPE
 70
     6
  9
$SPLINESEGS
 70
     8
  9
$ATTDIA
 70
     0
  9
$ATTREQ
 70
     0
  9
$HANDLING
 70
     1
  9
$HANDSEED
  5
E8
  9
$SURFTAB1
 70
    24
  9
$SURFTAB2
 70
    24
  9
$SURFTYPE
 70
     6
  9
$SURFU
 70
     6
  9
$SURFV
 70
     6
  9
$UCSNAME
  2

  9
$UCSORG
 10
0.0
 20
0.0
 30
0.0
  9
$UCSXDIR
 10
1.0
 20
0.0
 30
0.0
  9
$UCSYDIR
 10
0.0
 20
1.0
 30
0.0
  9
$PUCSNAME
  2

  9
$PUCSORG
 10
0.0
 20
0.0
 30
0.0
  9
$PUCSXDIR
 10
1.0
 20
0.0
 30
0.0
  9
$PUCSYDIR
 10
0.0
 20
1.0
 30
0.0
  9
$USERI1
 70
     0
  9
$USERI2
 70
     0
  9
$USERI3
 70
     0
  9
$USERI4
 70
     0
  9
$USERI5
 70
     0
  9
$USERR1
 40
0.0
  9
$USERR2
 40
0.0
  9
$USERR3
 40
0.0
  9
$USERR4
 40
0.0
  9
$USERR5
 40
0.0
  9
$WORLDVIEW
 70
     1
  9
$SHADEDGE
 70
     0
  9
$SHADEDIF
 70
    70
  9
$TILEMODE
 70
     1
  9
$MAXACTVP
 70
    16
  9
$PLIMCHECK
 70
     0
  9
$PEXTMIN
 10
-0.805942
 20
0.005011
 30
0.0
  9
$PEXTMAX
 10
20.250094
 20
11.356329
 30
0.0
  9
$PLIMMIN
 10
0.0
 20
0.0
  9
$PLIMMAX
 10
12.0
 20
9.0
  9
$UNITMODE
 70
     0
  9
$VISRETAIN
 70
     0
  9
$PLINEGEN
 70
     0
  9
$PSLTSCALE
 70
     0
  0
ENDSEC
  0
SECTION
  2
TABLES
  0
TABLE
  2
VPORT
 70
     2
  0
VPORT
  2
*ACTIVE
 70
     0
 10
0.0
 20
0.0
 11
1.0
 21
1.0
 12
48.882757
 22
-142.79637
 13
0.0
 23
0.0
 14
1.0
 24
1.0
 15
50.0
 25
50.0
 16
0.0
 26
0.0
 36
1.0
 17
0.0
 27
0.0
 37
0.0
 40
576.111118
 41
1.911765
 42
50.0
 43
0.0
 44
0.0
 50
0.0
 51
0.0
 71
     0
 72
   100
 73
     1
 74
     1
 75
     0
 76
     0
 77
     0
 78
     0
  0
ENDTAB
  0
TABLE
  2
LTYPE
 70
     2
  0
LTYPE
  2
CONTINUOUS
 70
     0
  3
Solid Line
 72
    65
 73
     0
 40
0.0
  0
LTYPE
  2
31
 70
     0
  3

 72
    65
 73
     4
 40
2.1
 49
1.5
 49
-0.3
 49
0.0
 49
-0.3
  0
ENDTAB
  0
TABLE
  2
LAYER
 70
    10
  0
LAYER
  2
0
 70
     0
 62
     7
  6
CONTINUOUS
  0
LAYER
  2
DEFPOINTS
 70
     0
 62
     7
  6
CONTINUOUS
  0
LAYER
  2
TEAM-BODY
 70
     0
 62
     2
  6
CONTINUOUS
  0
LAYER
  2
TEAM-AXE
 70
     0
 62
    10
  6
31
  0
LAYER
  2
TEAM-MAS
 70
     0
 62
     9
  6
CONTINUOUS
  0
LAYER
  2
TEAM-TXT
 70
     0
 62
    11
  6
CONTINUOUS
  0
LAYER
  2
TEAM-DET1
 70
     0
 62
     4
  6
CONTINUOUS
  0
LAYER
  2
TEAM-COLD
 70
     0
 62
     3
  6
CONTINUOUS
  0
LAYER
  2
TEAM-WARM
 70
     0
 62
     1
  6
CONTINUOUS
  0
LAYER
  2
TEAM-INSP
 70
     0
 62
     5
  6
CONTINUOUS
  0
ENDTAB
  0
TABLE
  2
STYLE
 70
     2
  0
STYLE
  2
STANDARD
 70
     0
 40
0.0
 41
1.0
 50
0.0
 71
     0
 42
200.0
  3
txt
  4

  0
STYLE
  2
TEAM
 70
     0
 40
0.0
 41
0.8
 50
15.0
 71
     0
 42
7.0
  3
ROMANS.shx
  4

  0
ENDTAB
  0
TABLE
  2
VIEW
 70
     0
  0
ENDTAB
  0
TABLE
  2
UCS
 70
     0
  0
ENDTAB
  0
TABLE
  2
APPID
 70
     1
  0
APPID
  2
ACAD
 70
     0
  0
ENDTAB
  0
TABLE
  2
DIMSTYLE
 70
     1
  0
DIMSTYLE
  2
TEAM
 70
     0
  3

  4

  5

  6

  7

 40
0.0
 41
20.0
 42
10.0
 43
1.0
 44
1.0
 45
0.0
 46
0.0
 47
0.0
 48
0.0
140
35.0
141
1.0
142
0.0
143
25.4
144
1.0
145
0.0
146
1.0
147
7.0
 71
     0
 72
     0
 73
     0
 74
     0
 75
     0
 76
     0
 77
     0
 78
     0
170
     0
171
     2
172
     0
173
     0
174
     0
175
     0
176
     9
177
     9
178
    11
  0
ENDTAB
  0
ENDSEC
  0
SECTION
  2
BLOCKS
  0
BLOCK
  8
0
  2
$MODEL_SPACE
 70
     0
 10
0.0
 20
0.0
 30
0.0
  3
$MODEL_SPACE
  1

  0
ENDBLK
  5
E1
  8
0
  0
BLOCK
 67
     1
  8
0
  2
$PAPER_SPACE
 70
     0
 10
0.0
 20
0.0
 30
0.0
  3
$PAPER_SPACE
  1

  0
ENDBLK
  5
DF
 67
     1
  8
0
  0
BLOCK
  8
0
  2
*D0
 70
     1
 10
0.0
 20
0.0
 30
0.0
  3
*D0
  1

  0
LINE
  5
9C
  8
0
  6
BYBLOCK
 62
     9
 10
12510.0
 20
79620.0
 30
0.0
 11
12581.202389
 21
79620.0
 31
0.0
  0
LINE
  5
9D
  8
0
  6
BYBLOCK
 62
     9
 10
12510.0
 20
80000.0
 30
0.0
 11
12581.202389
 21
80000.0
 31
0.0
  0
LINE
  5
9E
  8
0
  6
BYBLOCK
 62
     9
 10
12580.202389
 20
79640.0
 30
0.0
 11
12580.202389
 21
79759.25
 31
0.0
  0
LINE
  5
9F
  8
0
  6
BYBLOCK
 62
     9
 10
12580.202389
 20
79980.0
 30
0.0
 11
12580.202389
 21
79860.75
 31
0.0
  0
SOLID
  5
A0
  8
0
  6
BYBLOCK
 62
     9
 10
12576.869055
 20
79640.0
 30
0.0
 11
12583.535722
 21
79640.0
 31
0.0
 12
12580.202389
 22
79620.0
 32
0.0
 13
12580.202389
 23
79620.0
 33
0.0
  0
SOLID
  5
A1
  8
0
  6
BYBLOCK
 62
     9
 10
12576.869055
 20
79980.0
 30
0.0
 11
12583.535722
 21
79980.0
 31
0.0
 12
12580.202389
 22
80000.0
 32
0.0
 13
12580.202389
 23
80000.0
 33
0.0
  0
TEXT
  5
A2
  8
0
  6
BYBLOCK
 62
    11
 10
12597.702389
 20
79766.25
 30
0.0
 40
35.0
  1
380
 50
90.0
  0
POINT
  5
A3
  8
DEFPOINTS
  6
BYBLOCK
 62
     0
 10
12500.0
 20
79620.0
 30
0.0
  0
POINT
  5
A4
  8
DEFPOINTS
  6
BYBLOCK
 62
     0
 10
12500.0
 20
80000.0
 30
0.0
  0
POINT
  5
A5
  8
DEFPOINTS
  6
BYBLOCK
 62
     0
 10
12580.202389
 20
80000.0
 30
0.0
  0
ENDBLK
  5
A7
  8
0
  0
BLOCK
  8
0
  2
*D1
 70
     1
 10
0.0
 20
0.0
 30
0.0
  3
*D1
  1

  0
LINE
  5
55
  8
0
  6
BYBLOCK
 62
     9
 10
12173.5
 20
79990.0
 30
0.0
 11
12173.5
 21
79903.681634
 31
0.0
  0
LINE
  5
56
  8
0
  6
BYBLOCK
 62
     9
 10
12326.5
 20
79990.0
 30
0.0
 11
12326.5
 21
79903.681634
 31
0.0
  0
LINE
  5
57
  8
0
  6
BYBLOCK
 62
     9
 10
12193.5
 20
79904.681634
 30
0.0
 11
12202.166667
 21
79904.681634
 31
0.0
  0
LINE
  5
58
  8
0
  6
BYBLOCK
 62
     9
 10
12306.5
 20
79904.681634
 30
0.0
 11
12297.833333
 21
79904.681634
 31
0.0
  0
SOLID
  5
59
  8
0
  6
BYBLOCK
 62
     9
 10
12193.5
 20
79908.014968
 30
0.0
 11
12193.5
 21
79901.348301
 31
0.0
 12
12173.5
 22
79904.681634
 32
0.0
 13
12173.5
 23
79904.681634
 33
0.0
  0
SOLID
  5
5A
  8
0
  6
BYBLOCK
 62
     9
 10
12306.5
 20
79908.014968
 30
0.0
 11
12306.5
 21
79901.348301
 31
0.0
 12
12326.5
 22
79904.681634
 32
0.0
 13
12326.5
 23
79904.681634
 33
0.0
  0
TEXT
  5
5B
  8
0
  6
BYBLOCK
 62
    11
 10
12209.166667
 20
79887.181634
 30
0.0
 40
35.0
  1
153
  0
POINT
  5
5C
  8
DEFPOINTS
  6
BYBLOCK
 62
     0
 10
12173.5
 20
80000.0
 30
0.0
  0
POINT
  5
5D
  8
DEFPOINTS
  6
BYBLOCK
 62
     0
 10
12326.5
 20
80000.0
 30
0.0
  0
POINT
  5
5E
  8
DEFPOINTS
  6
BYBLOCK
 62
     0
 10
12326.5
 20
79904.681634
 30
0.0
  0
ENDBLK
  5
60
  8
0
  0
BLOCK
  8
0
  2
*D2
 70
     1
 10
0.0
 20
0.0
 30
0.0
  3
*D2
  1

  0
LINE
  5
8D
  8
0
  6
BYBLOCK
 62
     9
 10
12510.0
 20
79980.0
 30
0.0
 11
12536.475324
 21
79980.0
 31
0.0
  0
LINE
  5
8E
  8
0
  6
BYBLOCK
 62
     9
 10
12509.32302
 20
80000.0
 30
0.0
 11
12536.475324
 21
80000.0
 31
0.0
  0
LINE
  5
8F
  8
0
  6
BYBLOCK
 62
     9
 10
12535.475324
 20
79960.0
 30
0.0
 11
12535.475324
 21
79940.0
 31
0.0
  0
LINE
  5
90
  8
0
  6
BYBLOCK
 62
     9
 10
12535.475324
 20
80020.0
 30
0.0
 11
12535.475324
 21
80040.0
 31
0.0
  0
TEXT
  5
91
  8
0
  6
BYBLOCK
 62
    11
 10
12554.190323
 20
79889.316085
 30
0.0
 40
35.0
  1
20
 50
90.0
  0
LINE
  5
92
  8
0
  6
BYBLOCK
 62
     9
 10
12535.475324
 20
79980.0
 30
0.0
 11
12535.475324
 21
80000.0
 31
0.0
  0
SOLID
  5
93
  8
0
  6
BYBLOCK
 62
     9
 10
12532.14199
 20
79960.0
 30
0.0
 11
12538.808657
 21
79960.0
 31
0.0
 12
12535.475324
 22
79980.0
 32
0.0
 13
12535.475324
 23
79980.0
 33
0.0
  0
SOLID
  5
94
  8
0
  6
BYBLOCK
 62
     9
 10
12532.14199
 20
80020.0
 30
0.0
 11
12538.808657
 21
80020.0
 31
0.0
 12
12535.475324
 22
80000.0
 32
0.0
 13
12535.475324
 23
80000.0
 33
0.0
  0
POINT
  5
95
  8
DEFPOINTS
  6
BYBLOCK
 62
     0
 10
12500.0
 20
79980.0
 30
0.0
  0
POINT
  5
96
  8
DEFPOINTS
  6
BYBLOCK
 62
     0
 10
12499.32302
 20
80000.0
 30
0.0
  0
POINT
  5
97
  8
DEFPOINTS
  6
BYBLOCK
 62
     0
 10
12535.475324
 20
80000.0
 30
0.0
  0
ENDBLK
  5
99
  8
0
  0
BLOCK
  8
0
  2
*D3
 70
     1
 10
0.0
 20
0.0
 30
0.0
  3
*D3
  1

  0
LINE
  5
47
  8
0
  6
BYBLOCK
 62
     9
 10
11750.0
 20
80010.0
 30
0.0
 11
11750.0
 21
80033.793566
 31
0.0
  0
LINE
  5
48
  8
0
  6
BYBLOCK
 62
     9
 10
12250.0
 20
80010.0
 30
0.0
 11
12250.0
 21
80033.793566
 31
0.0
  0
LINE
  5
49
  8
0
  6
BYBLOCK
 62
     9
 10
11770.0
 20
80032.793566
 30
0.0
 11
11952.166667
 21
80032.793566
 31
0.0
  0
LINE
  5
4A
  8
0
  6
BYBLOCK
 62
     9
 10
12230.0
 20
80032.793566
 30
0.0
 11
12047.833333
 21
80032.793566
 31
0.0
  0
SOLID
  5
4B
  8
0
  6
BYBLOCK
 62
     9
 10
11770.0
 20
80036.126899
 30
0.0
 11
11770.0
 21
80029.460233
 31
0.0
 12
11750.0
 22
80032.793566
 32
0.0
 13
11750.0
 23
80032.793566
 33
0.0
  0
SOLID
  5
4C
  8
0
  6
BYBLOCK
 62
     9
 10
12230.0
 20
80036.126899
 30
0.0
 11
12230.0
 21
80029.460233
 31
0.0
 12
12250.0
 22
80032.793566
 32
0.0
 13
12250.0
 23
80032.793566
 33
0.0
  0
TEXT
  5
4D
  8
0
  6
BYBLOCK
 62
    11
 10
11959.166667
 20
80015.293566
 30
0.0
 40
35.0
  1
500
  0
POINT
  5
4E
  8
DEFPOINTS
  6
BYBLOCK
 62
     0
 10
11750.0
 20
80000.0
 30
0.0
  0
POINT
  5
4F
  8
DEFPOINTS
  6
BYBLOCK
 62
     0
 10
12250.0
 20
80000.0
 30
0.0
  0
POINT
  5
50
  8
DEFPOINTS
  6
BYBLOCK
 62
     0
 10
12250.0
 20
80032.793566
 30
0.0
  0
ENDBLK
  5
52
  8
0
  0
BLOCK
  8
0
  2
*D4
 70
     1
 10
0.0
 20
0.0
 30
0.0
  3
*D4
  1

  0
LINE
  5
39
  8
0
  6
BYBLOCK
 62
     9
 10
11673.5
 20
79990.0
 30
0.0
 11
11673.5
 21
79903.681634
 31
0.0
  0
LINE
  5
3A
  8
0
  6
BYBLOCK
 62
     9
 10
11826.5
 20
79990.0
 30
0.0
 11
11826.5
 21
79903.681634
 31
0.0
  0
LINE
  5
3B
  8
0
  6
BYBLOCK
 62
     9
 10
11693.5
 20
79904.681634
 30
0.0
 11
11702.166667
 21
79904.681634
 31
0.0
  0
LINE
  5
3C
  8
0
  6
BYBLOCK
 62
     9
 10
11806.5
 20
79904.681634
 30
0.0
 11
11797.833333
 21
79904.681634
 31
0.0
  0
SOLID
  5
3D
  8
0
  6
BYBLOCK
 62
     9
 10
11693.5
 20
79908.014968
 30
0.0
 11
11693.5
 21
79901.348301
 31
0.0
 12
11673.5
 22
79904.681634
 32
0.0
 13
11673.5
 23
79904.681634
 33
0.0
  0
SOLID
  5
3E
  8
0
  6
BYBLOCK
 62
     9
 10
11806.5
 20
79908.014968
 30
0.0
 11
11806.5
 21
79901.348301
 31
0.0
 12
11826.5
 22
79904.681634
 32
0.0
 13
11826.5
 23
79904.681634
 33
0.0
  0
TEXT
  5
3F
  8
0
  6
BYBLOCK
 62
    11
 10
11709.166667
 20
79887.181634
 30
0.0
 40
35.0
  1
153
  0
POINT
  5
40
  8
DEFPOINTS
  6
BYBLOCK
 62
     0
 10
11673.5
 20
80000.0
 30
0.0
  0
POINT
  5
41
  8
DEFPOINTS
  6
BYBLOCK
 62
     0
 10
11826.5
 20
80000.0
 30
0.0
  0
POINT
  5
42
  8
DEFPOINTS
  6
BYBLOCK
 62
     0
 10
11826.5
 20
79904.681634
 30
0.0
  0
ENDBLK
  5
44
  8
0
  0
BLOCK
  8
0
  2
*D5
 70
     1
 10
0.0
 20
0.0
 30
0.0
  3
*D5
  1

  0
LINE
  5
22
  8
0
  6
BYBLOCK
 62
     9
 10
11500.0
 20
80010.0
 30
0.0
 11
11500.0
 21
80078.596792
 31
0.0
  0
LINE
  5
23
  8
0
  6
BYBLOCK
 62
     9
 10
12500.0
 20
80010.0
 30
0.0
 11
12500.0
 21
80078.596792
 31
0.0
  0
LINE
  5
24
  8
0
  6
BYBLOCK
 62
     9
 10
11520.0
 20
80077.596792
 30
0.0
 11
11943.416667
 21
80077.596792
 31
0.0
  0
LINE
  5
25
  8
0
  6
BYBLOCK
 62
     9
 10
12480.0
 20
80077.596792
 30
0.0
 11
12056.583333
 21
80077.596792
 31
0.0
  0
SOLID
  5
26
  8
0
  6
BYBLOCK
 62
     9
 10
11520.0
 20
80080.930126
 30
0.0
 11
11520.0
 21
80074.263459
 31
0.0
 12
11500.0
 22
80077.596792
 32
0.0
 13
11500.0
 23
80077.596792
 33
0.0
  0
SOLID
  5
27
  8
0
  6
BYBLOCK
 62
     9
 10
12480.0
 20
80080.930126
 30
0.0
 11
12480.0
 21
80074.263459
 31
0.0
 12
12500.0
 22
80077.596792
 32
0.0
 13
12500.0
 23
80077.596792
 33
0.0
  0
TEXT
  5
28
  8
0
  6
BYBLOCK
 62
    11
 10
11950.416667
 20
80060.096792
 30
0.0
 40
35.0
  1
1000
  0
POINT
  5
29
  8
DEFPOINTS
  6
BYBLOCK
 62
     0
 10
11500.0
 20
80000.0
 30
0.0
  0
POINT
  5
2B
  8
DEFPOINTS
  6
BYBLOCK
 62
     0
 10
12500.0
 20
80000.0
 30
0.0
  0
POINT
  5
2C
  8
DEFPOINTS
  6
BYBLOCK
 62
     0
 10
12500.0
 20
80077.596792
 30
0.0
  0
ENDBLK
  5
2E
  8
0
  0
ENDSEC
  0
SECTION
  2
ENTITIES
  0
DIMENSION
  5
20
  8
TEAM-MAS
  2
*D5
 10
500.0
 20
77.596792
 30
0.0
 11
0.0
 21
77.596792
 31
0.0
 12
-12000.0
 22
-80000.0
 32
0.0
 13
-500.0
 23
0.0
 33
0.0
 14
500.0
 24
0.0
 34
0.0
  0
LINE
  5
2F
  8
TEAM-BODY
 10
500.0
 20
-20.0
 30
0.0
 11
-500.0
 21
-20.0
 31
0.0
  0
LINE
  5
31
  8
TEAM-BODY
 10
500.0
 20
0.0
 30
0.0
 11
-500.0
 21
0.0
 31
0.0
  0
LINE
  5
32
  8
TEAM-BODY
 10
500.0
 20
-380.0
 30
0.0
 11
-500.0
 21
-380.0
 31
0.0
  0
ARC
  5
33
  8
TEAM-BODY
 10
330.0
 20
-135.935335
 30
0.0
 40
100.0
 50
360.0
 51
90.0
  0
ARC
  5
34
  8
TEAM-BODY
 10
360.0
 20
-120.0
 30
0.0
 40
100.0
 50
0.0
 51
90.0
  0
ARC
  5
35
  8
TEAM-BODY
 10
360.0
 20
-260.0
 30
0.0
 40
70.0
 50
270.0
 51
0.0
  0
ARC
  5
36
  8
TEAM-BODY
 10
360.0
 20
-260.0
 30
0.0
 40
100.0
 50
270.0
 51
360.0
  0
DIMENSION
  5
37
  8
TEAM-MAS
  2
*D4
 10
-173.5
 20
-95.318366
 30
0.0
 11
-250.0
 21
-95.318366
 31
0.0
 12
-12000.0
 22
-80000.0
 32
0.0
 13
-326.5
 23
0.0
 33
0.0
 14
-173.5
 24
0.0
 34
0.0
  0
DIMENSION
  5
45
  8
TEAM-MAS
  2
*D3
 10
250.0
 20
32.793566
 30
0.0
 11
0.0
 21
32.793566
 31
0.0
 12
-12000.0
 22
-80000.0
 32
0.0
 13
-250.0
 23
0.0
 33
0.0
 14
250.0
 24
0.0
 34
0.0
  0
DIMENSION
  5
53
  8
TEAM-MAS
  2
*D1
 10
326.5
 20
-95.318366
 30
0.0
 11
250.0
 21
-95.318366
 31
0.0
 12
-12000.0
 22
-80000.0
 32
0.0
 13
173.5
 23
0.0
 33
0.0
 14
326.5
 24
0.0
 34
0.0
  0
LINE
  5
61
  8
TEAM-DET1
 10
-360.0
 20
-330.0
 30
0.0
 11
-26.902629
 21
-113.275863
 31
0.0
  0
LINE
  5
63
  8
TEAM-BODY
 10
330.0
 20
-35.935335
 30
0.0
 11
-330.0
 21
-35.935335
 31
0.0
  0
LINE
  5
64
  8
TEAM-BODY
 10
360.0
 20
-330.0
 30
0.0
 11
-360.0
 21
-330.0
 31
0.0
  0
LINE
  5
65
  8
TEAM-BODY
 10
360.0
 20
-360.0
 30
0.0
 11
-360.0
 21
-360.0
 31
0.0
  0
LINE
  5
66
  8
TEAM-AXE
 10
-346.5
 20
0.0
 30
0.0
 11
-306.5
 21
0.0
 31
0.0
  0
CIRCLE
  5
69
  8
TEAM-WARM
 10
-326.5
 20
0.0
 30
0.0
 40
15.0
  0
ARC
  5
6B
  8
TEAM-BODY
 10
-360.0
 20
-120.0
 30
0.0
 40
100.0
 50
90.0
 51
180.0
  0
ARC
  5
6C
  8
TEAM-BODY
 10
-330.0
 20
-135.935335
 30
0.0
 40
100.0
 50
90.0
 51
180.0
  0
LINE
  5
6D
  8
TEAM-BODY
 10
-460.0
 20
-120.0
 30
0.0
 11
-460.0
 21
-260.0
 31
0.0
  0
LINE
  5
6E
  8
TEAM-BODY
 10
-430.0
 20
-135.935335
 30
0.0
 11
-430.0
 21
-260.0
 31
0.0
  0
LINE
  5
6F
  8
TEAM-BODY
 10
-500.0
 20
0.0
 30
0.0
 11
-500.0
 21
-380.0
 31
0.0
  0
ARC
  5
70
  8
TEAM-BODY
 10
-360.0
 20
-260.0
 30
0.0
 40
70.0
 50
180.0
 51
270.0
  0
ARC
  5
71
  8
TEAM-BODY
 10
-360.0
 20
-260.0
 30
0.0
 40
100.0
 50
180.0
 51
270.0
  0
LINE
  5
72
  8
TEAM-AXE
 10
-326.5
 20
-20.0
 30
0.0
 11
-326.5
 21
20.0
 31
0.0
  0
LINE
  5
73
  8
TEAM-DET1
 10
360.0
 20
-330.0
 30
0.0
 11
26.902629
 21
-113.275863
 31
0.0
  0
LINE
  5
74
  8
TEAM-AXE
 10
-270.0
 20
0.0
 30
0.0
 11
-230.0
 21
0.0
 31
0.0
  0
LINE
  5
75
  8
TEAM-AXE
 10
-173.5
 20
-20.0
 30
0.0
 11
-173.5
 21
20.0
 31
0.0
  0
LINE
  5
76
  8
TEAM-AXE
 10
-193.5
 20
0.0
 30
0.0
 11
-153.5
 21
0.0
 31
0.0
  0
CIRCLE
  5
77
  8
TEAM-COLD
 10
-173.5
 20
0.0
 30
0.0
 40
15.0
  0
LINE
  5
79
  8
TEAM-AXE
 10
-250.0
 20
-20.0
 30
0.0
 11
-250.0
 21
20.0
 31
0.0
  0
LINE
  5
7A
  8
TEAM-AXE
 10
326.5
 20
-20.0
 30
0.0
 11
326.5
 21
20.0
 31
0.0
  0
LINE
  5
7B
  8
TEAM-AXE
 10
306.5
 20
0.0
 30
0.0
 11
346.5
 21
0.0
 31
0.0
  0
CIRCLE
  5
7C
  8
TEAM-COLD
 10
326.5
 20
0.0
 30
0.0
 40
15.0
  0
LINE
  5
7D
  8
TEAM-AXE
 10
230.0
 20
0.0
 30
0.0
 11
270.0
 21
0.0
 31
0.0
  0
LINE
  5
7E
  8
TEAM-AXE
 10
173.5
 20
-20.0
 30
0.0
 11
173.5
 21
20.0
 31
0.0
  0
LINE
  5
7F
  8
TEAM-AXE
 10
153.5
 20
0.0
 30
0.0
 11
193.5
 21
0.0
 31
0.0
  0
CIRCLE
  5
80
  8
TEAM-WARM
 10
173.5
 20
0.0
 30
0.0
 40
15.0
  0
LINE
  5
81
  8
TEAM-AXE
 10
250.0
 20
-20.0
 30
0.0
 11
250.0
 21
20.0
 31
0.0
  0
TEXT
  5
82
  8
TEAM-TXT
 10
3.267428
 20
-308.525874
 30
0.0
 40
30.0
  1
team 421040
 41
0.8
 51
15.0
  7
TEAM
  0
CIRCLE
  5
85
  8
TEAM-INSP
 10
0.0
 20
0.0
 30
0.0
 40
10.0
  0
CIRCLE
  5
87
  8
TEAM-DET1
 10
0.0
 20
-100.0
 30
0.0
 40
30.0
  0
CIRCLE
  5
88
  8
TEAM-BODY
 10
0.0
 20
-100.0
 30
0.0
 40
20.0
  0
LINE
  5
89
  8
TEAM-AXE
 10
-40.0
 20
-100.0
 30
0.0
 11
40.0
 21
-100.0
 31
0.0
  0
LINE
  5
8A
  8
TEAM-AXE
 10
0.0
 20
-140.0
 30
0.0
 11
0.0
 21
-60.0
 31
0.0
  0
DIMENSION
  5
8B
  8
TEAM-MAS
  2
*D2
 10
535.475324
 20
0.0
 30
0.0
 11
536.690323
 21
-84.433915
 31
0.0
 12
-12000.0
 22
-80000.0
 32
0.0
 70
   128
 13
500.0
 23
-20.0
 33
0.0
 14
499.32302
 24
0.0
 34
0.0
 50
90.0
  0
DIMENSION
  5
9A
  8
TEAM-MAS
  2
*D0
 10
580.202389
 20
0.0
 30
0.0
 11
580.202389
 21
-190.0
 31
0.0
 12
-12000.0
 22
-80000.0
 32
0.0
 13
500.0
 23
-380.0
 33
0.0
 14
500.0
 24
0.0
 34
0.0
 50
90.0
  0
LINE
  5
A8
  8
TEAM-BODY
 10
460.0
 20
-120.0
 30
0.0
 11
460.0
 21
-260.0
 31
0.0
  0
LINE
  5
A9
  8
TEAM-BODY
 10
430.0
 20
-135.935335
 30
0.0
 11
430.0
 21
-260.0
 31
0.0
  0
LINE
  5
AA
  8
TEAM-BODY
 10
500.0
 20
0.0
 30
0.0
 11
500.0
 21
-380.0
 31
0.0
  0
ENDSEC
  0
EOF
