  0
SECTION
  2
HEADER
  9
$ACADVER
  1
AC1009
  9
$INSBASE
 10
0.0
 20
0.0
 30
0.0
  9
$EXTMIN
 10
-360.16728
 20
-10.065744
 30
0.0
  9
$EXTMAX
 10
380.013044
 20
1040.007037
 30
0.000005
  9
$LIMMIN
 10
-360.16728
 20
-10.065744
  9
$LIMMAX
 10
380.013044
 20
1040.007037
  9
$ORTHOMODE
 70
     1
  9
$REGENMODE
 70
     1
  9
$FILLMODE
 70
     1
  9
$QTEXTMODE
 70
     0
  9
$MIRRTEXT
 70
     0
  9
$DRAGMODE
 70
     2
  9
$LTSCALE
 40
50.0
  9
$OSMODE
 70
     0
  9
$ATTMODE
 70
     1
  9
$TEXTSIZE
 40
200.0
  9
$TRACEWID
 40
1.0
  9
$TEXTSTYLE
  7
STANDARD
  9
$CLAYER
  8
TEAM-MAS
  9
$CELTYPE
  6
BYLAYER
  9
$CECOLOR
 62
   256
  9
$DIMSCALE
 40
0.0
  9
$DIMASZ
 40
20.0
  9
$DIMEXO
 40
10.0
  9
$DIMDLI
 40
1.0
  9
$DIMRND
 40
0.0
  9
$DIMDLE
 40
0.0
  9
$DIMEXE
 40
1.0
  9
$DIMTP
 40
0.0
  9
$DIMTM
 40
0.0
  9
$DIMTXT
 40
35.0
  9
$DIMCEN
 40
1.0
  9
$DIMTSZ
 40
0.0
  9
$DIMTOL
 70
     0
  9
$DIMLIM
 70
     0
  9
$DIMTIH
 70
     0
  9
$DIMTOH
 70
     0
  9
$DIMSE1
 70
     0
  9
$DIMSE2
 70
     0
  9
$DIMTAD
 70
     0
  9
$DIMZIN
 70
     0
  9
$DIMBLK
  1

  9
$DIMASO
 70
     1
  9
$DIMSHO
 70
     0
  9
$DIMPOST
  1

  9
$DIMAPOST
  1

  9
$DIMALT
 70
     0
  9
$DIMALTD
 70
     2
  9
$DIMALTF
 40
25.4
  9
$DIMLFAC
 40
1.0
  9
$DIMTOFL
 70
     0
  9
$DIMTVP
 40
0.0
  9
$DIMTIX
 70
     0
  9
$DIMSOXD
 70
     0
  9
$DIMSAH
 70
     0
  9
$DIMBLK1
  1

  9
$DIMBLK2
  1

  9
$DIMSTYLE
  2
TEAM
  9
$DIMCLRD
 70
     9
  9
$DIMCLRE
 70
     9
  9
$DIMCLRT
 70
    11
  9
$DIMTFAC
 40
1.0
  9
$DIMGAP
 40
7.0
  9
$LUNITS
 70
     2
  9
$LUPREC
 70
     1
  9
$SKETCHINC
 40
1.0
  9
$FILLETRAD
 40
50.0
  9
$AUNITS
 70
     0
  9
$AUPREC
 70
     0
  9
$MENU
  1
ROPLANS
  9
$ELEVATION
 40
0.0
  9
$PELEVATION
 40
0.0
  9
$THICKNESS
 40
0.0
  9
$LIMCHECK
 70
     0
  9
$BLIPMODE
 70
     1
  9
$CHAMFERA
 40
0.0
  9
$CHAMFERB
 40
0.0
  9
$SKPOLY
 70
     0
  9
$TDCREATE
 40
2450392.957851
  9
$TDUPDATE
 40
2456272.033233
  9
$TDINDWG
 40
2.315654
  9
$TDUSRTIMER
 40
2.315654
  9
$USRTIMER
 70
     1
  9
$ANGBASE
 50
0.0
  9
$ANGDIR
 70
     0
  9
$PDMODE
 70
     0
  9
$PDSIZE
 40
0.0
  9
$PLINEWID
 40
0.0
  9
$COORDS
 70
     2
  9
$SPLFRAME
 70
     0
  9
$SPLINETYPE
 70
     6
  9
$SPLINESEGS
 70
     8
  9
$ATTDIA
 70
     0
  9
$ATTREQ
 70
     0
  9
$HANDLING
 70
     1
  9
$HANDSEED
  5
125
  9
$SURFTAB1
 70
    24
  9
$SURFTAB2
 70
    24
  9
$SURFTYPE
 70
     6
  9
$SURFU
 70
     6
  9
$SURFV
 70
     6
  9
$UCSNAME
  2

  9
$UCSORG
 10
0.0
 20
0.0
 30
0.0
  9
$UCSXDIR
 10
1.0
 20
0.0
 30
0.0
  9
$UCSYDIR
 10
0.0
 20
1.0
 30
0.0
  9
$PUCSNAME
  2

  9
$PUCSORG
 10
0.0
 20
0.0
 30
0.0
  9
$PUCSXDIR
 10
1.0
 20
0.0
 30
0.0
  9
$PUCSYDIR
 10
0.0
 20
1.0
 30
0.0
  9
$USERI1
 70
     0
  9
$USERI2
 70
     0
  9
$USERI3
 70
     0
  9
$USERI4
 70
     0
  9
$USERI5
 70
     0
  9
$USERR1
 40
0.0
  9
$USERR2
 40
0.0
  9
$USERR3
 40
0.0
  9
$USERR4
 40
0.0
  9
$USERR5
 40
0.0
  9
$WORLDVIEW
 70
     1
  9
$SHADEDGE
 70
     0
  9
$SHADEDIF
 70
    70
  9
$TILEMODE
 70
     1
  9
$MAXACTVP
 70
    16
  9
$PLIMCHECK
 70
     0
  9
$PEXTMIN
 10
-0.805942
 20
0.005011
 30
0.0
  9
$PEXTMAX
 10
20.250094
 20
11.356329
 30
0.0
  9
$PLIMMIN
 10
0.0
 20
0.0
  9
$PLIMMAX
 10
12.0
 20
9.0
  9
$UNITMODE
 70
     0
  9
$VISRETAIN
 70
     0
  9
$PLINEGEN
 70
     0
  9
$PSLTSCALE
 70
     0
  0
ENDSEC
  0
SECTION
  2
TABLES
  0
TABLE
  2
VPORT
 70
     2
  0
VPORT
  2
*ACTIVE
 70
     0
 10
0.0
 20
0.0
 11
1.0
 21
1.0
 12
9.922882
 22
514.970646
 13
0.0
 23
0.0
 14
1.0
 24
1.0
 15
50.0
 25
50.0
 16
0.0
 26
0.0
 36
1.0
 17
0.0
 27
0.0
 37
0.0
 40
1056.683942
 41
1.911765
 42
50.0
 43
0.0
 44
0.0
 50
0.0
 51
0.0
 71
     0
 72
   100
 73
     1
 74
     1
 75
     0
 76
     0
 77
     0
 78
     0
  0
ENDTAB
  0
TABLE
  2
LTYPE
 70
     3
  0
LTYPE
  2
CONTINUOUS
 70
     0
  3
Solid Line
 72
    65
 73
     0
 40
0.0
  0
LTYPE
  2
31
 70
     0
  3

 72
    65
 73
     4
 40
2.1
 49
1.5
 49
-0.3
 49
0.0
 49
-0.3
  0
LTYPE
  2
22
 70
     0
  3

 72
    65
 73
     2
 40
1.4
 49
1.2
 49
-0.2
  0
ENDTAB
  0
TABLE
  2
LAYER
 70
    11
  0
LAYER
  2
0
 70
     0
 62
     7
  6
CONTINUOUS
  0
LAYER
  2
DEFPOINTS
 70
     0
 62
     7
  6
CONTINUOUS
  0
LAYER
  2
TEAM-BODY
 70
     0
 62
     2
  6
CONTINUOUS
  0
LAYER
  2
TEAM-AXE
 70
     0
 62
    10
  6
31
  0
LAYER
  2
TEAM-MAS
 70
     0
 62
     9
  6
CONTINUOUS
  0
LAYER
  2
TEAM-TXT
 70
     0
 62
    11
  6
CONTINUOUS
  0
LAYER
  2
TEAM-COLD
 70
     0
 62
     3
  6
CONTINUOUS
  0
LAYER
  2
TEAM-HIDE
 70
     0
 62
     8
  6
22
  0
LAYER
  2
TEAM-KAN
 70
     0
 62
     6
  6
CONTINUOUS
  0
LAYER
  2
TEAM-WARM
 70
     0
 62
     1
  6
CONTINUOUS
  0
LAYER
  2
TEAM-INSP
 70
     0
 62
     5
  6
CONTINUOUS
  0
ENDTAB
  0
TABLE
  2
STYLE
 70
     2
  0
STYLE
  2
STANDARD
 70
     0
 40
0.0
 41
1.0
 50
0.0
 71
     0
 42
200.0
  3
txt
  4

  0
STYLE
  2
TEAM
 70
     0
 40
0.0
 41
0.8
 50
15.0
 71
     0
 42
7.0
  3
ROMANS.shx
  4

  0
ENDTAB
  0
TABLE
  2
VIEW
 70
     0
  0
ENDTAB
  0
TABLE
  2
UCS
 70
     0
  0
ENDTAB
  0
TABLE
  2
APPID
 70
     1
  0
APPID
  2
ACAD
 70
     0
  0
ENDTAB
  0
TABLE
  2
DIMSTYLE
 70
     1
  0
DIMSTYLE
  2
TEAM
 70
     0
  3

  4

  5

  6

  7

 40
0.0
 41
20.0
 42
10.0
 43
1.0
 44
1.0
 45
0.0
 46
0.0
 47
0.0
 48
0.0
140
35.0
141
1.0
142
0.0
143
25.4
144
1.0
145
0.0
146
1.0
147
7.0
 71
     0
 72
     0
 73
     0
 74
     0
 75
     0
 76
     0
 77
     0
 78
     0
170
     0
171
     2
172
     0
173
     0
174
     0
175
     0
176
     9
177
     9
178
    11
  0
ENDTAB
  0
ENDSEC
  0
SECTION
  2
BLOCKS
  0
BLOCK
  8
0
  2
$MODEL_SPACE
 70
     0
 10
0.0
 20
0.0
 30
0.0
  3
$MODEL_SPACE
  1

  0
ENDBLK
  5
11E
  8
0
  0
BLOCK
 67
     1
  8
0
  2
$PAPER_SPACE
 70
     0
 10
0.0
 20
0.0
 30
0.0
  3
$PAPER_SPACE
  1

  0
ENDBLK
  5
11C
 67
     1
  8
0
  0
BLOCK
  8
0
  2
*D0
 70
     1
 10
0.0
 20
0.0
 30
0.0
  3
*D0
  1

  0
LINE
  5
AF
  8
0
  6
BYBLOCK
 62
     9
 10
-10.0
 20
80000.0
 30
0.0
 11
-343.639431
 21
80000.0
 31
0.0
  0
LINE
  5
B0
  8
0
  6
BYBLOCK
 62
     9
 10
-2.420683
 20
81020.0
 30
0.0
 11
-343.639431
 21
81020.0
 31
0.0
  0
LINE
  5
B1
  8
0
  6
BYBLOCK
 62
     9
 10
-342.639431
 20
80020.0
 30
0.0
 11
-342.639431
 21
80523.416667
 31
0.0
  0
LINE
  5
B2
  8
0
  6
BYBLOCK
 62
     9
 10
-342.639431
 20
81000.0
 30
0.0
 11
-342.639431
 21
80776.583333
 31
0.0
  0
TEXT
  5
B3
  8
0
  6
BYBLOCK
 62
    11
 10
-325.139431
 20
80530.416667
 30
0.0
 40
35.0
  1
950-1200
 50
90.0
  0
SOLID
  5
B4
  8
0
  6
BYBLOCK
 62
     9
 10
-345.972765
 20
80020.0
 30
0.0
 11
-339.306098
 21
80020.0
 31
0.0
 12
-342.639431
 22
80000.0
 32
0.0
 13
-342.639431
 23
80000.0
 33
0.0
  0
SOLID
  5
B5
  8
0
  6
BYBLOCK
 62
     9
 10
-345.972765
 20
81000.0
 30
0.0
 11
-339.306098
 21
81000.0
 31
0.0
 12
-342.639431
 22
81020.0
 32
0.0
 13
-342.639431
 23
81020.0
 33
0.0
  0
POINT
  5
B6
  8
DEFPOINTS
  6
BYBLOCK
 62
     0
 10
0.0
 20
80000.0
 30
0.0
  0
POINT
  5
B7
  8
DEFPOINTS
  6
BYBLOCK
 62
     0
 10
7.579317
 20
81020.0
 30
0.0
  0
POINT
  5
B8
  8
DEFPOINTS
  6
BYBLOCK
 62
     0
 10
-342.639431
 20
81020.0
 30
0.0
  0
ENDBLK
  5
BA
  8
0
  0
BLOCK
  8
0
  2
*D1
 70
     1
 10
0.0
 20
0.0
 30
0.0
  3
*D1
  1

  0
LINE
  5
A0
  8
0
  6
BYBLOCK
 62
     9
 10
-10.0
 20
80842.0
 30
0.0
 11
-99.961149
 21
80842.0
 31
0.0
  0
LINE
  5
A1
  8
0
  6
BYBLOCK
 62
     9
 10
-10.0
 20
80800.0
 30
0.0
 11
-99.961149
 21
80800.0
 31
0.0
  0
LINE
  5
A2
  8
0
  6
BYBLOCK
 62
     9
 10
-98.961149
 20
80862.0
 30
0.0
 11
-98.961149
 21
80882.0
 31
0.0
  0
LINE
  5
A3
  8
0
  6
BYBLOCK
 62
     9
 10
-98.961149
 20
80780.0
 30
0.0
 11
-98.961149
 21
80760.0
 31
0.0
  0
TEXT
  5
A4
  8
0
  6
BYBLOCK
 62
    11
 10
-81.461149
 20
80888.018721
 30
0.0
 40
35.0
  1
42
 50
90.0
  0
LINE
  5
A5
  8
0
  6
BYBLOCK
 62
     9
 10
-98.961149
 20
80842.0
 30
0.0
 11
-98.961149
 21
80800.0
 31
0.0
  0
SOLID
  5
A6
  8
0
  6
BYBLOCK
 62
     9
 10
-102.294483
 20
80862.0
 30
0.0
 11
-95.627816
 21
80862.0
 31
0.0
 12
-98.961149
 22
80842.0
 32
0.0
 13
-98.961149
 23
80842.0
 33
0.0
  0
SOLID
  5
A7
  8
0
  6
BYBLOCK
 62
     9
 10
-102.294483
 20
80780.0
 30
0.0
 11
-95.627816
 21
80780.0
 31
0.0
 12
-98.961149
 22
80800.0
 32
0.0
 13
-98.961149
 23
80800.0
 33
0.0
  0
POINT
  5
A8
  8
DEFPOINTS
  6
BYBLOCK
 62
     0
 10
0.0
 20
80842.0
 30
0.0
  0
POINT
  5
A9
  8
DEFPOINTS
  6
BYBLOCK
 62
     0
 10
0.0
 20
80800.0
 30
0.0
  0
POINT
  5
AA
  8
DEFPOINTS
  6
BYBLOCK
 62
     0
 10
-98.961149
 20
80800.0
 30
0.0
  0
ENDBLK
  5
AC
  8
0
  0
BLOCK
  8
0
  2
*D2
 70
     1
 10
0.0
 20
0.0
 30
0.0
  3
*D2
  1

  0
LINE
  5
92
  8
0
  6
BYBLOCK
 62
     9
 10
30.211105
 20
80800.0
 30
0.0
 11
-99.961149
 21
80800.0
 31
0.0
  0
LINE
  5
93
  8
0
  6
BYBLOCK
 62
     9
 10
-10.0
 20
80720.0
 30
0.0
 11
-99.961149
 21
80720.0
 31
0.0
  0
LINE
  5
94
  8
0
  6
BYBLOCK
 62
     9
 10
-98.961149
 20
80780.0
 30
0.0
 11
-98.961149
 21
80773.0
 31
0.0
  0
LINE
  5
95
  8
0
  6
BYBLOCK
 62
     9
 10
-98.961149
 20
80740.0
 30
0.0
 11
-98.961149
 21
80747.0
 31
0.0
  0
TEXT
  5
96
  8
0
  6
BYBLOCK
 62
    11
 10
-104.50249
 20
80732.75
 30
0.0
 40
35.0
  1
80
 50
90.0
  0
SOLID
  5
97
  8
0
  6
BYBLOCK
 62
     9
 10
-102.294483
 20
80780.0
 30
0.0
 11
-95.627816
 21
80780.0
 31
0.0
 12
-98.961149
 22
80800.0
 32
0.0
 13
-98.961149
 23
80800.0
 33
0.0
  0
SOLID
  5
98
  8
0
  6
BYBLOCK
 62
     9
 10
-102.294483
 20
80740.0
 30
0.0
 11
-95.627816
 21
80740.0
 31
0.0
 12
-98.961149
 22
80720.0
 32
0.0
 13
-98.961149
 23
80720.0
 33
0.0
  0
POINT
  5
99
  8
DEFPOINTS
  6
BYBLOCK
 62
     0
 10
40.211105
 20
80800.0
 30
0.0
  0
POINT
  5
9A
  8
DEFPOINTS
  6
BYBLOCK
 62
     0
 10
0.0
 20
80720.0
 30
0.0
  0
POINT
  5
9B
  8
DEFPOINTS
  6
BYBLOCK
 62
     0
 10
-98.961149
 20
80720.0
 30
0.0
  0
ENDBLK
  5
9D
  8
0
  0
BLOCK
  8
0
  2
*D3
 70
     1
 10
0.0
 20
0.0
 30
0.0
  3
*D3
  1

  0
LINE
  5
84
  8
0
  6
BYBLOCK
 62
     9
 10
-10.0
 20
80800.0
 30
0.0
 11
-160.172255
 21
80800.0
 31
0.0
  0
LINE
  5
85
  8
0
  6
BYBLOCK
 62
     9
 10
69.0
 20
80592.208558
 30
0.0
 11
-160.172255
 21
80592.208558
 31
0.0
  0
LINE
  5
86
  8
0
  6
BYBLOCK
 62
     9
 10
-159.172255
 20
80780.0
 30
0.0
 11
-159.172255
 21
80746.854279
 31
0.0
  0
LINE
  5
87
  8
0
  6
BYBLOCK
 62
     9
 10
-159.172255
 20
80612.208558
 30
0.0
 11
-159.172255
 21
80645.354279
 31
0.0
  0
SOLID
  5
88
  8
0
  6
BYBLOCK
 62
     9
 10
-162.505588
 20
80780.0
 30
0.0
 11
-155.838921
 21
80780.0
 31
0.0
 12
-159.172255
 22
80800.0
 32
0.0
 13
-159.172255
 23
80800.0
 33
0.0
  0
SOLID
  5
89
  8
0
  6
BYBLOCK
 62
     9
 10
-162.505588
 20
80612.208558
 30
0.0
 11
-155.838921
 21
80612.208558
 31
0.0
 12
-159.172255
 22
80592.208558
 32
0.0
 13
-159.172255
 23
80592.208558
 33
0.0
  0
TEXT
  5
8A
  8
0
  6
BYBLOCK
 62
    11
 10
-141.672255
 20
80652.354279
 30
0.0
 40
35.0
  1
208
 50
90.0
  0
POINT
  5
8B
  8
DEFPOINTS
  6
BYBLOCK
 62
     0
 10
0.0
 20
80800.0
 30
0.0
  0
POINT
  5
8C
  8
DEFPOINTS
  6
BYBLOCK
 62
     0
 10
79.0
 20
80592.208558
 30
0.0
  0
POINT
  5
8D
  8
DEFPOINTS
  6
BYBLOCK
 62
     0
 10
-159.172255
 20
80592.208558
 30
0.0
  0
ENDBLK
  5
8F
  8
0
  0
BLOCK
  8
0
  2
*D4
 70
     1
 10
0.0
 20
0.0
 30
0.0
  3
*D4
  1

  0
LINE
  5
76
  8
0
  6
BYBLOCK
 62
     9
 10
-10.0
 20
80000.0
 30
0.0
 11
-160.172255
 21
80000.0
 31
0.0
  0
LINE
  5
77
  8
0
  6
BYBLOCK
 62
     9
 10
-40.0
 20
80435.0
 30
0.0
 11
-160.172255
 21
80435.0
 31
0.0
  0
LINE
  5
78
  8
0
  6
BYBLOCK
 62
     9
 10
-159.172255
 20
80020.0
 30
0.0
 11
-159.172255
 21
80105.5
 31
0.0
  0
LINE
  5
79
  8
0
  6
BYBLOCK
 62
     9
 10
-159.172255
 20
80415.0
 30
0.0
 11
-159.172255
 21
80329.5
 31
0.0
  0
SOLID
  5
7A
  8
0
  6
BYBLOCK
 62
     9
 10
-162.505588
 20
80020.0
 30
0.0
 11
-155.838921
 21
80020.0
 31
0.0
 12
-159.172255
 22
80000.0
 32
0.0
 13
-159.172255
 23
80000.0
 33
0.0
  0
SOLID
  5
7B
  8
0
  6
BYBLOCK
 62
     9
 10
-162.505588
 20
80415.0
 30
0.0
 11
-155.838921
 21
80415.0
 31
0.0
 12
-159.172255
 22
80435.0
 32
0.0
 13
-159.172255
 23
80435.0
 33
0.0
  0
TEXT
  5
7C
  8
0
  6
BYBLOCK
 62
    11
 10
-141.672255
 20
80112.5
 30
0.0
 40
35.0
  1
300-500
 50
90.0
  0
POINT
  5
7D
  8
DEFPOINTS
  6
BYBLOCK
 62
     0
 10
0.0
 20
80000.0
 30
0.0
  0
POINT
  5
7E
  8
DEFPOINTS
  6
BYBLOCK
 62
     0
 10
-30.0
 20
80435.0
 30
0.0
  0
POINT
  5
7F
  8
DEFPOINTS
  6
BYBLOCK
 62
     0
 10
-159.172255
 20
80435.0
 30
0.0
  0
ENDBLK
  5
81
  8
0
  0
BLOCK
  8
0
  2
*D5
 70
     1
 10
0.0
 20
0.0
 30
0.0
  3
*D5
  1

  0
LINE
  5
68
  8
0
  6
BYBLOCK
 62
     9
 10
-10.0
 20
80000.0
 30
0.0
 11
-100.172255
 21
80000.0
 31
0.0
  0
LINE
  5
69
  8
0
  6
BYBLOCK
 62
     9
 10
-40.0
 20
80435.0
 30
0.0
 11
-100.172255
 21
80435.0
 31
0.0
  0
LINE
  5
6A
  8
0
  6
BYBLOCK
 62
     9
 10
-99.172255
 20
80020.0
 30
0.0
 11
-99.172255
 21
80163.833333
 31
0.0
  0
LINE
  5
6B
  8
0
  6
BYBLOCK
 62
     9
 10
-99.172255
 20
80415.0
 30
0.0
 11
-99.172255
 21
80271.166667
 31
0.0
  0
SOLID
  5
6C
  8
0
  6
BYBLOCK
 62
     9
 10
-102.505588
 20
80020.0
 30
0.0
 11
-95.838921
 21
80020.0
 31
0.0
 12
-99.172255
 22
80000.0
 32
0.0
 13
-99.172255
 23
80000.0
 33
0.0
  0
SOLID
  5
6D
  8
0
  6
BYBLOCK
 62
     9
 10
-102.505588
 20
80415.0
 30
0.0
 11
-95.838921
 21
80415.0
 31
0.0
 12
-99.172255
 22
80435.0
 32
0.0
 13
-99.172255
 23
80435.0
 33
0.0
  0
TEXT
  5
6E
  8
0
  6
BYBLOCK
 62
    11
 10
-81.672255
 20
80170.833333
 30
0.0
 40
35.0
  1
435
 50
90.0
  0
POINT
  5
6F
  8
DEFPOINTS
  6
BYBLOCK
 62
     0
 10
0.0
 20
80000.0
 30
0.0
  0
POINT
  5
70
  8
DEFPOINTS
  6
BYBLOCK
 62
     0
 10
-30.0
 20
80435.0
 30
0.0
  0
POINT
  5
71
  8
DEFPOINTS
  6
BYBLOCK
 62
     0
 10
-99.172255
 20
80435.0
 30
0.0
  0
ENDBLK
  5
73
  8
0
  0
BLOCK
  8
0
  2
*D6
 70
     1
 10
0.0
 20
0.0
 30
0.0
  3
*D6
  1

  0
LINE
  5
5B
  8
0
  6
BYBLOCK
 62
     9
 10
0.0
 20
80395.0
 30
0.0
 11
0.0
 21
80261.325887
 31
0.0
  0
LINE
  5
5C
  8
0
  6
BYBLOCK
 62
     9
 10
100.0
 20
80350.980383
 30
0.0
 11
100.0
 21
80261.325887
 31
0.0
  0
LINE
  5
5D
  8
0
  6
BYBLOCK
 62
     9
 10
20.0
 20
80262.325887
 30
0.0
 11
80.0
 21
80262.325887
 31
0.0
  0
TEXT
  5
5E
  8
0
  6
BYBLOCK
 62
    11
 10
15.0
 20
80273.400167
 30
0.0
 40
35.0
  1
100
  0
SOLID
  5
5F
  8
0
  6
BYBLOCK
 62
     9
 10
20.0
 20
80265.65922
 30
0.0
 11
20.0
 21
80258.992553
 31
0.0
 12
0.0
 22
80262.325887
 32
0.0
 13
0.0
 23
80262.325887
 33
0.0
  0
SOLID
  5
60
  8
0
  6
BYBLOCK
 62
     9
 10
80.0
 20
80265.65922
 30
0.0
 11
80.0
 21
80258.992553
 31
0.0
 12
100.0
 22
80262.325887
 32
0.0
 13
100.0
 23
80262.325887
 33
0.0
  0
POINT
  5
61
  8
DEFPOINTS
  6
BYBLOCK
 62
     0
 10
0.0
 20
80405.0
 30
0.0
  0
POINT
  5
62
  8
DEFPOINTS
  6
BYBLOCK
 62
     0
 10
100.0
 20
80360.980383
 30
0.0
  0
POINT
  5
63
  8
DEFPOINTS
  6
BYBLOCK
 62
     0
 10
100.0
 20
80262.325887
 30
0.0
  0
ENDBLK
  5
65
  8
0
  0
BLOCK
  8
0
  2
*D7
 70
     1
 10
0.0
 20
0.0
 30
0.0
  3
*D7
  1

  0
LINE
  5
4D
  8
0
  6
BYBLOCK
 62
     9
 10
-10.0
 20
80000.0
 30
0.0
 11
-204.576702
 21
80000.0
 31
0.0
  0
LINE
  5
4E
  8
0
  6
BYBLOCK
 62
     9
 10
-10.0
 20
80800.0
 30
0.0
 11
-204.576702
 21
80800.0
 31
0.0
  0
LINE
  5
4F
  8
0
  6
BYBLOCK
 62
     9
 10
-203.576702
 20
80020.0
 30
0.0
 11
-203.576702
 21
80387.166667
 31
0.0
  0
LINE
  5
50
  8
0
  6
BYBLOCK
 62
     9
 10
-203.576702
 20
80780.0
 30
0.0
 11
-203.576702
 21
80482.833333
 31
0.0
  0
TEXT
  5
51
  8
0
  6
BYBLOCK
 62
    11
 10
-186.076702
 20
80394.166667
 30
0.0
 40
35.0
  1
800
 50
90.0
  0
SOLID
  5
52
  8
0
  6
BYBLOCK
 62
     9
 10
-206.910035
 20
80020.0
 30
0.0
 11
-200.243368
 21
80020.0
 31
0.0
 12
-203.576702
 22
80000.0
 32
0.0
 13
-203.576702
 23
80000.0
 33
0.0
  0
SOLID
  5
53
  8
0
  6
BYBLOCK
 62
     9
 10
-206.910035
 20
80780.0
 30
0.0
 11
-200.243368
 21
80780.0
 31
0.0
 12
-203.576702
 22
80800.0
 32
0.0
 13
-203.576702
 23
80800.0
 33
0.0
  0
POINT
  5
54
  8
DEFPOINTS
  6
BYBLOCK
 62
     0
 10
0.0
 20
80000.0
 30
0.0
  0
POINT
  5
55
  8
DEFPOINTS
  6
BYBLOCK
 62
     0
 10
0.0
 20
80800.0
 30
0.0
  0
POINT
  5
56
  8
DEFPOINTS
  6
BYBLOCK
 62
     0
 10
-203.576702
 20
80800.0
 30
0.0
  0
ENDBLK
  5
58
  8
0
  0
BLOCK
  8
0
  2
*D8
 70
     1
 10
0.0
 20
0.0
 30
0.0
  3
*D8
  1

  0
LINE
  5
3F
  8
0
  6
BYBLOCK
 62
     9
 10
-10.0
 20
80000.0
 30
0.0
 11
-252.880741
 21
80000.0
 31
0.0
  0
LINE
  5
40
  8
0
  6
BYBLOCK
 62
     9
 10
-10.0
 20
80800.0
 30
0.0
 11
-252.880741
 21
80800.0
 31
0.0
  0
LINE
  5
41
  8
0
  6
BYBLOCK
 62
     9
 10
-251.880741
 20
80020.0
 30
0.0
 11
-251.880741
 21
80320.083333
 31
0.0
  0
LINE
  5
42
  8
0
  6
BYBLOCK
 62
     9
 10
-251.880741
 20
80780.0
 30
0.0
 11
-251.880741
 21
80549.916667
 31
0.0
  0
TEXT
  5
43
  8
0
  6
BYBLOCK
 62
    11
 10
-234.380741
 20
80327.083333
 30
0.0
 40
35.0
  1
600-850
 50
90.0
  0
SOLID
  5
44
  8
0
  6
BYBLOCK
 62
     9
 10
-255.214074
 20
80020.0
 30
0.0
 11
-248.547408
 21
80020.0
 31
0.0
 12
-251.880741
 22
80000.0
 32
0.0
 13
-251.880741
 23
80000.0
 33
0.0
  0
SOLID
  5
45
  8
0
  6
BYBLOCK
 62
     9
 10
-255.214074
 20
80780.0
 30
0.0
 11
-248.547408
 21
80780.0
 31
0.0
 12
-251.880741
 22
80800.0
 32
0.0
 13
-251.880741
 23
80800.0
 33
0.0
  0
POINT
  5
46
  8
DEFPOINTS
  6
BYBLOCK
 62
     0
 10
0.0
 20
80000.0
 30
0.0
  0
POINT
  5
47
  8
DEFPOINTS
  6
BYBLOCK
 62
     0
 10
0.0
 20
80800.0
 30
0.0
  0
POINT
  5
48
  8
DEFPOINTS
  6
BYBLOCK
 62
     0
 10
-251.880741
 20
80800.0
 30
0.0
  0
ENDBLK
  5
4A
  8
0
  0
BLOCK
  8
0
  2
*D9
 70
     1
 10
0.0
 20
0.0
 30
0.0
  3
*D9
  1

  0
LINE
  5
31
  8
0
  6
BYBLOCK
 62
     9
 10
-10.0
 20
80000.0
 30
0.0
 11
-297.285188
 21
80000.0
 31
0.0
  0
LINE
  5
32
  8
0
  6
BYBLOCK
 62
     9
 10
-10.0
 20
81020.0
 30
0.0
 11
-297.285188
 21
81020.0
 31
0.0
  0
LINE
  5
33
  8
0
  6
BYBLOCK
 62
     9
 10
-296.285188
 20
80020.0
 30
0.0
 11
-296.285188
 21
80590.5
 31
0.0
  0
LINE
  5
34
  8
0
  6
BYBLOCK
 62
     9
 10
-296.285188
 20
81000.0
 30
0.0
 11
-296.285188
 21
80709.5
 31
0.0
  0
TEXT
  5
35
  8
0
  6
BYBLOCK
 62
    11
 10
-278.785188
 20
80597.5
 30
0.0
 40
35.0
  1
1020
 50
90.0
  0
SOLID
  5
36
  8
0
  6
BYBLOCK
 62
     9
 10
-299.618521
 20
80020.0
 30
0.0
 11
-292.951855
 21
80020.0
 31
0.0
 12
-296.285188
 22
80000.0
 32
0.0
 13
-296.285188
 23
80000.0
 33
0.0
  0
SOLID
  5
37
  8
0
  6
BYBLOCK
 62
     9
 10
-299.618521
 20
81000.0
 30
0.0
 11
-292.951855
 21
81000.0
 31
0.0
 12
-296.285188
 22
81020.0
 32
0.0
 13
-296.285188
 23
81020.0
 33
0.0
  0
POINT
  5
38
  8
DEFPOINTS
  6
BYBLOCK
 62
     0
 10
0.0
 20
80000.0
 30
0.0
  0
POINT
  5
39
  8
DEFPOINTS
  6
BYBLOCK
 62
     0
 10
0.0
 20
81020.0
 30
0.0
  0
POINT
  5
3A
  8
DEFPOINTS
  6
BYBLOCK
 62
     0
 10
-296.285188
 20
81020.0
 30
0.0
  0
ENDBLK
  5
3C
  8
0
  0
BLOCK
  8
0
  2
*D10
 70
     1
 10
0.0
 20
0.0
 30
0.0
  3
*D10
  1

  0
LINE
  5
22
  8
0
  6
BYBLOCK
 62
     9
 10
0.0
 20
80810.0
 30
0.0
 11
0.0
 21
80911.710819
 31
0.0
  0
LINE
  5
23
  8
0
  6
BYBLOCK
 62
     9
 10
380.0
 20
80810.0
 30
0.0
 11
380.0
 21
80911.710819
 31
0.0
  0
LINE
  5
24
  8
0
  6
BYBLOCK
 62
     9
 10
20.0
 20
80910.710819
 30
0.0
 11
139.25
 21
80910.710819
 31
0.0
  0
LINE
  5
25
  8
0
  6
BYBLOCK
 62
     9
 10
360.0
 20
80910.710819
 30
0.0
 11
240.75
 21
80910.710819
 31
0.0
  0
SOLID
  5
26
  8
0
  6
BYBLOCK
 62
     9
 10
20.0
 20
80914.044152
 30
0.0
 11
20.0
 21
80907.377485
 31
0.0
 12
0.0
 22
80910.710819
 32
0.0
 13
0.0
 23
80910.710819
 33
0.0
  0
SOLID
  5
27
  8
0
  6
BYBLOCK
 62
     9
 10
360.0
 20
80914.044152
 30
0.0
 11
360.0
 21
80907.377485
 31
0.0
 12
380.0
 22
80910.710819
 32
0.0
 13
380.0
 23
80910.710819
 33
0.0
  0
TEXT
  5
28
  8
0
  6
BYBLOCK
 62
    11
 10
146.25
 20
80893.210819
 30
0.0
 40
35.0
  1
380
  0
POINT
  5
29
  8
DEFPOINTS
  6
BYBLOCK
 62
     0
 10
0.0
 20
80800.0
 30
0.0
  0
POINT
  5
2B
  8
DEFPOINTS
  6
BYBLOCK
 62
     0
 10
380.0
 20
80800.0
 30
0.0
  0
POINT
  5
2C
  8
DEFPOINTS
  6
BYBLOCK
 62
     0
 10
380.0
 20
80910.710819
 30
0.0
  0
ENDBLK
  5
2E
  8
0
  0
ENDSEC
  0
SECTION
  2
ENTITIES
  0
DIMENSION
  5
20
  8
TEAM-MAS
  2
*D10
 10
380.0
 20
910.710819
 30
0.0
 11
190.0
 21
910.710819
 31
0.0
 12
0.0
 22
-80000.0
 32
0.0
 13
0.0
 23
800.0
 33
0.0
 14
380.0
 24
800.0
 34
0.0
  0
DIMENSION
  5
2F
  8
TEAM-MAS
  2
*D9
 10
-296.285188
 20
1020.0
 30
0.0
 11
-296.285188
 21
650.0
 31
0.0
 12
0.0
 22
-80000.0
 32
0.0
 70
   128
 13
0.0
 23
0.0
 33
0.0
 14
0.0
 24
1020.0
 34
0.0
 50
90.0
  0
DIMENSION
  5
3D
  8
TEAM-MAS
  2
*D8
 10
-251.880741
 20
800.0
 30
0.0
 11
-251.880741
 21
435.0
 31
0.0
 12
0.0
 22
-80000.0
 32
0.0
 70
   128
  1
600-850
 13
0.0
 23
0.0
 33
0.0
 14
0.0
 24
800.0
 34
0.0
 50
90.0
  0
DIMENSION
  5
4B
  8
TEAM-MAS
  2
*D7
 10
-203.576702
 20
800.0
 30
0.0
 11
-203.576702
 21
435.0
 31
0.0
 12
0.0
 22
-80000.0
 32
0.0
 70
   128
 13
0.0
 23
0.0
 33
0.0
 14
0.0
 24
800.0
 34
0.0
 50
90.0
  0
DIMENSION
  5
59
  8
TEAM-MAS
  2
*D6
 10
100.0
 20
262.325887
 30
0.0
 11
50.0
 21
290.900167
 31
0.0
 12
0.0
 22
-80000.0
 32
0.0
 70
   128
 13
0.0
 23
405.0
 33
0.0
 14
100.0
 24
360.980383
 34
0.0
  0
DIMENSION
  5
66
  8
TEAM-MAS
  2
*D5
 10
-99.172255
 20
435.0
 30
0.0
 11
-99.172255
 21
217.5
 31
0.0
 12
0.0
 22
-80000.0
 32
0.0
 13
0.0
 23
0.0
 33
0.0
 14
-30.0
 24
435.0
 34
0.0
 50
90.0
  0
DIMENSION
  5
74
  8
TEAM-MAS
  2
*D4
 10
-159.172255
 20
435.0
 30
0.0
 11
-159.172255
 21
217.5
 31
0.0
 12
0.0
 22
-80000.0
 32
0.0
  1
300-500
 13
0.0
 23
0.0
 33
0.0
 14
-30.0
 24
435.0
 34
0.0
 50
90.0
  0
DIMENSION
  5
82
  8
TEAM-MAS
  2
*D3
 10
-159.172255
 20
592.208558
 30
0.0
 11
-159.172255
 21
696.104279
 31
0.0
 12
0.0
 22
-80000.0
 32
0.0
 13
0.0
 23
800.0
 33
0.0
 14
79.0
 24
592.208558
 34
0.0
 50
90.0
  0
DIMENSION
  5
90
  8
TEAM-MAS
  2
*D2
 10
-98.961149
 20
720.0
 30
0.0
 11
-122.00249
 21
759.0
 31
0.0
 12
0.0
 22
-80000.0
 32
0.0
 70
   128
 13
40.211105
 23
800.0
 33
0.0
 14
0.0
 24
720.0
 34
0.0
 50
90.0
  0
DIMENSION
  5
9E
  8
TEAM-MAS
  2
*D1
 10
-98.961149
 20
800.0
 30
0.0
 11
-98.961149
 21
917.185387
 31
0.0
 12
0.0
 22
-80000.0
 32
0.0
 70
   128
 13
0.0
 23
842.0
 33
0.0
 14
0.0
 24
800.0
 34
0.0
 50
90.0
1001
ACAD
1000
DSTYLE
1002
{
1070
    40
1040
1.0
1002
}
  0
DIMENSION
  5
AD
  8
TEAM-MAS
  2
*D0
 10
-342.639431
 20
1020.0
 30
0.0
 11
-342.639431
 21
650.0
 31
0.0
 12
0.0
 22
-80000.0
 32
0.0
 70
   128
  1
950-1200
 13
0.0
 23
0.0
 33
0.0
 14
7.579317
 24
1020.0
 34
0.0
 50
90.0
  0
ARC
  5
BB
  8
TEAM-BODY
 10
294.571639
 20
661.00205
 30
0.0
 40
50.0
 50
274.016783
 51
353.919999
  0
LINE
  5
BD
  8
TEAM-BODY
 10
380.0
 20
800.0
 30
0.0
 11
0.0
 21
800.0
 31
0.0
  0
LINE
  5
BE
  8
TEAM-BODY
 10
380.0
 20
720.0
 30
0.0
 11
0.0
 21
720.0
 31
0.0
  0
TEXT
  5
BF
  8
TEAM-TXT
 10
29.960966
 20
617.715104
 30
0.0
 40
30.0
  1
team 421040
 41
0.8
 51
15.0
  7
TEAM
  0
LINE
  5
C2
  8
TEAM-KAN
 10
100.0
 20
555.0
 30
0.0
 11
100.0
 21
360.980383
 31
0.0
  0
LINE
  5
C4
  8
TEAM-HIDE
 10
0.0
 20
0.0
 30
0.0
 11
0.0
 21
985.132861
 31
0.0
  0
LINE
  5
C7
  8
TEAM-KAN
 10
30.0
 20
435.0
 30
0.0
 11
100.0
 21
435.0
 31
0.0
  0
CIRCLE
  5
C8
  8
TEAM-INSP
 10
0.0
 20
0.0
 30
0.0
 40
10.0
  0
LINE
  5
CA
  8
TEAM-AXE
 10
0.0
 20
405.0
 30
0.0
 11
0.0
 21
465.0
 31
0.0
  0
CIRCLE
  5
CD
  8
TEAM-KAN
 10
0.0
 20
435.0
 30
0.0
 40
20.0
  0
LINE
  5
CE
  8
TEAM-AXE
 10
-30.0
 20
435.0
 30
0.0
 11
30.0
 21
435.0
 31
0.0
  0
LINE
  5
CF
  8
TEAM-BODY
 10
79.0
 20
555.0
 30
0.0
 11
121.0
 21
555.0
 31
0.0
  0
ARC
  5
D0
  8
TEAM-BODY
 10
76.468758
 20
652.650481
 30
0.0
 40
60.652341
 50
189.063041
 51
270.448772
  0
LINE
  5
D1
  8
TEAM-BODY
 10
79.0
 20
592.208558
 30
0.0
 11
79.0
 21
555.0
 31
0.0
  0
LINE
  5
D2
  8
TEAM-BODY
 10
0.0
 20
842.0
 30
0.0
 11
0.0
 21
720.0
 31
0.0
  0
LINE
  5
D3
  8
TEAM-BODY
 10
20.0
 20
842.0
 30
0.0
 11
20.0
 21
800.0
 31
0.0
  0
LINE
  5
D4
  8
TEAM-BODY
 10
20.0
 20
842.0
 30
0.0
 11
0.0
 21
842.0
 31
0.0
  0
LINE
  5
D5
  8
TEAM-BODY
 10
20.0
 20
800.0
 30
0.0
 11
16.573624
 21
643.096458
 31
0.0
  0
LINE
  5
D6
  8
TEAM-AXE
 10
0.0
 20
1000.0
 30
0.0
 11
0.0
 21
1040.0
 31
0.0
  0
LINE
  5
D7
  8
TEAM-AXE
 10
-20.0
 20
1020.0
 30
0.0
 11
20.0
 21
1020.0
 31
0.0
  0
CIRCLE
  5
D8
  8
TEAM-COLD
 10
7.579317
 20
1020.0
 30
0.0
 40
15.0
  0
CIRCLE
  5
DA
  8
TEAM-WARM
 10
0.0
 20
1020.0
 30
0.0
 40
15.0
  0
LINE
  5
DC
  8
TEAM-BODY
 10
121.0
 20
596.468602
 30
0.0
 11
121.0
 21
555.0
 31
0.0
  0
LINE
  5
DD
  8
TEAM-AXE
 10
100.0
 20
592.0
 30
0.0
 11
100.0
 21
555.0
 31
0.0
  0
LINE
  5
DE
  8
TEAM-BODY
 10
76.943816
 20
592.0
 30
0.0
 11
298.074073
 21
611.124871
 31
0.0
  0
LINE
  5
DF
  8
TEAM-BODY
 10
349.754006
 20
720.0
 30
0.0
 11
344.290388
 21
655.7062
 31
0.0
  0
LINE
  5
E0
  8
TEAM-BODY
 10
380.0
 20
720.0
 30
0.0
 11
380.0
 21
800.0
 31
0.0
  0
ENDSEC
  0
EOF
