  0
SECTION
  2
HEADER
  9
$ACADVER
  1
AC1009
  9
$INSBASE
 10
0.0
 20
0.0
 30
0.0
  9
$EXTMIN
 10
-1050.133815
 20
-530.030541
 30
0.0
  9
$EXTMAX
 10
1139.604487
 20
52.364282
 30
0.000005
  9
$LIMMIN
 10
-1050.133815
 20
-530.030541
  9
$LIMMAX
 10
1139.604487
 20
52.364282
  9
$ORTHOMODE
 70
     1
  9
$REGENMODE
 70
     1
  9
$FILLMODE
 70
     1
  9
$QTEXTMODE
 70
     0
  9
$MIRRTEXT
 70
     0
  9
$DRAGMODE
 70
     2
  9
$LTSCALE
 40
50.0
  9
$OSMODE
 70
     0
  9
$ATTMODE
 70
     1
  9
$TEXTSIZE
 40
200.0
  9
$TRACEWID
 40
1.0
  9
$TEXTSTYLE
  7
STANDARD
  9
$CLAYER
  8
TEAM-MAS
  9
$CELTYPE
  6
BYLAYER
  9
$CECOLOR
 62
   256
  9
$DIMSCALE
 40
0.0
  9
$DIMASZ
 40
20.0
  9
$DIMEXO
 40
10.0
  9
$DIMDLI
 40
1.0
  9
$DIMRND
 40
0.0
  9
$DIMDLE
 40
0.0
  9
$DIMEXE
 40
1.0
  9
$DIMTP
 40
0.0
  9
$DIMTM
 40
0.0
  9
$DIMTXT
 40
35.0
  9
$DIMCEN
 40
1.0
  9
$DIMTSZ
 40
0.0
  9
$DIMTOL
 70
     0
  9
$DIMLIM
 70
     0
  9
$DIMTIH
 70
     0
  9
$DIMTOH
 70
     0
  9
$DIMSE1
 70
     0
  9
$DIMSE2
 70
     0
  9
$DIMTAD
 70
     0
  9
$DIMZIN
 70
     0
  9
$DIMBLK
  1

  9
$DIMASO
 70
     1
  9
$DIMSHO
 70
     0
  9
$DIMPOST
  1

  9
$DIMAPOST
  1

  9
$DIMALT
 70
     0
  9
$DIMALTD
 70
     2
  9
$DIMALTF
 40
25.4
  9
$DIMLFAC
 40
1.0
  9
$DIMTOFL
 70
     0
  9
$DIMTVP
 40
0.0
  9
$DIMTIX
 70
     0
  9
$DIMSOXD
 70
     0
  9
$DIMSAH
 70
     0
  9
$DIMBLK1
  1

  9
$DIMBLK2
  1

  9
$DIMSTYLE
  2
TEAM
  9
$DIMCLRD
 70
     9
  9
$DIMCLRE
 70
     9
  9
$DIMCLRT
 70
    11
  9
$DIMTFAC
 40
1.0
  9
$DIMGAP
 40
7.0
  9
$LUNITS
 70
     2
  9
$LUPREC
 70
     1
  9
$SKETCHINC
 40
1.0
  9
$FILLETRAD
 40
50.0
  9
$AUNITS
 70
     0
  9
$AUPREC
 70
     0
  9
$MENU
  1
ROPLANS
  9
$ELEVATION
 40
0.0
  9
$PELEVATION
 40
0.0
  9
$THICKNESS
 40
0.0
  9
$LIMCHECK
 70
     0
  9
$BLIPMODE
 70
     1
  9
$CHAMFERA
 40
0.0
  9
$CHAMFERB
 40
0.0
  9
$SKPOLY
 70
     0
  9
$TDCREATE
 40
2450392.957851
  9
$TDUPDATE
 40
2456272.033233
  9
$TDINDWG
 40
2.315654
  9
$TDUSRTIMER
 40
2.315654
  9
$USRTIMER
 70
     1
  9
$ANGBASE
 50
0.0
  9
$ANGDIR
 70
     0
  9
$PDMODE
 70
     0
  9
$PDSIZE
 40
0.0
  9
$PLINEWID
 40
0.0
  9
$COORDS
 70
     2
  9
$SPLFRAME
 70
     0
  9
$SPLINETYPE
 70
     6
  9
$SPLINESEGS
 70
     8
  9
$ATTDIA
 70
     0
  9
$ATTREQ
 70
     0
  9
$HANDLING
 70
     1
  9
$HANDSEED
  5
AC
  9
$SURFTAB1
 70
    24
  9
$SURFTAB2
 70
    24
  9
$SURFTYPE
 70
     6
  9
$SURFU
 70
     6
  9
$SURFV
 70
     6
  9
$UCSNAME
  2

  9
$UCSORG
 10
0.0
 20
0.0
 30
0.0
  9
$UCSXDIR
 10
1.0
 20
0.0
 30
0.0
  9
$UCSYDIR
 10
0.0
 20
1.0
 30
0.0
  9
$PUCSNAME
  2

  9
$PUCSORG
 10
0.0
 20
0.0
 30
0.0
  9
$PUCSXDIR
 10
1.0
 20
0.0
 30
0.0
  9
$PUCSYDIR
 10
0.0
 20
1.0
 30
0.0
  9
$USERI1
 70
     0
  9
$USERI2
 70
     0
  9
$USERI3
 70
     0
  9
$USERI4
 70
     0
  9
$USERI5
 70
     0
  9
$USERR1
 40
0.0
  9
$USERR2
 40
0.0
  9
$USERR3
 40
0.0
  9
$USERR4
 40
0.0
  9
$USERR5
 40
0.0
  9
$WORLDVIEW
 70
     1
  9
$SHADEDGE
 70
     0
  9
$SHADEDIF
 70
    70
  9
$TILEMODE
 70
     1
  9
$MAXACTVP
 70
    16
  9
$PLIMCHECK
 70
     0
  9
$PEXTMIN
 10
-0.805942
 20
0.005011
 30
0.0
  9
$PEXTMAX
 10
20.250094
 20
11.356329
 30
0.0
  9
$PLIMMIN
 10
0.0
 20
0.0
  9
$PLIMMAX
 10
12.0
 20
9.0
  9
$UNITMODE
 70
     0
  9
$VISRETAIN
 70
     0
  9
$PLINEGEN
 70
     0
  9
$PSLTSCALE
 70
     0
  0
ENDSEC
  0
SECTION
  2
TABLES
  0
TABLE
  2
VPORT
 70
     2
  0
VPORT
  2
*ACTIVE
 70
     0
 10
0.0
 20
0.0
 11
1.0
 21
1.0
 12
44.735336
 22
-238.83313
 13
0.0
 23
0.0
 14
1.0
 24
1.0
 15
50.0
 25
50.0
 16
0.0
 26
0.0
 36
1.0
 17
0.0
 27
0.0
 37
0.0
 40
1149.17366
 41
1.911765
 42
50.0
 43
0.0
 44
0.0
 50
0.0
 51
0.0
 71
     0
 72
   100
 73
     1
 74
     1
 75
     0
 76
     0
 77
     0
 78
     0
  0
ENDTAB
  0
TABLE
  2
LTYPE
 70
     2
  0
LTYPE
  2
CONTINUOUS
 70
     0
  3
Solid Line
 72
    65
 73
     0
 40
0.0
  0
LTYPE
  2
31
 70
     0
  3

 72
    65
 73
     4
 40
2.1
 49
1.5
 49
-0.3
 49
0.0
 49
-0.3
  0
ENDTAB
  0
TABLE
  2
LAYER
 70
     8
  0
LAYER
  2
0
 70
     0
 62
     7
  6
CONTINUOUS
  0
LAYER
  2
DEFPOINTS
 70
     0
 62
     7
  6
CONTINUOUS
  0
LAYER
  2
TEAM-BODY
 70
     0
 62
     2
  6
CONTINUOUS
  0
LAYER
  2
TEAM-AXE
 70
     0
 62
    10
  6
31
  0
LAYER
  2
TEAM-MAS
 70
     0
 62
     9
  6
CONTINUOUS
  0
LAYER
  2
TEAM-TXT
 70
     0
 62
    11
  6
CONTINUOUS
  0
LAYER
  2
TEAM-DET1
 70
     0
 62
     4
  6
CONTINUOUS
  0
LAYER
  2
TEAM-INSP
 70
     0
 62
     5
  6
CONTINUOUS
  0
ENDTAB
  0
TABLE
  2
STYLE
 70
     2
  0
STYLE
  2
STANDARD
 70
     0
 40
0.0
 41
1.0
 50
0.0
 71
     0
 42
200.0
  3
txt
  4

  0
STYLE
  2
TEAM
 70
     0
 40
0.0
 41
0.8
 50
15.0
 71
     0
 42
7.0
  3
ROMANS.shx
  4

  0
ENDTAB
  0
TABLE
  2
VIEW
 70
     0
  0
ENDTAB
  0
TABLE
  2
UCS
 70
     0
  0
ENDTAB
  0
TABLE
  2
APPID
 70
     1
  0
APPID
  2
ACAD
 70
     0
  0
ENDTAB
  0
TABLE
  2
DIMSTYLE
 70
     1
  0
DIMSTYLE
  2
TEAM
 70
     0
  3

  4

  5

  6

  7

 40
0.0
 41
20.0
 42
10.0
 43
1.0
 44
1.0
 45
0.0
 46
0.0
 47
0.0
 48
0.0
140
35.0
141
1.0
142
0.0
143
25.4
144
1.0
145
0.0
146
1.0
147
7.0
 71
     0
 72
     0
 73
     0
 74
     0
 75
     0
 76
     0
 77
     0
 78
     0
170
     0
171
     2
172
     0
173
     0
174
     0
175
     0
176
     9
177
     9
178
    11
  0
ENDTAB
  0
ENDSEC
  0
SECTION
  2
BLOCKS
  0
BLOCK
  8
0
  2
$MODEL_SPACE
 70
     0
 10
0.0
 20
0.0
 30
0.0
  3
$MODEL_SPACE
  1

  0
ENDBLK
  5
A5
  8
0
  0
BLOCK
 67
     1
  8
0
  2
$PAPER_SPACE
 70
     0
 10
0.0
 20
0.0
 30
0.0
  3
$PAPER_SPACE
  1

  0
ENDBLK
  5
A3
 67
     1
  8
0
  0
BLOCK
  8
0
  2
*D0
 70
     1
 10
0.0
 20
0.0
 30
0.0
  3
*D0
  1

  0
LINE
  5
3F
  8
0
  6
BYBLOCK
 62
     9
 10
6950.0
 20
115480.0
 30
0.0
 11
6950.0
 21
116035.832894
 31
0.0
  0
LINE
  5
40
  8
0
  6
BYBLOCK
 62
     9
 10
9050.0
 20
115480.0
 30
0.0
 11
9050.0
 21
116035.832894
 31
0.0
  0
LINE
  5
41
  8
0
  6
BYBLOCK
 62
     9
 10
6970.0
 20
116034.832894
 30
0.0
 11
7940.5
 21
116034.832894
 31
0.0
  0
LINE
  5
42
  8
0
  6
BYBLOCK
 62
     9
 10
9030.0
 20
116034.832894
 30
0.0
 11
8059.5
 21
116034.832894
 31
0.0
  0
SOLID
  5
43
  8
0
  6
BYBLOCK
 62
     9
 10
6970.0
 20
116038.166228
 30
0.0
 11
6970.0
 21
116031.499561
 31
0.0
 12
6950.0
 22
116034.832894
 32
0.0
 13
6950.0
 23
116034.832894
 33
0.0
  0
SOLID
  5
44
  8
0
  6
BYBLOCK
 62
     9
 10
9030.0
 20
116038.166228
 30
0.0
 11
9030.0
 21
116031.499561
 31
0.0
 12
9050.0
 22
116034.832894
 32
0.0
 13
9050.0
 23
116034.832894
 33
0.0
  0
TEXT
  5
45
  8
0
  6
BYBLOCK
 62
    11
 10
7947.5
 20
116017.332894
 30
0.0
 40
35.0
  1
2100
  0
POINT
  5
46
  8
DEFPOINTS
  6
BYBLOCK
 62
     0
 10
6950.0
 20
115470.0
 30
0.0
  0
POINT
  5
47
  8
DEFPOINTS
  6
BYBLOCK
 62
     0
 10
9050.0
 20
115470.0
 30
0.0
  0
POINT
  5
48
  8
DEFPOINTS
  6
BYBLOCK
 62
     0
 10
9050.0
 20
116034.832894
 30
0.0
  0
ENDBLK
  5
4A
  8
0
  0
BLOCK
  8
0
  2
*D1
 70
     1
 10
0.0
 20
0.0
 30
0.0
  3
*D1
  1

  0
LINE
  5
31
  8
0
  6
BYBLOCK
 62
     9
 10
8710.0
 20
115470.0
 30
0.0
 11
9123.056933
 21
115470.0
 31
0.0
  0
LINE
  5
32
  8
0
  6
BYBLOCK
 62
     9
 10
8710.0
 20
116000.0
 30
0.0
 11
9123.056933
 21
116000.0
 31
0.0
  0
LINE
  5
33
  8
0
  6
BYBLOCK
 62
     9
 10
9122.056933
 20
115490.0
 30
0.0
 11
9122.056933
 21
115684.25
 31
0.0
  0
LINE
  5
34
  8
0
  6
BYBLOCK
 62
     9
 10
9122.056933
 20
115980.0
 30
0.0
 11
9122.056933
 21
115785.75
 31
0.0
  0
SOLID
  5
35
  8
0
  6
BYBLOCK
 62
     9
 10
9118.7236
 20
115490.0
 30
0.0
 11
9125.390267
 21
115490.0
 31
0.0
 12
9122.056933
 22
115470.0
 32
0.0
 13
9122.056933
 23
115470.0
 33
0.0
  0
SOLID
  5
36
  8
0
  6
BYBLOCK
 62
     9
 10
9118.7236
 20
115980.0
 30
0.0
 11
9125.390267
 21
115980.0
 31
0.0
 12
9122.056933
 22
116000.0
 32
0.0
 13
9122.056933
 23
116000.0
 33
0.0
  0
TEXT
  5
37
  8
0
  6
BYBLOCK
 62
    11
 10
9139.556933
 20
115691.25
 30
0.0
 40
35.0
  1
530
 50
90.0
  0
POINT
  5
38
  8
DEFPOINTS
  6
BYBLOCK
 62
     0
 10
8700.0
 20
115470.0
 30
0.0
  0
POINT
  5
39
  8
DEFPOINTS
  6
BYBLOCK
 62
     0
 10
8700.0
 20
116000.0
 30
0.0
  0
POINT
  5
3A
  8
DEFPOINTS
  6
BYBLOCK
 62
     0
 10
9122.056933
 20
116000.0
 30
0.0
  0
ENDBLK
  5
3C
  8
0
  0
BLOCK
  8
0
  2
*D2
 70
     1
 10
0.0
 20
0.0
 30
0.0
  3
*D2
  1

  0
LINE
  5
22
  8
0
  6
BYBLOCK
 62
     9
 10
8710.0
 20
116000.0
 30
0.0
 11
9080.751362
 21
116000.0
 31
0.0
  0
LINE
  5
23
  8
0
  6
BYBLOCK
 62
     9
 10
8750.0
 20
115815.0
 30
0.0
 11
9080.751362
 21
115815.0
 31
0.0
  0
LINE
  5
24
  8
0
  6
BYBLOCK
 62
     9
 10
9079.751362
 20
115980.0
 30
0.0
 11
9079.751362
 21
115955.333333
 31
0.0
  0
LINE
  5
25
  8
0
  6
BYBLOCK
 62
     9
 10
9079.751362
 20
115835.0
 30
0.0
 11
9079.751362
 21
115859.666667
 31
0.0
  0
SOLID
  5
26
  8
0
  6
BYBLOCK
 62
     9
 10
9076.418028
 20
115980.0
 30
0.0
 11
9083.084695
 21
115980.0
 31
0.0
 12
9079.751362
 22
116000.0
 32
0.0
 13
9079.751362
 23
116000.0
 33
0.0
  0
SOLID
  5
27
  8
0
  6
BYBLOCK
 62
     9
 10
9076.418028
 20
115835.0
 30
0.0
 11
9083.084695
 21
115835.0
 31
0.0
 12
9079.751362
 22
115815.0
 32
0.0
 13
9079.751362
 23
115815.0
 33
0.0
  0
TEXT
  5
28
  8
0
  6
BYBLOCK
 62
    11
 10
9097.251362
 20
115866.666667
 30
0.0
 40
35.0
  1
185
 50
90.0
  0
POINT
  5
29
  8
DEFPOINTS
  6
BYBLOCK
 62
     0
 10
8700.0
 20
116000.0
 30
0.0
  0
POINT
  5
2B
  8
DEFPOINTS
  6
BYBLOCK
 62
     0
 10
8740.0
 20
115815.0
 30
0.0
  0
POINT
  5
2C
  8
DEFPOINTS
  6
BYBLOCK
 62
     0
 10
9079.751362
 20
115815.0
 30
0.0
  0
ENDBLK
  5
2E
  8
0
  0
ENDSEC
  0
SECTION
  2
ENTITIES
  0
DIMENSION
  5
20
  8
TEAM-MAS
  2
*D2
 10
1079.751362
 20
-185.0
 30
0.0
 11
1079.751362
 21
-92.5
 31
0.0
 12
-8000.0
 22
-116000.0
 32
0.0
 13
700.0
 23
0.0
 33
0.0
 14
740.0
 24
-185.0
 34
0.0
 50
90.0
  0
DIMENSION
  5
2F
  8
TEAM-MAS
  2
*D1
 10
1122.056933
 20
0.0
 30
0.0
 11
1122.056933
 21
-265.0
 31
0.0
 12
-8000.0
 22
-116000.0
 32
0.0
 13
700.0
 23
-530.0
 33
0.0
 14
700.0
 24
0.0
 34
0.0
 50
90.0
  0
DIMENSION
  5
3D
  8
TEAM-MAS
  2
*D0
 10
1050.0
 20
34.832894
 30
0.0
 11
0.0
 21
34.832894
 31
0.0
 12
-8000.0
 22
-116000.0
 32
0.0
 13
-1050.0
 23
-530.0
 33
0.0
 14
1050.0
 24
-530.0
 34
0.0
  0
LINE
  5
4B
  8
TEAM-BODY
 10
1050.0
 20
0.0
 30
0.0
 11
350.0
 21
0.0
 31
0.0
  0
LINE
  5
4D
  8
TEAM-DET1
 10
1050.0
 20
-10.0
 30
0.0
 11
350.0
 21
-10.0
 31
0.0
  0
LINE
  5
4F
  8
TEAM-BODY
 10
1050.0
 20
-530.0
 30
0.0
 11
350.0
 21
-530.0
 31
0.0
  0
ARC
  5
50
  8
TEAM-BODY
 10
700.0
 20
-229.92337
 30
0.0
 40
260.0
 50
153.767613
 51
26.232387
  0
ARC
  5
51
  8
TEAM-BODY
 10
0.0
 20
-229.92337
 30
0.0
 40
260.0
 50
153.767613
 51
26.232387
  0
LINE
  5
52
  8
TEAM-BODY
 10
-1050.0
 20
-530.0
 30
0.0
 11
-1050.0
 21
0.0
 31
0.0
  0
ARC
  5
53
  8
TEAM-BODY
 10
-700.0
 20
-229.92337
 30
0.0
 40
260.0
 50
153.767613
 51
26.232387
  0
LINE
  5
54
  8
TEAM-AXE
 10
-740.0
 20
-185.0
 30
0.0
 11
-660.0
 21
-185.0
 31
0.0
  0
CIRCLE
  5
57
  8
TEAM-BODY
 10
-700.0
 20
-185.0
 30
0.0
 40
20.0
  0
CIRCLE
  5
58
  8
TEAM-DET1
 10
-700.0
 20
-185.0
 30
0.0
 40
30.0
  0
LINE
  5
59
  8
TEAM-BODY
 10
-466.777748
 20
-115.0
 30
0.0
 11
-933.222252
 21
-115.0
 31
0.0
  0
LINE
  5
5A
  8
TEAM-BODY
 10
-350.0
 20
-530.0
 30
0.0
 11
-1050.0
 21
-530.0
 31
0.0
  0
LINE
  5
5B
  8
TEAM-AXE
 10
-700.0
 20
-225.0
 30
0.0
 11
-700.0
 21
-145.0
 31
0.0
  0
CIRCLE
  5
5C
  8
TEAM-DET1
 10
700.0
 20
-185.0
 30
0.0
 40
30.0
  0
LINE
  5
5D
  8
TEAM-AXE
 10
660.0
 20
-185.0
 30
0.0
 11
740.0
 21
-185.0
 31
0.0
  0
LINE
  5
5E
  8
TEAM-AXE
 10
700.0
 20
-225.0
 30
0.0
 11
700.0
 21
-145.0
 31
0.0
  0
CIRCLE
  5
5F
  8
TEAM-BODY
 10
700.0
 20
-185.0
 30
0.0
 40
20.0
  0
CIRCLE
  5
60
  8
TEAM-BODY
 10
0.0
 20
-185.0
 30
0.0
 40
20.0
  0
LINE
  5
61
  8
TEAM-AXE
 10
0.0
 20
-225.0
 30
0.0
 11
0.0
 21
-145.0
 31
0.0
  0
LINE
  5
62
  8
TEAM-AXE
 10
-40.0
 20
-185.0
 30
0.0
 11
40.0
 21
-185.0
 31
0.0
  0
CIRCLE
  5
63
  8
TEAM-DET1
 10
0.0
 20
-185.0
 30
0.0
 40
30.0
  0
LINE
  5
64
  8
TEAM-BODY
 10
233.222252
 20
-115.0
 30
0.0
 11
-233.222252
 21
-115.0
 31
0.0
  0
LINE
  5
65
  8
TEAM-BODY
 10
933.222252
 20
-115.0
 30
0.0
 11
466.777748
 21
-115.0
 31
0.0
  0
TEXT
  5
66
  8
TEAM-TXT
 10
-108.836879
 20
-374.287499
 30
0.0
 40
30.0
  1
team 421423
 41
0.8
 51
15.0
  7
TEAM
  0
LINE
  5
69
  8
TEAM-BODY
 10
350.0
 20
-530.0
 30
0.0
 11
-350.0
 21
-530.0
 31
0.0
  0
LINE
  5
6A
  8
TEAM-BODY
 10
-350.0
 20
0.0
 30
0.0
 11
-1050.0
 21
0.0
 31
0.0
  0
LINE
  5
6B
  8
TEAM-DET1
 10
-350.0
 20
-10.0
 30
0.0
 11
-1050.0
 21
-10.0
 31
0.0
  0
CIRCLE
  5
6C
  8
TEAM-DET1
 10
-700.0
 20
-60.815148
 30
0.0
 40
17.5
  0
CIRCLE
  5
6D
  8
TEAM-DET1
 10
700.0
 20
-60.815148
 30
0.0
 40
17.5
  0
CIRCLE
  5
6E
  8
TEAM-DET1
 10
0.0
 20
-60.815148
 30
0.0
 40
17.5
  0
CIRCLE
  5
6F
  8
TEAM-INSP
 10
0.0
 20
0.0
 30
0.0
 40
10.0
  0
LINE
  5
71
  8
TEAM-DET1
 10
350.0
 20
-10.0
 30
0.0
 11
-350.0
 21
-10.0
 31
0.0
  0
LINE
  5
72
  8
TEAM-BODY
 10
350.0
 20
0.0
 30
0.0
 11
-350.0
 21
0.0
 31
0.0
  0
LINE
  5
73
  8
TEAM-BODY
 10
1050.0
 20
-530.0
 30
0.0
 11
1050.0
 21
0.0
 31
0.0
  0
ENDSEC
  0
EOF
