  0
SECTION
  2
HEADER
  9
$ACADVER
  1
AC1009
  9
$INSBASE
 10
0.0
 20
0.0
 30
0.0
  9
$EXTMIN
 10
-1119.425545
 20
-10.065744
 30
-20.000243
  9
$EXTMAX
 10
1288.266046
 20
1042.82873
 30
20.001384
  9
$LIMMIN
 10
-1119.425545
 20
-10.065744
  9
$LIMMAX
 10
1288.266046
 20
1042.82873
  9
$ORTHOMODE
 70
     1
  9
$REGENMODE
 70
     1
  9
$FILLMODE
 70
     1
  9
$QTEXTMODE
 70
     0
  9
$MIRRTEXT
 70
     0
  9
$DRAGMODE
 70
     2
  9
$LTSCALE
 40
50.0
  9
$OSMODE
 70
     0
  9
$ATTMODE
 70
     1
  9
$TEXTSIZE
 40
200.0
  9
$TRACEWID
 40
1.0
  9
$TEXTSTYLE
  7
STANDARD
  9
$CLAYER
  8
TEAM-MAS
  9
$CELTYPE
  6
BYLAYER
  9
$CECOLOR
 62
   256
  9
$DIMSCALE
 40
0.0
  9
$DIMASZ
 40
20.0
  9
$DIMEXO
 40
10.0
  9
$DIMDLI
 40
1.0
  9
$DIMRND
 40
0.0
  9
$DIMDLE
 40
0.0
  9
$DIMEXE
 40
1.0
  9
$DIMTP
 40
0.0
  9
$DIMTM
 40
0.0
  9
$DIMTXT
 40
35.0
  9
$DIMCEN
 40
1.0
  9
$DIMTSZ
 40
0.0
  9
$DIMTOL
 70
     0
  9
$DIMLIM
 70
     0
  9
$DIMTIH
 70
     0
  9
$DIMTOH
 70
     0
  9
$DIMSE1
 70
     0
  9
$DIMSE2
 70
     0
  9
$DIMTAD
 70
     0
  9
$DIMZIN
 70
     0
  9
$DIMBLK
  1

  9
$DIMASO
 70
     1
  9
$DIMSHO
 70
     0
  9
$DIMPOST
  1

  9
$DIMAPOST
  1

  9
$DIMALT
 70
     0
  9
$DIMALTD
 70
     2
  9
$DIMALTF
 40
25.4
  9
$DIMLFAC
 40
1.0
  9
$DIMTOFL
 70
     0
  9
$DIMTVP
 40
0.0
  9
$DIMTIX
 70
     0
  9
$DIMSOXD
 70
     0
  9
$DIMSAH
 70
     0
  9
$DIMBLK1
  1

  9
$DIMBLK2
  1

  9
$DIMSTYLE
  2
TEAM
  9
$DIMCLRD
 70
     9
  9
$DIMCLRE
 70
     9
  9
$DIMCLRT
 70
    11
  9
$DIMTFAC
 40
1.0
  9
$DIMGAP
 40
7.0
  9
$LUNITS
 70
     2
  9
$LUPREC
 70
     1
  9
$SKETCHINC
 40
1.0
  9
$FILLETRAD
 40
50.0
  9
$AUNITS
 70
     0
  9
$AUPREC
 70
     0
  9
$MENU
  1
ROPLANS
  9
$ELEVATION
 40
0.0
  9
$PELEVATION
 40
0.0
  9
$THICKNESS
 40
0.0
  9
$LIMCHECK
 70
     0
  9
$BLIPMODE
 70
     1
  9
$CHAMFERA
 40
0.0
  9
$CHAMFERB
 40
0.0
  9
$SKPOLY
 70
     0
  9
$TDCREATE
 40
2450392.957851
  9
$TDUPDATE
 40
2456272.033233
  9
$TDINDWG
 40
2.315654
  9
$TDUSRTIMER
 40
2.315654
  9
$USRTIMER
 70
     1
  9
$ANGBASE
 50
0.0
  9
$ANGDIR
 70
     0
  9
$PDMODE
 70
     0
  9
$PDSIZE
 40
0.0
  9
$PLINEWID
 40
0.0
  9
$COORDS
 70
     2
  9
$SPLFRAME
 70
     0
  9
$SPLINETYPE
 70
     6
  9
$SPLINESEGS
 70
     8
  9
$ATTDIA
 70
     0
  9
$ATTREQ
 70
     0
  9
$HANDLING
 70
     1
  9
$HANDSEED
  5
23C
  9
$SURFTAB1
 70
    24
  9
$SURFTAB2
 70
    24
  9
$SURFTYPE
 70
     6
  9
$SURFU
 70
     6
  9
$SURFV
 70
     6
  9
$UCSNAME
  2

  9
$UCSORG
 10
0.0
 20
0.0
 30
0.0
  9
$UCSXDIR
 10
1.0
 20
0.0
 30
0.0
  9
$UCSYDIR
 10
0.0
 20
1.0
 30
0.0
  9
$PUCSNAME
  2

  9
$PUCSORG
 10
0.0
 20
0.0
 30
0.0
  9
$PUCSXDIR
 10
1.0
 20
0.0
 30
0.0
  9
$PUCSYDIR
 10
0.0
 20
1.0
 30
0.0
  9
$USERI1
 70
     0
  9
$USERI2
 70
     0
  9
$USERI3
 70
     0
  9
$USERI4
 70
     0
  9
$USERI5
 70
     0
  9
$USERR1
 40
0.0
  9
$USERR2
 40
0.0
  9
$USERR3
 40
0.0
  9
$USERR4
 40
0.0
  9
$USERR5
 40
0.0
  9
$WORLDVIEW
 70
     1
  9
$SHADEDGE
 70
     0
  9
$SHADEDIF
 70
    70
  9
$TILEMODE
 70
     1
  9
$MAXACTVP
 70
    16
  9
$PLIMCHECK
 70
     0
  9
$PEXTMIN
 10
-0.805942
 20
0.005011
 30
0.0
  9
$PEXTMAX
 10
20.250094
 20
11.356329
 30
0.0
  9
$PLIMMIN
 10
0.0
 20
0.0
  9
$PLIMMAX
 10
12.0
 20
9.0
  9
$UNITMODE
 70
     0
  9
$VISRETAIN
 70
     0
  9
$PLINEGEN
 70
     0
  9
$PSLTSCALE
 70
     0
  0
ENDSEC
  0
SECTION
  2
TABLES
  0
TABLE
  2
VPORT
 70
     2
  0
VPORT
  2
*ACTIVE
 70
     0
 10
0.0
 20
0.0
 11
1.0
 21
1.0
 12
84.42025
 22
516.381493
 13
0.0
 23
0.0
 14
1.0
 24
1.0
 15
50.0
 25
50.0
 16
0.0
 26
0.0
 36
1.0
 17
0.0
 27
0.0
 37
0.0
 40
1263.555447
 41
1.911765
 42
50.0
 43
0.0
 44
0.0
 50
0.0
 51
0.0
 71
     0
 72
   100
 73
     1
 74
     1
 75
     0
 76
     0
 77
     0
 78
     0
  0
ENDTAB
  0
TABLE
  2
LTYPE
 70
     3
  0
LTYPE
  2
CONTINUOUS
 70
     0
  3
Solid Line
 72
    65
 73
     0
 40
0.0
  0
LTYPE
  2
31
 70
     0
  3

 72
    65
 73
     4
 40
2.1
 49
1.5
 49
-0.3
 49
0.0
 49
-0.3
  0
LTYPE
  2
22
 70
     0
  3

 72
    65
 73
     2
 40
1.4
 49
1.2
 49
-0.2
  0
ENDTAB
  0
TABLE
  2
LAYER
 70
    12
  0
LAYER
  2
0
 70
     0
 62
     7
  6
CONTINUOUS
  0
LAYER
  2
DEFPOINTS
 70
     0
 62
     7
  6
CONTINUOUS
  0
LAYER
  2
TEAM-BODY
 70
     0
 62
     2
  6
CONTINUOUS
  0
LAYER
  2
TEAM-AXE
 70
     0
 62
    10
  6
31
  0
LAYER
  2
TEAM-MAS
 70
     0
 62
     9
  6
CONTINUOUS
  0
LAYER
  2
TEAM-TXT
 70
     0
 62
    11
  6
CONTINUOUS
  0
LAYER
  2
TEAM-COLD
 70
     0
 62
     3
  6
CONTINUOUS
  0
LAYER
  2
TEAM-HIDE
 70
     0
 62
     8
  6
22
  0
LAYER
  2
TEAM-KAN
 70
     0
 62
     6
  6
CONTINUOUS
  0
LAYER
  2
TEAM-DET3
 70
     0
 62
    14
  6
CONTINUOUS
  0
LAYER
  2
TEAM-WARM
 70
     0
 62
     1
  6
CONTINUOUS
  0
LAYER
  2
TEAM-INSP
 70
     0
 62
     5
  6
CONTINUOUS
  0
ENDTAB
  0
TABLE
  2
STYLE
 70
     2
  0
STYLE
  2
STANDARD
 70
     0
 40
0.0
 41
1.0
 50
0.0
 71
     0
 42
200.0
  3
txt
  4

  0
STYLE
  2
TEAM
 70
     0
 40
0.0
 41
0.8
 50
15.0
 71
     0
 42
7.0
  3
ROMANS.shx
  4

  0
ENDTAB
  0
TABLE
  2
VIEW
 70
     0
  0
ENDTAB
  0
TABLE
  2
UCS
 70
     0
  0
ENDTAB
  0
TABLE
  2
APPID
 70
     1
  0
APPID
  2
ACAD
 70
     0
  0
ENDTAB
  0
TABLE
  2
DIMSTYLE
 70
     1
  0
DIMSTYLE
  2
TEAM
 70
     0
  3

  4

  5

  6

  7

 40
0.0
 41
20.0
 42
10.0
 43
1.0
 44
1.0
 45
0.0
 46
0.0
 47
0.0
 48
0.0
140
35.0
141
1.0
142
0.0
143
25.4
144
1.0
145
0.0
146
1.0
147
7.0
 71
     0
 72
     0
 73
     0
 74
     0
 75
     0
 76
     0
 77
     0
 78
     0
170
     0
171
     2
172
     0
173
     0
174
     0
175
     0
176
     9
177
     9
178
    11
  0
ENDTAB
  0
ENDSEC
  0
SECTION
  2
BLOCKS
  0
BLOCK
  8
0
  2
$MODEL_SPACE
 70
     0
 10
0.0
 20
0.0
 30
0.0
  3
$MODEL_SPACE
  1

  0
ENDBLK
  5
208
  8
0
  0
BLOCK
 67
     1
  8
0
  2
$PAPER_SPACE
 70
     0
 10
0.0
 20
0.0
 30
0.0
  3
$PAPER_SPACE
  1

  0
ENDBLK
  5
206
 67
     1
  8
0
  0
BLOCK
  8
0
  2
*D0
 70
     1
 10
0.0
 20
0.0
 30
0.0
  3
*D0
  1

  0
LINE
  5
85
  8
0
  6
BYBLOCK
 62
     9
 10
12794.949874
 20
120600.0
 30
0.0
 11
13183.030434
 21
120600.0
 31
0.0
  0
LINE
  5
86
  8
0
  6
BYBLOCK
 62
     9
 10
12920.0
 20
120000.0
 30
0.0
 11
13183.030434
 21
120000.0
 31
0.0
  0
LINE
  5
87
  8
0
  6
BYBLOCK
 62
     9
 10
13182.030434
 20
120580.0
 30
0.0
 11
13182.030434
 21
120347.833333
 31
0.0
  0
LINE
  5
88
  8
0
  6
BYBLOCK
 62
     9
 10
13182.030434
 20
120020.0
 30
0.0
 11
13182.030434
 21
120252.166667
 31
0.0
  0
SOLID
  5
89
  8
0
  6
BYBLOCK
 62
     9
 10
13178.697101
 20
120580.0
 30
0.0
 11
13185.363767
 21
120580.0
 31
0.0
 12
13182.030434
 22
120600.0
 32
0.0
 13
13182.030434
 23
120600.0
 33
0.0
  0
SOLID
  5
8A
  8
0
  6
BYBLOCK
 62
     9
 10
13178.697101
 20
120020.0
 30
0.0
 11
13185.363767
 21
120020.0
 31
0.0
 12
13182.030434
 22
120000.0
 32
0.0
 13
13182.030434
 23
120000.0
 33
0.0
  0
TEXT
  5
8B
  8
0
  6
BYBLOCK
 62
    11
 10
13199.530434
 20
120259.166667
 30
0.0
 40
35.0
  1
600
 50
90.0
  0
POINT
  5
8C
  8
DEFPOINTS
  6
BYBLOCK
 62
     0
 10
12784.949874
 20
120600.0
 30
0.0
  0
POINT
  5
8D
  8
DEFPOINTS
  6
BYBLOCK
 62
     0
 10
12910.0
 20
120000.0
 30
10.0
  0
POINT
  5
8E
  8
DEFPOINTS
  6
BYBLOCK
 62
     0
 10
13182.030434
 20
120000.0
 30
20.0
  0
ENDBLK
  5
90
  8
0
  0
BLOCK
  8
0
  2
*D1
 70
     1
 10
0.0
 20
0.0
 30
0.0
  3
*D1
  1

  0
LINE
  5
77
  8
0
  6
BYBLOCK
 62
     9
 10
11925.0
 20
120579.783522
 30
0.0
 11
11925.0
 21
120450.0
 31
0.0
  0
LINE
  5
78
  8
0
  6
BYBLOCK
 62
     9
 10
12075.0
 20
120580.0
 30
0.0
 11
12075.0
 21
120450.0
 31
0.0
  0
LINE
  5
79
  8
0
  6
BYBLOCK
 62
     9
 10
11945.0
 20
120451.0
 30
0.0
 11
11955.083333
 21
120451.0
 31
0.0
  0
LINE
  5
7A
  8
0
  6
BYBLOCK
 62
     9
 10
12055.0
 20
120451.0
 30
0.0
 11
12044.916667
 21
120451.0
 31
0.0
  0
TEXT
  5
7B
  8
0
  6
BYBLOCK
 62
    11
 10
11962.083333
 20
120433.5
 30
0.0
 40
35.0
  1
150
  0
SOLID
  5
7C
  8
0
  6
BYBLOCK
 62
     9
 10
11945.0
 20
120454.333333
 30
0.0
 11
11945.0
 21
120447.666667
 31
0.0
 12
11925.0
 22
120451.0
 32
0.0
 13
11925.0
 23
120451.0
 33
0.0
  0
SOLID
  5
7D
  8
0
  6
BYBLOCK
 62
     9
 10
12055.0
 20
120454.333333
 30
0.0
 11
12055.0
 21
120447.666667
 31
0.0
 12
12075.0
 22
120451.0
 32
0.0
 13
12075.0
 23
120451.0
 33
0.0
  0
POINT
  5
7E
  8
DEFPOINTS
  6
BYBLOCK
 62
     0
 10
11925.0
 20
120589.783522
 30
20.0
  0
POINT
  5
7F
  8
DEFPOINTS
  6
BYBLOCK
 62
     0
 10
12075.0
 20
120590.0
 30
20.0
  0
POINT
  5
80
  8
DEFPOINTS
  6
BYBLOCK
 62
     0
 10
12075.0
 20
120451.0
 30
30.0
  0
ENDBLK
  5
82
  8
0
  0
BLOCK
  8
0
  2
*D2
 70
     1
 10
0.0
 20
0.0
 30
0.0
  3
*D2
  1

  0
LINE
  5
69
  8
0
  6
BYBLOCK
 62
     9
 10
11225.0
 20
120579.783522
 30
0.0
 11
11225.0
 21
120450.0
 31
0.0
  0
LINE
  5
6A
  8
0
  6
BYBLOCK
 62
     9
 10
11375.0
 20
120580.0
 30
0.0
 11
11375.0
 21
120450.0
 31
0.0
  0
LINE
  5
6B
  8
0
  6
BYBLOCK
 62
     9
 10
11245.0
 20
120451.0
 30
0.0
 11
11255.083333
 21
120451.0
 31
0.0
  0
LINE
  5
6C
  8
0
  6
BYBLOCK
 62
     9
 10
11355.0
 20
120451.0
 30
0.0
 11
11344.916667
 21
120451.0
 31
0.0
  0
TEXT
  5
6D
  8
0
  6
BYBLOCK
 62
    11
 10
11262.083333
 20
120433.5
 30
0.0
 40
35.0
  1
150
  0
SOLID
  5
6E
  8
0
  6
BYBLOCK
 62
     9
 10
11245.0
 20
120454.333333
 30
0.0
 11
11245.0
 21
120447.666667
 31
0.0
 12
11225.0
 22
120451.0
 32
0.0
 13
11225.0
 23
120451.0
 33
0.0
  0
SOLID
  5
6F
  8
0
  6
BYBLOCK
 62
     9
 10
11355.0
 20
120454.333333
 30
0.0
 11
11355.0
 21
120447.666667
 31
0.0
 12
11375.0
 22
120451.0
 32
0.0
 13
11375.0
 23
120451.0
 33
0.0
  0
POINT
  5
70
  8
DEFPOINTS
  6
BYBLOCK
 62
     0
 10
11225.0
 20
120589.783522
 30
20.0
  0
POINT
  5
71
  8
DEFPOINTS
  6
BYBLOCK
 62
     0
 10
11375.0
 20
120590.0
 30
20.0
  0
POINT
  5
72
  8
DEFPOINTS
  6
BYBLOCK
 62
     0
 10
11375.0
 20
120451.0
 30
30.0
  0
ENDBLK
  5
74
  8
0
  0
BLOCK
  8
0
  2
*D3
 70
     1
 10
0.0
 20
0.0
 30
0.0
  3
*D3
  1

  0
LINE
  5
5B
  8
0
  6
BYBLOCK
 62
     9
 10
12625.0
 20
120579.783522
 30
0.0
 11
12625.0
 21
120450.0
 31
0.0
  0
LINE
  5
5C
  8
0
  6
BYBLOCK
 62
     9
 10
12775.0
 20
120580.0
 30
0.0
 11
12775.0
 21
120450.0
 31
0.0
  0
LINE
  5
5D
  8
0
  6
BYBLOCK
 62
     9
 10
12645.0
 20
120451.0
 30
0.0
 11
12655.083333
 21
120451.0
 31
0.0
  0
LINE
  5
5E
  8
0
  6
BYBLOCK
 62
     9
 10
12755.0
 20
120451.0
 30
0.0
 11
12744.916667
 21
120451.0
 31
0.0
  0
TEXT
  5
5F
  8
0
  6
BYBLOCK
 62
    11
 10
12662.083333
 20
120433.5
 30
0.0
 40
35.0
  1
150
  0
SOLID
  5
60
  8
0
  6
BYBLOCK
 62
     9
 10
12645.0
 20
120454.333333
 30
0.0
 11
12645.0
 21
120447.666667
 31
0.0
 12
12625.0
 22
120451.0
 32
0.0
 13
12625.0
 23
120451.0
 33
0.0
  0
SOLID
  5
61
  8
0
  6
BYBLOCK
 62
     9
 10
12755.0
 20
120454.333333
 30
0.0
 11
12755.0
 21
120447.666667
 31
0.0
 12
12775.0
 22
120451.0
 32
0.0
 13
12775.0
 23
120451.0
 33
0.0
  0
POINT
  5
62
  8
DEFPOINTS
  6
BYBLOCK
 62
     0
 10
12625.0
 20
120589.783522
 30
20.0
  0
POINT
  5
63
  8
DEFPOINTS
  6
BYBLOCK
 62
     0
 10
12775.0
 20
120590.0
 30
20.0
  0
POINT
  5
64
  8
DEFPOINTS
  6
BYBLOCK
 62
     0
 10
12775.0
 20
120451.0
 30
30.0
  0
ENDBLK
  5
66
  8
0
  0
BLOCK
  8
0
  2
*D4
 70
     1
 10
0.0
 20
0.0
 30
0.0
  3
*D4
  1

  0
LINE
  5
4D
  8
0
  6
BYBLOCK
 62
     9
 10
12730.0
 20
120530.0
 30
0.0
 11
13225.029436
 21
120530.0
 31
0.0
  0
LINE
  5
4E
  8
0
  6
BYBLOCK
 62
     9
 10
12860.0
 20
120000.0
 30
0.0
 11
13225.029436
 21
120000.0
 31
0.0
  0
LINE
  5
4F
  8
0
  6
BYBLOCK
 62
     9
 10
13224.029436
 20
120510.0
 30
0.0
 11
13224.029436
 21
120315.75
 31
0.0
  0
LINE
  5
50
  8
0
  6
BYBLOCK
 62
     9
 10
13224.029436
 20
120020.0
 30
0.0
 11
13224.029436
 21
120214.25
 31
0.0
  0
SOLID
  5
51
  8
0
  6
BYBLOCK
 62
     9
 10
13220.696102
 20
120510.0
 30
0.0
 11
13227.362769
 21
120510.0
 31
0.0
 12
13224.029436
 22
120530.0
 32
0.0
 13
13224.029436
 23
120530.0
 33
0.0
  0
SOLID
  5
52
  8
0
  6
BYBLOCK
 62
     9
 10
13220.696102
 20
120020.0
 30
0.0
 11
13227.362769
 21
120020.0
 31
0.0
 12
13224.029436
 22
120000.0
 32
0.0
 13
13224.029436
 23
120000.0
 33
0.0
  0
TEXT
  5
53
  8
0
  6
BYBLOCK
 62
    11
 10
13241.529436
 20
120221.25
 30
0.0
 40
35.0
  1
530
 50
90.0
  0
POINT
  5
54
  8
DEFPOINTS
  6
BYBLOCK
 62
     0
 10
12720.0
 20
120530.0
 30
10.0
  0
POINT
  5
55
  8
DEFPOINTS
  6
BYBLOCK
 62
     0
 10
12850.0
 20
120000.0
 30
20.0
  0
POINT
  5
56
  8
DEFPOINTS
  6
BYBLOCK
 62
     0
 10
13224.029436
 20
120000.0
 30
10.0
  0
ENDBLK
  5
58
  8
0
  0
BLOCK
  8
0
  2
*D5
 70
     1
 10
0.0
 20
0.0
 30
0.0
  3
*D5
  1

  0
LINE
  5
3F
  8
0
  6
BYBLOCK
 62
     9
 10
12710.0
 20
120850.0
 30
0.0
 11
13225.029436
 21
120850.0
 31
0.0
  0
LINE
  5
40
  8
0
  6
BYBLOCK
 62
     9
 10
12730.0
 20
120530.0
 30
0.0
 11
13225.029436
 21
120530.0
 31
0.0
  0
LINE
  5
41
  8
0
  6
BYBLOCK
 62
     9
 10
13224.029436
 20
120830.0
 30
0.0
 11
13224.029436
 21
120740.75
 31
0.0
  0
LINE
  5
42
  8
0
  6
BYBLOCK
 62
     9
 10
13224.029436
 20
120550.0
 30
0.0
 11
13224.029436
 21
120639.25
 31
0.0
  0
SOLID
  5
43
  8
0
  6
BYBLOCK
 62
     9
 10
13220.696102
 20
120830.0
 30
0.0
 11
13227.362769
 21
120830.0
 31
0.0
 12
13224.029436
 22
120850.0
 32
0.0
 13
13224.029436
 23
120850.0
 33
0.0
  0
SOLID
  5
44
  8
0
  6
BYBLOCK
 62
     9
 10
13220.696102
 20
120550.0
 30
0.0
 11
13227.362769
 21
120550.0
 31
0.0
 12
13224.029436
 22
120530.0
 32
0.0
 13
13224.029436
 23
120530.0
 33
0.0
  0
TEXT
  5
45
  8
0
  6
BYBLOCK
 62
    11
 10
13241.529436
 20
120646.25
 30
0.0
 40
35.0
  1
320
 50
90.0
  0
POINT
  5
46
  8
DEFPOINTS
  6
BYBLOCK
 62
     0
 10
12700.0
 20
120850.0
 30
10.0
  0
POINT
  5
47
  8
DEFPOINTS
  6
BYBLOCK
 62
     0
 10
12720.0
 20
120530.0
 30
10.0
  0
POINT
  5
48
  8
DEFPOINTS
  6
BYBLOCK
 62
     0
 10
13224.029436
 20
120530.0
 30
20.0
  0
ENDBLK
  5
4A
  8
0
  0
BLOCK
  8
0
  2
*D6
 70
     1
 10
0.0
 20
0.0
 30
0.0
  3
*D6
  1

  0
LINE
  5
BD
  8
0
  6
BYBLOCK
 62
     9
 10
12840.0
 20
120824.0
 30
0.0
 11
12840.0
 21
120977.750228
 31
0.0
  0
LINE
  5
BE
  8
0
  6
BYBLOCK
 62
     9
 10
11160.0
 20
120824.0
 30
0.0
 11
11160.0
 21
120977.750228
 31
0.0
  0
LINE
  5
BF
  8
0
  6
BYBLOCK
 62
     9
 10
12820.0
 20
120976.750228
 30
0.0
 11
12062.416667
 21
120976.750228
 31
0.0
  0
LINE
  5
C0
  8
0
  6
BYBLOCK
 62
     9
 10
11180.0
 20
120976.750228
 30
0.0
 11
11937.583333
 21
120976.750228
 31
0.0
  0
SOLID
  5
C1
  8
0
  6
BYBLOCK
 62
     9
 10
12820.0
 20
120980.083561
 30
0.0
 11
12820.0
 21
120973.416895
 31
0.0
 12
12840.0
 22
120976.750228
 32
0.0
 13
12840.0
 23
120976.750228
 33
0.0
  0
SOLID
  5
C2
  8
0
  6
BYBLOCK
 62
     9
 10
11180.0
 20
120980.083561
 30
0.0
 11
11180.0
 21
120973.416895
 31
0.0
 12
11160.0
 22
120976.750228
 32
0.0
 13
11160.0
 23
120976.750228
 33
0.0
  0
TEXT
  5
C3
  8
0
  6
BYBLOCK
 62
    11
 10
11944.583333
 20
120959.250228
 30
0.0
 40
35.0
  1
1680
  0
POINT
  5
C4
  8
DEFPOINTS
  6
BYBLOCK
 62
     0
 10
12840.0
 20
120814.0
 30
0.0
  0
POINT
  5
C5
  8
DEFPOINTS
  6
BYBLOCK
 62
     0
 10
11160.0
 20
120814.0
 30
0.0
  0
POINT
  5
C6
  8
DEFPOINTS
  6
BYBLOCK
 62
     0
 10
11160.0
 20
120976.750228
 30
0.0
  0
ENDBLK
  5
C8
  8
0
  0
BLOCK
  8
0
  2
*D7
 70
     1
 10
0.0
 20
0.0
 30
0.0
  3
*D7
  1

  0
LINE
  5
AF
  8
0
  6
BYBLOCK
 62
     9
 10
12560.0
 20
120824.0
 30
0.0
 11
12560.0
 21
120929.223038
 31
0.0
  0
LINE
  5
B0
  8
0
  6
BYBLOCK
 62
     9
 10
11440.0
 20
120824.0
 30
0.0
 11
11440.0
 21
120929.223038
 31
0.0
  0
LINE
  5
B1
  8
0
  6
BYBLOCK
 62
     9
 10
12540.0
 20
120928.223038
 30
0.0
 11
12056.583333
 21
120928.223038
 31
0.0
  0
LINE
  5
B2
  8
0
  6
BYBLOCK
 62
     9
 10
11460.0
 20
120928.223038
 30
0.0
 11
11943.416667
 21
120928.223038
 31
0.0
  0
SOLID
  5
B3
  8
0
  6
BYBLOCK
 62
     9
 10
12540.0
 20
120931.556371
 30
0.0
 11
12540.0
 21
120924.889704
 31
0.0
 12
12560.0
 22
120928.223038
 32
0.0
 13
12560.0
 23
120928.223038
 33
0.0
  0
SOLID
  5
B4
  8
0
  6
BYBLOCK
 62
     9
 10
11460.0
 20
120931.556371
 30
0.0
 11
11460.0
 21
120924.889704
 31
0.0
 12
11440.0
 22
120928.223038
 32
0.0
 13
11440.0
 23
120928.223038
 33
0.0
  0
TEXT
  5
B5
  8
0
  6
BYBLOCK
 62
    11
 10
11950.416667
 20
120910.723038
 30
0.0
 40
35.0
  1
1120
  0
POINT
  5
B6
  8
DEFPOINTS
  6
BYBLOCK
 62
     0
 10
12560.0
 20
120814.0
 30
0.0
  0
POINT
  5
B7
  8
DEFPOINTS
  6
BYBLOCK
 62
     0
 10
11440.0
 20
120814.0
 30
0.0
  0
POINT
  5
B8
  8
DEFPOINTS
  6
BYBLOCK
 62
     0
 10
11440.0
 20
120928.223038
 30
0.0
  0
ENDBLK
  5
BA
  8
0
  0
BLOCK
  8
0
  2
*D8
 70
     1
 10
0.0
 20
0.0
 30
0.0
  3
*D8
  1

  0
LINE
  5
E9
  8
0
  6
BYBLOCK
 62
     9
 10
11300.0
 20
120560.0
 30
0.0
 11
11300.0
 21
120577.247925
 31
0.0
  0
LINE
  5
EA
  8
0
  6
BYBLOCK
 62
     9
 10
12000.0
 20
120560.0
 30
0.0
 11
12000.0
 21
120577.247925
 31
0.0
  0
LINE
  5
EB
  8
0
  6
BYBLOCK
 62
     9
 10
11320.0
 20
120576.247925
 30
0.0
 11
11602.166667
 21
120576.247925
 31
0.0
  0
LINE
  5
EC
  8
0
  6
BYBLOCK
 62
     9
 10
11980.0
 20
120576.247925
 30
0.0
 11
11697.833333
 21
120576.247925
 31
0.0
  0
SOLID
  5
ED
  8
0
  6
BYBLOCK
 62
     9
 10
11320.0
 20
120579.581258
 30
0.0
 11
11320.0
 21
120572.914591
 31
0.0
 12
11300.0
 22
120576.247925
 32
0.0
 13
11300.0
 23
120576.247925
 33
0.0
  0
SOLID
  5
EE
  8
0
  6
BYBLOCK
 62
     9
 10
11980.0
 20
120579.581258
 30
0.0
 11
11980.0
 21
120572.914591
 31
0.0
 12
12000.0
 22
120576.247925
 32
0.0
 13
12000.0
 23
120576.247925
 33
0.0
  0
TEXT
  5
EF
  8
0
  6
BYBLOCK
 62
    11
 10
11609.166667
 20
120558.747925
 30
0.0
 40
35.0
  1
700
  0
POINT
  5
F0
  8
DEFPOINTS
  6
BYBLOCK
 62
     0
 10
11300.0
 20
120550.0
 30
0.0
  0
POINT
  5
F1
  8
DEFPOINTS
  6
BYBLOCK
 62
     0
 10
12000.0
 20
120550.0
 30
0.0
  0
POINT
  5
F2
  8
DEFPOINTS
  6
BYBLOCK
 62
     0
 10
12000.0
 20
120576.247925
 30
0.0
  0
ENDBLK
  5
F4
  8
0
  0
BLOCK
  8
0
  2
*D9
 70
     1
 10
0.0
 20
0.0
 30
0.0
  3
*D9
  1

  0
LINE
  5
A1
  8
0
  6
BYBLOCK
 62
     9
 10
13050.0
 20
120860.0
 30
0.0
 11
13050.0
 21
121026.277418
 31
0.0
  0
LINE
  5
A2
  8
0
  6
BYBLOCK
 62
     9
 10
10950.0
 20
120860.0
 30
0.0
 11
10950.0
 21
121026.277418
 31
0.0
  0
LINE
  5
A3
  8
0
  6
BYBLOCK
 62
     9
 10
13030.0
 20
121025.277418
 30
0.0
 11
12059.5
 21
121025.277418
 31
0.0
  0
LINE
  5
A4
  8
0
  6
BYBLOCK
 62
     9
 10
10970.0
 20
121025.277418
 30
0.0
 11
11940.5
 21
121025.277418
 31
0.0
  0
SOLID
  5
A5
  8
0
  6
BYBLOCK
 62
     9
 10
13030.0
 20
121028.610752
 30
0.0
 11
13030.0
 21
121021.944085
 31
0.0
 12
13050.0
 22
121025.277418
 32
0.0
 13
13050.0
 23
121025.277418
 33
0.0
  0
SOLID
  5
A6
  8
0
  6
BYBLOCK
 62
     9
 10
10970.0
 20
121028.610752
 30
0.0
 11
10970.0
 21
121021.944085
 31
0.0
 12
10950.0
 22
121025.277418
 32
0.0
 13
10950.0
 23
121025.277418
 33
0.0
  0
TEXT
  5
A7
  8
0
  6
BYBLOCK
 62
    11
 10
11947.5
 20
121007.777418
 30
0.0
 40
35.0
  1
2100
  0
POINT
  5
A8
  8
DEFPOINTS
  6
BYBLOCK
 62
     0
 10
13050.0
 20
120850.0
 30
0.0
  0
POINT
  5
A9
  8
DEFPOINTS
  6
BYBLOCK
 62
     0
 10
10950.0
 20
120850.0
 30
0.0
  0
POINT
  5
AA
  8
DEFPOINTS
  6
BYBLOCK
 62
     0
 10
10950.0
 20
121025.277418
 30
0.0
  0
ENDBLK
  5
AC
  8
0
  0
BLOCK
  8
0
  2
*D10
 70
     1
 10
0.0
 20
0.0
 30
0.0
  3
*D10
  1

  0
LINE
  5
DC
  8
0
  6
BYBLOCK
 62
     9
 10
10940.0
 20
120850.0
 30
0.0
 11
10897.19466
 21
120850.0
 31
0.0
  0
LINE
  5
DD
  8
0
  6
BYBLOCK
 62
     9
 10
10940.0
 20
120790.0
 30
0.0
 11
10897.19466
 21
120790.0
 31
0.0
  0
LINE
  5
DE
  8
0
  6
BYBLOCK
 62
     9
 10
10898.19466
 20
120830.0
 30
0.0
 11
10898.19466
 21
120810.0
 31
0.0
  0
TEXT
  5
DF
  8
0
  6
BYBLOCK
 62
    11
 10
10915.69466
 20
120717.60917
 30
0.0
 40
35.0
  1
60
 50
90.0
  0
SOLID
  5
E0
  8
0
  6
BYBLOCK
 62
     9
 10
10894.861327
 20
120830.0
 30
0.0
 11
10901.527993
 21
120830.0
 31
0.0
 12
10898.19466
 22
120850.0
 32
0.0
 13
10898.19466
 23
120850.0
 33
0.0
  0
SOLID
  5
E1
  8
0
  6
BYBLOCK
 62
     9
 10
10894.861327
 20
120810.0
 30
0.0
 11
10901.527993
 21
120810.0
 31
0.0
 12
10898.19466
 22
120790.0
 32
0.0
 13
10898.19466
 23
120790.0
 33
0.0
  0
POINT
  5
E2
  8
DEFPOINTS
  6
BYBLOCK
 62
     0
 10
10950.0
 20
120850.0
 30
0.0
  0
POINT
  5
E3
  8
DEFPOINTS
  6
BYBLOCK
 62
     0
 10
10950.0
 20
120790.0
 30
0.0
  0
POINT
  5
E4
  8
DEFPOINTS
  6
BYBLOCK
 62
     0
 10
10898.19466
 20
120790.0
 30
0.0
  0
ENDBLK
  5
E6
  8
0
  0
BLOCK
  8
0
  2
*D11
 70
     1
 10
0.0
 20
0.0
 30
0.0
  3
*D11
  1

  0
LINE
  5
93
  8
0
  6
BYBLOCK
 62
     9
 10
12000.0
 20
120560.0
 30
0.0
 11
12000.0
 21
120577.247925
 31
0.0
  0
LINE
  5
94
  8
0
  6
BYBLOCK
 62
     9
 10
12700.0
 20
120560.0
 30
0.0
 11
12700.0
 21
120577.247925
 31
0.0
  0
LINE
  5
95
  8
0
  6
BYBLOCK
 62
     9
 10
12020.0
 20
120576.247925
 30
0.0
 11
12302.166667
 21
120576.247925
 31
0.0
  0
LINE
  5
96
  8
0
  6
BYBLOCK
 62
     9
 10
12680.0
 20
120576.247925
 30
0.0
 11
12397.833333
 21
120576.247925
 31
0.0
  0
SOLID
  5
97
  8
0
  6
BYBLOCK
 62
     9
 10
12020.0
 20
120579.581258
 30
0.0
 11
12020.0
 21
120572.914591
 31
0.0
 12
12000.0
 22
120576.247925
 32
0.0
 13
12000.0
 23
120576.247925
 33
0.0
  0
SOLID
  5
98
  8
0
  6
BYBLOCK
 62
     9
 10
12680.0
 20
120579.581258
 30
0.0
 11
12680.0
 21
120572.914591
 31
0.0
 12
12700.0
 22
120576.247925
 32
0.0
 13
12700.0
 23
120576.247925
 33
0.0
  0
TEXT
  5
99
  8
0
  6
BYBLOCK
 62
    11
 10
12309.166667
 20
120558.747925
 30
0.0
 40
35.0
  1
700
  0
POINT
  5
9A
  8
DEFPOINTS
  6
BYBLOCK
 62
     0
 10
12000.0
 20
120550.0
 30
0.0
  0
POINT
  5
9B
  8
DEFPOINTS
  6
BYBLOCK
 62
     0
 10
12700.0
 20
120550.0
 30
0.0
  0
POINT
  5
9C
  8
DEFPOINTS
  6
BYBLOCK
 62
     0
 10
12700.0
 20
120576.247925
 30
0.0
  0
ENDBLK
  5
9E
  8
0
  0
BLOCK
  8
0
  2
*D12
 70
     1
 10
0.0
 20
0.0
 30
0.0
  3
*D12
  1

  0
LINE
  5
CE
  8
0
  6
BYBLOCK
 62
     9
 10
11860.0
 20
120824.0
 30
0.0
 11
11860.0
 21
120880.695847
 31
0.0
  0
LINE
  5
CF
  8
0
  6
BYBLOCK
 62
     9
 10
12140.0
 20
120824.0
 30
0.0
 11
12140.0
 21
120880.695847
 31
0.0
  0
LINE
  5
D0
  8
0
  6
BYBLOCK
 62
     9
 10
11880.0
 20
120879.695847
 30
0.0
 11
11949.25
 21
120879.695847
 31
0.0
  0
LINE
  5
D1
  8
0
  6
BYBLOCK
 62
     9
 10
12120.0
 20
120879.695847
 30
0.0
 11
12050.75
 21
120879.695847
 31
0.0
  0
SOLID
  5
D2
  8
0
  6
BYBLOCK
 62
     9
 10
11880.0
 20
120883.029181
 30
0.0
 11
11880.0
 21
120876.362514
 31
0.0
 12
11860.0
 22
120879.695847
 32
0.0
 13
11860.0
 23
120879.695847
 33
0.0
  0
SOLID
  5
D3
  8
0
  6
BYBLOCK
 62
     9
 10
12120.0
 20
120883.029181
 30
0.0
 11
12120.0
 21
120876.362514
 31
0.0
 12
12140.0
 22
120879.695847
 32
0.0
 13
12140.0
 23
120879.695847
 33
0.0
  0
TEXT
  5
D4
  8
0
  6
BYBLOCK
 62
    11
 10
11956.25
 20
120862.195847
 30
0.0
 40
35.0
  1
280
  0
POINT
  5
D5
  8
DEFPOINTS
  6
BYBLOCK
 62
     0
 10
11860.0
 20
120814.0
 30
0.0
  0
POINT
  5
D6
  8
DEFPOINTS
  6
BYBLOCK
 62
     0
 10
12140.0
 20
120814.0
 30
0.0
  0
POINT
  5
D7
  8
DEFPOINTS
  6
BYBLOCK
 62
     0
 10
12140.0
 20
120879.695847
 30
0.0
  0
ENDBLK
  5
D9
  8
0
  0
BLOCK
  8
0
  2
*D13
 70
     1
 10
0.0
 20
0.0
 30
0.0
  3
*D13
  1

  0
LINE
  5
31
  8
0
  6
BYBLOCK
 62
     9
 10
12710.0
 20
120850.0
 30
0.0
 11
13271.64939
 21
120850.0
 31
0.0
  0
LINE
  5
32
  8
0
  6
BYBLOCK
 62
     9
 10
12010.0
 20
120000.0
 30
0.0
 11
13271.64939
 21
120000.0
 31
0.0
  0
LINE
  5
33
  8
0
  6
BYBLOCK
 62
     9
 10
13270.64939
 20
120830.0
 30
0.0
 11
13270.64939
 21
120475.75
 31
0.0
  0
LINE
  5
34
  8
0
  6
BYBLOCK
 62
     9
 10
13270.64939
 20
120020.0
 30
0.0
 11
13270.64939
 21
120374.25
 31
0.0
  0
SOLID
  5
35
  8
0
  6
BYBLOCK
 62
     9
 10
13267.316057
 20
120830.0
 30
0.0
 11
13273.982724
 21
120830.0
 31
0.0
 12
13270.64939
 22
120850.0
 32
0.0
 13
13270.64939
 23
120850.0
 33
0.0
  0
SOLID
  5
36
  8
0
  6
BYBLOCK
 62
     9
 10
13267.316057
 20
120020.0
 30
0.0
 11
13273.982724
 21
120020.0
 31
0.0
 12
13270.64939
 22
120000.0
 32
0.0
 13
13270.64939
 23
120000.0
 33
0.0
  0
TEXT
  5
37
  8
0
  6
BYBLOCK
 62
    11
 10
13288.14939
 20
120381.25
 30
0.0
 40
35.0
  1
850
 50
90.0
  0
POINT
  5
38
  8
DEFPOINTS
  6
BYBLOCK
 62
     0
 10
12700.0
 20
120850.0
 30
0.0
  0
POINT
  5
39
  8
DEFPOINTS
  6
BYBLOCK
 62
     0
 10
12000.0
 20
120000.0
 30
0.0
  0
POINT
  5
3A
  8
DEFPOINTS
  6
BYBLOCK
 62
     0
 10
13270.64939
 20
120000.0
 30
10.0
  0
ENDBLK
  5
3C
  8
0
  0
BLOCK
  8
0
  2
*D14
 70
     1
 10
0.0
 20
0.0
 30
0.0
  3
*D14
  1

  0
LINE
  5
22
  8
0
  6
BYBLOCK
 62
     9
 10
12710.0
 20
120850.0
 30
0.0
 11
13139.994491
 21
120850.0
 31
0.0
  0
LINE
  5
23
  8
0
  6
BYBLOCK
 62
     9
 10
12745.0
 20
120725.0
 30
0.0
 11
13139.994491
 21
120725.0
 31
0.0
  0
LINE
  5
24
  8
0
  6
BYBLOCK
 62
     9
 10
13138.994491
 20
120830.0
 30
0.0
 11
13138.994491
 21
120823.0
 31
0.0
  0
LINE
  5
25
  8
0
  6
BYBLOCK
 62
     9
 10
13138.994491
 20
120745.0
 30
0.0
 11
13138.994491
 21
120752.0
 31
0.0
  0
TEXT
  5
26
  8
0
  6
BYBLOCK
 62
    11
 10
13156.494491
 20
120746.666667
 30
0.0
 40
35.0
  1
125
 50
90.0
  0
SOLID
  5
27
  8
0
  6
BYBLOCK
 62
     9
 10
13135.661158
 20
120830.0
 30
0.0
 11
13142.327824
 21
120830.0
 31
0.0
 12
13138.994491
 22
120850.0
 32
0.0
 13
13138.994491
 23
120850.0
 33
0.0
  0
SOLID
  5
28
  8
0
  6
BYBLOCK
 62
     9
 10
13135.661158
 20
120745.0
 30
0.0
 11
13142.327824
 21
120745.0
 31
0.0
 12
13138.994491
 22
120725.0
 32
0.0
 13
13138.994491
 23
120725.0
 33
0.0
  0
POINT
  5
29
  8
DEFPOINTS
  6
BYBLOCK
 62
     0
 10
12700.0
 20
120850.0
 30
0.0
  0
POINT
  5
2B
  8
DEFPOINTS
  6
BYBLOCK
 62
     0
 10
12735.0
 20
120725.0
 30
0.0
  0
POINT
  5
2C
  8
DEFPOINTS
  6
BYBLOCK
 62
     0
 10
13138.994491
 20
120725.0
 30
10.0
  0
ENDBLK
  5
2E
  8
0
  0
BLOCK
  8
0
  2
*D15
 70
     1
 10
0.0
 20
0.0
 30
0.0
  3
*D15
  1

  0
LINE
  5
146
  8
0
  6
BYBLOCK
 62
     9
 10
12794.949874
 20
120600.0
 30
0.0
 11
13183.030434
 21
120600.0
 31
0.0
  0
LINE
  5
147
  8
0
  6
BYBLOCK
 62
     9
 10
12710.0
 20
120850.0
 30
0.0
 11
13183.030434
 21
120850.0
 31
0.0
  0
LINE
  5
148
  8
0
  6
BYBLOCK
 62
     9
 10
13182.030434
 20
120620.0
 30
0.0
 11
13182.030434
 21
120674.25
 31
0.0
  0
LINE
  5
149
  8
0
  6
BYBLOCK
 62
     9
 10
13182.030434
 20
120830.0
 30
0.0
 11
13182.030434
 21
120775.75
 31
0.0
  0
SOLID
  5
14A
  8
0
  6
BYBLOCK
 62
     9
 10
13178.697101
 20
120620.0
 30
0.0
 11
13185.363767
 21
120620.0
 31
0.0
 12
13182.030434
 22
120600.0
 32
0.0
 13
13182.030434
 23
120600.0
 33
0.0
  0
SOLID
  5
14B
  8
0
  6
BYBLOCK
 62
     9
 10
13178.697101
 20
120830.0
 30
0.0
 11
13185.363767
 21
120830.0
 31
0.0
 12
13182.030434
 22
120850.0
 32
0.0
 13
13182.030434
 23
120850.0
 33
0.0
  0
TEXT
  5
14C
  8
0
  6
BYBLOCK
 62
    11
 10
13199.530434
 20
120681.25
 30
0.0
 40
35.0
  1
250
 50
90.0
  0
POINT
  5
14D
  8
DEFPOINTS
  6
BYBLOCK
 62
     0
 10
12784.949874
 20
120600.0
 30
0.0
  0
POINT
  5
14E
  8
DEFPOINTS
  6
BYBLOCK
 62
     0
 10
12700.0
 20
120850.0
 30
0.0
  0
POINT
  5
14F
  8
DEFPOINTS
  6
BYBLOCK
 62
     0
 10
13182.030434
 20
120850.0
 30
0.0
  0
ENDBLK
  5
151
  8
0
  0
BLOCK
  8
0
  2
*D16
 70
     1
 10
0.0
 20
0.0
 30
0.0
  3
*D16
  1

  0
LINE
  5
137
  8
0
  6
BYBLOCK
 62
     9
 10
12710.0
 20
120850.0
 30
0.0
 11
13100.897149
 21
120850.0
 31
0.0
  0
LINE
  5
138
  8
0
  6
BYBLOCK
 62
     9
 10
12875.0
 20
120800.0
 30
0.0
 11
13100.897149
 21
120800.0
 31
0.0
  0
LINE
  5
139
  8
0
  6
BYBLOCK
 62
     9
 10
13099.897149
 20
120870.0
 30
0.0
 11
13099.897149
 21
120890.0
 31
0.0
  0
LINE
  5
13A
  8
0
  6
BYBLOCK
 62
     9
 10
13099.897149
 20
120780.0
 30
0.0
 11
13099.897149
 21
120760.0
 31
0.0
  0
TEXT
  5
13B
  8
0
  6
BYBLOCK
 62
    11
 10
13114.063816
 20
120895.737396
 30
0.0
 40
35.0
  1
50
 50
90.0
  0
LINE
  5
13C
  8
0
  6
BYBLOCK
 62
     9
 10
13099.897149
 20
120850.0
 30
0.0
 11
13099.897149
 21
120800.0
 31
0.0
  0
SOLID
  5
13D
  8
0
  6
BYBLOCK
 62
     9
 10
13096.563816
 20
120870.0
 30
0.0
 11
13103.230483
 21
120870.0
 31
0.0
 12
13099.897149
 22
120850.0
 32
0.0
 13
13099.897149
 23
120850.0
 33
0.0
  0
SOLID
  5
13E
  8
0
  6
BYBLOCK
 62
     9
 10
13096.563816
 20
120780.0
 30
0.0
 11
13103.230483
 21
120780.0
 31
0.0
 12
13099.897149
 22
120800.0
 32
0.0
 13
13099.897149
 23
120800.0
 33
0.0
  0
POINT
  5
13F
  8
DEFPOINTS
  6
BYBLOCK
 62
     0
 10
12700.0
 20
120850.0
 30
0.0
  0
POINT
  5
140
  8
DEFPOINTS
  6
BYBLOCK
 62
     0
 10
12865.0
 20
120800.0
 30
0.0
  0
POINT
  5
141
  8
DEFPOINTS
  6
BYBLOCK
 62
     0
 10
13099.897149
 20
120800.0
 30
0.0
  0
ENDBLK
  5
143
  8
0
  0
ENDSEC
  0
SECTION
  2
ENTITIES
  0
DIMENSION
  5
20
  8
TEAM-MAS
  2
*D14
 10
1138.994491
 20
725.0
 30
10.0
 11
1138.994491
 21
787.5
 31
0.0
 12
-12000.0
 22
-120000.0
 32
0.0
 70
   128
 13
700.0
 23
850.0
 33
0.0
 14
735.0
 24
725.0
 34
0.0
 50
90.0
  0
DIMENSION
  5
2F
  8
TEAM-MAS
  2
*D13
 10
1270.64939
 20
0.0
 30
10.0
 11
1270.64939
 21
425.0
 31
0.0
 12
-12000.0
 22
-120000.0
 32
0.0
 13
700.0
 23
850.0
 33
0.0
 14
0.0
 24
0.0
 34
0.0
 50
90.0
  0
DIMENSION
  5
3D
  8
TEAM-MAS
  2
*D5
 10
1224.029436
 20
530.0
 30
10.0
 11
1224.029436
 21
690.0
 31
-10.0
 12
-12000.0
 22
-120000.0
 32
-10.0
 13
700.0
 23
850.0
 33
0.0
 14
720.0
 24
530.0
 34
0.0
 50
90.0
  0
DIMENSION
  5
4B
  8
TEAM-MAS
  2
*D4
 10
1224.029436
 20
0.0
 30
0.0
 11
1224.029436
 21
265.0
 31
-10.0
 12
-12000.0
 22
-120000.0
 32
-10.0
 13
720.0
 23
530.0
 33
0.0
 14
850.0
 24
0.0
 34
10.0
 50
90.0
  0
DIMENSION
  5
59
  8
TEAM-MAS
  2
*D3
 10
775.0
 20
451.0
 30
10.0
 11
700.0
 21
451.0
 31
-20.0
 12
-12000.0
 22
-120000.0
 32
-20.0
 70
   128
 13
625.0
 23
589.783522
 33
0.0
 14
775.0
 24
590.0
 34
0.0
  0
DIMENSION
  5
67
  8
TEAM-MAS
  2
*D2
 10
-625.0
 20
451.0
 30
10.0
 11
-700.0
 21
451.0
 31
-20.0
 12
-12000.0
 22
-120000.0
 32
-20.0
 70
   128
 13
-775.0
 23
589.783522
 33
0.0
 14
-625.0
 24
590.0
 34
0.0
  0
DIMENSION
  5
75
  8
TEAM-MAS
  2
*D1
 10
75.0
 20
451.0
 30
10.0
 11
0.0
 21
451.0
 31
-20.0
 12
-12000.0
 22
-120000.0
 32
-20.0
 70
   128
 13
-75.0
 23
589.783522
 33
0.0
 14
75.0
 24
590.0
 34
0.0
  0
DIMENSION
  5
83
  8
TEAM-MAS
  2
*D0
 10
1182.030434
 20
0.0
 30
20.0
 11
1182.030434
 21
300.0
 31
0.0
 12
-12000.0
 22
-120000.0
 32
0.0
 13
784.949874
 23
600.0
 33
0.0
 14
910.0
 24
0.0
 34
10.0
 50
90.0
  0
DIMENSION
  5
91
  8
TEAM-MAS
  2
*D11
 10
700.0
 20
576.247925
 30
0.0
 11
350.0
 21
576.247925
 31
0.0
 12
-12000.0
 22
-120000.0
 32
0.0
 13
0.0
 23
550.0
 33
0.0
 14
700.0
 24
550.0
 34
0.0
  0
DIMENSION
  5
9F
  8
TEAM-MAS
  2
*D9
 10
-1050.0
 20
1025.277418
 30
0.0
 11
0.0
 21
1025.277418
 31
0.0
 12
-12000.0
 22
-120000.0
 32
0.0
 13
1050.0
 23
850.0
 33
0.0
 14
-1050.0
 24
850.0
 34
0.0
1001
ACAD
1000
DSTYLE
1002
{
1070
    78
1070
     0
1070
    40
1040
1.0
1002
}
  0
DIMENSION
  5
AD
  8
TEAM-MAS
  2
*D7
 10
-560.0
 20
928.223038
 30
0.0
 11
0.0
 21
928.223038
 31
0.0
 12
-12000.0
 22
-120000.0
 32
0.0
 13
560.0
 23
814.0
 33
0.0
 14
-560.0
 24
814.0
 34
0.0
1001
ACAD
1000
DSTYLE
1002
{
1070
    78
1070
     0
1070
    40
1040
1.0
1002
}
  0
DIMENSION
  5
BB
  8
TEAM-MAS
  2
*D6
 10
-840.0
 20
976.750228
 30
0.0
 11
0.0
 21
976.750228
 31
0.0
 12
-12000.0
 22
-120000.0
 32
0.0
 13
840.0
 23
814.0
 33
0.0
 14
-840.0
 24
814.0
 34
0.0
1001
ACAD
1000
DSTYLE
1002
{
1070
    78
1070
     0
1070
    40
1040
1.0
1002
}
  0
LINE
  5
C9
  8
TEAM-BODY
 10
1050.0
 20
850.0
 30
0.0
 11
350.0
 21
850.0
 31
0.0
  0
LINE
  5
CB
  8
TEAM-BODY
 10
1050.0
 20
790.0
 30
0.0
 11
350.0
 21
790.0
 31
0.0
  0
DIMENSION
  5
CC
  8
TEAM-MAS
  2
*D12
 10
140.0
 20
879.695847
 30
0.0
 11
0.0
 21
879.695847
 31
0.0
 12
-12000.0
 22
-120000.0
 32
0.0
 13
-140.0
 23
814.0
 33
0.0
 14
140.0
 24
814.0
 34
0.0
  0
DIMENSION
  5
DA
  8
TEAM-MAS
  2
*D10
 10
-1101.80534
 20
790.0
 30
0.0
 11
-1101.80534
 21
743.85917
 31
0.0
 12
-12000.0
 22
-120000.0
 32
0.0
 70
   128
 13
-1050.0
 23
850.0
 33
0.0
 14
-1050.0
 24
790.0
 34
0.0
 50
90.0
  0
DIMENSION
  5
E7
  8
TEAM-MAS
  2
*D8
 10
0.0
 20
576.247925
 30
0.0
 11
-350.0
 21
576.247925
 31
0.0
 12
-12000.0
 22
-120000.0
 32
0.0
 13
-700.0
 23
550.0
 33
0.0
 14
0.0
 24
550.0
 34
0.0
  0
ARC
  5
F5
  8
TEAM-BODY
 10
21.868077
 20
1128.086606
 30
0.0
 40
393.305895
 50
271.91338
 51
300.728055
  0
ARC
  5
F6
  8
TEAM-BODY
 10
-22.080057
 20
1127.598129
 30
0.0
 40
392.810661
 50
239.254031
 51
268.115144
  0
LINE
  5
F7
  8
TEAM-BODY
 10
-35.0
 20
725.0
 30
0.0
 11
35.0
 21
725.0
 31
0.0
  0
LINE
  5
F8
  8
TEAM-BODY
 10
-35.0
 20
735.0
 30
0.0
 11
35.0
 21
735.0
 31
0.0
  0
LINE
  5
F9
  8
TEAM-BODY
 10
-35.0
 20
735.0
 30
0.0
 11
-35.0
 21
725.0
 31
0.0
  0
LINE
  5
FA
  8
TEAM-BODY
 10
35.0
 20
725.0
 30
0.0
 11
35.0
 21
735.0
 31
0.0
  0
LINE
  5
FB
  8
TEAM-AXE
 10
-75.0
 20
589.783522
 30
0.0
 11
-75.0
 21
609.783522
 31
0.0
  0
CIRCLE
  5
FE
  8
TEAM-WARM
 10
-75.0
 20
599.783522
 30
0.0
 40
10.0
  0
LINE
  5
100
  8
TEAM-AXE
 10
-65.050126
 20
599.783522
 30
0.0
 11
-84.949874
 21
599.783522
 31
0.0
  0
LINE
  5
101
  8
TEAM-AXE
 10
75.0
 20
590.0
 30
0.0
 11
75.0
 21
610.0
 31
0.0
  0
CIRCLE
  5
102
  8
TEAM-COLD
 10
75.0
 20
600.0
 30
0.0
 40
10.0
  0
LINE
  5
104
  8
TEAM-AXE
 10
84.949874
 20
600.0
 30
0.0
 11
65.050126
 21
600.0
 31
0.0
  0
POLYLINE
  5
105
  8
TEAM-DET3
 66
     1
 10
0.0
 20
0.0
 30
0.0
  0
VERTEX
  5
20E
  8
TEAM-DET3
 10
150.0
 20
756.237527
 30
0.0
  0
VERTEX
  5
20F
  8
TEAM-DET3
 10
150.0
 20
725.0
 30
0.0
  0
VERTEX
  5
210
  8
TEAM-DET3
 10
-150.0
 20
725.0
 30
0.0
  0
VERTEX
  5
211
  8
TEAM-DET3
 10
-150.0
 20
756.19982
 30
0.0
  0
SEQEND
  5
212
  8
TEAM-DET3
  0
POLYLINE
  5
107
  8
TEAM-HIDE
 66
     1
 10
0.0
 20
0.0
 30
0.0
 70
     1
  0
VERTEX
  5
213
  8
TEAM-HIDE
 10
-129.0
 20
791.0
 30
0.0
 42
1.0
  0
VERTEX
  5
214
  8
TEAM-HIDE
 10
-129.0
 20
809.0
 30
0.0
  0
VERTEX
  5
215
  8
TEAM-HIDE
 10
-151.0
 20
809.0
 30
0.0
 42
1.0
  0
VERTEX
  5
216
  8
TEAM-HIDE
 10
-151.0
 20
791.0
 30
0.0
  0
SEQEND
  5
217
  8
TEAM-HIDE
  0
LINE
  5
10A
  8
TEAM-AXE
 10
-140.0
 20
814.0
 30
0.0
 11
-140.0
 21
786.0
 31
0.0
  0
LINE
  5
10B
  8
TEAM-AXE
 10
-165.0
 20
800.0
 30
0.0
 11
-115.0
 21
800.0
 31
0.0
  0
POLYLINE
  5
10C
  8
TEAM-HIDE
 66
     1
 10
0.0
 20
0.0
 30
0.0
 70
     1
  0
VERTEX
  5
218
  8
TEAM-HIDE
 10
151.0
 20
791.0
 30
0.0
 42
1.0
  0
VERTEX
  5
219
  8
TEAM-HIDE
 10
151.0
 20
809.0
 30
0.0
  0
VERTEX
  5
21A
  8
TEAM-HIDE
 10
129.0
 20
809.0
 30
0.0
 42
1.0
  0
VERTEX
  5
21B
  8
TEAM-HIDE
 10
129.0
 20
791.0
 30
0.0
  0
SEQEND
  5
21C
  8
TEAM-HIDE
  0
LINE
  5
10D
  8
TEAM-AXE
 10
140.0
 20
814.0
 30
0.0
 11
140.0
 21
786.0
 31
0.0
  0
LINE
  5
10E
  8
TEAM-AXE
 10
115.0
 20
800.0
 30
0.0
 11
165.0
 21
800.0
 31
0.0
  0
CIRCLE
  5
10F
  8
TEAM-KAN
 10
0.0
 20
530.0
 30
0.0
 40
20.0
  0
LINE
  5
111
  8
TEAM-AXE
 10
20.0
 20
530.0
 30
0.0
 11
-20.0
 21
530.0
 31
0.0
  0
LINE
  5
112
  8
TEAM-AXE
 10
0.0
 20
510.0
 30
0.0
 11
0.0
 21
550.0
 31
0.0
  0
LINE
  5
113
  8
TEAM-AXE
 10
0.0
 20
658.523386
 30
0.0
 11
0.0
 21
850.0
 31
0.0
  0
TEXT
  5
114
  8
TEAM-TXT
 10
-105.116187
 20
685.422206
 30
0.0
 40
30.0
  1
team 421423
 41
0.8
 51
15.0
  7
TEAM
  0
LINE
  5
117
  8
TEAM-BODY
 10
350.0
 20
790.0
 30
0.0
 11
-350.0
 21
790.0
 31
0.0
  0
LINE
  5
118
  8
TEAM-BODY
 10
350.0
 20
850.0
 30
0.0
 11
-350.0
 21
850.0
 31
0.0
  0
CIRCLE
  5
119
  8
TEAM-INSP
 10
0.0
 20
0.0
 30
0.0
 40
10.0
  0
LINE
  5
11B
  8
TEAM-BODY
 10
-1050.0
 20
850.0
 30
0.0
 11
-1050.0
 21
790.0
 31
0.0
  0
LINE
  5
11C
  8
TEAM-AXE
 10
-700.0
 20
658.523386
 30
0.0
 11
-700.0
 21
850.0
 31
0.0
  0
LINE
  5
11D
  8
TEAM-AXE
 10
-700.0
 20
510.0
 30
0.0
 11
-700.0
 21
550.0
 31
0.0
  0
LINE
  5
11E
  8
TEAM-AXE
 10
-680.0
 20
530.0
 30
0.0
 11
-720.0
 21
530.0
 31
0.0
  0
CIRCLE
  5
11F
  8
TEAM-KAN
 10
-700.0
 20
530.0
 30
0.0
 40
20.0
  0
LINE
  5
120
  8
TEAM-AXE
 10
-585.0
 20
800.0
 30
0.0
 11
-535.0
 21
800.0
 31
0.0
  0
LINE
  5
121
  8
TEAM-AXE
 10
-560.0
 20
814.0
 30
0.0
 11
-560.0
 21
786.0
 31
0.0
  0
POLYLINE
  5
122
  8
TEAM-HIDE
 66
     1
 10
0.0
 20
0.0
 30
0.0
 70
     1
  0
VERTEX
  5
21D
  8
TEAM-HIDE
 10
-549.0
 20
791.0
 30
0.0
 42
1.0
  0
VERTEX
  5
21E
  8
TEAM-HIDE
 10
-549.0
 20
809.0
 30
0.0
  0
VERTEX
  5
21F
  8
TEAM-HIDE
 10
-571.0
 20
809.0
 30
0.0
 42
1.0
  0
VERTEX
  5
220
  8
TEAM-HIDE
 10
-571.0
 20
791.0
 30
0.0
  0
SEQEND
  5
221
  8
TEAM-HIDE
  0
LINE
  5
123
  8
TEAM-AXE
 10
-865.0
 20
800.0
 30
0.0
 11
-815.0
 21
800.0
 31
0.0
  0
LINE
  5
124
  8
TEAM-AXE
 10
-840.0
 20
814.0
 30
0.0
 11
-840.0
 21
786.0
 31
0.0
  0
POLYLINE
  5
125
  8
TEAM-HIDE
 66
     1
 10
0.0
 20
0.0
 30
0.0
 70
     1
  0
VERTEX
  5
222
  8
TEAM-HIDE
 10
-829.0
 20
791.0
 30
0.0
 42
1.0
  0
VERTEX
  5
223
  8
TEAM-HIDE
 10
-829.0
 20
809.0
 30
0.0
  0
VERTEX
  5
224
  8
TEAM-HIDE
 10
-851.0
 20
809.0
 30
0.0
 42
1.0
  0
VERTEX
  5
225
  8
TEAM-HIDE
 10
-851.0
 20
791.0
 30
0.0
  0
SEQEND
  5
226
  8
TEAM-HIDE
  0
POLYLINE
  5
126
  8
TEAM-DET3
 66
     1
 10
0.0
 20
0.0
 30
0.0
  0
VERTEX
  5
227
  8
TEAM-DET3
 10
-550.0
 20
756.237527
 30
0.0
  0
VERTEX
  5
228
  8
TEAM-DET3
 10
-550.0
 20
725.0
 30
0.0
  0
VERTEX
  5
229
  8
TEAM-DET3
 10
-850.0
 20
725.0
 30
0.0
  0
VERTEX
  5
22A
  8
TEAM-DET3
 10
-850.0
 20
756.19982
 30
0.0
  0
SEQEND
  5
22B
  8
TEAM-DET3
  0
LINE
  5
127
  8
TEAM-AXE
 10
-615.050126
 20
600.0
 30
0.0
 11
-634.949874
 21
600.0
 31
0.0
  0
CIRCLE
  5
128
  8
TEAM-COLD
 10
-625.0
 20
600.0
 30
0.0
 40
10.0
  0
LINE
  5
129
  8
TEAM-AXE
 10
-625.0
 20
590.0
 30
0.0
 11
-625.0
 21
610.0
 31
0.0
  0
LINE
  5
12A
  8
TEAM-AXE
 10
-765.050126
 20
599.783522
 30
0.0
 11
-784.949874
 21
599.783522
 31
0.0
  0
CIRCLE
  5
12B
  8
TEAM-WARM
 10
-775.0
 20
599.783522
 30
0.0
 40
10.0
  0
LINE
  5
12C
  8
TEAM-AXE
 10
-775.0
 20
589.783522
 30
0.0
 11
-775.0
 21
609.783522
 31
0.0
  0
LINE
  5
12D
  8
TEAM-BODY
 10
-665.0
 20
725.0
 30
0.0
 11
-665.0
 21
735.0
 31
0.0
  0
LINE
  5
12E
  8
TEAM-BODY
 10
-735.0
 20
735.0
 30
0.0
 11
-735.0
 21
725.0
 31
0.0
  0
LINE
  5
12F
  8
TEAM-BODY
 10
-735.0
 20
735.0
 30
0.0
 11
-665.0
 21
735.0
 31
0.0
  0
LINE
  5
130
  8
TEAM-BODY
 10
-735.0
 20
725.0
 30
0.0
 11
-665.0
 21
725.0
 31
0.0
  0
ARC
  5
131
  8
TEAM-BODY
 10
-722.080057
 20
1127.598129
 30
0.0
 40
392.810661
 50
239.254031
 51
268.115144
  0
ARC
  5
132
  8
TEAM-BODY
 10
-678.131923
 20
1128.086606
 30
0.0
 40
393.305895
 50
271.91338
 51
300.728055
  0
LINE
  5
133
  8
TEAM-BODY
 10
-350.0
 20
850.0
 30
0.0
 11
-1050.0
 21
850.0
 31
0.0
  0
LINE
  5
134
  8
TEAM-BODY
 10
-350.0
 20
790.0
 30
0.0
 11
-1050.0
 21
790.0
 31
0.0
  0
DIMENSION
  5
135
  8
TEAM-MAS
  2
*D16
 10
1099.897149
 20
800.0
 30
0.0
 11
1096.563816
 21
921.987396
 31
0.0
 12
-12000.0
 22
-120000.0
 32
0.0
 70
   128
 13
700.0
 23
850.0
 33
0.0
 14
865.0
 24
800.0
 34
0.0
 50
90.0
  0
DIMENSION
  5
144
  8
TEAM-MAS
  2
*D15
 10
1182.030434
 20
850.0
 30
0.0
 11
1182.030434
 21
725.0
 31
0.0
 12
-12000.0
 22
-120000.0
 32
0.0
 13
784.949874
 23
600.0
 33
0.0
 14
700.0
 24
850.0
 34
0.0
 50
90.0
1001
ACAD
1000
DSTYLE
1002
{
1070
    78
1070
     0
1070
    40
1040
1.0
1002
}
  0
LINE
  5
152
  8
TEAM-AXE
 10
700.0
 20
658.523386
 30
0.0
 11
700.0
 21
850.0
 31
0.0
  0
LINE
  5
153
  8
TEAM-AXE
 10
700.0
 20
510.0
 30
0.0
 11
700.0
 21
550.0
 31
0.0
  0
LINE
  5
154
  8
TEAM-AXE
 10
720.0
 20
530.0
 30
0.0
 11
680.0
 21
530.0
 31
0.0
  0
CIRCLE
  5
155
  8
TEAM-KAN
 10
700.0
 20
530.0
 30
0.0
 40
20.0
  0
LINE
  5
156
  8
TEAM-AXE
 10
815.0
 20
800.0
 30
0.0
 11
865.0
 21
800.0
 31
0.0
  0
LINE
  5
157
  8
TEAM-AXE
 10
840.0
 20
814.0
 30
0.0
 11
840.0
 21
786.0
 31
0.0
  0
POLYLINE
  5
158
  8
TEAM-HIDE
 66
     1
 10
0.0
 20
0.0
 30
0.0
 70
     1
  0
VERTEX
  5
22C
  8
TEAM-HIDE
 10
851.0
 20
791.0
 30
0.0
 42
1.0
  0
VERTEX
  5
22D
  8
TEAM-HIDE
 10
851.0
 20
809.0
 30
0.0
  0
VERTEX
  5
22E
  8
TEAM-HIDE
 10
829.0
 20
809.0
 30
0.0
 42
1.0
  0
VERTEX
  5
22F
  8
TEAM-HIDE
 10
829.0
 20
791.0
 30
0.0
  0
SEQEND
  5
230
  8
TEAM-HIDE
  0
LINE
  5
159
  8
TEAM-AXE
 10
535.0
 20
800.0
 30
0.0
 11
585.0
 21
800.0
 31
0.0
  0
LINE
  5
15A
  8
TEAM-AXE
 10
560.0
 20
814.0
 30
0.0
 11
560.0
 21
786.0
 31
0.0
  0
POLYLINE
  5
15B
  8
TEAM-HIDE
 66
     1
 10
0.0
 20
0.0
 30
0.0
 70
     1
  0
VERTEX
  5
231
  8
TEAM-HIDE
 10
571.0
 20
791.0
 30
0.0
 42
1.0
  0
VERTEX
  5
232
  8
TEAM-HIDE
 10
571.0
 20
809.0
 30
0.0
  0
VERTEX
  5
233
  8
TEAM-HIDE
 10
549.0
 20
809.0
 30
0.0
 42
1.0
  0
VERTEX
  5
234
  8
TEAM-HIDE
 10
549.0
 20
791.0
 30
0.0
  0
SEQEND
  5
235
  8
TEAM-HIDE
  0
POLYLINE
  5
15C
  8
TEAM-DET3
 66
     1
 10
0.0
 20
0.0
 30
0.0
  0
VERTEX
  5
236
  8
TEAM-DET3
 10
850.0
 20
756.237527
 30
0.0
  0
VERTEX
  5
237
  8
TEAM-DET3
 10
850.0
 20
725.0
 30
0.0
  0
VERTEX
  5
238
  8
TEAM-DET3
 10
550.0
 20
725.0
 30
0.0
  0
VERTEX
  5
239
  8
TEAM-DET3
 10
550.0
 20
756.19982
 30
0.0
  0
SEQEND
  5
23A
  8
TEAM-DET3
  0
LINE
  5
15D
  8
TEAM-AXE
 10
784.949874
 20
600.0
 30
0.0
 11
765.050126
 21
600.0
 31
0.0
  0
CIRCLE
  5
15E
  8
TEAM-COLD
 10
775.0
 20
600.0
 30
0.0
 40
10.0
  0
LINE
  5
15F
  8
TEAM-AXE
 10
775.0
 20
590.0
 30
0.0
 11
775.0
 21
610.0
 31
0.0
  0
LINE
  5
160
  8
TEAM-AXE
 10
634.949874
 20
599.783522
 30
0.0
 11
615.050126
 21
599.783522
 31
0.0
  0
CIRCLE
  5
161
  8
TEAM-WARM
 10
625.0
 20
599.783522
 30
0.0
 40
10.0
  0
LINE
  5
162
  8
TEAM-AXE
 10
625.0
 20
589.783522
 30
0.0
 11
625.0
 21
609.783522
 31
0.0
  0
LINE
  5
163
  8
TEAM-BODY
 10
735.0
 20
725.0
 30
0.0
 11
735.0
 21
735.0
 31
0.0
  0
LINE
  5
164
  8
TEAM-BODY
 10
665.0
 20
735.0
 30
0.0
 11
665.0
 21
725.0
 31
0.0
  0
LINE
  5
165
  8
TEAM-BODY
 10
665.0
 20
735.0
 30
0.0
 11
735.0
 21
735.0
 31
0.0
  0
LINE
  5
166
  8
TEAM-BODY
 10
665.0
 20
725.0
 30
0.0
 11
735.0
 21
725.0
 31
0.0
  0
ARC
  5
167
  8
TEAM-BODY
 10
677.919943
 20
1127.598129
 30
0.0
 40
392.810661
 50
239.254031
 51
268.115144
  0
ARC
  5
168
  8
TEAM-BODY
 10
721.868077
 20
1128.086606
 30
0.0
 40
393.305895
 50
271.91338
 51
300.728055
  0
LINE
  5
169
  8
TEAM-BODY
 10
1050.0
 20
850.0
 30
0.0
 11
1050.0
 21
790.0
 31
0.0
  0
ENDSEC
  0
EOF
