  0
SECTION
  2
HEADER
  9
$ACADVER
  1
AC1009
  9
$INSBASE
 10
0.0
 20
0.0
 30
0.0
  9
$EXTMIN
 10
-353.72329
 20
-673.365966
 30
0.0
  9
$EXTMAX
 10
398.275879
 20
87.558986
 30
0.000005
  9
$LIMMIN
 10
-353.72329
 20
-673.365966
  9
$LIMMAX
 10
398.275879
 20
87.558986
  9
$ORTHOMODE
 70
     1
  9
$REGENMODE
 70
     1
  9
$FILLMODE
 70
     1
  9
$QTEXTMODE
 70
     0
  9
$MIRRTEXT
 70
     0
  9
$DRAGMODE
 70
     2
  9
$LTSCALE
 40
50.0
  9
$OSMODE
 70
     0
  9
$ATTMODE
 70
     1
  9
$TEXTSIZE
 40
200.0
  9
$TRACEWID
 40
1.0
  9
$TEXTSTYLE
  7
STANDARD
  9
$CLAYER
  8
TEAM-MAS
  9
$CELTYPE
  6
BYLAYER
  9
$CECOLOR
 62
   256
  9
$DIMSCALE
 40
0.0
  9
$DIMASZ
 40
20.0
  9
$DIMEXO
 40
10.0
  9
$DIMDLI
 40
1.0
  9
$DIMRND
 40
0.0
  9
$DIMDLE
 40
0.0
  9
$DIMEXE
 40
1.0
  9
$DIMTP
 40
0.0
  9
$DIMTM
 40
0.0
  9
$DIMTXT
 40
35.0
  9
$DIMCEN
 40
1.0
  9
$DIMTSZ
 40
0.0
  9
$DIMTOL
 70
     0
  9
$DIMLIM
 70
     0
  9
$DIMTIH
 70
     0
  9
$DIMTOH
 70
     0
  9
$DIMSE1
 70
     0
  9
$DIMSE2
 70
     0
  9
$DIMTAD
 70
     0
  9
$DIMZIN
 70
     0
  9
$DIMBLK
  1

  9
$DIMASO
 70
     1
  9
$DIMSHO
 70
     0
  9
$DIMPOST
  1

  9
$DIMAPOST
  1

  9
$DIMALT
 70
     0
  9
$DIMALTD
 70
     2
  9
$DIMALTF
 40
25.4
  9
$DIMLFAC
 40
1.0
  9
$DIMTOFL
 70
     0
  9
$DIMTVP
 40
0.0
  9
$DIMTIX
 70
     0
  9
$DIMSOXD
 70
     0
  9
$DIMSAH
 70
     0
  9
$DIMBLK1
  1

  9
$DIMBLK2
  1

  9
$DIMSTYLE
  2
TEAM
  9
$DIMCLRD
 70
     9
  9
$DIMCLRE
 70
     9
  9
$DIMCLRT
 70
    11
  9
$DIMTFAC
 40
1.0
  9
$DIMGAP
 40
7.0
  9
$LUNITS
 70
     2
  9
$LUPREC
 70
     1
  9
$SKETCHINC
 40
1.0
  9
$FILLETRAD
 40
50.0
  9
$AUNITS
 70
     0
  9
$AUPREC
 70
     0
  9
$MENU
  1
ROPLANS
  9
$ELEVATION
 40
0.0
  9
$PELEVATION
 40
0.0
  9
$THICKNESS
 40
0.0
  9
$LIMCHECK
 70
     0
  9
$BLIPMODE
 70
     1
  9
$CHAMFERA
 40
0.0
  9
$CHAMFERB
 40
0.0
  9
$SKPOLY
 70
     0
  9
$TDCREATE
 40
2450392.957851
  9
$TDUPDATE
 40
2456272.033233
  9
$TDINDWG
 40
2.315654
  9
$TDUSRTIMER
 40
2.315654
  9
$USRTIMER
 70
     1
  9
$ANGBASE
 50
0.0
  9
$ANGDIR
 70
     0
  9
$PDMODE
 70
     0
  9
$PDSIZE
 40
0.0
  9
$PLINEWID
 40
0.0
  9
$COORDS
 70
     2
  9
$SPLFRAME
 70
     0
  9
$SPLINETYPE
 70
     6
  9
$SPLINESEGS
 70
     8
  9
$ATTDIA
 70
     0
  9
$ATTREQ
 70
     0
  9
$HANDLING
 70
     1
  9
$HANDSEED
  5
D4
  9
$SURFTAB1
 70
    24
  9
$SURFTAB2
 70
    24
  9
$SURFTYPE
 70
     6
  9
$SURFU
 70
     6
  9
$SURFV
 70
     6
  9
$UCSNAME
  2

  9
$UCSORG
 10
0.0
 20
0.0
 30
0.0
  9
$UCSXDIR
 10
1.0
 20
0.0
 30
0.0
  9
$UCSYDIR
 10
0.0
 20
1.0
 30
0.0
  9
$PUCSNAME
  2

  9
$PUCSORG
 10
0.0
 20
0.0
 30
0.0
  9
$PUCSXDIR
 10
1.0
 20
0.0
 30
0.0
  9
$PUCSYDIR
 10
0.0
 20
1.0
 30
0.0
  9
$USERI1
 70
     0
  9
$USERI2
 70
     0
  9
$USERI3
 70
     0
  9
$USERI4
 70
     0
  9
$USERI5
 70
     0
  9
$USERR1
 40
0.0
  9
$USERR2
 40
0.0
  9
$USERR3
 40
0.0
  9
$USERR4
 40
0.0
  9
$USERR5
 40
0.0
  9
$WORLDVIEW
 70
     1
  9
$SHADEDGE
 70
     0
  9
$SHADEDIF
 70
    70
  9
$TILEMODE
 70
     1
  9
$MAXACTVP
 70
    16
  9
$PLIMCHECK
 70
     0
  9
$PEXTMIN
 10
-0.805942
 20
0.005011
 30
0.0
  9
$PEXTMAX
 10
20.250094
 20
11.356329
 30
0.0
  9
$PLIMMIN
 10
0.0
 20
0.0
  9
$PLIMMAX
 10
12.0
 20
9.0
  9
$UNITMODE
 70
     0
  9
$VISRETAIN
 70
     0
  9
$PLINEGEN
 70
     0
  9
$PSLTSCALE
 70
     0
  0
ENDSEC
  0
SECTION
  2
TABLES
  0
TABLE
  2
VPORT
 70
     2
  0
VPORT
  2
*ACTIVE
 70
     0
 10
0.0
 20
0.0
 11
1.0
 21
1.0
 12
22.276295
 22
-292.90349
 13
0.0
 23
0.0
 14
1.0
 24
1.0
 15
50.0
 25
50.0
 16
0.0
 26
0.0
 36
1.0
 17
0.0
 27
0.0
 37
0.0
 40
765.715666
 41
1.911765
 42
50.0
 43
0.0
 44
0.0
 50
0.0
 51
0.0
 71
     0
 72
   100
 73
     1
 74
     1
 75
     0
 76
     0
 77
     0
 78
     0
  0
ENDTAB
  0
TABLE
  2
LTYPE
 70
     2
  0
LTYPE
  2
CONTINUOUS
 70
     0
  3
Solid Line
 72
    65
 73
     0
 40
0.0
  0
LTYPE
  2
31
 70
     0
  3

 72
    65
 73
     4
 40
2.1
 49
1.5
 49
-0.3
 49
0.0
 49
-0.3
  0
ENDTAB
  0
TABLE
  2
LAYER
 70
    10
  0
LAYER
  2
0
 70
     0
 62
     7
  6
CONTINUOUS
  0
LAYER
  2
DEFPOINTS
 70
     0
 62
     7
  6
CONTINUOUS
  0
LAYER
  2
TEAM-BODY
 70
     0
 62
     2
  6
CONTINUOUS
  0
LAYER
  2
TEAM-AXE
 70
     0
 62
    10
  6
31
  0
LAYER
  2
TEAM-MAS
 70
     0
 62
     9
  6
CONTINUOUS
  0
LAYER
  2
TEAM-TXT
 70
     0
 62
    11
  6
CONTINUOUS
  0
LAYER
  2
TEAM-DET1
 70
     0
 62
     4
  6
CONTINUOUS
  0
LAYER
  2
TEAM-COLD
 70
     0
 62
     3
  6
CONTINUOUS
  0
LAYER
  2
TEAM-WARM
 70
     0
 62
     1
  6
CONTINUOUS
  0
LAYER
  2
TEAM-INSP
 70
     0
 62
     5
  6
CONTINUOUS
  0
ENDTAB
  0
TABLE
  2
STYLE
 70
     2
  0
STYLE
  2
STANDARD
 70
     0
 40
0.0
 41
1.0
 50
0.0
 71
     0
 42
200.0
  3
txt
  4

  0
STYLE
  2
TEAM
 70
     0
 40
0.0
 41
0.8
 50
15.0
 71
     0
 42
7.0
  3
ROMANS.shx
  4

  0
ENDTAB
  0
TABLE
  2
VIEW
 70
     0
  0
ENDTAB
  0
TABLE
  2
UCS
 70
     0
  0
ENDTAB
  0
TABLE
  2
APPID
 70
     1
  0
APPID
  2
ACAD
 70
     0
  0
ENDTAB
  0
TABLE
  2
DIMSTYLE
 70
     1
  0
DIMSTYLE
  2
TEAM
 70
     0
  3

  4

  5

  6

  7

 40
0.0
 41
20.0
 42
10.0
 43
1.0
 44
1.0
 45
0.0
 46
0.0
 47
0.0
 48
0.0
140
35.0
141
1.0
142
0.0
143
25.4
144
1.0
145
0.0
146
1.0
147
7.0
 71
     0
 72
     0
 73
     0
 74
     0
 75
     0
 76
     0
 77
     0
 78
     0
170
     0
171
     2
172
     0
173
     0
174
     0
175
     0
176
     9
177
     9
178
    11
  0
ENDTAB
  0
ENDSEC
  0
SECTION
  2
BLOCKS
  0
BLOCK
  8
0
  2
$MODEL_SPACE
 70
     0
 10
0.0
 20
0.0
 30
0.0
  3
$MODEL_SPACE
  1

  0
ENDBLK
  5
CD
  8
0
  0
BLOCK
 67
     1
  8
0
  2
$PAPER_SPACE
 70
     0
 10
0.0
 20
0.0
 30
0.0
  3
$PAPER_SPACE
  1

  0
ENDBLK
  5
CB
 67
     1
  8
0
  0
BLOCK
  8
0
  2
*D0
 70
     1
 10
0.0
 20
0.0
 30
0.0
  3
*D0
  1

  0
LINE
  5
22
  8
0
  6
BYBLOCK
 62
     9
 10
8350.0
 20
144000.0
 30
0.0
 11
8381.754368
 21
144000.0
 31
0.0
  0
LINE
  5
23
  8
0
  6
BYBLOCK
 62
     9
 10
8195.0
 20
143500.0
 30
0.0
 11
8381.754368
 21
143500.0
 31
0.0
  0
LINE
  5
24
  8
0
  6
BYBLOCK
 62
     9
 10
8380.754368
 20
143980.0
 30
0.0
 11
8380.754368
 21
143797.833333
 31
0.0
  0
LINE
  5
25
  8
0
  6
BYBLOCK
 62
     9
 10
8380.754368
 20
143520.0
 30
0.0
 11
8380.754368
 21
143702.166667
 31
0.0
  0
SOLID
  5
26
  8
0
  6
BYBLOCK
 62
     9
 10
8377.421034
 20
143980.0
 30
0.0
 11
8384.087701
 21
143980.0
 31
0.0
 12
8380.754368
 22
144000.0
 32
0.0
 13
8380.754368
 23
144000.0
 33
0.0
  0
SOLID
  5
27
  8
0
  6
BYBLOCK
 62
     9
 10
8377.421034
 20
143520.0
 30
0.0
 11
8384.087701
 21
143520.0
 31
0.0
 12
8380.754368
 22
143500.0
 32
0.0
 13
8380.754368
 23
143500.0
 33
0.0
  0
TEXT
  5
28
  8
0
  6
BYBLOCK
 62
    11
 10
8398.254368
 20
143709.166667
 30
0.0
 40
35.0
  1
500
 50
90.0
  0
POINT
  5
29
  8
DEFPOINTS
  6
BYBLOCK
 62
     0
 10
8340.0
 20
144000.0
 30
0.0
  0
POINT
  5
2B
  8
DEFPOINTS
  6
BYBLOCK
 62
     0
 10
8185.0
 20
143500.0
 30
0.0
  0
POINT
  5
2C
  8
DEFPOINTS
  6
BYBLOCK
 62
     0
 10
8380.754368
 20
143500.0
 30
0.0
  0
ENDBLK
  5
2E
  8
0
  0
BLOCK
  8
0
  2
*D1
 70
     1
 10
0.0
 20
0.0
 30
0.0
  3
*D1
  1

  0
LINE
  5
5B
  8
0
  6
BYBLOCK
 62
     9
 10
7650.0
 20
143971.826758
 30
0.0
 11
7650.0
 21
144033.296044
 31
0.0
  0
LINE
  5
5C
  8
0
  6
BYBLOCK
 62
     9
 10
8000.0
 20
143910.0
 30
0.0
 11
8000.0
 21
144033.296044
 31
0.0
  0
LINE
  5
5D
  8
0
  6
BYBLOCK
 62
     9
 10
7670.0
 20
144032.296044
 30
0.0
 11
7774.25
 21
144032.296044
 31
0.0
  0
LINE
  5
5E
  8
0
  6
BYBLOCK
 62
     9
 10
7980.0
 20
144032.296044
 30
0.0
 11
7875.75
 21
144032.296044
 31
0.0
  0
SOLID
  5
5F
  8
0
  6
BYBLOCK
 62
     9
 10
7670.0
 20
144035.629377
 30
0.0
 11
7670.0
 21
144028.962711
 31
0.0
 12
7650.0
 22
144032.296044
 32
0.0
 13
7650.0
 23
144032.296044
 33
0.0
  0
SOLID
  5
60
  8
0
  6
BYBLOCK
 62
     9
 10
7980.0
 20
144035.629377
 30
0.0
 11
7980.0
 21
144028.962711
 31
0.0
 12
8000.0
 22
144032.296044
 32
0.0
 13
8000.0
 23
144032.296044
 33
0.0
  0
TEXT
  5
61
  8
0
  6
BYBLOCK
 62
    11
 10
7781.25
 20
144014.796044
 30
0.0
 40
35.0
  1
350
  0
POINT
  5
62
  8
DEFPOINTS
  6
BYBLOCK
 62
     0
 10
7650.0
 20
143961.826758
 30
0.0
  0
POINT
  5
63
  8
DEFPOINTS
  6
BYBLOCK
 62
     0
 10
8000.0
 20
143900.0
 30
0.0
  0
POINT
  5
64
  8
DEFPOINTS
  6
BYBLOCK
 62
     0
 10
8000.0
 20
144032.296044
 30
0.0
  0
ENDBLK
  5
66
  8
0
  0
BLOCK
  8
0
  2
*D2
 70
     1
 10
0.0
 20
0.0
 30
0.0
  3
*D2
  1

  0
LINE
  5
4D
  8
0
  6
BYBLOCK
 62
     9
 10
7650.0
 20
143971.826758
 30
0.0
 11
7650.0
 21
144071.04242
 31
0.0
  0
LINE
  5
4E
  8
0
  6
BYBLOCK
 62
     9
 10
8350.0
 20
143971.826758
 30
0.0
 11
8350.0
 21
144071.04242
 31
0.0
  0
LINE
  5
4F
  8
0
  6
BYBLOCK
 62
     9
 10
7670.0
 20
144070.04242
 30
0.0
 11
7952.166667
 21
144070.04242
 31
0.0
  0
LINE
  5
50
  8
0
  6
BYBLOCK
 62
     9
 10
8330.0
 20
144070.04242
 30
0.0
 11
8047.833333
 21
144070.04242
 31
0.0
  0
SOLID
  5
51
  8
0
  6
BYBLOCK
 62
     9
 10
7670.0
 20
144073.375753
 30
0.0
 11
7670.0
 21
144066.709087
 31
0.0
 12
7650.0
 22
144070.04242
 32
0.0
 13
7650.0
 23
144070.04242
 33
0.0
  0
SOLID
  5
52
  8
0
  6
BYBLOCK
 62
     9
 10
8330.0
 20
144073.375753
 30
0.0
 11
8330.0
 21
144066.709087
 31
0.0
 12
8350.0
 22
144070.04242
 32
0.0
 13
8350.0
 23
144070.04242
 33
0.0
  0
TEXT
  5
53
  8
0
  6
BYBLOCK
 62
    11
 10
7959.166667
 20
144052.54242
 30
0.0
 40
35.0
  1
700
  0
POINT
  5
54
  8
DEFPOINTS
  6
BYBLOCK
 62
     0
 10
7650.0
 20
143961.826758
 30
0.0
  0
POINT
  5
55
  8
DEFPOINTS
  6
BYBLOCK
 62
     0
 10
8350.0
 20
143961.826758
 30
0.0
  0
POINT
  5
56
  8
DEFPOINTS
  6
BYBLOCK
 62
     0
 10
8350.0
 20
144070.04242
 30
0.0
  0
ENDBLK
  5
58
  8
0
  0
ENDSEC
  0
SECTION
  2
ENTITIES
  0
DIMENSION
  5
20
  8
TEAM-MAS
  2
*D0
 10
380.754368
 20
-500.0
 30
0.0
 11
380.754368
 21
-250.0
 31
0.0
 12
-8000.0
 22
-144000.0
 32
0.0
 13
340.0
 23
0.0
 33
0.0
 14
185.0
 24
-500.0
 34
0.0
 50
90.0
1001
ACAD
1000
DSTYLE
1002
{
1070
    40
1040
1.0
1002
}
  0
ARC
  5
2F
  8
TEAM-DET1
 10
-0.121731
 20
-362.443419
 30
0.0
 40
301.540537
 50
355.770088
 51
184.229912
  0
ARC
  5
31
  8
TEAM-BODY
 10
0.0
 20
-357.132769
 30
0.0
 40
316.202639
 50
355.001263
 51
184.998737
  0
LINE
  5
33
  8
TEAM-BODY
 10
-350.0
 20
-38.173242
 30
0.0
 11
-350.0
 21
-452.776252
 31
0.0
  0
LINE
  5
34
  8
TEAM-DET1
 10
270.956878
 20
-184.640724
 30
0.0
 11
335.0
 21
-125.532096
 31
0.0
  0
LINE
  5
35
  8
TEAM-DET1
 10
268.198532
 20
-180.382429
 30
0.0
 11
335.0
 21
-118.727984
 31
0.0
  0
LINE
  5
36
  8
TEAM-DET1
 10
273.65521
 20
-188.954408
 30
0.0
 11
335.0
 21
-132.336208
 31
0.0
  0
LINE
  5
37
  8
TEAM-DET1
 10
283.836767
 20
-206.773783
 30
0.0
 11
325.346897
 21
-168.46199
 31
0.0
  0
ARC
  5
38
  8
TEAM-DET1
 10
0.0
 20
-357.132769
 30
0.0
 40
321.202639
 50
27.911848
 51
64.256007
  0
LINE
  5
39
  8
TEAM-BODY
 10
350.0
 20
-452.776252
 30
0.0
 11
350.0
 21
-38.173242
 31
0.0
  0
LINE
  5
3A
  8
TEAM-BODY
 10
-185.0
 20
-470.0
 30
0.0
 11
185.0
 21
-470.0
 31
0.0
  0
LINE
  5
3B
  8
TEAM-BODY
 10
-185.0
 20
-500.0
 30
0.0
 11
185.0
 21
-500.0
 31
0.0
  0
TEXT
  5
3C
  8
TEAM-TXT
 10
-120.389284
 20
-401.412921
 30
0.0
 40
30.0
  1
team 431002
 41
0.8
 51
15.0
  7
TEAM
  0
ARC
  5
3F
  8
TEAM-BODY
 10
-295.0
 20
-427.690629
 30
0.0
 40
20.0
 50
180.0
 51
261.469234
  0
ARC
  5
40
  8
TEAM-BODY
 10
-330.0
 20
-452.776252
 30
0.0
 40
20.0
 50
180.0
 51
261.469234
  0
LINE
  5
41
  8
TEAM-BODY
 10
-315.0
 20
-384.684701
 30
0.0
 11
-315.0
 21
-427.690629
 31
0.0
  0
LINE
  5
42
  8
TEAM-DET1
 10
-300.840904
 20
-384.684701
 30
0.0
 11
-297.966809
 21
-447.469356
 31
0.0
  0
LINE
  5
43
  8
TEAM-BODY
 10
-297.966809
 20
-447.469356
 30
0.0
 11
-185.0
 21
-470.0
 31
0.0
  0
LINE
  5
44
  8
TEAM-BODY
 10
-332.966809
 20
-472.554979
 30
0.0
 11
-185.0
 21
-500.0
 31
0.0
  0
LINE
  5
45
  8
TEAM-BODY
 10
185.0
 20
-470.0
 30
0.0
 11
297.966809
 21
-447.469356
 31
0.0
  0
LINE
  5
46
  8
TEAM-BODY
 10
185.0
 20
-500.0
 30
0.0
 11
332.966809
 21
-472.554979
 31
0.0
  0
ARC
  5
47
  8
TEAM-BODY
 10
295.0
 20
-427.690629
 30
0.0
 40
20.0
 50
278.530766
 51
0.0
  0
ARC
  5
48
  8
TEAM-BODY
 10
330.0
 20
-452.776252
 30
0.0
 40
20.0
 50
278.530766
 51
0.0
  0
LINE
  5
49
  8
TEAM-BODY
 10
315.0
 20
-384.684701
 30
0.0
 11
315.0
 21
-427.690629
 31
0.0
  0
LINE
  5
4A
  8
TEAM-DET1
 10
300.597442
 20
-384.684701
 30
0.0
 11
297.966809
 21
-447.469356
 31
0.0
  0
DIMENSION
  5
4B
  8
TEAM-MAS
  2
*D2
 10
350.0
 20
70.04242
 30
0.0
 11
0.0
 21
70.04242
 31
0.0
 12
-8000.0
 22
-144000.0
 32
0.0
 13
-350.0
 23
-38.173242
 33
0.0
 14
350.0
 24
-38.173242
 34
0.0
1001
ACAD
1000
DSTYLE
1002
{
1070
    40
1040
1.0
1002
}
  0
DIMENSION
  5
59
  8
TEAM-MAS
  2
*D1
 10
0.0
 20
32.296044
 30
0.0
 11
-175.0
 21
32.296044
 31
0.0
 12
-8000.0
 22
-144000.0
 32
0.0
 13
-350.0
 23
-38.173242
 33
0.0
 14
0.0
 24
-100.0
 34
0.0
1001
ACAD
1000
DSTYLE
1002
{
1070
    40
1040
1.0
1002
}
  0
LINE
  5
67
  8
TEAM-BODY
 10
324.238113
 20
-20.0
 30
0.0
 11
-324.238113
 21
-20.0
 31
0.0
  0
LINE
  5
68
  8
TEAM-BODY
 10
340.0
 20
0.0
 30
0.0
 11
-340.0
 21
0.0
 31
0.0
  0
LINE
  5
69
  8
TEAM-AXE
 10
76.5
 20
-20.0
 30
0.0
 11
76.5
 21
20.0
 31
0.0
  0
LINE
  5
6C
  8
TEAM-AXE
 10
-76.5
 20
-20.0
 30
0.0
 11
-76.5
 21
20.0
 31
0.0
  0
ARC
  5
6D
  8
TEAM-BODY
 10
-324.238113
 20
-12.0
 30
0.0
 40
8.0
 50
180.0
 51
270.0
  0
LINE
  5
6E
  8
TEAM-BODY
 10
-332.238113
 20
0.0
 30
0.0
 11
-332.238113
 21
-12.0
 31
0.0
  0
LINE
  5
6F
  8
TEAM-AXE
 10
0.0
 20
-131.0
 30
0.0
 11
0.0
 21
-69.0
 31
0.0
  0
LINE
  5
70
  8
TEAM-AXE
 10
31.0
 20
-100.0
 30
0.0
 11
-31.0
 21
-100.0
 31
0.0
  0
CIRCLE
  5
71
  8
TEAM-DET1
 10
0.0
 20
-100.0
 30
0.0
 40
21.0
  0
CIRCLE
  5
72
  8
TEAM-BODY
 10
0.0
 20
-100.0
 30
0.0
 40
26.0
  0
CIRCLE
  5
73
  8
TEAM-COLD
 10
76.5
 20
0.0
 30
0.0
 40
15.0
  0
LINE
  5
75
  8
TEAM-AXE
 10
56.5
 20
0.0
 30
0.0
 11
96.5
 21
0.0
 31
0.0
  0
CIRCLE
  5
76
  8
TEAM-WARM
 10
-76.5
 20
0.0
 30
0.0
 40
15.0
  0
LINE
  5
78
  8
TEAM-AXE
 10
-96.5
 20
0.0
 30
0.0
 11
-56.5
 21
0.0
 31
0.0
  0
CIRCLE
  5
79
  8
TEAM-INSP
 10
0.0
 20
0.0
 30
0.0
 40
10.0
  0
ARC
  5
7B
  8
TEAM-BODY
 10
-330.0
 20
-38.173242
 30
0.0
 40
20.0
 50
138.590378
 51
180.0
  0
ARC
  5
7C
  8
TEAM-BODY
 10
-360.0
 20
-11.715729
 30
0.0
 40
20.0
 50
318.590378
 51
0.0
  0
LINE
  5
7D
  8
TEAM-BODY
 10
-340.0
 20
0.0
 30
0.0
 11
-340.0
 21
-11.715729
 31
0.0
  0
LINE
  5
7E
  8
TEAM-DET1
 10
162.863951
 20
-80.281783
 30
0.0
 11
222.760757
 21
-25.0
 31
0.0
  0
LINE
  5
7F
  8
TEAM-DET1
 10
188.735163
 20
-97.228607
 30
0.0
 11
266.993545
 21
-25.0
 31
0.0
  0
LINE
  5
80
  8
TEAM-DET1
 10
212.416635
 20
-116.196453
 30
0.0
 11
310.645587
 21
-25.535999
 31
0.0
  0
LINE
  5
81
  8
TEAM-DET1
 10
234.001195
 20
-137.099645
 30
0.0
 11
333.406705
 21
-45.353286
 31
0.0
  0
LINE
  5
82
  8
TEAM-DET1
 10
253.521949
 20
-159.907628
 30
0.0
 11
335.0
 21
-84.707425
 31
0.0
  0
ARC
  5
83
  8
TEAM-DET1
 10
305.0
 20
-146.416497
 30
0.0
 40
30.0
 50
312.705477
 51
360.0
  0
ARC
  5
84
  8
TEAM-DET1
 10
197.628434
 20
-55.0
 30
0.0
 40
30.0
 50
90.0
 51
132.705477
  0
LINE
  5
85
  8
TEAM-DET1
 10
139.514631
 20
-67.811489
 30
0.0
 11
177.281537
 21
-32.954507
 31
0.0
  0
LINE
  5
86
  8
TEAM-DET1
 10
158.328791
 20
-77.663399
 30
0.0
 11
215.388625
 21
-25.0
 31
0.0
  0
LINE
  5
87
  8
TEAM-DET1
 10
167.333885
 20
-82.960367
 30
0.0
 11
230.132888
 21
-25.0
 31
0.0
  0
LINE
  5
88
  8
TEAM-DET1
 10
167.333885
 20
-82.960367
 30
0.0
 11
230.132888
 21
-25.0
 31
0.0
  0
LINE
  5
89
  8
TEAM-DET1
 10
184.578836
 20
-94.260579
 30
0.0
 11
259.621413
 21
-25.0
 31
0.0
  0
LINE
  5
8A
  8
TEAM-DET1
 10
192.830825
 20
-100.252626
 30
0.0
 11
274.365676
 21
-25.0
 31
0.0
  0
LINE
  5
8B
  8
TEAM-DET1
 10
208.617062
 20
-112.899159
 30
0.0
 11
303.854201
 21
-25.0
 31
0.0
  0
LINE
  5
8C
  8
TEAM-DET1
 10
216.158092
 20
-119.547386
 30
0.0
 11
316.233619
 21
-27.182635
 31
0.0
  0
LINE
  5
8D
  8
TEAM-DET1
 10
237.397889
 20
-140.768777
 30
0.0
 11
334.724197
 21
-50.941418
 31
0.0
  0
LINE
  5
8E
  8
TEAM-DET1
 10
230.547295
 20
-133.483312
 30
0.0
 11
331.273189
 21
-40.518304
 31
0.0
  0
LINE
  5
8F
  8
TEAM-DET1
 10
237.397889
 20
-140.768777
 30
0.0
 11
334.724197
 21
-50.941418
 31
0.0
  0
LINE
  5
90
  8
TEAM-DET1
 10
250.41206
 20
-155.973789
 30
0.0
 11
335.0
 21
-77.903314
 31
0.0
  0
LINE
  5
91
  8
TEAM-DET1
 10
256.574027
 20
-163.894823
 30
0.0
 11
335.0
 21
-91.511537
 31
0.0
  0
ARC
  5
92
  8
TEAM-DET1
 10
305.0
 20
-55.0
 30
0.0
 40
30.0
 50
360.0
 51
90.0
  0
LINE
  5
93
  8
TEAM-DET1
 10
335.0
 20
-146.416497
 30
0.0
 11
335.0
 21
-55.0
 31
0.0
  0
LINE
  5
94
  8
TEAM-DET1
 10
305.0
 20
-25.0
 30
0.0
 11
197.628434
 21
-25.0
 31
0.0
  0
ARC
  5
95
  8
TEAM-BODY
 10
324.238113
 20
-12.0
 30
0.0
 40
8.0
 50
270.0
 51
0.0
  0
LINE
  5
96
  8
TEAM-BODY
 10
332.238113
 20
0.0
 30
0.0
 11
332.238113
 21
-12.0
 31
0.0
  0
ARC
  5
97
  8
TEAM-BODY
 10
330.0
 20
-38.173242
 30
0.0
 40
20.0
 50
0.0
 51
41.409622
  0
ARC
  5
98
  8
TEAM-BODY
 10
360.0
 20
-11.715729
 30
0.0
 40
20.0
 50
180.0
 51
221.409622
  0
LINE
  5
99
  8
TEAM-BODY
 10
340.0
 20
-11.715729
 30
0.0
 11
340.0
 21
0.0
 31
0.0
  0
ENDSEC
  0
EOF
