  0
SECTION
  2
HEADER
  9
$ACADVER
  1
AC1009
  9
$INSBASE
 10
0.0
 20
0.0
 30
0.0
  9
$EXTMIN
 10
-270.35299
 20
-10.062079
 30
0.0
  9
$EXTMAX
 10
559.244902
 20
1120.082052
 30
0.000005
  9
$LIMMIN
 10
-270.35299
 20
-10.062079
  9
$LIMMAX
 10
559.244902
 20
1120.082052
  9
$ORTHOMODE
 70
     1
  9
$REGENMODE
 70
     1
  9
$FILLMODE
 70
     1
  9
$QTEXTMODE
 70
     0
  9
$MIRRTEXT
 70
     0
  9
$DRAGMODE
 70
     2
  9
$LTSCALE
 40
50.0
  9
$OSMODE
 70
     0
  9
$ATTMODE
 70
     1
  9
$TEXTSIZE
 40
200.0
  9
$TRACEWID
 40
1.0
  9
$TEXTSTYLE
  7
STANDARD
  9
$CLAYER
  8
TEAM-MAS
  9
$CELTYPE
  6
BYLAYER
  9
$CECOLOR
 62
   256
  9
$DIMSCALE
 40
0.0
  9
$DIMASZ
 40
20.0
  9
$DIMEXO
 40
10.0
  9
$DIMDLI
 40
1.0
  9
$DIMRND
 40
0.0
  9
$DIMDLE
 40
0.0
  9
$DIMEXE
 40
1.0
  9
$DIMTP
 40
0.0
  9
$DIMTM
 40
0.0
  9
$DIMTXT
 40
35.0
  9
$DIMCEN
 40
1.0
  9
$DIMTSZ
 40
0.0
  9
$DIMTOL
 70
     0
  9
$DIMLIM
 70
     0
  9
$DIMTIH
 70
     0
  9
$DIMTOH
 70
     0
  9
$DIMSE1
 70
     0
  9
$DIMSE2
 70
     0
  9
$DIMTAD
 70
     0
  9
$DIMZIN
 70
     0
  9
$DIMBLK
  1

  9
$DIMASO
 70
     1
  9
$DIMSHO
 70
     0
  9
$DIMPOST
  1

  9
$DIMAPOST
  1

  9
$DIMALT
 70
     0
  9
$DIMALTD
 70
     2
  9
$DIMALTF
 40
25.4
  9
$DIMLFAC
 40
1.0
  9
$DIMTOFL
 70
     0
  9
$DIMTVP
 40
0.0
  9
$DIMTIX
 70
     0
  9
$DIMSOXD
 70
     0
  9
$DIMSAH
 70
     0
  9
$DIMBLK1
  1

  9
$DIMBLK2
  1

  9
$DIMSTYLE
  2
TEAM
  9
$DIMCLRD
 70
     9
  9
$DIMCLRE
 70
     9
  9
$DIMCLRT
 70
    11
  9
$DIMTFAC
 40
1.0
  9
$DIMGAP
 40
7.0
  9
$LUNITS
 70
     2
  9
$LUPREC
 70
     1
  9
$SKETCHINC
 40
1.0
  9
$FILLETRAD
 40
50.0
  9
$AUNITS
 70
     0
  9
$AUPREC
 70
     0
  9
$MENU
  1
ROPLANS
  9
$ELEVATION
 40
0.0
  9
$PELEVATION
 40
0.0
  9
$THICKNESS
 40
0.0
  9
$LIMCHECK
 70
     0
  9
$BLIPMODE
 70
     1
  9
$CHAMFERA
 40
0.0
  9
$CHAMFERB
 40
0.0
  9
$SKPOLY
 70
     0
  9
$TDCREATE
 40
2450392.957851
  9
$TDUPDATE
 40
2456272.033233
  9
$TDINDWG
 40
2.315654
  9
$TDUSRTIMER
 40
2.315654
  9
$USRTIMER
 70
     1
  9
$ANGBASE
 50
0.0
  9
$ANGDIR
 70
     0
  9
$PDMODE
 70
     0
  9
$PDSIZE
 40
0.0
  9
$PLINEWID
 40
0.0
  9
$COORDS
 70
     2
  9
$SPLFRAME
 70
     0
  9
$SPLINETYPE
 70
     6
  9
$SPLINESEGS
 70
     8
  9
$ATTDIA
 70
     0
  9
$ATTREQ
 70
     0
  9
$HANDLING
 70
     1
  9
$HANDSEED
  5
138
  9
$SURFTAB1
 70
    24
  9
$SURFTAB2
 70
    24
  9
$SURFTYPE
 70
     6
  9
$SURFU
 70
     6
  9
$SURFV
 70
     6
  9
$UCSNAME
  2

  9
$UCSORG
 10
0.0
 20
0.0
 30
0.0
  9
$UCSXDIR
 10
1.0
 20
0.0
 30
0.0
  9
$UCSYDIR
 10
0.0
 20
1.0
 30
0.0
  9
$PUCSNAME
  2

  9
$PUCSORG
 10
0.0
 20
0.0
 30
0.0
  9
$PUCSXDIR
 10
1.0
 20
0.0
 30
0.0
  9
$PUCSYDIR
 10
0.0
 20
1.0
 30
0.0
  9
$USERI1
 70
     0
  9
$USERI2
 70
     0
  9
$USERI3
 70
     0
  9
$USERI4
 70
     0
  9
$USERI5
 70
     0
  9
$USERR1
 40
0.0
  9
$USERR2
 40
0.0
  9
$USERR3
 40
0.0
  9
$USERR4
 40
0.0
  9
$USERR5
 40
0.0
  9
$WORLDVIEW
 70
     1
  9
$SHADEDGE
 70
     0
  9
$SHADEDIF
 70
    70
  9
$TILEMODE
 70
     1
  9
$MAXACTVP
 70
    16
  9
$PLIMCHECK
 70
     0
  9
$PEXTMIN
 10
-0.805942
 20
0.005011
 30
0.0
  9
$PEXTMAX
 10
20.250094
 20
11.356329
 30
0.0
  9
$PLIMMIN
 10
0.0
 20
0.0
  9
$PLIMMAX
 10
12.0
 20
9.0
  9
$UNITMODE
 70
     0
  9
$VISRETAIN
 70
     0
  9
$PLINEGEN
 70
     0
  9
$PSLTSCALE
 70
     0
  0
ENDSEC
  0
SECTION
  2
TABLES
  0
TABLE
  2
VPORT
 70
     2
  0
VPORT
  2
*ACTIVE
 70
     0
 10
0.0
 20
0.0
 11
1.0
 21
1.0
 12
144.445956
 22
555.009987
 13
0.0
 23
0.0
 14
1.0
 24
1.0
 15
50.0
 25
50.0
 16
0.0
 26
0.0
 36
1.0
 17
0.0
 27
0.0
 37
0.0
 40
1137.259415
 41
1.911765
 42
50.0
 43
0.0
 44
0.0
 50
0.0
 51
0.0
 71
     0
 72
   100
 73
     1
 74
     1
 75
     0
 76
     0
 77
     0
 78
     0
  0
ENDTAB
  0
TABLE
  2
LTYPE
 70
     2
  0
LTYPE
  2
CONTINUOUS
 70
     0
  3
Solid Line
 72
    65
 73
     0
 40
0.0
  0
LTYPE
  2
31
 70
     0
  3

 72
    65
 73
     4
 40
2.1
 49
1.5
 49
-0.3
 49
0.0
 49
-0.3
  0
ENDTAB
  0
TABLE
  2
LAYER
 70
    10
  0
LAYER
  2
0
 70
     0
 62
     7
  6
CONTINUOUS
  0
LAYER
  2
DEFPOINTS
 70
     0
 62
     7
  6
CONTINUOUS
  0
LAYER
  2
TEAM-BODY
 70
     0
 62
     2
  6
CONTINUOUS
  0
LAYER
  2
TEAM-AXE
 70
     0
 62
    10
  6
31
  0
LAYER
  2
TEAM-MAS
 70
     0
 62
     9
  6
CONTINUOUS
  0
LAYER
  2
TEAM-TXT
 70
     0
 62
    11
  6
CONTINUOUS
  0
LAYER
  2
TEAM-COLD
 70
     0
 62
     3
  6
CONTINUOUS
  0
LAYER
  2
TEAM-KAN
 70
     0
 62
     6
  6
CONTINUOUS
  0
LAYER
  2
TEAM-WARM
 70
     0
 62
     1
  6
CONTINUOUS
  0
LAYER
  2
TEAM-INSP
 70
     0
 62
     5
  6
CONTINUOUS
  0
ENDTAB
  0
TABLE
  2
STYLE
 70
     2
  0
STYLE
  2
STANDARD
 70
     0
 40
0.0
 41
1.0
 50
0.0
 71
     0
 42
200.0
  3
txt
  4

  0
STYLE
  2
TEAM
 70
     0
 40
0.0
 41
0.8
 50
15.0
 71
     0
 42
7.0
  3
ROMANS.shx
  4

  0
ENDTAB
  0
TABLE
  2
VIEW
 70
     0
  0
ENDTAB
  0
TABLE
  2
UCS
 70
     0
  0
ENDTAB
  0
TABLE
  2
APPID
 70
     1
  0
APPID
  2
ACAD
 70
     0
  0
ENDTAB
  0
TABLE
  2
DIMSTYLE
 70
     1
  0
DIMSTYLE
  2
TEAM
 70
     0
  3

  4

  5

  6

  7

 40
0.0
 41
20.0
 42
10.0
 43
1.0
 44
1.0
 45
0.0
 46
0.0
 47
0.0
 48
0.0
140
35.0
141
1.0
142
0.0
143
25.4
144
1.0
145
0.0
146
1.0
147
7.0
 71
     0
 72
     0
 73
     0
 74
     0
 75
     0
 76
     0
 77
     0
 78
     0
170
     0
171
     2
172
     0
173
     0
174
     0
175
     0
176
     9
177
     9
178
    11
  0
ENDTAB
  0
ENDSEC
  0
SECTION
  2
BLOCKS
  0
BLOCK
  8
0
  2
$MODEL_SPACE
 70
     0
 10
0.0
 20
0.0
 30
0.0
  3
$MODEL_SPACE
  1

  0
ENDBLK
  5
131
  8
0
  0
BLOCK
 67
     1
  8
0
  2
$PAPER_SPACE
 70
     0
 10
0.0
 20
0.0
 30
0.0
  3
$PAPER_SPACE
  1

  0
ENDBLK
  5
12F
 67
     1
  8
0
  0
BLOCK
  8
0
  2
*D0
 70
     1
 10
0.0
 20
0.0
 30
0.0
  3
*D0
  1

  0
LINE
  5
BD
  8
0
  6
BYBLOCK
 62
     9
 10
-10.0
 20
156850.0
 30
0.0
 11
-84.5782
 21
156850.0
 31
0.0
  0
LINE
  5
BE
  8
0
  6
BYBLOCK
 62
     9
 10
-10.0
 20
156827.0
 30
0.0
 11
-84.5782
 21
156827.0
 31
0.0
  0
LINE
  5
BF
  8
0
  6
BYBLOCK
 62
     9
 10
-83.5782
 20
156870.0
 30
0.0
 11
-83.5782
 21
156890.0
 31
0.0
  0
LINE
  5
C0
  8
0
  6
BYBLOCK
 62
     9
 10
-83.5782
 20
156807.0
 30
0.0
 11
-83.5782
 21
156787.0
 31
0.0
  0
TEXT
  5
C1
  8
0
  6
BYBLOCK
 62
    11
 10
-66.0782
 20
156892.453697
 30
0.0
 40
35.0
  1
23
 50
90.0
  0
LINE
  5
C2
  8
0
  6
BYBLOCK
 62
     9
 10
-83.5782
 20
156850.0
 30
0.0
 11
-83.5782
 21
156827.0
 31
0.0
  0
SOLID
  5
C3
  8
0
  6
BYBLOCK
 62
     9
 10
-86.911533
 20
156870.0
 30
0.0
 11
-80.244867
 21
156870.0
 31
0.0
 12
-83.5782
 22
156850.0
 32
0.0
 13
-83.5782
 23
156850.0
 33
0.0
  0
SOLID
  5
C4
  8
0
  6
BYBLOCK
 62
     9
 10
-86.911533
 20
156807.0
 30
0.0
 11
-80.244867
 21
156807.0
 31
0.0
 12
-83.5782
 22
156827.0
 32
0.0
 13
-83.5782
 23
156827.0
 33
0.0
  0
POINT
  5
C5
  8
DEFPOINTS
  6
BYBLOCK
 62
     0
 10
0.0
 20
156850.0
 30
0.0
  0
POINT
  5
C6
  8
DEFPOINTS
  6
BYBLOCK
 62
     0
 10
0.0
 20
156827.0
 30
0.0
  0
POINT
  5
C7
  8
DEFPOINTS
  6
BYBLOCK
 62
     0
 10
-83.5782
 20
156827.0
 30
0.0
  0
ENDBLK
  5
C9
  8
0
  0
BLOCK
  8
0
  2
*D1
 70
     1
 10
0.0
 20
0.0
 30
0.0
  3
*D1
  1

  0
LINE
  5
31
  8
0
  6
BYBLOCK
 62
     9
 10
520.0
 20
156800.0
 30
0.0
 11
541.898121
 21
156800.0
 31
0.0
  0
LINE
  5
32
  8
0
  6
BYBLOCK
 62
     9
 10
20.0
 20
156850.00283
 30
0.0
 11
541.898121
 21
156850.00283
 31
0.0
  0
LINE
  5
33
  8
0
  6
BYBLOCK
 62
     9
 10
540.898121
 20
156780.0
 30
0.0
 11
540.898121
 21
156760.0
 31
0.0
  0
LINE
  5
34
  8
0
  6
BYBLOCK
 62
     9
 10
540.898121
 20
156870.00283
 30
0.0
 11
540.898121
 21
156890.00283
 31
0.0
  0
TEXT
  5
35
  8
0
  6
BYBLOCK
 62
    11
 10
559.196201
 20
156899.689188
 30
0.0
 40
35.0
  1
50
 50
90.0
  0
LINE
  5
36
  8
0
  6
BYBLOCK
 62
     9
 10
540.898121
 20
156800.0
 30
0.0
 11
540.898121
 21
156850.00283
 31
0.0
  0
SOLID
  5
37
  8
0
  6
BYBLOCK
 62
     9
 10
537.564788
 20
156780.0
 30
0.0
 11
544.231455
 21
156780.0
 31
0.0
 12
540.898121
 22
156800.0
 32
0.0
 13
540.898121
 23
156800.0
 33
0.0
  0
SOLID
  5
38
  8
0
  6
BYBLOCK
 62
     9
 10
537.564788
 20
156870.00283
 30
0.0
 11
544.231455
 21
156870.00283
 31
0.0
 12
540.898121
 22
156850.00283
 32
0.0
 13
540.898121
 23
156850.00283
 33
0.0
  0
POINT
  5
39
  8
DEFPOINTS
  6
BYBLOCK
 62
     0
 10
510.0
 20
156800.0
 30
0.0
  0
POINT
  5
3A
  8
DEFPOINTS
  6
BYBLOCK
 62
     0
 10
10.0
 20
156850.00283
 30
0.0
  0
POINT
  5
3B
  8
DEFPOINTS
  6
BYBLOCK
 62
     0
 10
540.898121
 20
156850.00283
 30
0.0
  0
ENDBLK
  5
3D
  8
0
  0
BLOCK
  8
0
  2
*D2
 70
     1
 10
0.0
 20
0.0
 30
0.0
  3
*D2
  1

  0
LINE
  5
AF
  8
0
  6
BYBLOCK
 62
     9
 10
-10.0
 20
156000.0
 30
0.0
 11
-84.5782
 21
156000.0
 31
0.0
  0
LINE
  5
B0
  8
0
  6
BYBLOCK
 62
     9
 10
-10.0
 20
156350.0
 30
0.0
 11
-84.5782
 21
156350.0
 31
0.0
  0
LINE
  5
B1
  8
0
  6
BYBLOCK
 62
     9
 10
-83.5782
 20
156020.0
 30
0.0
 11
-83.5782
 21
156060.083333
 31
0.0
  0
LINE
  5
B2
  8
0
  6
BYBLOCK
 62
     9
 10
-83.5782
 20
156330.0
 30
0.0
 11
-83.5782
 21
156289.916667
 31
0.0
  0
SOLID
  5
B3
  8
0
  6
BYBLOCK
 62
     9
 10
-86.911533
 20
156020.0
 30
0.0
 11
-80.244867
 21
156020.0
 31
0.0
 12
-83.5782
 22
156000.0
 32
0.0
 13
-83.5782
 23
156000.0
 33
0.0
  0
SOLID
  5
B4
  8
0
  6
BYBLOCK
 62
     9
 10
-86.911533
 20
156330.0
 30
0.0
 11
-80.244867
 21
156330.0
 31
0.0
 12
-83.5782
 22
156350.0
 32
0.0
 13
-83.5782
 23
156350.0
 33
0.0
  0
TEXT
  5
B5
  8
0
  6
BYBLOCK
 62
    11
 10
-66.0782
 20
156067.083333
 30
0.0
 40
35.0
  1
300-450
 50
90.0
  0
POINT
  5
B6
  8
DEFPOINTS
  6
BYBLOCK
 62
     0
 10
0.0
 20
156000.0
 30
0.0
  0
POINT
  5
B7
  8
DEFPOINTS
  6
BYBLOCK
 62
     0
 10
0.0
 20
156350.0
 30
0.0
  0
POINT
  5
B8
  8
DEFPOINTS
  6
BYBLOCK
 62
     0
 10
-83.5782
 20
156350.0
 30
0.0
  0
ENDBLK
  5
BA
  8
0
  0
BLOCK
  8
0
  2
*D3
 70
     1
 10
0.0
 20
0.0
 30
0.0
  3
*D3
  1

  0
LINE
  5
A1
  8
0
  6
BYBLOCK
 62
     9
 10
-10.0
 20
156000.0
 30
0.0
 11
-42.270066
 21
156000.0
 31
0.0
  0
LINE
  5
A2
  8
0
  6
BYBLOCK
 62
     9
 10
-10.0
 20
156350.0
 30
0.0
 11
-42.270066
 21
156350.0
 31
0.0
  0
LINE
  5
A3
  8
0
  6
BYBLOCK
 62
     9
 10
-41.270066
 20
156020.0
 30
0.0
 11
-41.270066
 21
156124.25
 31
0.0
  0
LINE
  5
A4
  8
0
  6
BYBLOCK
 62
     9
 10
-41.270066
 20
156330.0
 30
0.0
 11
-41.270066
 21
156225.75
 31
0.0
  0
SOLID
  5
A5
  8
0
  6
BYBLOCK
 62
     9
 10
-44.603399
 20
156020.0
 30
0.0
 11
-37.936732
 21
156020.0
 31
0.0
 12
-41.270066
 22
156000.0
 32
0.0
 13
-41.270066
 23
156000.0
 33
0.0
  0
SOLID
  5
A6
  8
0
  6
BYBLOCK
 62
     9
 10
-44.603399
 20
156330.0
 30
0.0
 11
-37.936732
 21
156330.0
 31
0.0
 12
-41.270066
 22
156350.0
 32
0.0
 13
-41.270066
 23
156350.0
 33
0.0
  0
TEXT
  5
A7
  8
0
  6
BYBLOCK
 62
    11
 10
-23.770066
 20
156131.25
 30
0.0
 40
35.0
  1
350
 50
90.0
  0
POINT
  5
A8
  8
DEFPOINTS
  6
BYBLOCK
 62
     0
 10
0.0
 20
156000.0
 30
0.0
  0
POINT
  5
A9
  8
DEFPOINTS
  6
BYBLOCK
 62
     0
 10
0.0
 20
156350.0
 30
0.0
  0
POINT
  5
AA
  8
DEFPOINTS
  6
BYBLOCK
 62
     0
 10
-41.270066
 20
156350.0
 30
0.0
  0
ENDBLK
  5
AC
  8
0
  0
BLOCK
  8
0
  2
*D4
 70
     1
 10
0.0
 20
0.0
 30
0.0
  3
*D4
  1

  0
LINE
  5
94
  8
0
  6
BYBLOCK
 62
     9
 10
0.0
 20
156340.0
 30
0.0
 11
0.0
 21
156238.571197
 31
0.0
  0
LINE
  5
95
  8
0
  6
BYBLOCK
 62
     9
 10
100.0
 20
156265.980383
 30
0.0
 11
100.0
 21
156238.571197
 31
0.0
  0
LINE
  5
96
  8
0
  6
BYBLOCK
 62
     9
 10
20.0
 20
156239.571197
 30
0.0
 11
80.0
 21
156239.571197
 31
0.0
  0
TEXT
  5
97
  8
0
  6
BYBLOCK
 62
    11
 10
15.0
 20
156253.903425
 30
0.0
 40
35.0
  1
100
  0
SOLID
  5
98
  8
0
  6
BYBLOCK
 62
     9
 10
20.0
 20
156242.90453
 30
0.0
 11
20.0
 21
156236.237864
 31
0.0
 12
0.0
 22
156239.571197
 32
0.0
 13
0.0
 23
156239.571197
 33
0.0
  0
SOLID
  5
99
  8
0
  6
BYBLOCK
 62
     9
 10
80.0
 20
156242.90453
 30
0.0
 11
80.0
 21
156236.237864
 31
0.0
 12
100.0
 22
156239.571197
 32
0.0
 13
100.0
 23
156239.571197
 33
0.0
  0
POINT
  5
9A
  8
DEFPOINTS
  6
BYBLOCK
 62
     0
 10
0.0
 20
156350.0
 30
0.0
  0
POINT
  5
9B
  8
DEFPOINTS
  6
BYBLOCK
 62
     0
 10
100.0
 20
156275.980383
 30
0.0
  0
POINT
  5
9C
  8
DEFPOINTS
  6
BYBLOCK
 62
     0
 10
100.0
 20
156239.571197
 30
0.0
  0
ENDBLK
  5
9E
  8
0
  0
BLOCK
  8
0
  2
*D5
 70
     1
 10
0.0
 20
0.0
 30
0.0
  3
*D5
  1

  0
LINE
  5
86
  8
0
  6
BYBLOCK
 62
     9
 10
0.0
 20
156010.0
 30
0.0
 11
0.0
 21
156977.68366
 31
0.0
  0
LINE
  5
87
  8
0
  6
BYBLOCK
 62
     9
 10
510.0
 20
156810.0
 30
0.0
 11
510.0
 21
156977.68366
 31
0.0
  0
LINE
  5
88
  8
0
  6
BYBLOCK
 62
     9
 10
20.0
 20
156976.68366
 30
0.0
 11
210.083333
 21
156976.68366
 31
0.0
  0
LINE
  5
89
  8
0
  6
BYBLOCK
 62
     9
 10
490.0
 20
156976.68366
 30
0.0
 11
299.916667
 21
156976.68366
 31
0.0
  0
SOLID
  5
8A
  8
0
  6
BYBLOCK
 62
     9
 10
20.0
 20
156980.016994
 30
0.0
 11
20.0
 21
156973.350327
 31
0.0
 12
0.0
 22
156976.68366
 32
0.0
 13
0.0
 23
156976.68366
 33
0.0
  0
SOLID
  5
8B
  8
0
  6
BYBLOCK
 62
     9
 10
490.0
 20
156980.016994
 30
0.0
 11
490.0
 21
156973.350327
 31
0.0
 12
510.0
 22
156976.68366
 32
0.0
 13
510.0
 23
156976.68366
 33
0.0
  0
TEXT
  5
8C
  8
0
  6
BYBLOCK
 62
    11
 10
217.083333
 20
156959.18366
 30
0.0
 40
35.0
  1
510
  0
POINT
  5
8D
  8
DEFPOINTS
  6
BYBLOCK
 62
     0
 10
0.0
 20
156000.0
 30
0.0
  0
POINT
  5
8E
  8
DEFPOINTS
  6
BYBLOCK
 62
     0
 10
510.0
 20
156800.0
 30
0.0
  0
POINT
  5
8F
  8
DEFPOINTS
  6
BYBLOCK
 62
     0
 10
510.0
 20
156976.68366
 30
0.0
  0
ENDBLK
  5
91
  8
0
  0
BLOCK
  8
0
  2
*D6
 70
     1
 10
0.0
 20
0.0
 30
0.0
  3
*D6
  1

  0
LINE
  5
78
  8
0
  6
BYBLOCK
 62
     9
 10
-10.0
 20
156000.0
 30
0.0
 11
-253.807919
 21
156000.0
 31
0.0
  0
LINE
  5
79
  8
0
  6
BYBLOCK
 62
     9
 10
-2.420683
 20
157100.0
 30
0.0
 11
-253.807919
 21
157100.0
 31
0.0
  0
LINE
  5
7A
  8
0
  6
BYBLOCK
 62
     9
 10
-252.807919
 20
156020.0
 30
0.0
 11
-252.807919
 21
156417.583333
 31
0.0
  0
LINE
  5
7B
  8
0
  6
BYBLOCK
 62
     9
 10
-252.807919
 20
157080.0
 30
0.0
 11
-252.807919
 21
156682.416667
 31
0.0
  0
SOLID
  5
7C
  8
0
  6
BYBLOCK
 62
     9
 10
-256.141252
 20
156020.0
 30
0.0
 11
-249.474585
 21
156020.0
 31
0.0
 12
-252.807919
 22
156000.0
 32
0.0
 13
-252.807919
 23
156000.0
 33
0.0
  0
SOLID
  5
7D
  8
0
  6
BYBLOCK
 62
     9
 10
-256.141252
 20
157080.0
 30
0.0
 11
-249.474585
 21
157080.0
 31
0.0
 12
-252.807919
 22
157100.0
 32
0.0
 13
-252.807919
 23
157100.0
 33
0.0
  0
TEXT
  5
7E
  8
0
  6
BYBLOCK
 62
    11
 10
-235.307919
 20
156424.583333
 30
0.0
 40
35.0
  1
1100-1250
 50
90.0
  0
POINT
  5
7F
  8
DEFPOINTS
  6
BYBLOCK
 62
     0
 10
0.0
 20
156000.0
 30
0.0
  0
POINT
  5
80
  8
DEFPOINTS
  6
BYBLOCK
 62
     0
 10
7.579317
 20
157100.0
 30
0.0
  0
POINT
  5
81
  8
DEFPOINTS
  6
BYBLOCK
 62
     0
 10
-252.807919
 20
157100.0
 30
0.0
  0
ENDBLK
  5
83
  8
0
  0
BLOCK
  8
0
  2
*D7
 70
     1
 10
0.0
 20
0.0
 30
0.0
  3
*D7
  1

  0
LINE
  5
6A
  8
0
  6
BYBLOCK
 62
     9
 10
-10.0
 20
156000.0
 30
0.0
 11
-211.499785
 21
156000.0
 31
0.0
  0
LINE
  5
6B
  8
0
  6
BYBLOCK
 62
     9
 10
-10.0
 20
157100.0
 30
0.0
 11
-211.499785
 21
157100.0
 31
0.0
  0
LINE
  5
6C
  8
0
  6
BYBLOCK
 62
     9
 10
-210.499785
 20
156020.0
 30
0.0
 11
-210.499785
 21
156496.333333
 31
0.0
  0
LINE
  5
6D
  8
0
  6
BYBLOCK
 62
     9
 10
-210.499785
 20
157080.0
 30
0.0
 11
-210.499785
 21
156603.666667
 31
0.0
  0
SOLID
  5
6E
  8
0
  6
BYBLOCK
 62
     9
 10
-213.833118
 20
156020.0
 30
0.0
 11
-207.166451
 21
156020.0
 31
0.0
 12
-210.499785
 22
156000.0
 32
0.0
 13
-210.499785
 23
156000.0
 33
0.0
  0
SOLID
  5
6F
  8
0
  6
BYBLOCK
 62
     9
 10
-213.833118
 20
157080.0
 30
0.0
 11
-207.166451
 21
157080.0
 31
0.0
 12
-210.499785
 22
157100.0
 32
0.0
 13
-210.499785
 23
157100.0
 33
0.0
  0
TEXT
  5
70
  8
0
  6
BYBLOCK
 62
    11
 10
-192.999785
 20
156503.333333
 30
0.0
 40
35.0
  1
1100
 50
90.0
  0
POINT
  5
71
  8
DEFPOINTS
  6
BYBLOCK
 62
     0
 10
0.0
 20
156000.0
 30
0.0
  0
POINT
  5
72
  8
DEFPOINTS
  6
BYBLOCK
 62
     0
 10
0.0
 20
157100.0
 30
0.0
  0
POINT
  5
73
  8
DEFPOINTS
  6
BYBLOCK
 62
     0
 10
-210.499785
 20
157100.0
 30
0.0
  0
ENDBLK
  5
75
  8
0
  0
BLOCK
  8
0
  2
*D8
 70
     1
 10
0.0
 20
0.0
 30
0.0
  3
*D8
  1

  0
LINE
  5
5C
  8
0
  6
BYBLOCK
 62
     9
 10
-10.0
 20
156000.0
 30
0.0
 11
-123.668607
 21
156000.0
 31
0.0
  0
LINE
  5
5D
  8
0
  6
BYBLOCK
 62
     9
 10
-10.0
 20
156800.0
 30
0.0
 11
-123.668607
 21
156800.0
 31
0.0
  0
LINE
  5
5E
  8
0
  6
BYBLOCK
 62
     9
 10
-122.668607
 20
156020.0
 30
0.0
 11
-122.668607
 21
156352.166667
 31
0.0
  0
LINE
  5
5F
  8
0
  6
BYBLOCK
 62
     9
 10
-122.668607
 20
156780.0
 30
0.0
 11
-122.668607
 21
156447.833333
 31
0.0
  0
SOLID
  5
60
  8
0
  6
BYBLOCK
 62
     9
 10
-126.00194
 20
156020.0
 30
0.0
 11
-119.335273
 21
156020.0
 31
0.0
 12
-122.668607
 22
156000.0
 32
0.0
 13
-122.668607
 23
156000.0
 33
0.0
  0
SOLID
  5
61
  8
0
  6
BYBLOCK
 62
     9
 10
-126.00194
 20
156780.0
 30
0.0
 11
-119.335273
 21
156780.0
 31
0.0
 12
-122.668607
 22
156800.0
 32
0.0
 13
-122.668607
 23
156800.0
 33
0.0
  0
TEXT
  5
62
  8
0
  6
BYBLOCK
 62
    11
 10
-105.168607
 20
156359.166667
 30
0.0
 40
35.0
  1
800
 50
90.0
  0
POINT
  5
63
  8
DEFPOINTS
  6
BYBLOCK
 62
     0
 10
0.0
 20
156000.0
 30
0.0
  0
POINT
  5
64
  8
DEFPOINTS
  6
BYBLOCK
 62
     0
 10
0.0
 20
156800.0
 30
0.0
  0
POINT
  5
65
  8
DEFPOINTS
  6
BYBLOCK
 62
     0
 10
-122.668607
 20
156800.0
 30
0.0
  0
ENDBLK
  5
67
  8
0
  0
BLOCK
  8
0
  2
*D9
 70
     1
 10
0.0
 20
0.0
 30
0.0
  3
*D9
  1

  0
LINE
  5
4E
  8
0
  6
BYBLOCK
 62
     9
 10
-10.0
 20
156000.0
 30
0.0
 11
-169.193059
 21
156000.0
 31
0.0
  0
LINE
  5
4F
  8
0
  6
BYBLOCK
 62
     9
 10
-10.0
 20
156800.0
 30
0.0
 11
-169.193059
 21
156800.0
 31
0.0
  0
LINE
  5
50
  8
0
  6
BYBLOCK
 62
     9
 10
-168.193059
 20
156020.0
 30
0.0
 11
-168.193059
 21
156285.083333
 31
0.0
  0
LINE
  5
51
  8
0
  6
BYBLOCK
 62
     9
 10
-168.193059
 20
156780.0
 30
0.0
 11
-168.193059
 21
156514.916667
 31
0.0
  0
SOLID
  5
52
  8
0
  6
BYBLOCK
 62
     9
 10
-171.526393
 20
156020.0
 30
0.0
 11
-164.859726
 21
156020.0
 31
0.0
 12
-168.193059
 22
156000.0
 32
0.0
 13
-168.193059
 23
156000.0
 33
0.0
  0
SOLID
  5
53
  8
0
  6
BYBLOCK
 62
     9
 10
-171.526393
 20
156780.0
 30
0.0
 11
-164.859726
 21
156780.0
 31
0.0
 12
-168.193059
 22
156800.0
 32
0.0
 13
-168.193059
 23
156800.0
 33
0.0
  0
TEXT
  5
54
  8
0
  6
BYBLOCK
 62
    11
 10
-150.693059
 20
156292.083333
 30
0.0
 40
35.0
  1
700-850
 50
90.0
  0
POINT
  5
55
  8
DEFPOINTS
  6
BYBLOCK
 62
     0
 10
0.0
 20
156000.0
 30
0.0
  0
POINT
  5
56
  8
DEFPOINTS
  6
BYBLOCK
 62
     0
 10
0.0
 20
156800.0
 30
0.0
  0
POINT
  5
57
  8
DEFPOINTS
  6
BYBLOCK
 62
     0
 10
-168.193059
 20
156800.0
 30
0.0
  0
ENDBLK
  5
59
  8
0
  0
BLOCK
  8
0
  2
*D10
 70
     1
 10
0.0
 20
0.0
 30
0.0
  3
*D10
  1

  0
LINE
  5
40
  8
0
  6
BYBLOCK
 62
     9
 10
-10.0
 20
156521.0
 30
0.0
 11
-84.5782
 21
156521.0
 31
0.0
  0
LINE
  5
41
  8
0
  6
BYBLOCK
 62
     9
 10
-10.0
 20
156827.0
 30
0.0
 11
-84.5782
 21
156827.0
 31
0.0
  0
LINE
  5
42
  8
0
  6
BYBLOCK
 62
     9
 10
-83.5782
 20
156541.0
 30
0.0
 11
-83.5782
 21
156623.25
 31
0.0
  0
LINE
  5
43
  8
0
  6
BYBLOCK
 62
     9
 10
-83.5782
 20
156807.0
 30
0.0
 11
-83.5782
 21
156724.75
 31
0.0
  0
SOLID
  5
44
  8
0
  6
BYBLOCK
 62
     9
 10
-86.911533
 20
156541.0
 30
0.0
 11
-80.244867
 21
156541.0
 31
0.0
 12
-83.5782
 22
156521.0
 32
0.0
 13
-83.5782
 23
156521.0
 33
0.0
  0
SOLID
  5
45
  8
0
  6
BYBLOCK
 62
     9
 10
-86.911533
 20
156807.0
 30
0.0
 11
-80.244867
 21
156807.0
 31
0.0
 12
-83.5782
 22
156827.0
 32
0.0
 13
-83.5782
 23
156827.0
 33
0.0
  0
TEXT
  5
46
  8
0
  6
BYBLOCK
 62
    11
 10
-66.0782
 20
156630.25
 30
0.0
 40
35.0
  1
306
 50
90.0
  0
POINT
  5
47
  8
DEFPOINTS
  6
BYBLOCK
 62
     0
 10
0.0
 20
156521.0
 30
0.0
  0
POINT
  5
48
  8
DEFPOINTS
  6
BYBLOCK
 62
     0
 10
0.0
 20
156827.0
 30
0.0
  0
POINT
  5
49
  8
DEFPOINTS
  6
BYBLOCK
 62
     0
 10
-83.5782
 20
156827.0
 30
0.0
  0
ENDBLK
  5
4B
  8
0
  0
BLOCK
  8
0
  2
*D11
 70
     1
 10
0.0
 20
0.0
 30
0.0
  3
*D11
  1

  0
LINE
  5
22
  8
0
  6
BYBLOCK
 62
     9
 10
409.851715
 20
156555.0
 30
0.0
 11
541.898121
 21
156555.0
 31
0.0
  0
LINE
  5
23
  8
0
  6
BYBLOCK
 62
     9
 10
520.0
 20
156800.0
 30
0.0
 11
541.898121
 21
156800.0
 31
0.0
  0
LINE
  5
24
  8
0
  6
BYBLOCK
 62
     9
 10
540.898121
 20
156575.0
 30
0.0
 11
540.898121
 21
156623.833333
 31
0.0
  0
LINE
  5
25
  8
0
  6
BYBLOCK
 62
     9
 10
540.898121
 20
156780.0
 30
0.0
 11
540.898121
 21
156731.166667
 31
0.0
  0
SOLID
  5
26
  8
0
  6
BYBLOCK
 62
     9
 10
537.564788
 20
156575.0
 30
0.0
 11
544.231455
 21
156575.0
 31
0.0
 12
540.898121
 22
156555.0
 32
0.0
 13
540.898121
 23
156555.0
 33
0.0
  0
SOLID
  5
27
  8
0
  6
BYBLOCK
 62
     9
 10
537.564788
 20
156780.0
 30
0.0
 11
544.231455
 21
156780.0
 31
0.0
 12
540.898121
 22
156800.0
 32
0.0
 13
540.898121
 23
156800.0
 33
0.0
  0
TEXT
  5
28
  8
0
  6
BYBLOCK
 62
    11
 10
558.398121
 20
156630.833333
 30
0.0
 40
35.0
  1
245
 50
90.0
  0
POINT
  5
29
  8
DEFPOINTS
  6
BYBLOCK
 62
     0
 10
399.851715
 20
156555.0
 30
0.0
  0
POINT
  5
2B
  8
DEFPOINTS
  6
BYBLOCK
 62
     0
 10
510.0
 20
156800.0
 30
0.0
  0
POINT
  5
2C
  8
DEFPOINTS
  6
BYBLOCK
 62
     0
 10
540.898121
 20
156800.0
 30
0.0
  0
ENDBLK
  5
2E
  8
0
  0
ENDSEC
  0
SECTION
  2
ENTITIES
  0
DIMENSION
  5
20
  8
TEAM-MAS
  2
*D11
 10
540.898121
 20
800.0
 30
0.0
 11
540.898121
 21
677.5
 31
0.0
 12
0.0
 22
-156000.0
 32
0.0
 13
399.851715
 23
555.0
 33
0.0
 14
510.0
 24
800.0
 34
0.0
 50
90.0
1001
ACAD
1000
DSTYLE
1002
{
1070
    40
1040
1.0
1002
}
  0
DIMENSION
  5
2F
  8
TEAM-MAS
  2
*D1
 10
540.898121
 20
850.00283
 30
0.0
 11
541.696201
 21
925.939188
 31
0.0
 12
0.0
 22
-156000.0
 32
0.0
 70
   128
 13
510.0
 23
800.0
 33
0.0
 14
10.0
 24
850.00283
 34
0.0
 50
90.0
1001
ACAD
1000
DSTYLE
1002
{
1070
    40
1040
1.0
1002
}
  0
DIMENSION
  5
3E
  8
TEAM-MAS
  2
*D10
 10
-83.5782
 20
827.0
 30
0.0
 11
-83.5782
 21
674.0
 31
0.0
 12
0.0
 22
-156000.0
 32
0.0
 13
0.0
 23
521.0
 33
0.0
 14
0.0
 24
827.0
 34
0.0
 50
90.0
1001
ACAD
1000
DSTYLE
1002
{
1070
    40
1040
1.0
1002
}
  0
DIMENSION
  5
4C
  8
TEAM-MAS
  2
*D9
 10
-168.193059
 20
800.0
 30
0.0
 11
-168.193059
 21
400.0
 31
0.0
 12
0.0
 22
-156000.0
 32
0.0
  1
700-850
 13
0.0
 23
0.0
 33
0.0
 14
0.0
 24
800.0
 34
0.0
 50
90.0
1001
ACAD
1000
DSTYLE
1002
{
1070
    40
1040
1.0
1002
}
  0
DIMENSION
  5
5A
  8
TEAM-MAS
  2
*D8
 10
-122.668607
 20
800.0
 30
0.0
 11
-122.668607
 21
400.0
 31
0.0
 12
0.0
 22
-156000.0
 32
0.0
 13
0.0
 23
0.0
 33
0.0
 14
0.0
 24
800.0
 34
0.0
 50
90.0
1001
ACAD
1000
DSTYLE
1002
{
1070
    40
1040
1.0
1002
}
  0
DIMENSION
  5
68
  8
TEAM-MAS
  2
*D7
 10
-210.499785
 20
1100.0
 30
0.0
 11
-210.499785
 21
550.0
 31
0.0
 12
0.0
 22
-156000.0
 32
0.0
 13
0.0
 23
0.0
 33
0.0
 14
0.0
 24
1100.0
 34
0.0
 50
90.0
1001
ACAD
1000
DSTYLE
1002
{
1070
    40
1040
1.0
1002
}
  0
DIMENSION
  5
76
  8
TEAM-MAS
  2
*D6
 10
-252.807919
 20
1100.0
 30
0.0
 11
-252.807919
 21
550.0
 31
0.0
 12
0.0
 22
-156000.0
 32
0.0
  1
1100-1250
 13
0.0
 23
0.0
 33
0.0
 14
7.579317
 24
1100.0
 34
0.0
 50
90.0
1001
ACAD
1000
DSTYLE
1002
{
1070
    40
1040
1.0
1002
}
  0
DIMENSION
  5
84
  8
TEAM-MAS
  2
*D5
 10
510.0
 20
976.68366
 30
0.0
 11
255.0
 21
976.68366
 31
0.0
 12
0.0
 22
-156000.0
 32
0.0
 13
0.0
 23
0.0
 33
0.0
 14
510.0
 24
800.0
 34
0.0
1001
ACAD
1000
DSTYLE
1002
{
1070
    40
1040
1.0
1002
}
  0
DIMENSION
  5
92
  8
TEAM-MAS
  2
*D4
 10
100.0
 20
239.571197
 30
0.0
 11
50.0
 21
271.403425
 31
0.0
 12
0.0
 22
-156000.0
 32
0.0
 70
   128
 13
0.0
 23
350.0
 33
0.0
 14
100.0
 24
275.980383
 34
0.0
1001
ACAD
1000
DSTYLE
1002
{
1070
    40
1040
1.0
1002
}
  0
DIMENSION
  5
9F
  8
TEAM-MAS
  2
*D3
 10
-41.270066
 20
350.0
 30
0.0
 11
-41.270066
 21
175.0
 31
0.0
 12
0.0
 22
-156000.0
 32
0.0
 13
0.0
 23
0.0
 33
0.0
 14
0.0
 24
350.0
 34
0.0
 50
90.0
1001
ACAD
1000
DSTYLE
1002
{
1070
    40
1040
1.0
1002
}
  0
DIMENSION
  5
AD
  8
TEAM-MAS
  2
*D2
 10
-83.5782
 20
350.0
 30
0.0
 11
-83.5782
 21
175.0
 31
0.0
 12
0.0
 22
-156000.0
 32
0.0
  1
300-450
 13
0.0
 23
0.0
 33
0.0
 14
0.0
 24
350.0
 34
0.0
 50
90.0
1001
ACAD
1000
DSTYLE
1002
{
1070
    40
1040
1.0
1002
}
  0
DIMENSION
  5
BB
  8
TEAM-MAS
  2
*D0
 10
-83.5782
 20
827.0
 30
0.0
 11
-83.5782
 21
921.620364
 31
0.0
 12
0.0
 22
-156000.0
 32
0.0
 70
   128
 13
0.0
 23
850.0
 33
0.0
 14
0.0
 24
827.0
 34
0.0
 50
90.0
1001
ACAD
1000
DSTYLE
1002
{
1070
    40
1040
1.0
1002
}
  0
LINE
  5
CA
  8
TEAM-BODY
 10
131.980279
 20
770.0
 30
0.0
 11
131.980279
 21
564.542026
 31
0.0
  0
LINE
  5
CC
  8
TEAM-BODY
 10
58.182924
 20
770.0
 30
0.0
 11
58.182924
 21
564.542026
 31
0.0
  0
LINE
  5
CD
  8
TEAM-BODY
 10
429.181163
 20
578.692587
 30
0.0
 11
473.548382
 21
770.0
 31
0.0
  0
LINE
  5
CE
  8
TEAM-BODY
 10
0.0
 20
850.0
 30
0.0
 11
0.0
 21
515.0
 31
0.0
  0
LINE
  5
CF
  8
TEAM-BODY
 10
121.0
 20
512.542026
 30
0.0
 11
79.0
 21
512.542026
 31
0.0
  0
LINE
  5
D0
  8
TEAM-BODY
 10
0.0
 20
515.0
 30
0.0
 11
121.0
 21
544.542026
 31
0.0
  0
LINE
  5
D1
  8
TEAM-BODY
 10
121.0
 20
519.542026
 30
0.0
 11
79.0
 21
519.542026
 31
0.0
  0
LINE
  5
D2
  8
TEAM-BODY
 10
399.851715
 20
555.0
 30
0.0
 11
0.0
 21
540.0
 31
0.0
  0
LINE
  5
D3
  8
TEAM-KAN
 10
30.0
 20
350.0
 30
0.0
 11
100.0
 21
350.0
 31
0.0
  0
LINE
  5
D5
  8
TEAM-BODY
 10
79.0
 20
542.963599
 30
0.0
 11
79.0
 21
512.542026
 31
0.0
  0
ARC
  5
D6
  8
TEAM-BODY
 10
81.191726
 20
565.788313
 30
0.0
 40
23.04253
 50
183.100433
 51
262.648272
  0
LINE
  5
D7
  8
TEAM-AXE
 10
-30.0
 20
350.0
 30
0.0
 11
30.0
 21
350.0
 31
0.0
  0
LINE
  5
DA
  8
TEAM-AXE
 10
0.0
 20
320.0
 30
0.0
 11
0.0
 21
380.0
 31
0.0
  0
CIRCLE
  5
DB
  8
TEAM-KAN
 10
0.0
 20
350.0
 30
0.0
 40
20.0
  0
CIRCLE
  5
DC
  8
TEAM-INSP
 10
0.0
 20
0.0
 30
0.0
 40
10.0
  0
LINE
  5
DE
  8
TEAM-AXE
 10
14.655841
 20
521.0
 30
0.0
 11
0.0
 21
521.0
 31
0.0
  0
ARC
  5
DF
  8
TEAM-BODY
 10
150.130085
 20
563.775651
 30
0.0
 40
18.165978
 50
177.582122
 51
275.707999
  0
LINE
  5
E0
  8
TEAM-BODY
 10
121.0
 20
544.542026
 30
0.0
 11
121.0
 21
512.542026
 31
0.0
  0
LINE
  5
E1
  8
TEAM-KAN
 10
100.0
 20
519.542026
 30
0.0
 11
100.0
 21
275.980383
 31
0.0
  0
ARC
  5
E2
  8
TEAM-BODY
 10
399.851715
 20
585.0
 30
0.0
 40
30.0
 50
270.0
 51
347.863167
  0
TEXT
  5
E3
  8
TEAM-TXT
 10
169.137237
 20
598.405746
 30
0.0
 40
30.0
  1
team 431005
 41
0.8
 51
15.0
  7
TEAM
  0
LINE
  5
E6
  8
TEAM-BODY
 10
510.0
 20
770.0
 30
0.0
 11
0.0
 21
770.0
 31
0.0
  0
LINE
  5
E7
  8
TEAM-BODY
 10
510.0
 20
800.0
 30
0.0
 11
0.0
 21
800.0
 31
0.0
  0
LINE
  5
E8
  8
TEAM-BODY
 10
510.0
 20
800.0
 30
0.0
 11
0.0
 21
800.0
 31
0.0
  0
LINE
  5
E9
  8
TEAM-BODY
 10
10.0
 20
850.00283
 30
0.0
 11
0.0
 21
850.0
 31
0.0
  0
LINE
  5
EA
  8
TEAM-BODY
 10
10.0
 20
850.00283
 30
0.0
 11
10.0
 21
800.0
 31
0.0
  0
CIRCLE
  5
EB
  8
TEAM-COLD
 10
7.579317
 20
1100.0
 30
0.0
 40
15.0
  0
LINE
  5
ED
  8
TEAM-AXE
 10
-12.420683
 20
1100.0
 30
0.0
 11
27.579317
 21
1100.0
 31
0.0
  0
LINE
  5
EE
  8
TEAM-AXE
 10
7.579317
 20
1080.0
 30
0.0
 11
7.579317
 21
1120.0
 31
0.0
  0
CIRCLE
  5
EF
  8
TEAM-WARM
 10
0.0
 20
1100.0
 30
0.0
 40
15.0
  0
LINE
  5
F1
  8
TEAM-AXE
 10
-20.0
 20
1100.0
 30
0.0
 11
20.0
 21
1100.0
 31
0.0
  0
LINE
  5
F2
  8
TEAM-AXE
 10
0.0
 20
1080.0
 30
0.0
 11
0.0
 21
1120.0
 31
0.0
  0
LINE
  5
F3
  8
TEAM-AXE
 10
14.655841
 20
827.0
 30
0.0
 11
0.0
 21
827.0
 31
0.0
  0
LINE
  5
F4
  8
TEAM-BODY
 10
510.0
 20
770.0
 30
0.0
 11
510.0
 21
800.0
 31
0.0
  0
ENDSEC
  0
EOF
