  0
SECTION
  2
HEADER
  9
$ACADVER
  1
AC1009
  9
$INSBASE
 10
0.0
 20
0.0
 30
0.0
  9
$EXTMIN
 10
-275.118578
 20
-10.062079
 30
0.0
  9
$EXTMAX
 10
714.643949
 20
1120.082052
 30
0.000005
  9
$LIMMIN
 10
-275.118578
 20
-10.062079
  9
$LIMMAX
 10
714.643949
 20
1120.082052
  9
$ORTHOMODE
 70
     1
  9
$REGENMODE
 70
     1
  9
$FILLMODE
 70
     1
  9
$QTEXTMODE
 70
     0
  9
$MIRRTEXT
 70
     0
  9
$DRAGMODE
 70
     2
  9
$LTSCALE
 40
50.0
  9
$OSMODE
 70
     0
  9
$ATTMODE
 70
     1
  9
$TEXTSIZE
 40
200.0
  9
$TRACEWID
 40
1.0
  9
$TEXTSTYLE
  7
STANDARD
  9
$CLAYER
  8
TEAM-MAS
  9
$CELTYPE
  6
BYLAYER
  9
$CECOLOR
 62
   256
  9
$DIMSCALE
 40
0.0
  9
$DIMASZ
 40
20.0
  9
$DIMEXO
 40
10.0
  9
$DIMDLI
 40
1.0
  9
$DIMRND
 40
0.0
  9
$DIMDLE
 40
0.0
  9
$DIMEXE
 40
1.0
  9
$DIMTP
 40
0.0
  9
$DIMTM
 40
0.0
  9
$DIMTXT
 40
35.0
  9
$DIMCEN
 40
1.0
  9
$DIMTSZ
 40
0.0
  9
$DIMTOL
 70
     0
  9
$DIMLIM
 70
     0
  9
$DIMTIH
 70
     0
  9
$DIMTOH
 70
     0
  9
$DIMSE1
 70
     0
  9
$DIMSE2
 70
     0
  9
$DIMTAD
 70
     0
  9
$DIMZIN
 70
     0
  9
$DIMBLK
  1

  9
$DIMASO
 70
     1
  9
$DIMSHO
 70
     0
  9
$DIMPOST
  1

  9
$DIMAPOST
  1

  9
$DIMALT
 70
     0
  9
$DIMALTD
 70
     2
  9
$DIMALTF
 40
25.4
  9
$DIMLFAC
 40
1.0
  9
$DIMTOFL
 70
     0
  9
$DIMTVP
 40
0.0
  9
$DIMTIX
 70
     0
  9
$DIMSOXD
 70
     0
  9
$DIMSAH
 70
     0
  9
$DIMBLK1
  1

  9
$DIMBLK2
  1

  9
$DIMSTYLE
  2
TEAM
  9
$DIMCLRD
 70
     9
  9
$DIMCLRE
 70
     9
  9
$DIMCLRT
 70
    11
  9
$DIMTFAC
 40
1.0
  9
$DIMGAP
 40
7.0
  9
$LUNITS
 70
     2
  9
$LUPREC
 70
     1
  9
$SKETCHINC
 40
1.0
  9
$FILLETRAD
 40
50.0
  9
$AUNITS
 70
     0
  9
$AUPREC
 70
     0
  9
$MENU
  1
ROPLANS
  9
$ELEVATION
 40
0.0
  9
$PELEVATION
 40
0.0
  9
$THICKNESS
 40
0.0
  9
$LIMCHECK
 70
     0
  9
$BLIPMODE
 70
     1
  9
$CHAMFERA
 40
0.0
  9
$CHAMFERB
 40
0.0
  9
$SKPOLY
 70
     0
  9
$TDCREATE
 40
2450392.957851
  9
$TDUPDATE
 40
2456272.033233
  9
$TDINDWG
 40
2.315654
  9
$TDUSRTIMER
 40
2.315654
  9
$USRTIMER
 70
     1
  9
$ANGBASE
 50
0.0
  9
$ANGDIR
 70
     0
  9
$PDMODE
 70
     0
  9
$PDSIZE
 40
0.0
  9
$PLINEWID
 40
0.0
  9
$COORDS
 70
     2
  9
$SPLFRAME
 70
     0
  9
$SPLINETYPE
 70
     6
  9
$SPLINESEGS
 70
     8
  9
$ATTDIA
 70
     0
  9
$ATTREQ
 70
     0
  9
$HANDLING
 70
     1
  9
$HANDSEED
  5
16D
  9
$SURFTAB1
 70
    24
  9
$SURFTAB2
 70
    24
  9
$SURFTYPE
 70
     6
  9
$SURFU
 70
     6
  9
$SURFV
 70
     6
  9
$UCSNAME
  2

  9
$UCSORG
 10
0.0
 20
0.0
 30
0.0
  9
$UCSXDIR
 10
1.0
 20
0.0
 30
0.0
  9
$UCSYDIR
 10
0.0
 20
1.0
 30
0.0
  9
$PUCSNAME
  2

  9
$PUCSORG
 10
0.0
 20
0.0
 30
0.0
  9
$PUCSXDIR
 10
1.0
 20
0.0
 30
0.0
  9
$PUCSYDIR
 10
0.0
 20
1.0
 30
0.0
  9
$USERI1
 70
     0
  9
$USERI2
 70
     0
  9
$USERI3
 70
     0
  9
$USERI4
 70
     0
  9
$USERI5
 70
     0
  9
$USERR1
 40
0.0
  9
$USERR2
 40
0.0
  9
$USERR3
 40
0.0
  9
$USERR4
 40
0.0
  9
$USERR5
 40
0.0
  9
$WORLDVIEW
 70
     1
  9
$SHADEDGE
 70
     0
  9
$SHADEDIF
 70
    70
  9
$TILEMODE
 70
     1
  9
$MAXACTVP
 70
    16
  9
$PLIMCHECK
 70
     0
  9
$PEXTMIN
 10
-0.805942
 20
0.005011
 30
0.0
  9
$PEXTMAX
 10
20.250094
 20
11.356329
 30
0.0
  9
$PLIMMIN
 10
0.0
 20
0.0
  9
$PLIMMAX
 10
12.0
 20
9.0
  9
$UNITMODE
 70
     0
  9
$VISRETAIN
 70
     0
  9
$PLINEGEN
 70
     0
  9
$PSLTSCALE
 70
     0
  0
ENDSEC
  0
SECTION
  2
TABLES
  0
TABLE
  2
VPORT
 70
     2
  0
VPORT
  2
*ACTIVE
 70
     0
 10
0.0
 20
0.0
 11
1.0
 21
1.0
 12
219.762686
 22
555.009987
 13
0.0
 23
0.0
 14
1.0
 24
1.0
 15
50.0
 25
50.0
 16
0.0
 26
0.0
 36
1.0
 17
0.0
 27
0.0
 37
0.0
 40
1137.259415
 41
1.911765
 42
50.0
 43
0.0
 44
0.0
 50
0.0
 51
0.0
 71
     0
 72
   100
 73
     1
 74
     1
 75
     0
 76
     0
 77
     0
 78
     0
  0
ENDTAB
  0
TABLE
  2
LTYPE
 70
     3
  0
LTYPE
  2
CONTINUOUS
 70
     0
  3
Solid Line
 72
    65
 73
     0
 40
0.0
  0
LTYPE
  2
31
 70
     0
  3

 72
    65
 73
     4
 40
2.1
 49
1.5
 49
-0.3
 49
0.0
 49
-0.3
  0
LTYPE
  2
22
 70
     0
  3

 72
    65
 73
     2
 40
1.4
 49
1.2
 49
-0.2
  0
ENDTAB
  0
TABLE
  2
LAYER
 70
    11
  0
LAYER
  2
0
 70
     0
 62
     7
  6
CONTINUOUS
  0
LAYER
  2
DEFPOINTS
 70
     0
 62
     7
  6
CONTINUOUS
  0
LAYER
  2
TEAM-BODY
 70
     0
 62
     2
  6
CONTINUOUS
  0
LAYER
  2
TEAM-AXE
 70
     0
 62
    10
  6
31
  0
LAYER
  2
TEAM-MAS
 70
     0
 62
     9
  6
CONTINUOUS
  0
LAYER
  2
TEAM-TXT
 70
     0
 62
    11
  6
CONTINUOUS
  0
LAYER
  2
TEAM-COLD
 70
     0
 62
     3
  6
CONTINUOUS
  0
LAYER
  2
TEAM-HIDE
 70
     0
 62
     8
  6
22
  0
LAYER
  2
TEAM-KAN
 70
     0
 62
     6
  6
CONTINUOUS
  0
LAYER
  2
TEAM-WARM
 70
     0
 62
     1
  6
CONTINUOUS
  0
LAYER
  2
TEAM-INSP
 70
     0
 62
     5
  6
CONTINUOUS
  0
ENDTAB
  0
TABLE
  2
STYLE
 70
     2
  0
STYLE
  2
STANDARD
 70
     0
 40
0.0
 41
1.0
 50
0.0
 71
     0
 42
200.0
  3
txt
  4

  0
STYLE
  2
TEAM
 70
     0
 40
0.0
 41
0.8
 50
15.0
 71
     0
 42
7.0
  3
ROMANS.shx
  4

  0
ENDTAB
  0
TABLE
  2
VIEW
 70
     0
  0
ENDTAB
  0
TABLE
  2
UCS
 70
     0
  0
ENDTAB
  0
TABLE
  2
APPID
 70
     1
  0
APPID
  2
ACAD
 70
     0
  0
ENDTAB
  0
TABLE
  2
DIMSTYLE
 70
     1
  0
DIMSTYLE
  2
TEAM
 70
     0
  3

  4

  5

  6

  7

 40
0.0
 41
20.0
 42
10.0
 43
1.0
 44
1.0
 45
0.0
 46
0.0
 47
0.0
 48
0.0
140
35.0
141
1.0
142
0.0
143
25.4
144
1.0
145
0.0
146
1.0
147
7.0
 71
     0
 72
     0
 73
     0
 74
     0
 75
     0
 76
     0
 77
     0
 78
     0
170
     0
171
     2
172
     0
173
     0
174
     0
175
     0
176
     9
177
     9
178
    11
  0
ENDTAB
  0
ENDSEC
  0
SECTION
  2
BLOCKS
  0
BLOCK
  8
0
  2
$MODEL_SPACE
 70
     0
 10
0.0
 20
0.0
 30
0.0
  3
$MODEL_SPACE
  1

  0
ENDBLK
  5
166
  8
0
  0
BLOCK
 67
     1
  8
0
  2
$PAPER_SPACE
 70
     0
 10
0.0
 20
0.0
 30
0.0
  3
$PAPER_SPACE
  1

  0
ENDBLK
  5
164
 67
     1
  8
0
  0
BLOCK
  8
0
  2
*D0
 70
     1
 10
0.0
 20
0.0
 30
0.0
  3
*D0
  1

  0
LINE
  5
F5
  8
0
  6
BYBLOCK
 62
     9
 10
4467.0
 20
156800.0
 30
0.0
 11
4531.542902
 21
156800.0
 31
0.0
  0
LINE
  5
F6
  8
0
  6
BYBLOCK
 62
     9
 10
4457.0
 20
156850.0
 30
0.0
 11
4531.542902
 21
156850.0
 31
0.0
  0
LINE
  5
F7
  8
0
  6
BYBLOCK
 62
     9
 10
4530.542902
 20
156780.0
 30
0.0
 11
4530.542902
 21
156760.0
 31
0.0
  0
LINE
  5
F8
  8
0
  6
BYBLOCK
 62
     9
 10
4530.542902
 20
156870.0
 30
0.0
 11
4530.542902
 21
156890.0
 31
0.0
  0
TEXT
  5
F9
  8
0
  6
BYBLOCK
 62
    11
 10
4543.356455
 20
156891.581441
 30
0.0
 40
35.0
  1
50
 50
90.0
  0
LINE
  5
FA
  8
0
  6
BYBLOCK
 62
     9
 10
4530.542902
 20
156800.0
 30
0.0
 11
4530.542902
 21
156850.0
 31
0.0
  0
SOLID
  5
FB
  8
0
  6
BYBLOCK
 62
     9
 10
4527.209569
 20
156780.0
 30
0.0
 11
4533.876236
 21
156780.0
 31
0.0
 12
4530.542902
 22
156800.0
 32
0.0
 13
4530.542902
 23
156800.0
 33
0.0
  0
SOLID
  5
FC
  8
0
  6
BYBLOCK
 62
     9
 10
4527.209569
 20
156870.0
 30
0.0
 11
4533.876236
 21
156870.0
 31
0.0
 12
4530.542902
 22
156850.0
 32
0.0
 13
4530.542902
 23
156850.0
 33
0.0
  0
POINT
  5
FD
  8
DEFPOINTS
  6
BYBLOCK
 62
     0
 10
4457.0
 20
156800.0
 30
0.0
  0
POINT
  5
FE
  8
DEFPOINTS
  6
BYBLOCK
 62
     0
 10
4447.0
 20
156850.0
 30
0.0
  0
POINT
  5
FF
  8
DEFPOINTS
  6
BYBLOCK
 62
     0
 10
4530.542902
 20
156850.0
 30
0.0
  0
ENDBLK
  5
101
  8
0
  0
BLOCK
  8
0
  2
*D1
 70
     1
 10
0.0
 20
0.0
 30
0.0
  3
*D1
  1

  0
LINE
  5
E6
  8
0
  6
BYBLOCK
 62
     9
 10
4457.0
 20
156850.0
 30
0.0
 11
4487.896145
 21
156850.0
 31
0.0
  0
LINE
  5
E7
  8
0
  6
BYBLOCK
 62
     9
 10
4374.5
 20
156827.0
 30
0.0
 11
4487.896145
 21
156827.0
 31
0.0
  0
LINE
  5
E8
  8
0
  6
BYBLOCK
 62
     9
 10
4486.896145
 20
156870.0
 30
0.0
 11
4486.896145
 21
156890.0
 31
0.0
  0
LINE
  5
E9
  8
0
  6
BYBLOCK
 62
     9
 10
4486.896145
 20
156807.0
 30
0.0
 11
4486.896145
 21
156787.0
 31
0.0
  0
TEXT
  5
EA
  8
0
  6
BYBLOCK
 62
    11
 10
4504.396145
 20
156901.158155
 30
0.0
 40
35.0
  1
23
 50
90.0
  0
LINE
  5
EB
  8
0
  6
BYBLOCK
 62
     9
 10
4486.896145
 20
156850.0
 30
0.0
 11
4486.896145
 21
156827.0
 31
0.0
  0
SOLID
  5
EC
  8
0
  6
BYBLOCK
 62
     9
 10
4483.562812
 20
156870.0
 30
0.0
 11
4490.229479
 21
156870.0
 31
0.0
 12
4486.896145
 22
156850.0
 32
0.0
 13
4486.896145
 23
156850.0
 33
0.0
  0
SOLID
  5
ED
  8
0
  6
BYBLOCK
 62
     9
 10
4483.562812
 20
156807.0
 30
0.0
 11
4490.229479
 21
156807.0
 31
0.0
 12
4486.896145
 22
156827.0
 32
0.0
 13
4486.896145
 23
156827.0
 33
0.0
  0
POINT
  5
EE
  8
DEFPOINTS
  6
BYBLOCK
 62
     0
 10
4447.0
 20
156850.0
 30
0.0
  0
POINT
  5
EF
  8
DEFPOINTS
  6
BYBLOCK
 62
     0
 10
4364.5
 20
156827.0
 30
0.0
  0
POINT
  5
F0
  8
DEFPOINTS
  6
BYBLOCK
 62
     0
 10
4486.896145
 20
156827.0
 30
0.0
  0
ENDBLK
  5
F2
  8
0
  0
BLOCK
  8
0
  2
*D2
 70
     1
 10
0.0
 20
0.0
 30
0.0
  3
*D2
  1

  0
LINE
  5
3F
  8
0
  6
BYBLOCK
 62
     9
 10
3922.5
 20
157090.0
 30
0.0
 11
3922.5
 21
157003.931685
 31
0.0
  0
LINE
  5
40
  8
0
  6
BYBLOCK
 62
     9
 10
4075.5
 20
157090.0
 30
0.0
 11
4075.5
 21
157003.931685
 31
0.0
  0
LINE
  5
41
  8
0
  6
BYBLOCK
 62
     9
 10
3942.5
 20
157004.931685
 30
0.0
 11
3951.166667
 21
157004.931685
 31
0.0
  0
LINE
  5
42
  8
0
  6
BYBLOCK
 62
     9
 10
4055.5
 20
157004.931685
 30
0.0
 11
4046.833333
 21
157004.931685
 31
0.0
  0
TEXT
  5
43
  8
0
  6
BYBLOCK
 62
    11
 10
3958.166667
 20
156987.431685
 30
0.0
 40
35.0
  1
153
  0
SOLID
  5
44
  8
0
  6
BYBLOCK
 62
     9
 10
3942.5
 20
157008.265018
 30
0.0
 11
3942.5
 21
157001.598352
 31
0.0
 12
3922.5
 22
157004.931685
 32
0.0
 13
3922.5
 23
157004.931685
 33
0.0
  0
SOLID
  5
45
  8
0
  6
BYBLOCK
 62
     9
 10
4055.5
 20
157008.265018
 30
0.0
 11
4055.5
 21
157001.598352
 31
0.0
 12
4075.5
 22
157004.931685
 32
0.0
 13
4075.5
 23
157004.931685
 33
0.0
  0
POINT
  5
46
  8
DEFPOINTS
  6
BYBLOCK
 62
     0
 10
3922.5
 20
157100.0
 30
0.0
  0
POINT
  5
47
  8
DEFPOINTS
  6
BYBLOCK
 62
     0
 10
4075.5
 20
157100.0
 30
0.0
  0
POINT
  5
48
  8
DEFPOINTS
  6
BYBLOCK
 62
     0
 10
4075.5
 20
157004.931685
 30
0.0
  0
ENDBLK
  5
4A
  8
0
  0
BLOCK
  8
0
  2
*D3
 70
     1
 10
0.0
 20
0.0
 30
0.0
  3
*D3
  1

  0
LINE
  5
31
  8
0
  6
BYBLOCK
 62
     9
 10
3727.0
 20
156810.0
 30
0.0
 11
3727.0
 21
156930.751206
 31
0.0
  0
LINE
  5
32
  8
0
  6
BYBLOCK
 62
     9
 10
4457.0
 20
156810.0
 30
0.0
 11
4457.0
 21
156930.751206
 31
0.0
  0
LINE
  5
33
  8
0
  6
BYBLOCK
 62
     9
 10
3747.0
 20
156929.751206
 30
0.0
 11
4028.25
 21
156929.751206
 31
0.0
  0
LINE
  5
34
  8
0
  6
BYBLOCK
 62
     9
 10
4437.0
 20
156929.751206
 30
0.0
 11
4129.75
 21
156929.751206
 31
0.0
  0
TEXT
  5
35
  8
0
  6
BYBLOCK
 62
    11
 10
4035.25
 20
156912.251206
 30
0.0
 40
35.0
  1
730
  0
SOLID
  5
36
  8
0
  6
BYBLOCK
 62
     9
 10
3747.0
 20
156933.084539
 30
0.0
 11
3747.0
 21
156926.417873
 31
0.0
 12
3727.0
 22
156929.751206
 32
0.0
 13
3727.0
 23
156929.751206
 33
0.0
  0
SOLID
  5
37
  8
0
  6
BYBLOCK
 62
     9
 10
4437.0
 20
156933.084539
 30
0.0
 11
4437.0
 21
156926.417873
 31
0.0
 12
4457.0
 22
156929.751206
 32
0.0
 13
4457.0
 23
156929.751206
 33
0.0
  0
POINT
  5
38
  8
DEFPOINTS
  6
BYBLOCK
 62
     0
 10
3727.0
 20
156800.0
 30
0.0
  0
POINT
  5
39
  8
DEFPOINTS
  6
BYBLOCK
 62
     0
 10
4457.0
 20
156800.0
 30
0.0
  0
POINT
  5
3A
  8
DEFPOINTS
  6
BYBLOCK
 62
     0
 10
4457.0
 20
156929.751206
 30
0.0
  0
ENDBLK
  5
3C
  8
0
  0
BLOCK
  8
0
  2
*D4
 70
     1
 10
0.0
 20
0.0
 30
0.0
  3
*D4
  1

  0
LINE
  5
22
  8
0
  6
BYBLOCK
 62
     9
 10
3829.5
 20
156847.0
 30
0.0
 11
3829.5
 21
156887.127771
 31
0.0
  0
LINE
  5
23
  8
0
  6
BYBLOCK
 62
     9
 10
4354.5
 20
156847.0
 30
0.0
 11
4354.5
 21
156887.127771
 31
0.0
  0
LINE
  5
24
  8
0
  6
BYBLOCK
 62
     9
 10
3849.5
 20
156886.127771
 30
0.0
 11
4038.333333
 21
156886.127771
 31
0.0
  0
LINE
  5
25
  8
0
  6
BYBLOCK
 62
     9
 10
4334.5
 20
156886.127771
 30
0.0
 11
4145.666667
 21
156886.127771
 31
0.0
  0
SOLID
  5
26
  8
0
  6
BYBLOCK
 62
     9
 10
3849.5
 20
156889.461104
 30
0.0
 11
3849.5
 21
156882.794437
 31
0.0
 12
3829.5
 22
156886.127771
 32
0.0
 13
3829.5
 23
156886.127771
 33
0.0
  0
SOLID
  5
27
  8
0
  6
BYBLOCK
 62
     9
 10
4334.5
 20
156889.461104
 30
0.0
 11
4334.5
 21
156882.794437
 31
0.0
 12
4354.5
 22
156886.127771
 32
0.0
 13
4354.5
 23
156886.127771
 33
0.0
  0
TEXT
  5
28
  8
0
  6
BYBLOCK
 62
    11
 10
4045.333333
 20
156868.627771
 30
0.0
 40
35.0
  1
525
  0
POINT
  5
29
  8
DEFPOINTS
  6
BYBLOCK
 62
     0
 10
3829.5
 20
156837.0
 30
0.0
  0
POINT
  5
2B
  8
DEFPOINTS
  6
BYBLOCK
 62
     0
 10
4354.5
 20
156837.0
 30
0.0
  0
POINT
  5
2C
  8
DEFPOINTS
  6
BYBLOCK
 62
     0
 10
4354.5
 20
156886.127771
 30
0.0
  0
ENDBLK
  5
2E
  8
0
  0
BLOCK
  8
0
  2
*D5
 70
     1
 10
0.0
 20
0.0
 30
0.0
  3
*D5
  1

  0
LINE
  5
D8
  8
0
  6
BYBLOCK
 62
     9
 10
4010.0
 20
156000.0
 30
0.0
 11
4488.729005
 21
156000.0
 31
0.0
  0
LINE
  5
D9
  8
0
  6
BYBLOCK
 62
     9
 10
4090.0
 20
156350.0
 30
0.0
 11
4488.729005
 21
156350.0
 31
0.0
  0
LINE
  5
DA
  8
0
  6
BYBLOCK
 62
     9
 10
4487.729005
 20
156020.0
 30
0.0
 11
4487.729005
 21
156124.25
 31
0.0
  0
LINE
  5
DB
  8
0
  6
BYBLOCK
 62
     9
 10
4487.729005
 20
156330.0
 30
0.0
 11
4487.729005
 21
156225.75
 31
0.0
  0
SOLID
  5
DC
  8
0
  6
BYBLOCK
 62
     9
 10
4484.395671
 20
156020.0
 30
0.0
 11
4491.062338
 21
156020.0
 31
0.0
 12
4487.729005
 22
156000.0
 32
0.0
 13
4487.729005
 23
156000.0
 33
0.0
  0
SOLID
  5
DD
  8
0
  6
BYBLOCK
 62
     9
 10
4484.395671
 20
156330.0
 30
0.0
 11
4491.062338
 21
156330.0
 31
0.0
 12
4487.729005
 22
156350.0
 32
0.0
 13
4487.729005
 23
156350.0
 33
0.0
  0
TEXT
  5
DE
  8
0
  6
BYBLOCK
 62
    11
 10
4505.229005
 20
156131.25
 30
0.0
 40
35.0
  1
350
 50
90.0
  0
POINT
  5
DF
  8
DEFPOINTS
  6
BYBLOCK
 62
     0
 10
4000.0
 20
156000.0
 30
0.0
  0
POINT
  5
E0
  8
DEFPOINTS
  6
BYBLOCK
 62
     0
 10
4080.0
 20
156350.0
 30
0.0
  0
POINT
  5
E1
  8
DEFPOINTS
  6
BYBLOCK
 62
     0
 10
4487.729005
 20
156350.0
 30
0.0
  0
ENDBLK
  5
E3
  8
0
  0
BLOCK
  8
0
  2
*D6
 70
     1
 10
0.0
 20
0.0
 30
0.0
  3
*D6
  1

  0
LINE
  5
CA
  8
0
  6
BYBLOCK
 62
     9
 10
4010.0
 20
156000.0
 30
0.0
 11
4531.542902
 21
156000.0
 31
0.0
  0
LINE
  5
CB
  8
0
  6
BYBLOCK
 62
     9
 10
4090.0
 20
156350.0
 30
0.0
 11
4531.542902
 21
156350.0
 31
0.0
  0
LINE
  5
CC
  8
0
  6
BYBLOCK
 62
     9
 10
4530.542902
 20
156020.0
 30
0.0
 11
4530.542902
 21
156060.083333
 31
0.0
  0
LINE
  5
CD
  8
0
  6
BYBLOCK
 62
     9
 10
4530.542902
 20
156330.0
 30
0.0
 11
4530.542902
 21
156289.916667
 31
0.0
  0
SOLID
  5
CE
  8
0
  6
BYBLOCK
 62
     9
 10
4527.209569
 20
156020.0
 30
0.0
 11
4533.876236
 21
156020.0
 31
0.0
 12
4530.542902
 22
156000.0
 32
0.0
 13
4530.542902
 23
156000.0
 33
0.0
  0
SOLID
  5
CF
  8
0
  6
BYBLOCK
 62
     9
 10
4527.209569
 20
156330.0
 30
0.0
 11
4533.876236
 21
156330.0
 31
0.0
 12
4530.542902
 22
156350.0
 32
0.0
 13
4530.542902
 23
156350.0
 33
0.0
  0
TEXT
  5
D0
  8
0
  6
BYBLOCK
 62
    11
 10
4548.042902
 20
156067.083333
 30
0.0
 40
35.0
  1
300-450
 50
90.0
  0
POINT
  5
D1
  8
DEFPOINTS
  6
BYBLOCK
 62
     0
 10
4000.0
 20
156000.0
 30
0.0
  0
POINT
  5
D2
  8
DEFPOINTS
  6
BYBLOCK
 62
     0
 10
4080.0
 20
156350.0
 30
0.0
  0
POINT
  5
D3
  8
DEFPOINTS
  6
BYBLOCK
 62
     0
 10
4530.542902
 20
156350.0
 30
0.0
  0
ENDBLK
  5
D5
  8
0
  0
BLOCK
  8
0
  2
*D7
 70
     1
 10
0.0
 20
0.0
 30
0.0
  3
*D7
  1

  0
LINE
  5
BB
  8
0
  6
BYBLOCK
 62
     9
 10
4000.0
 20
156523.508125
 30
0.0
 11
4000.0
 21
156450.064133
 31
0.0
  0
LINE
  5
BC
  8
0
  6
BYBLOCK
 62
     9
 10
4025.0
 20
156501.0
 30
0.0
 11
4025.0
 21
156450.064133
 31
0.0
  0
LINE
  5
BD
  8
0
  6
BYBLOCK
 62
     9
 10
3980.0
 20
156451.064133
 30
0.0
 11
3960.0
 21
156451.064133
 31
0.0
  0
LINE
  5
BE
  8
0
  6
BYBLOCK
 62
     9
 10
4045.0
 20
156451.064133
 30
0.0
 11
4065.0
 21
156451.064133
 31
0.0
  0
TEXT
  5
BF
  8
0
  6
BYBLOCK
 62
    11
 10
4067.276433
 20
156433.564133
 30
0.0
 40
35.0
  1
25
  0
LINE
  5
C0
  8
0
  6
BYBLOCK
 62
     9
 10
4000.0
 20
156451.064133
 30
0.0
 11
4025.0
 21
156451.064133
 31
0.0
  0
SOLID
  5
C1
  8
0
  6
BYBLOCK
 62
     9
 10
3980.0
 20
156454.397466
 30
0.0
 11
3980.0
 21
156447.730799
 31
0.0
 12
4000.0
 22
156451.064133
 32
0.0
 13
4000.0
 23
156451.064133
 33
0.0
  0
SOLID
  5
C2
  8
0
  6
BYBLOCK
 62
     9
 10
4045.0
 20
156454.397466
 30
0.0
 11
4045.0
 21
156447.730799
 31
0.0
 12
4025.0
 22
156451.064133
 32
0.0
 13
4025.0
 23
156451.064133
 33
0.0
  0
POINT
  5
C3
  8
DEFPOINTS
  6
BYBLOCK
 62
     0
 10
4000.0
 20
156533.508125
 30
0.0
  0
POINT
  5
C4
  8
DEFPOINTS
  6
BYBLOCK
 62
     0
 10
4025.0
 20
156511.0
 30
0.0
  0
POINT
  5
C5
  8
DEFPOINTS
  6
BYBLOCK
 62
     0
 10
4025.0
 20
156451.064133
 30
0.0
  0
ENDBLK
  5
C7
  8
0
  0
BLOCK
  8
0
  2
*D8
 70
     1
 10
0.0
 20
0.0
 30
0.0
  3
*D8
  1

  0
LINE
  5
AD
  8
0
  6
BYBLOCK
 62
     9
 10
4010.0
 20
156000.0
 30
0.0
 11
4698.109966
 21
156000.0
 31
0.0
  0
LINE
  5
AE
  8
0
  6
BYBLOCK
 62
     9
 10
4085.5
 20
157100.0
 30
0.0
 11
4698.109966
 21
157100.0
 31
0.0
  0
LINE
  5
AF
  8
0
  6
BYBLOCK
 62
     9
 10
4697.109966
 20
156020.0
 30
0.0
 11
4697.109966
 21
156417.583333
 31
0.0
  0
LINE
  5
B0
  8
0
  6
BYBLOCK
 62
     9
 10
4697.109966
 20
157080.0
 30
0.0
 11
4697.109966
 21
156682.416667
 31
0.0
  0
SOLID
  5
B1
  8
0
  6
BYBLOCK
 62
     9
 10
4693.776633
 20
156020.0
 30
0.0
 11
4700.443299
 21
156020.0
 31
0.0
 12
4697.109966
 22
156000.0
 32
0.0
 13
4697.109966
 23
156000.0
 33
0.0
  0
SOLID
  5
B2
  8
0
  6
BYBLOCK
 62
     9
 10
4693.776633
 20
157080.0
 30
0.0
 11
4700.443299
 21
157080.0
 31
0.0
 12
4697.109966
 22
157100.0
 32
0.0
 13
4697.109966
 23
157100.0
 33
0.0
  0
TEXT
  5
B3
  8
0
  6
BYBLOCK
 62
    11
 10
4714.609966
 20
156424.583333
 30
0.0
 40
35.0
  1
1100-1250
 50
90.0
  0
POINT
  5
B4
  8
DEFPOINTS
  6
BYBLOCK
 62
     0
 10
4000.0
 20
156000.0
 30
0.0
  0
POINT
  5
B5
  8
DEFPOINTS
  6
BYBLOCK
 62
     0
 10
4075.5
 20
157100.0
 30
0.0
  0
POINT
  5
B6
  8
DEFPOINTS
  6
BYBLOCK
 62
     0
 10
4697.109966
 20
157100.0
 30
0.0
  0
ENDBLK
  5
B8
  8
0
  0
BLOCK
  8
0
  2
*D9
 70
     1
 10
0.0
 20
0.0
 30
0.0
  3
*D9
  1

  0
LINE
  5
9F
  8
0
  6
BYBLOCK
 62
     9
 10
4010.0
 20
156000.0
 30
0.0
 11
4655.296068
 21
156000.0
 31
0.0
  0
LINE
  5
A0
  8
0
  6
BYBLOCK
 62
     9
 10
4085.5
 20
157100.0
 30
0.0
 11
4655.296068
 21
157100.0
 31
0.0
  0
LINE
  5
A1
  8
0
  6
BYBLOCK
 62
     9
 10
4654.296068
 20
156020.0
 30
0.0
 11
4654.296068
 21
156496.333333
 31
0.0
  0
LINE
  5
A2
  8
0
  6
BYBLOCK
 62
     9
 10
4654.296068
 20
157080.0
 30
0.0
 11
4654.296068
 21
156603.666667
 31
0.0
  0
SOLID
  5
A3
  8
0
  6
BYBLOCK
 62
     9
 10
4650.962735
 20
156020.0
 30
0.0
 11
4657.629401
 21
156020.0
 31
0.0
 12
4654.296068
 22
156000.0
 32
0.0
 13
4654.296068
 23
156000.0
 33
0.0
  0
SOLID
  5
A4
  8
0
  6
BYBLOCK
 62
     9
 10
4650.962735
 20
157080.0
 30
0.0
 11
4657.629401
 21
157080.0
 31
0.0
 12
4654.296068
 22
157100.0
 32
0.0
 13
4654.296068
 23
157100.0
 33
0.0
  0
TEXT
  5
A5
  8
0
  6
BYBLOCK
 62
    11
 10
4671.796068
 20
156503.333333
 30
0.0
 40
35.0
  1
1100
 50
90.0
  0
POINT
  5
A6
  8
DEFPOINTS
  6
BYBLOCK
 62
     0
 10
4000.0
 20
156000.0
 30
0.0
  0
POINT
  5
A7
  8
DEFPOINTS
  6
BYBLOCK
 62
     0
 10
4075.5
 20
157100.0
 30
0.0
  0
POINT
  5
A8
  8
DEFPOINTS
  6
BYBLOCK
 62
     0
 10
4654.296068
 20
157100.0
 30
0.0
  0
ENDBLK
  5
AA
  8
0
  0
BLOCK
  8
0
  2
*D10
 70
     1
 10
0.0
 20
0.0
 30
0.0
  3
*D10
  1

  0
LINE
  5
91
  8
0
  6
BYBLOCK
 62
     9
 10
4010.0
 20
156000.0
 30
0.0
 11
4614.044543
 21
156000.0
 31
0.0
  0
LINE
  5
92
  8
0
  6
BYBLOCK
 62
     9
 10
4467.0
 20
156800.0
 30
0.0
 11
4614.044543
 21
156800.0
 31
0.0
  0
LINE
  5
93
  8
0
  6
BYBLOCK
 62
     9
 10
4613.044543
 20
156020.0
 30
0.0
 11
4613.044543
 21
156285.083333
 31
0.0
  0
LINE
  5
94
  8
0
  6
BYBLOCK
 62
     9
 10
4613.044543
 20
156780.0
 30
0.0
 11
4613.044543
 21
156514.916667
 31
0.0
  0
SOLID
  5
95
  8
0
  6
BYBLOCK
 62
     9
 10
4609.71121
 20
156020.0
 30
0.0
 11
4616.377877
 21
156020.0
 31
0.0
 12
4613.044543
 22
156000.0
 32
0.0
 13
4613.044543
 23
156000.0
 33
0.0
  0
SOLID
  5
96
  8
0
  6
BYBLOCK
 62
     9
 10
4609.71121
 20
156780.0
 30
0.0
 11
4616.377877
 21
156780.0
 31
0.0
 12
4613.044543
 22
156800.0
 32
0.0
 13
4613.044543
 23
156800.0
 33
0.0
  0
TEXT
  5
97
  8
0
  6
BYBLOCK
 62
    11
 10
4630.544543
 20
156292.083333
 30
0.0
 40
35.0
  1
700-850
 50
90.0
  0
POINT
  5
98
  8
DEFPOINTS
  6
BYBLOCK
 62
     0
 10
4000.0
 20
156000.0
 30
0.0
  0
POINT
  5
99
  8
DEFPOINTS
  6
BYBLOCK
 62
     0
 10
4457.0
 20
156800.0
 30
0.0
  0
POINT
  5
9A
  8
DEFPOINTS
  6
BYBLOCK
 62
     0
 10
4613.044543
 20
156800.0
 30
0.0
  0
ENDBLK
  5
9C
  8
0
  0
BLOCK
  8
0
  2
*D11
 70
     1
 10
0.0
 20
0.0
 30
0.0
  3
*D11
  1

  0
LINE
  5
83
  8
0
  6
BYBLOCK
 62
     9
 10
4010.0
 20
156000.0
 30
0.0
 11
4571.230645
 21
156000.0
 31
0.0
  0
LINE
  5
84
  8
0
  6
BYBLOCK
 62
     9
 10
4467.0
 20
156800.0
 30
0.0
 11
4571.230645
 21
156800.0
 31
0.0
  0
LINE
  5
85
  8
0
  6
BYBLOCK
 62
     9
 10
4570.230645
 20
156020.0
 30
0.0
 11
4570.230645
 21
156352.166667
 31
0.0
  0
LINE
  5
86
  8
0
  6
BYBLOCK
 62
     9
 10
4570.230645
 20
156780.0
 30
0.0
 11
4570.230645
 21
156447.833333
 31
0.0
  0
SOLID
  5
87
  8
0
  6
BYBLOCK
 62
     9
 10
4566.897312
 20
156020.0
 30
0.0
 11
4573.563979
 21
156020.0
 31
0.0
 12
4570.230645
 22
156000.0
 32
0.0
 13
4570.230645
 23
156000.0
 33
0.0
  0
SOLID
  5
88
  8
0
  6
BYBLOCK
 62
     9
 10
4566.897312
 20
156780.0
 30
0.0
 11
4573.563979
 21
156780.0
 31
0.0
 12
4570.230645
 22
156800.0
 32
0.0
 13
4570.230645
 23
156800.0
 33
0.0
  0
TEXT
  5
89
  8
0
  6
BYBLOCK
 62
    11
 10
4587.730645
 20
156359.166667
 30
0.0
 40
35.0
  1
800
 50
90.0
  0
POINT
  5
8A
  8
DEFPOINTS
  6
BYBLOCK
 62
     0
 10
4000.0
 20
156000.0
 30
0.0
  0
POINT
  5
8B
  8
DEFPOINTS
  6
BYBLOCK
 62
     0
 10
4457.0
 20
156800.0
 30
0.0
  0
POINT
  5
8C
  8
DEFPOINTS
  6
BYBLOCK
 62
     0
 10
4570.230645
 20
156800.0
 30
0.0
  0
ENDBLK
  5
8E
  8
0
  0
BLOCK
  8
0
  2
*D12
 70
     1
 10
0.0
 20
0.0
 30
0.0
  3
*D12
  1

  0
LINE
  5
75
  8
0
  6
BYBLOCK
 62
     9
 10
4198.316821
 20
156555.0
 30
0.0
 11
4531.542902
 21
156555.0
 31
0.0
  0
LINE
  5
76
  8
0
  6
BYBLOCK
 62
     9
 10
4467.0
 20
156800.0
 30
0.0
 11
4531.542902
 21
156800.0
 31
0.0
  0
LINE
  5
77
  8
0
  6
BYBLOCK
 62
     9
 10
4530.542902
 20
156575.0
 30
0.0
 11
4530.542902
 21
156623.833333
 31
0.0
  0
LINE
  5
78
  8
0
  6
BYBLOCK
 62
     9
 10
4530.542902
 20
156780.0
 30
0.0
 11
4530.542902
 21
156731.166667
 31
0.0
  0
SOLID
  5
79
  8
0
  6
BYBLOCK
 62
     9
 10
4527.209569
 20
156575.0
 30
0.0
 11
4533.876236
 21
156575.0
 31
0.0
 12
4530.542902
 22
156555.0
 32
0.0
 13
4530.542902
 23
156555.0
 33
0.0
  0
SOLID
  5
7A
  8
0
  6
BYBLOCK
 62
     9
 10
4527.209569
 20
156780.0
 30
0.0
 11
4533.876236
 21
156780.0
 31
0.0
 12
4530.542902
 22
156800.0
 32
0.0
 13
4530.542902
 23
156800.0
 33
0.0
  0
TEXT
  5
7B
  8
0
  6
BYBLOCK
 62
    11
 10
4548.042902
 20
156630.833333
 30
0.0
 40
35.0
  1
245
 50
90.0
  0
POINT
  5
7C
  8
DEFPOINTS
  6
BYBLOCK
 62
     0
 10
4188.316821
 20
156555.0
 30
0.0
  0
POINT
  5
7D
  8
DEFPOINTS
  6
BYBLOCK
 62
     0
 10
4457.0
 20
156800.0
 30
0.0
  0
POINT
  5
7E
  8
DEFPOINTS
  6
BYBLOCK
 62
     0
 10
4530.542902
 20
156800.0
 30
0.0
  0
ENDBLK
  5
80
  8
0
  0
BLOCK
  8
0
  2
*D13
 70
     1
 10
0.0
 20
0.0
 30
0.0
  3
*D13
  1

  0
LINE
  5
67
  8
0
  6
BYBLOCK
 62
     9
 10
4045.0
 20
156521.0
 30
0.0
 11
4487.896145
 21
156521.0
 31
0.0
  0
LINE
  5
68
  8
0
  6
BYBLOCK
 62
     9
 10
4374.5
 20
156827.0
 30
0.0
 11
4487.896145
 21
156827.0
 31
0.0
  0
LINE
  5
69
  8
0
  6
BYBLOCK
 62
     9
 10
4486.896145
 20
156541.0
 30
0.0
 11
4486.896145
 21
156623.25
 31
0.0
  0
LINE
  5
6A
  8
0
  6
BYBLOCK
 62
     9
 10
4486.896145
 20
156807.0
 30
0.0
 11
4486.896145
 21
156724.75
 31
0.0
  0
SOLID
  5
6B
  8
0
  6
BYBLOCK
 62
     9
 10
4483.562812
 20
156541.0
 30
0.0
 11
4490.229479
 21
156541.0
 31
0.0
 12
4486.896145
 22
156521.0
 32
0.0
 13
4486.896145
 23
156521.0
 33
0.0
  0
SOLID
  5
6C
  8
0
  6
BYBLOCK
 62
     9
 10
4483.562812
 20
156807.0
 30
0.0
 11
4490.229479
 21
156807.0
 31
0.0
 12
4486.896145
 22
156827.0
 32
0.0
 13
4486.896145
 23
156827.0
 33
0.0
  0
TEXT
  5
6D
  8
0
  6
BYBLOCK
 62
    11
 10
4504.396145
 20
156630.25
 30
0.0
 40
35.0
  1
306
 50
90.0
  0
POINT
  5
6E
  8
DEFPOINTS
  6
BYBLOCK
 62
     0
 10
4035.0
 20
156521.0
 30
0.0
  0
POINT
  5
6F
  8
DEFPOINTS
  6
BYBLOCK
 62
     0
 10
4364.5
 20
156827.0
 30
0.0
  0
POINT
  5
70
  8
DEFPOINTS
  6
BYBLOCK
 62
     0
 10
4486.896145
 20
156827.0
 30
0.0
  0
ENDBLK
  5
72
  8
0
  0
ENDSEC
  0
SECTION
  2
ENTITIES
  0
DIMENSION
  5
20
  8
TEAM-MAS
  2
*D4
 10
354.5
 20
886.127771
 30
0.0
 11
92.0
 21
886.127771
 31
0.0
 12
-4000.0
 22
-156000.0
 32
0.0
 13
-170.5
 23
837.0
 33
0.0
 14
354.5
 24
837.0
 34
0.0
1001
ACAD
1000
DSTYLE
1002
{
1070
    40
1040
1.0
1002
}
  0
DIMENSION
  5
2F
  8
TEAM-MAS
  2
*D3
 10
457.0
 20
929.751206
 30
0.0
 11
79.0
 21
929.751206
 31
0.0
 12
-4000.0
 22
-156000.0
 32
0.0
 70
   128
 13
-273.0
 23
800.0
 33
0.0
 14
457.0
 24
800.0
 34
0.0
1001
ACAD
1000
DSTYLE
1002
{
1070
    40
1040
1.0
1002
}
  0
DIMENSION
  5
3D
  8
TEAM-MAS
  2
*D2
 10
75.5
 20
1004.931685
 30
0.0
 11
-1.0
 21
1004.931685
 31
0.0
 12
-4000.0
 22
-156000.0
 32
0.0
 70
   128
 13
-77.5
 23
1100.0
 33
0.0
 14
75.5
 24
1100.0
 34
0.0
1001
ACAD
1000
DSTYLE
1002
{
1070
    40
1040
1.0
1002
}
  0
LINE
  5
4B
  8
TEAM-BODY
 10
0.0
 20
540.0
 30
0.0
 11
-189.523184
 21
555.0
 31
0.0
  0
LINE
  5
4D
  8
TEAM-BODY
 10
0.0
 20
555.0
 30
0.0
 11
-189.786461
 21
555.0
 31
0.0
  0
CIRCLE
  5
4E
  8
TEAM-HIDE
 10
-80.0
 20
350.0
 30
0.0
 40
20.0
  0
LINE
  5
51
  8
TEAM-AXE
 10
-110.0
 20
350.0
 30
0.0
 11
-50.0
 21
350.0
 31
0.0
  0
ARC
  5
54
  8
TEAM-HIDE
 10
-40.0
 20
315.980383
 30
0.0
 40
40.0
 50
180.0
 51
0.0
  0
LINE
  5
55
  8
TEAM-BODY
 10
447.0
 20
850.0
 30
0.0
 11
-263.0
 21
850.0
 31
0.0
  0
LINE
  5
56
  8
TEAM-BODY
 10
457.0
 20
800.0
 30
0.0
 11
-273.0
 21
800.0
 31
0.0
  0
LINE
  5
57
  8
TEAM-BODY
 10
457.0
 20
770.0
 30
0.0
 11
-273.0
 21
770.0
 31
0.0
  0
LINE
  5
58
  8
TEAM-AXE
 10
-97.5
 20
1100.0
 30
0.0
 11
-57.5
 21
1100.0
 31
0.0
  0
CIRCLE
  5
59
  8
TEAM-WARM
 10
-77.5
 20
1100.0
 30
0.0
 40
15.0
  0
LINE
  5
5B
  8
TEAM-BODY
 10
-228.0
 20
770.0
 30
0.0
 11
-219.757148
 21
583.67413
 31
0.0
  0
ARC
  5
5C
  8
TEAM-BODY
 10
-189.786461
 20
585.0
 30
0.0
 40
30.0
 50
182.533051
 51
270.0
  0
LINE
  5
5D
  8
TEAM-HIDE
 10
-80.0
 20
320.0
 30
0.0
 11
-80.0
 21
315.980383
 31
0.0
  0
LINE
  5
5E
  8
TEAM-AXE
 10
-80.0
 20
320.0
 30
0.0
 11
-80.0
 21
380.0
 31
0.0
  0
CIRCLE
  5
5F
  8
TEAM-HIDE
 10
-170.5
 20
827.0
 30
0.0
 40
9.0
  0
LINE
  5
60
  8
TEAM-AXE
 10
-170.5
 20
837.0
 30
0.0
 11
-170.5
 21
817.0
 31
0.0
  0
LINE
  5
61
  8
TEAM-AXE
 10
-180.5
 20
827.0
 30
0.0
 11
-160.5
 21
827.0
 31
0.0
  0
ARC
  5
62
  8
TEAM-BODY
 10
-263.0
 20
840.0
 30
0.0
 40
10.0
 50
90.0
 51
180.0
  0
LINE
  5
63
  8
TEAM-BODY
 10
-273.0
 20
840.0
 30
0.0
 11
-273.0
 21
770.0
 31
0.0
  0
LINE
  5
64
  8
TEAM-AXE
 10
-77.5
 20
1080.0
 30
0.0
 11
-77.5
 21
1120.0
 31
0.0
  0
DIMENSION
  5
65
  8
TEAM-MAS
  2
*D13
 10
486.896145
 20
827.0
 30
0.0
 11
486.896145
 21
674.0
 31
0.0
 12
-4000.0
 22
-156000.0
 32
0.0
 13
35.0
 23
521.0
 33
0.0
 14
364.5
 24
827.0
 34
0.0
 50
90.0
1001
ACAD
1000
DSTYLE
1002
{
1070
    78
1070
     0
1070
    40
1040
1.0
1002
}
  0
DIMENSION
  5
73
  8
TEAM-MAS
  2
*D12
 10
530.542902
 20
800.0
 30
0.0
 11
530.542902
 21
677.5
 31
0.0
 12
-4000.0
 22
-156000.0
 32
0.0
 13
188.316821
 23
555.0
 33
0.0
 14
457.0
 24
800.0
 34
0.0
 50
90.0
1001
ACAD
1000
DSTYLE
1002
{
1070
    40
1040
1.0
1002
}
  0
DIMENSION
  5
81
  8
TEAM-MAS
  2
*D11
 10
570.230645
 20
800.0
 30
0.0
 11
570.230645
 21
400.0
 31
0.0
 12
-4000.0
 22
-156000.0
 32
0.0
 13
0.0
 23
0.0
 33
0.0
 14
457.0
 24
800.0
 34
0.0
 50
90.0
1001
ACAD
1000
DSTYLE
1002
{
1070
    40
1040
1.0
1002
}
  0
DIMENSION
  5
8F
  8
TEAM-MAS
  2
*D10
 10
613.044543
 20
800.0
 30
0.0
 11
613.044543
 21
400.0
 31
0.0
 12
-4000.0
 22
-156000.0
 32
0.0
  1
700-850
 13
0.0
 23
0.0
 33
0.0
 14
457.0
 24
800.0
 34
0.0
 50
90.0
1001
ACAD
1000
DSTYLE
1002
{
1070
    40
1040
1.0
1002
}
  0
DIMENSION
  5
9D
  8
TEAM-MAS
  2
*D9
 10
654.296068
 20
1100.0
 30
0.0
 11
654.296068
 21
550.0
 31
0.0
 12
-4000.0
 22
-156000.0
 32
0.0
 13
0.0
 23
0.0
 33
0.0
 14
75.5
 24
1100.0
 34
0.0
 50
90.0
1001
ACAD
1000
DSTYLE
1002
{
1070
    40
1040
1.0
1002
}
  0
DIMENSION
  5
AB
  8
TEAM-MAS
  2
*D8
 10
697.109966
 20
1100.0
 30
0.0
 11
697.109966
 21
550.0
 31
0.0
 12
-4000.0
 22
-156000.0
 32
0.0
  1
1100-1250
 13
0.0
 23
0.0
 33
0.0
 14
75.5
 24
1100.0
 34
0.0
 50
90.0
1001
ACAD
1000
DSTYLE
1002
{
1070
    40
1040
1.0
1002
}
  0
DIMENSION
  5
B9
  8
TEAM-MAS
  2
*D7
 10
25.0
 20
451.064133
 30
0.0
 11
96.4431
 21
451.064133
 31
0.0
 12
-4000.0
 22
-156000.0
 32
0.0
 70
   128
 13
0.0
 23
533.508125
 33
0.0
 14
25.0
 24
511.0
 34
0.0
1001
ACAD
1000
DSTYLE
1002
{
1070
    78
1070
     0
1070
    40
1040
1.0
1002
}
  0
DIMENSION
  5
C8
  8
TEAM-MAS
  2
*D6
 10
530.542902
 20
350.0
 30
0.0
 11
530.542902
 21
175.0
 31
0.0
 12
-4000.0
 22
-156000.0
 32
0.0
  1
300-450
 13
0.0
 23
0.0
 33
0.0
 14
80.0
 24
350.0
 34
0.0
 50
90.0
1001
ACAD
1000
DSTYLE
1002
{
1070
    40
1040
1.0
1002
}
  0
DIMENSION
  5
D6
  8
TEAM-MAS
  2
*D5
 10
487.729005
 20
350.0
 30
0.0
 11
487.729005
 21
175.0
 31
0.0
 12
-4000.0
 22
-156000.0
 32
0.0
 13
0.0
 23
0.0
 33
0.0
 14
80.0
 24
350.0
 34
0.0
 50
90.0
1001
ACAD
1000
DSTYLE
1002
{
1070
    40
1040
1.0
1002
}
  0
DIMENSION
  5
E4
  8
TEAM-MAS
  2
*D1
 10
486.896145
 20
827.0
 30
0.0
 11
486.896145
 21
930.324822
 31
0.0
 12
-4000.0
 22
-156000.0
 32
0.0
 70
   128
 13
447.0
 23
850.0
 33
0.0
 14
364.5
 24
827.0
 34
0.0
 50
90.0
1001
ACAD
1000
DSTYLE
1002
{
1070
    78
1070
     0
1070
    40
1040
1.0
1002
}
  0
DIMENSION
  5
F3
  8
TEAM-MAS
  2
*D0
 10
530.542902
 20
850.0
 30
0.0
 11
525.856455
 21
917.831441
 31
0.0
 12
-4000.0
 22
-156000.0
 32
0.0
 70
   128
 13
457.0
 23
800.0
 33
0.0
 14
447.0
 24
850.0
 34
0.0
 50
90.0
1001
ACAD
1000
DSTYLE
1002
{
1070
    40
1040
1.0
1002
}
  0
LINE
  5
102
  8
TEAM-HIDE
 10
50.0
 20
800.0
 30
0.0
 11
50.0
 21
543.98265
 31
0.0
  0
LINE
  5
103
  8
TEAM-HIDE
 10
-50.0
 20
800.0
 30
0.0
 11
-50.0
 21
543.957299
 31
0.0
  0
LINE
  5
104
  8
TEAM-BODY
 10
227.0
 20
770.0
 30
0.0
 11
218.284079
 21
583.598763
 31
0.0
  0
LINE
  5
105
  8
TEAM-BODY
 10
0.0
 20
540.0
 30
0.0
 11
188.316821
 21
555.0
 31
0.0
  0
LINE
  5
106
  8
TEAM-BODY
 10
0.0
 20
555.0
 30
0.0
 11
188.316821
 21
555.0
 31
0.0
  0
LINE
  5
107
  8
TEAM-AXE
 10
50.0
 20
350.0
 30
0.0
 11
110.0
 21
350.0
 31
0.0
  0
CIRCLE
  5
108
  8
TEAM-KAN
 10
80.0
 20
350.0
 30
0.0
 40
20.0
  0
TEXT
  5
10A
  8
TEAM-TXT
 10
-75.279046
 20
584.29514
 30
0.0
 40
30.0
  1
team 431005
 41
0.8
 51
15.0
  7
TEAM
  0
LINE
  5
10D
  8
TEAM-AXE
 10
15.0
 20
521.0
 30
0.0
 11
35.0
 21
521.0
 31
0.0
  0
LINE
  5
10E
  8
TEAM-AXE
 10
25.0
 20
531.0
 30
0.0
 11
25.0
 21
511.0
 31
0.0
  0
CIRCLE
  5
10F
  8
TEAM-HIDE
 10
25.0
 20
521.0
 30
0.0
 40
9.0
  0
LINE
  5
110
  8
TEAM-BODY
 10
-21.0
 20
540.0
 30
0.0
 11
-21.0
 21
533.508125
 31
0.0
  0
LINE
  5
111
  8
TEAM-BODY
 10
21.0
 20
540.0
 30
0.0
 11
21.0
 21
533.508125
 31
0.0
  0
LINE
  5
112
  8
TEAM-BODY
 10
-21.0
 20
533.508125
 30
0.0
 11
21.0
 21
533.508125
 31
0.0
  0
LINE
  5
113
  8
TEAM-KAN
 10
0.0
 20
533.508125
 30
0.0
 11
0.0
 21
315.980383
 31
0.0
  0
CIRCLE
  5
114
  8
TEAM-INSP
 10
0.0
 20
0.0
 30
0.0
 40
10.0
  0
ARC
  5
116
  8
TEAM-KAN
 10
40.0
 20
315.980383
 30
0.0
 40
40.0
 50
180.0
 51
0.0
  0
LINE
  5
117
  8
TEAM-KAN
 10
80.0
 20
320.0
 30
0.0
 11
80.0
 21
315.980383
 31
0.0
  0
LINE
  5
118
  8
TEAM-AXE
 10
80.0
 20
320.0
 30
0.0
 11
80.0
 21
380.0
 31
0.0
  0
ARC
  5
119
  8
TEAM-BODY
 10
188.316821
 20
585.0
 30
0.0
 40
30.0
 50
270.0
 51
357.322861
  0
LINE
  5
11A
  8
TEAM-AXE
 10
55.5
 20
1100.0
 30
0.0
 11
95.5
 21
1100.0
 31
0.0
  0
CIRCLE
  5
11B
  8
TEAM-COLD
 10
75.5
 20
1100.0
 30
0.0
 40
15.0
  0
LINE
  5
11D
  8
TEAM-AXE
 10
75.5
 20
1080.0
 30
0.0
 11
75.5
 21
1120.0
 31
0.0
  0
LINE
  5
11E
  8
TEAM-HIDE
 10
442.0
 20
785.0
 30
0.0
 11
227.0
 21
770.0
 31
0.0
  0
LINE
  5
11F
  8
TEAM-HIDE
 10
442.0
 20
785.0
 30
0.0
 11
442.0
 21
800.0
 31
0.0
  0
CIRCLE
  5
120
  8
TEAM-HIDE
 10
354.5
 20
827.0
 30
0.0
 40
9.0
  0
LINE
  5
121
  8
TEAM-AXE
 10
354.5
 20
837.0
 30
0.0
 11
354.5
 21
817.0
 31
0.0
  0
LINE
  5
122
  8
TEAM-AXE
 10
344.5
 20
827.0
 30
0.0
 11
364.5
 21
827.0
 31
0.0
  0
LINE
  5
123
  8
TEAM-BODY
 10
457.0
 20
770.0
 30
0.0
 11
457.0
 21
800.0
 31
0.0
  0
LINE
  5
124
  8
TEAM-BODY
 10
457.0
 20
770.0
 30
0.0
 11
457.0
 21
840.0
 31
0.0
  0
ARC
  5
125
  8
TEAM-BODY
 10
447.0
 20
840.0
 30
0.0
 40
10.0
 50
360.0
 51
90.0
  0
ENDSEC
  0
EOF
