  0
SECTION
  2
HEADER
  9
$ACADVER
  1
AC1009
  9
$INSBASE
 10
0.0
 20
0.0
 30
0.0
  9
$EXTMIN
 10
-223.237932
 20
-10.05988
 30
0.0
  9
$EXTMAX
 10
450.020911
 20
1170.006236
 30
0.000005
  9
$LIMMIN
 10
-223.237932
 20
-10.05988
  9
$LIMMAX
 10
450.020911
 20
1170.006236
  9
$ORTHOMODE
 70
     1
  9
$REGENMODE
 70
     1
  9
$FILLMODE
 70
     1
  9
$QTEXTMODE
 70
     0
  9
$MIRRTEXT
 70
     0
  9
$DRAGMODE
 70
     2
  9
$LTSCALE
 40
50.0
  9
$OSMODE
 70
     0
  9
$ATTMODE
 70
     1
  9
$TEXTSIZE
 40
200.0
  9
$TRACEWID
 40
1.0
  9
$TEXTSTYLE
  7
STANDARD
  9
$CLAYER
  8
TEAM-MAS
  9
$CELTYPE
  6
BYLAYER
  9
$CECOLOR
 62
   256
  9
$DIMSCALE
 40
0.0
  9
$DIMASZ
 40
20.0
  9
$DIMEXO
 40
10.0
  9
$DIMDLI
 40
1.0
  9
$DIMRND
 40
0.0
  9
$DIMDLE
 40
0.0
  9
$DIMEXE
 40
1.0
  9
$DIMTP
 40
0.0
  9
$DIMTM
 40
0.0
  9
$DIMTXT
 40
35.0
  9
$DIMCEN
 40
1.0
  9
$DIMTSZ
 40
0.0
  9
$DIMTOL
 70
     0
  9
$DIMLIM
 70
     0
  9
$DIMTIH
 70
     0
  9
$DIMTOH
 70
     0
  9
$DIMSE1
 70
     0
  9
$DIMSE2
 70
     0
  9
$DIMTAD
 70
     0
  9
$DIMZIN
 70
     0
  9
$DIMBLK
  1

  9
$DIMASO
 70
     1
  9
$DIMSHO
 70
     0
  9
$DIMPOST
  1

  9
$DIMAPOST
  1

  9
$DIMALT
 70
     0
  9
$DIMALTD
 70
     2
  9
$DIMALTF
 40
25.4
  9
$DIMLFAC
 40
1.0
  9
$DIMTOFL
 70
     0
  9
$DIMTVP
 40
0.0
  9
$DIMTIX
 70
     0
  9
$DIMSOXD
 70
     0
  9
$DIMSAH
 70
     0
  9
$DIMBLK1
  1

  9
$DIMBLK2
  1

  9
$DIMSTYLE
  2
TEAM
  9
$DIMCLRD
 70
     9
  9
$DIMCLRE
 70
     9
  9
$DIMCLRT
 70
    11
  9
$DIMTFAC
 40
1.0
  9
$DIMGAP
 40
7.0
  9
$LUNITS
 70
     2
  9
$LUPREC
 70
     1
  9
$SKETCHINC
 40
1.0
  9
$FILLETRAD
 40
50.0
  9
$AUNITS
 70
     0
  9
$AUPREC
 70
     0
  9
$MENU
  1
ROPLANS
  9
$ELEVATION
 40
0.0
  9
$PELEVATION
 40
0.0
  9
$THICKNESS
 40
0.0
  9
$LIMCHECK
 70
     0
  9
$BLIPMODE
 70
     1
  9
$CHAMFERA
 40
0.0
  9
$CHAMFERB
 40
0.0
  9
$SKPOLY
 70
     0
  9
$TDCREATE
 40
2450392.957851
  9
$TDUPDATE
 40
2456272.033233
  9
$TDINDWG
 40
2.315654
  9
$TDUSRTIMER
 40
2.315654
  9
$USRTIMER
 70
     1
  9
$ANGBASE
 50
0.0
  9
$ANGDIR
 70
     0
  9
$PDMODE
 70
     0
  9
$PDSIZE
 40
0.0
  9
$PLINEWID
 40
0.0
  9
$COORDS
 70
     2
  9
$SPLFRAME
 70
     0
  9
$SPLINETYPE
 70
     6
  9
$SPLINESEGS
 70
     8
  9
$ATTDIA
 70
     0
  9
$ATTREQ
 70
     0
  9
$HANDLING
 70
     1
  9
$HANDSEED
  5
E4
  9
$SURFTAB1
 70
    24
  9
$SURFTAB2
 70
    24
  9
$SURFTYPE
 70
     6
  9
$SURFU
 70
     6
  9
$SURFV
 70
     6
  9
$UCSNAME
  2

  9
$UCSORG
 10
0.0
 20
0.0
 30
0.0
  9
$UCSXDIR
 10
1.0
 20
0.0
 30
0.0
  9
$UCSYDIR
 10
0.0
 20
1.0
 30
0.0
  9
$PUCSNAME
  2

  9
$PUCSORG
 10
0.0
 20
0.0
 30
0.0
  9
$PUCSXDIR
 10
1.0
 20
0.0
 30
0.0
  9
$PUCSYDIR
 10
0.0
 20
1.0
 30
0.0
  9
$USERI1
 70
     0
  9
$USERI2
 70
     0
  9
$USERI3
 70
     0
  9
$USERI4
 70
     0
  9
$USERI5
 70
     0
  9
$USERR1
 40
0.0
  9
$USERR2
 40
0.0
  9
$USERR3
 40
0.0
  9
$USERR4
 40
0.0
  9
$USERR5
 40
0.0
  9
$WORLDVIEW
 70
     1
  9
$SHADEDGE
 70
     0
  9
$SHADEDIF
 70
    70
  9
$TILEMODE
 70
     1
  9
$MAXACTVP
 70
    16
  9
$PLIMCHECK
 70
     0
  9
$PEXTMIN
 10
-0.805942
 20
0.005011
 30
0.0
  9
$PEXTMAX
 10
20.250094
 20
11.356329
 30
0.0
  9
$PLIMMIN
 10
0.0
 20
0.0
  9
$PLIMMAX
 10
12.0
 20
9.0
  9
$UNITMODE
 70
     0
  9
$VISRETAIN
 70
     0
  9
$PLINEGEN
 70
     0
  9
$PSLTSCALE
 70
     0
  0
ENDSEC
  0
SECTION
  2
TABLES
  0
TABLE
  2
VPORT
 70
     2
  0
VPORT
  2
*ACTIVE
 70
     0
 10
0.0
 20
0.0
 11
1.0
 21
1.0
 12
113.391489
 22
579.973178
 13
0.0
 23
0.0
 14
1.0
 24
1.0
 15
50.0
 25
50.0
 16
0.0
 26
0.0
 36
1.0
 17
0.0
 27
0.0
 37
0.0
 40
1187.495703
 41
1.911765
 42
50.0
 43
0.0
 44
0.0
 50
0.0
 51
0.0
 71
     0
 72
   100
 73
     1
 74
     1
 75
     0
 76
     0
 77
     0
 78
     0
  0
ENDTAB
  0
TABLE
  2
LTYPE
 70
     2
  0
LTYPE
  2
CONTINUOUS
 70
     0
  3
Solid Line
 72
    65
 73
     0
 40
0.0
  0
LTYPE
  2
31
 70
     0
  3

 72
    65
 73
     4
 40
2.1
 49
1.5
 49
-0.3
 49
0.0
 49
-0.3
  0
ENDTAB
  0
TABLE
  2
LAYER
 70
    10
  0
LAYER
  2
0
 70
     0
 62
     7
  6
CONTINUOUS
  0
LAYER
  2
DEFPOINTS
 70
     0
 62
     7
  6
CONTINUOUS
  0
LAYER
  2
TEAM-BODY
 70
     0
 62
     2
  6
CONTINUOUS
  0
LAYER
  2
TEAM-AXE
 70
     0
 62
    10
  6
31
  0
LAYER
  2
TEAM-MAS
 70
     0
 62
     9
  6
CONTINUOUS
  0
LAYER
  2
TEAM-TXT
 70
     0
 62
    11
  6
CONTINUOUS
  0
LAYER
  2
TEAM-COLD
 70
     0
 62
     3
  6
CONTINUOUS
  0
LAYER
  2
TEAM-KAN
 70
     0
 62
     6
  6
CONTINUOUS
  0
LAYER
  2
TEAM-WARM
 70
     0
 62
     1
  6
CONTINUOUS
  0
LAYER
  2
TEAM-INSP
 70
     0
 62
     5
  6
CONTINUOUS
  0
ENDTAB
  0
TABLE
  2
STYLE
 70
     2
  0
STYLE
  2
STANDARD
 70
     0
 40
0.0
 41
1.0
 50
0.0
 71
     0
 42
200.0
  3
txt
  4

  0
STYLE
  2
TEAM
 70
     0
 40
0.0
 41
0.8
 50
15.0
 71
     0
 42
7.0
  3
ROMANS.shx
  4

  0
ENDTAB
  0
TABLE
  2
VIEW
 70
     0
  0
ENDTAB
  0
TABLE
  2
UCS
 70
     0
  0
ENDTAB
  0
TABLE
  2
APPID
 70
     1
  0
APPID
  2
ACAD
 70
     0
  0
ENDTAB
  0
TABLE
  2
DIMSTYLE
 70
     1
  0
DIMSTYLE
  2
TEAM
 70
     0
  3

  4

  5

  6

  7

 40
0.0
 41
20.0
 42
10.0
 43
1.0
 44
1.0
 45
0.0
 46
0.0
 47
0.0
 48
0.0
140
35.0
141
1.0
142
0.0
143
25.4
144
1.0
145
0.0
146
1.0
147
7.0
 71
     0
 72
     0
 73
     0
 74
     0
 75
     0
 76
     0
 77
     0
 78
     0
170
     0
171
     2
172
     0
173
     0
174
     0
175
     0
176
     9
177
     9
178
    11
  0
ENDTAB
  0
ENDSEC
  0
SECTION
  2
BLOCKS
  0
BLOCK
  8
0
  2
$MODEL_SPACE
 70
     0
 10
0.0
 20
0.0
 30
0.0
  3
$MODEL_SPACE
  1

  0
ENDBLK
  5
DD
  8
0
  0
BLOCK
 67
     1
  8
0
  2
$PAPER_SPACE
 70
     0
 10
0.0
 20
0.0
 30
0.0
  3
$PAPER_SPACE
  1

  0
ENDBLK
  5
DB
 67
     1
  8
0
  0
BLOCK
  8
0
  2
*D0
 70
     1
 10
0.0
 20
0.0
 30
0.0
  3
*D0
  1

  0
LINE
  5
6E
  8
0
  6
BYBLOCK
 62
     9
 10
7990.0
 20
160000.0
 30
0.0
 11
7925.031753
 21
160000.0
 31
0.0
  0
LINE
  5
6F
  8
0
  6
BYBLOCK
 62
     9
 10
7990.0
 20
160550.0
 30
0.0
 11
7925.031753
 21
160550.0
 31
0.0
  0
LINE
  5
70
  8
0
  6
BYBLOCK
 62
     9
 10
7926.031753
 20
160020.0
 30
0.0
 11
7926.031753
 21
160224.25
 31
0.0
  0
LINE
  5
71
  8
0
  6
BYBLOCK
 62
     9
 10
7926.031753
 20
160530.0
 30
0.0
 11
7926.031753
 21
160325.75
 31
0.0
  0
SOLID
  5
72
  8
0
  6
BYBLOCK
 62
     9
 10
7922.69842
 20
160020.0
 30
0.0
 11
7929.365087
 21
160020.0
 31
0.0
 12
7926.031753
 22
160000.0
 32
0.0
 13
7926.031753
 23
160000.0
 33
0.0
  0
SOLID
  5
73
  8
0
  6
BYBLOCK
 62
     9
 10
7922.69842
 20
160530.0
 30
0.0
 11
7929.365087
 21
160530.0
 31
0.0
 12
7926.031753
 22
160550.0
 32
0.0
 13
7926.031753
 23
160550.0
 33
0.0
  0
TEXT
  5
74
  8
0
  6
BYBLOCK
 62
    11
 10
7943.531753
 20
160231.25
 30
0.0
 40
35.0
  1
550
 50
90.0
  0
POINT
  5
75
  8
DEFPOINTS
  6
BYBLOCK
 62
     0
 10
8000.0
 20
160000.0
 30
0.0
  0
POINT
  5
76
  8
DEFPOINTS
  6
BYBLOCK
 62
     0
 10
8000.0
 20
160550.0
 30
0.0
  0
POINT
  5
77
  8
DEFPOINTS
  6
BYBLOCK
 62
     0
 10
7926.031753
 20
160550.0
 30
0.0
  0
ENDBLK
  5
79
  8
0
  0
BLOCK
  8
0
  2
*D1
 70
     1
 10
0.0
 20
0.0
 30
0.0
  3
*D1
  1

  0
LINE
  5
5B
  8
0
  6
BYBLOCK
 62
     9
 10
7990.0
 20
160550.0
 30
0.0
 11
7925.031753
 21
160550.0
 31
0.0
  0
LINE
  5
5C
  8
0
  6
BYBLOCK
 62
     9
 10
7990.0
 20
160850.0
 30
0.0
 11
7925.031753
 21
160850.0
 31
0.0
  0
LINE
  5
5D
  8
0
  6
BYBLOCK
 62
     9
 10
7926.031753
 20
160570.0
 30
0.0
 11
7926.031753
 21
160652.166667
 31
0.0
  0
LINE
  5
5E
  8
0
  6
BYBLOCK
 62
     9
 10
7926.031753
 20
160830.0
 30
0.0
 11
7926.031753
 21
160747.833333
 31
0.0
  0
SOLID
  5
5F
  8
0
  6
BYBLOCK
 62
     9
 10
7922.69842
 20
160570.0
 30
0.0
 11
7929.365087
 21
160570.0
 31
0.0
 12
7926.031753
 22
160550.0
 32
0.0
 13
7926.031753
 23
160550.0
 33
0.0
  0
SOLID
  5
60
  8
0
  6
BYBLOCK
 62
     9
 10
7922.69842
 20
160830.0
 30
0.0
 11
7929.365087
 21
160830.0
 31
0.0
 12
7926.031753
 22
160850.0
 32
0.0
 13
7926.031753
 23
160850.0
 33
0.0
  0
TEXT
  5
61
  8
0
  6
BYBLOCK
 62
    11
 10
7943.531753
 20
160659.166667
 30
0.0
 40
35.0
  1
300
 50
90.0
  0
POINT
  5
62
  8
DEFPOINTS
  6
BYBLOCK
 62
     0
 10
8000.0
 20
160550.0
 30
0.0
  0
POINT
  5
63
  8
DEFPOINTS
  6
BYBLOCK
 62
     0
 10
8000.0
 20
160850.0
 30
0.0
  0
POINT
  5
64
  8
DEFPOINTS
  6
BYBLOCK
 62
     0
 10
7926.031753
 20
160850.0
 30
0.0
  0
ENDBLK
  5
66
  8
0
  0
BLOCK
  8
0
  2
*D2
 70
     1
 10
0.0
 20
0.0
 30
0.0
  3
*D2
  1

  0
LINE
  5
81
  8
0
  6
BYBLOCK
 62
     9
 10
7990.0
 20
160850.0
 30
0.0
 11
7967.88596
 21
160850.0
 31
0.0
  0
LINE
  5
82
  8
0
  6
BYBLOCK
 62
     9
 10
8134.0
 20
160600.0
 30
0.0
 11
7967.88596
 21
160600.0
 31
0.0
  0
LINE
  5
83
  8
0
  6
BYBLOCK
 62
     9
 10
7968.88596
 20
160830.0
 30
0.0
 11
7968.88596
 21
160775.75
 31
0.0
  0
LINE
  5
84
  8
0
  6
BYBLOCK
 62
     9
 10
7968.88596
 20
160620.0
 30
0.0
 11
7968.88596
 21
160674.25
 31
0.0
  0
SOLID
  5
85
  8
0
  6
BYBLOCK
 62
     9
 10
7965.552627
 20
160830.0
 30
0.0
 11
7972.219293
 21
160830.0
 31
0.0
 12
7968.88596
 22
160850.0
 32
0.0
 13
7968.88596
 23
160850.0
 33
0.0
  0
SOLID
  5
86
  8
0
  6
BYBLOCK
 62
     9
 10
7965.552627
 20
160620.0
 30
0.0
 11
7972.219293
 21
160620.0
 31
0.0
 12
7968.88596
 22
160600.0
 32
0.0
 13
7968.88596
 23
160600.0
 33
0.0
  0
TEXT
  5
87
  8
0
  6
BYBLOCK
 62
    11
 10
7986.38596
 20
160681.25
 30
0.0
 40
35.0
  1
250
 50
90.0
  0
POINT
  5
88
  8
DEFPOINTS
  6
BYBLOCK
 62
     0
 10
8000.0
 20
160850.0
 30
0.0
  0
POINT
  5
89
  8
DEFPOINTS
  6
BYBLOCK
 62
     0
 10
8144.0
 20
160600.0
 30
0.0
  0
POINT
  5
8A
  8
DEFPOINTS
  6
BYBLOCK
 62
     0
 10
7968.88596
 20
160600.0
 30
0.0
  0
ENDBLK
  5
8C
  8
0
  0
BLOCK
  8
0
  2
*D3
 70
     1
 10
0.0
 20
0.0
 30
0.0
  3
*D3
  1

  0
LINE
  5
4D
  8
0
  6
BYBLOCK
 62
     9
 10
8000.0
 20
160010.0
 30
0.0
 11
8000.0
 21
160977.065118
 31
0.0
  0
LINE
  5
4E
  8
0
  6
BYBLOCK
 62
     9
 10
8450.0
 20
160860.0
 30
0.0
 11
8450.0
 21
160977.065118
 31
0.0
  0
LINE
  5
4F
  8
0
  6
BYBLOCK
 62
     9
 10
8020.0
 20
160976.065118
 30
0.0
 11
8174.25
 21
160976.065118
 31
0.0
  0
LINE
  5
50
  8
0
  6
BYBLOCK
 62
     9
 10
8430.0
 20
160976.065118
 30
0.0
 11
8275.75
 21
160976.065118
 31
0.0
  0
SOLID
  5
51
  8
0
  6
BYBLOCK
 62
     9
 10
8020.0
 20
160979.398451
 30
0.0
 11
8020.0
 21
160972.731784
 31
0.0
 12
8000.0
 22
160976.065118
 32
0.0
 13
8000.0
 23
160976.065118
 33
0.0
  0
SOLID
  5
52
  8
0
  6
BYBLOCK
 62
     9
 10
8430.0
 20
160979.398451
 30
0.0
 11
8430.0
 21
160972.731784
 31
0.0
 12
8450.0
 22
160976.065118
 32
0.0
 13
8450.0
 23
160976.065118
 33
0.0
  0
TEXT
  5
53
  8
0
  6
BYBLOCK
 62
    11
 10
8181.25
 20
160958.565118
 30
0.0
 40
35.0
  1
450
  0
POINT
  5
54
  8
DEFPOINTS
  6
BYBLOCK
 62
     0
 10
8000.0
 20
160000.0
 30
0.0
  0
POINT
  5
55
  8
DEFPOINTS
  6
BYBLOCK
 62
     0
 10
8450.0
 20
160850.0
 30
0.0
  0
POINT
  5
56
  8
DEFPOINTS
  6
BYBLOCK
 62
     0
 10
8450.0
 20
160976.065118
 30
0.0
  0
ENDBLK
  5
58
  8
0
  0
BLOCK
  8
0
  2
*D4
 70
     1
 10
0.0
 20
0.0
 30
0.0
  3
*D4
  1

  0
LINE
  5
3F
  8
0
  6
BYBLOCK
 62
     9
 10
7990.0
 20
160000.0
 30
0.0
 11
7836.46605
 21
160000.0
 31
0.0
  0
LINE
  5
40
  8
0
  6
BYBLOCK
 62
     9
 10
7990.0
 20
161150.0
 30
0.0
 11
7836.46605
 21
161150.0
 31
0.0
  0
LINE
  5
41
  8
0
  6
BYBLOCK
 62
     9
 10
7837.46605
 20
160020.0
 30
0.0
 11
7837.46605
 21
160518.416667
 31
0.0
  0
LINE
  5
42
  8
0
  6
BYBLOCK
 62
     9
 10
7837.46605
 20
161130.0
 30
0.0
 11
7837.46605
 21
160631.583333
 31
0.0
  0
SOLID
  5
43
  8
0
  6
BYBLOCK
 62
     9
 10
7834.132717
 20
160020.0
 30
0.0
 11
7840.799384
 21
160020.0
 31
0.0
 12
7837.46605
 22
160000.0
 32
0.0
 13
7837.46605
 23
160000.0
 33
0.0
  0
SOLID
  5
44
  8
0
  6
BYBLOCK
 62
     9
 10
7834.132717
 20
161130.0
 30
0.0
 11
7840.799384
 21
161130.0
 31
0.0
 12
7837.46605
 22
161150.0
 32
0.0
 13
7837.46605
 23
161150.0
 33
0.0
  0
TEXT
  5
45
  8
0
  6
BYBLOCK
 62
    11
 10
7854.96605
 20
160525.416667
 30
0.0
 40
35.0
  1
1150
 50
90.0
  0
POINT
  5
46
  8
DEFPOINTS
  6
BYBLOCK
 62
     0
 10
8000.0
 20
160000.0
 30
0.0
  0
POINT
  5
47
  8
DEFPOINTS
  6
BYBLOCK
 62
     0
 10
8000.0
 20
161150.0
 30
0.0
  0
POINT
  5
48
  8
DEFPOINTS
  6
BYBLOCK
 62
     0
 10
7837.46605
 20
161150.0
 30
0.0
  0
ENDBLK
  5
4A
  8
0
  0
BLOCK
  8
0
  2
*D5
 70
     1
 10
0.0
 20
0.0
 30
0.0
  3
*D5
  1

  0
LINE
  5
31
  8
0
  6
BYBLOCK
 62
     9
 10
7990.0
 20
160000.0
 30
0.0
 11
7793.288679
 21
160000.0
 31
0.0
  0
LINE
  5
32
  8
0
  6
BYBLOCK
 62
     9
 10
7997.579317
 20
161150.0
 30
0.0
 11
7793.288679
 21
161150.0
 31
0.0
  0
LINE
  5
33
  8
0
  6
BYBLOCK
 62
     9
 10
7794.288679
 20
160020.0
 30
0.0
 11
7794.288679
 21
160439.666667
 31
0.0
  0
LINE
  5
34
  8
0
  6
BYBLOCK
 62
     9
 10
7794.288679
 20
161130.0
 30
0.0
 11
7794.288679
 21
160710.333333
 31
0.0
  0
SOLID
  5
35
  8
0
  6
BYBLOCK
 62
     9
 10
7790.955346
 20
160020.0
 30
0.0
 11
7797.622012
 21
160020.0
 31
0.0
 12
7794.288679
 22
160000.0
 32
0.0
 13
7794.288679
 23
160000.0
 33
0.0
  0
SOLID
  5
36
  8
0
  6
BYBLOCK
 62
     9
 10
7790.955346
 20
161130.0
 30
0.0
 11
7797.622012
 21
161130.0
 31
0.0
 12
7794.288679
 22
161150.0
 32
0.0
 13
7794.288679
 23
161150.0
 33
0.0
  0
TEXT
  5
37
  8
0
  6
BYBLOCK
 62
    11
 10
7811.788679
 20
160446.666667
 30
0.0
 40
35.0
  1
1050-1200
 50
90.0
  0
POINT
  5
38
  8
DEFPOINTS
  6
BYBLOCK
 62
     0
 10
8000.0
 20
160000.0
 30
0.0
  0
POINT
  5
39
  8
DEFPOINTS
  6
BYBLOCK
 62
     0
 10
8007.579317
 20
161150.0
 30
0.0
  0
POINT
  5
3A
  8
DEFPOINTS
  6
BYBLOCK
 62
     0
 10
7794.288679
 20
161150.0
 30
0.0
  0
ENDBLK
  5
3C
  8
0
  0
BLOCK
  8
0
  2
*D6
 70
     1
 10
0.0
 20
0.0
 30
0.0
  3
*D6
  1

  0
LINE
  5
22
  8
0
  6
BYBLOCK
 62
     9
 10
7990.0
 20
160000.0
 30
0.0
 11
7880.626079
 21
160000.0
 31
0.0
  0
LINE
  5
23
  8
0
  6
BYBLOCK
 62
     9
 10
7990.0
 20
160850.0
 30
0.0
 11
7880.626079
 21
160850.0
 31
0.0
  0
LINE
  5
24
  8
0
  6
BYBLOCK
 62
     9
 10
7881.626079
 20
160020.0
 30
0.0
 11
7881.626079
 21
160374.25
 31
0.0
  0
LINE
  5
25
  8
0
  6
BYBLOCK
 62
     9
 10
7881.626079
 20
160830.0
 30
0.0
 11
7881.626079
 21
160475.75
 31
0.0
  0
SOLID
  5
26
  8
0
  6
BYBLOCK
 62
     9
 10
7878.292745
 20
160020.0
 30
0.0
 11
7884.959412
 21
160020.0
 31
0.0
 12
7881.626079
 22
160000.0
 32
0.0
 13
7881.626079
 23
160000.0
 33
0.0
  0
SOLID
  5
27
  8
0
  6
BYBLOCK
 62
     9
 10
7878.292745
 20
160830.0
 30
0.0
 11
7884.959412
 21
160830.0
 31
0.0
 12
7881.626079
 22
160850.0
 32
0.0
 13
7881.626079
 23
160850.0
 33
0.0
  0
TEXT
  5
28
  8
0
  6
BYBLOCK
 62
    11
 10
7899.126079
 20
160381.25
 30
0.0
 40
35.0
  1
850
 50
90.0
  0
POINT
  5
29
  8
DEFPOINTS
  6
BYBLOCK
 62
     0
 10
8000.0
 20
160000.0
 30
0.0
  0
POINT
  5
2B
  8
DEFPOINTS
  6
BYBLOCK
 62
     0
 10
8000.0
 20
160850.0
 30
0.0
  0
POINT
  5
2C
  8
DEFPOINTS
  6
BYBLOCK
 62
     0
 10
7881.626079
 20
160850.0
 30
0.0
  0
ENDBLK
  5
2E
  8
0
  0
ENDSEC
  0
SECTION
  2
ENTITIES
  0
DIMENSION
  5
20
  8
TEAM-MAS
  2
*D6
 10
-118.373921
 20
850.0
 30
0.0
 11
-118.373921
 21
425.0
 31
0.0
 12
-8000.0
 22
-160000.0
 32
0.0
 13
0.0
 23
0.0
 33
0.0
 14
0.0
 24
850.0
 34
0.0
 50
90.0
  0
DIMENSION
  5
2F
  8
TEAM-MAS
  2
*D5
 10
-205.711321
 20
1150.0
 30
0.0
 11
-205.711321
 21
575.0
 31
0.0
 12
-8000.0
 22
-160000.0
 32
0.0
  1
1050-1200
 13
0.0
 23
0.0
 33
0.0
 14
7.579317
 24
1150.0
 34
0.0
 50
90.0
  0
DIMENSION
  5
3D
  8
TEAM-MAS
  2
*D4
 10
-162.53395
 20
1150.0
 30
0.0
 11
-162.53395
 21
575.0
 31
0.0
 12
-8000.0
 22
-160000.0
 32
0.0
 13
0.0
 23
0.0
 33
0.0
 14
0.0
 24
1150.0
 34
0.0
 50
90.0
  0
DIMENSION
  5
4B
  8
TEAM-MAS
  2
*D3
 10
450.0
 20
976.065118
 30
0.0
 11
225.0
 21
976.065118
 31
0.0
 12
-8000.0
 22
-160000.0
 32
0.0
 13
0.0
 23
0.0
 33
0.0
 14
450.0
 24
850.0
 34
0.0
  0
DIMENSION
  5
59
  8
TEAM-MAS
  2
*D1
 10
-73.968247
 20
850.0
 30
0.0
 11
-73.968247
 21
700.0
 31
0.0
 12
-8000.0
 22
-160000.0
 32
0.0
 13
0.0
 23
550.0
 33
0.0
 14
0.0
 24
850.0
 34
0.0
 50
90.0
1001
ACAD
1000
DSTYLE
1002
{
1070
    40
1040
1.0
1002
}
  0
LINE
  5
67
  8
TEAM-KAN
 10
165.0
 20
600.0
 30
0.0
 11
165.0
 21
475.980383
 31
0.0
  0
LINE
  5
69
  8
TEAM-AXE
 10
0.0
 20
520.0
 30
0.0
 11
0.0
 21
580.0
 31
0.0
  0
DIMENSION
  5
6C
  8
TEAM-MAS
  2
*D0
 10
-73.968247
 20
550.0
 30
0.0
 11
-73.968247
 21
275.0
 31
0.0
 12
-8000.0
 22
-160000.0
 32
0.0
 13
0.0
 23
0.0
 33
0.0
 14
0.0
 24
550.0
 34
0.0
 50
90.0
  0
CIRCLE
  5
7A
  8
TEAM-INSP
 10
0.0
 20
0.0
 30
0.0
 40
10.0
  0
LINE
  5
7C
  8
TEAM-AXE
 10
-30.0
 20
550.0
 30
0.0
 11
30.0
 21
550.0
 31
0.0
  0
LINE
  5
7D
  8
TEAM-KAN
 10
30.0
 20
550.0
 30
0.0
 11
165.0
 21
550.0
 31
0.0
  0
CIRCLE
  5
7E
  8
TEAM-KAN
 10
0.0
 20
550.0
 30
0.0
 40
20.0
  0
DIMENSION
  5
7F
  8
TEAM-MAS
  2
*D2
 10
-31.11404
 20
600.0
 30
0.0
 11
-31.11404
 21
725.0
 31
0.0
 12
-8000.0
 22
-160000.0
 32
0.0
 13
0.0
 23
850.0
 33
0.0
 14
144.0
 24
600.0
 34
0.0
 50
90.0
1001
ACAD
1000
DSTYLE
1002
{
1070
    40
1040
1.0
1002
}
  0
TEXT
  5
8D
  8
TEAM-TXT
 10
68.637659
 20
663.405746
 30
0.0
 40
30.0
  1
team 431007
 41
0.8
 51
15.0
  7
TEAM
  0
LINE
  5
90
  8
TEAM-BODY
 10
30.0
 20
840.0
 30
0.0
 11
63.956843
 21
622.173077
 31
0.0
  0
ARC
  5
92
  8
TEAM-BODY
 10
83.756048
 20
625.0
 30
0.0
 40
20.0
 50
188.125751
 51
270.0
  0
LINE
  5
93
  8
TEAM-BODY
 10
369.181163
 20
628.692587
 30
0.0
 11
413.548382
 21
840.0
 31
0.0
  0
ARC
  5
94
  8
TEAM-BODY
 10
339.851715
 20
635.0
 30
0.0
 40
30.0
 50
270.0
 51
347.863167
  0
LINE
  5
95
  8
TEAM-BODY
 10
144.0
 20
605.0
 30
0.0
 11
144.0
 21
600.0
 31
0.0
  0
LINE
  5
96
  8
TEAM-BODY
 10
186.0
 20
605.0
 30
0.0
 11
186.0
 21
600.0
 31
0.0
  0
LINE
  5
97
  8
TEAM-BODY
 10
186.0
 20
600.0
 30
0.0
 11
144.0
 21
600.0
 31
0.0
  0
LINE
  5
98
  8
TEAM-BODY
 10
339.851715
 20
605.0
 30
0.0
 11
83.756048
 21
605.0
 31
0.0
  0
LINE
  5
99
  8
TEAM-BODY
 10
450.0
 20
840.0
 30
0.0
 11
450.0
 21
850.0
 31
0.0
  0
LINE
  5
9A
  8
TEAM-BODY
 10
0.0
 20
850.0
 30
0.0
 11
0.0
 21
840.0
 31
0.0
  0
LINE
  5
9B
  8
TEAM-BODY
 10
450.0
 20
850.0
 30
0.0
 11
0.0
 21
850.0
 31
0.0
  0
LINE
  5
9C
  8
TEAM-BODY
 10
450.0
 20
850.0
 30
0.0
 11
0.0
 21
850.0
 31
0.0
  0
LINE
  5
9D
  8
TEAM-BODY
 10
450.0
 20
840.0
 30
0.0
 11
0.0
 21
840.0
 31
0.0
  0
CIRCLE
  5
9E
  8
TEAM-COLD
 10
7.579317
 20
1150.0
 30
0.0
 40
15.0
  0
LINE
  5
A0
  8
TEAM-AXE
 10
-12.420683
 20
1150.0
 30
0.0
 11
27.579317
 21
1150.0
 31
0.0
  0
LINE
  5
A1
  8
TEAM-AXE
 10
7.579317
 20
1130.0
 30
0.0
 11
7.579317
 21
1170.0
 31
0.0
  0
CIRCLE
  5
A2
  8
TEAM-WARM
 10
0.0
 20
1150.0
 30
0.0
 40
15.0
  0
LINE
  5
A4
  8
TEAM-AXE
 10
-20.0
 20
1150.0
 30
0.0
 11
20.0
 21
1150.0
 31
0.0
  0
LINE
  5
A5
  8
TEAM-AXE
 10
0.0
 20
1130.0
 30
0.0
 11
0.0
 21
1170.0
 31
0.0
  0
ENDSEC
  0
EOF
