  0
SECTION
  2
HEADER
  9
$ACADVER
  1
AC1009
  9
$INSBASE
 10
0.0
 20
0.0
 30
0.0
  9
$EXTMIN
 10
-395.038025
 20
-10.05988
 30
0.0
  9
$EXTMAX
 10
523.032164
 20
1170.006236
 30
0.000005
  9
$LIMMIN
 10
-395.038025
 20
-10.05988
  9
$LIMMAX
 10
523.032164
 20
1170.006236
  9
$ORTHOMODE
 70
     1
  9
$REGENMODE
 70
     1
  9
$FILLMODE
 70
     1
  9
$QTEXTMODE
 70
     0
  9
$MIRRTEXT
 70
     0
  9
$DRAGMODE
 70
     2
  9
$LTSCALE
 40
50.0
  9
$OSMODE
 70
     0
  9
$ATTMODE
 70
     1
  9
$TEXTSIZE
 40
200.0
  9
$TRACEWID
 40
1.0
  9
$TEXTSTYLE
  7
STANDARD
  9
$CLAYER
  8
TEAM-MAS
  9
$CELTYPE
  6
BYLAYER
  9
$CECOLOR
 62
   256
  9
$DIMSCALE
 40
0.0
  9
$DIMASZ
 40
20.0
  9
$DIMEXO
 40
10.0
  9
$DIMDLI
 40
1.0
  9
$DIMRND
 40
0.0
  9
$DIMDLE
 40
0.0
  9
$DIMEXE
 40
1.0
  9
$DIMTP
 40
0.0
  9
$DIMTM
 40
0.0
  9
$DIMTXT
 40
35.0
  9
$DIMCEN
 40
1.0
  9
$DIMTSZ
 40
0.0
  9
$DIMTOL
 70
     0
  9
$DIMLIM
 70
     0
  9
$DIMTIH
 70
     0
  9
$DIMTOH
 70
     0
  9
$DIMSE1
 70
     0
  9
$DIMSE2
 70
     0
  9
$DIMTAD
 70
     0
  9
$DIMZIN
 70
     0
  9
$DIMBLK
  1

  9
$DIMASO
 70
     1
  9
$DIMSHO
 70
     0
  9
$DIMPOST
  1

  9
$DIMAPOST
  1

  9
$DIMALT
 70
     0
  9
$DIMALTD
 70
     2
  9
$DIMALTF
 40
25.4
  9
$DIMLFAC
 40
1.0
  9
$DIMTOFL
 70
     0
  9
$DIMTVP
 40
0.0
  9
$DIMTIX
 70
     0
  9
$DIMSOXD
 70
     0
  9
$DIMSAH
 70
     0
  9
$DIMBLK1
  1

  9
$DIMBLK2
  1

  9
$DIMSTYLE
  2
TEAM
  9
$DIMCLRD
 70
     9
  9
$DIMCLRE
 70
     9
  9
$DIMCLRT
 70
    11
  9
$DIMTFAC
 40
1.0
  9
$DIMGAP
 40
7.0
  9
$LUNITS
 70
     2
  9
$LUPREC
 70
     1
  9
$SKETCHINC
 40
1.0
  9
$FILLETRAD
 40
50.0
  9
$AUNITS
 70
     0
  9
$AUPREC
 70
     0
  9
$MENU
  1
ROPLANS
  9
$ELEVATION
 40
0.0
  9
$PELEVATION
 40
0.0
  9
$THICKNESS
 40
0.0
  9
$LIMCHECK
 70
     0
  9
$BLIPMODE
 70
     1
  9
$CHAMFERA
 40
0.0
  9
$CHAMFERB
 40
0.0
  9
$SKPOLY
 70
     0
  9
$TDCREATE
 40
2450392.957851
  9
$TDUPDATE
 40
2456272.033233
  9
$TDINDWG
 40
2.315654
  9
$TDUSRTIMER
 40
2.315654
  9
$USRTIMER
 70
     1
  9
$ANGBASE
 50
0.0
  9
$ANGDIR
 70
     0
  9
$PDMODE
 70
     0
  9
$PDSIZE
 40
0.0
  9
$PLINEWID
 40
0.0
  9
$COORDS
 70
     2
  9
$SPLFRAME
 70
     0
  9
$SPLINETYPE
 70
     6
  9
$SPLINESEGS
 70
     8
  9
$ATTDIA
 70
     0
  9
$ATTREQ
 70
     0
  9
$HANDLING
 70
     1
  9
$HANDSEED
  5
116
  9
$SURFTAB1
 70
    24
  9
$SURFTAB2
 70
    24
  9
$SURFTYPE
 70
     6
  9
$SURFU
 70
     6
  9
$SURFV
 70
     6
  9
$UCSNAME
  2

  9
$UCSORG
 10
0.0
 20
0.0
 30
0.0
  9
$UCSXDIR
 10
1.0
 20
0.0
 30
0.0
  9
$UCSYDIR
 10
0.0
 20
1.0
 30
0.0
  9
$PUCSNAME
  2

  9
$PUCSORG
 10
0.0
 20
0.0
 30
0.0
  9
$PUCSXDIR
 10
1.0
 20
0.0
 30
0.0
  9
$PUCSYDIR
 10
0.0
 20
1.0
 30
0.0
  9
$USERI1
 70
     0
  9
$USERI2
 70
     0
  9
$USERI3
 70
     0
  9
$USERI4
 70
     0
  9
$USERI5
 70
     0
  9
$USERR1
 40
0.0
  9
$USERR2
 40
0.0
  9
$USERR3
 40
0.0
  9
$USERR4
 40
0.0
  9
$USERR5
 40
0.0
  9
$WORLDVIEW
 70
     1
  9
$SHADEDGE
 70
     0
  9
$SHADEDIF
 70
    70
  9
$TILEMODE
 70
     1
  9
$MAXACTVP
 70
    16
  9
$PLIMCHECK
 70
     0
  9
$PEXTMIN
 10
-0.805942
 20
0.005011
 30
0.0
  9
$PEXTMAX
 10
20.250094
 20
11.356329
 30
0.0
  9
$PLIMMIN
 10
0.0
 20
0.0
  9
$PLIMMAX
 10
12.0
 20
9.0
  9
$UNITMODE
 70
     0
  9
$VISRETAIN
 70
     0
  9
$PLINEGEN
 70
     0
  9
$PSLTSCALE
 70
     0
  0
ENDSEC
  0
SECTION
  2
TABLES
  0
TABLE
  2
VPORT
 70
     2
  0
VPORT
  2
*ACTIVE
 70
     0
 10
0.0
 20
0.0
 11
1.0
 21
1.0
 12
63.997069
 22
579.973178
 13
0.0
 23
0.0
 14
1.0
 24
1.0
 15
50.0
 25
50.0
 16
0.0
 26
0.0
 36
1.0
 17
0.0
 27
0.0
 37
0.0
 40
1187.495703
 41
1.911765
 42
50.0
 43
0.0
 44
0.0
 50
0.0
 51
0.0
 71
     0
 72
   100
 73
     1
 74
     1
 75
     0
 76
     0
 77
     0
 78
     0
  0
ENDTAB
  0
TABLE
  2
LTYPE
 70
     3
  0
LTYPE
  2
CONTINUOUS
 70
     0
  3
Solid Line
 72
    65
 73
     0
 40
0.0
  0
LTYPE
  2
31
 70
     0
  3

 72
    65
 73
     4
 40
2.1
 49
1.5
 49
-0.3
 49
0.0
 49
-0.3
  0
LTYPE
  2
22
 70
     0
  3

 72
    65
 73
     2
 40
1.4
 49
1.2
 49
-0.2
  0
ENDTAB
  0
TABLE
  2
LAYER
 70
    11
  0
LAYER
  2
0
 70
     0
 62
     7
  6
CONTINUOUS
  0
LAYER
  2
DEFPOINTS
 70
     0
 62
     7
  6
CONTINUOUS
  0
LAYER
  2
TEAM-BODY
 70
     0
 62
     2
  6
CONTINUOUS
  0
LAYER
  2
TEAM-AXE
 70
     0
 62
    10
  6
31
  0
LAYER
  2
TEAM-MAS
 70
     0
 62
     9
  6
CONTINUOUS
  0
LAYER
  2
TEAM-TXT
 70
     0
 62
    11
  6
CONTINUOUS
  0
LAYER
  2
TEAM-COLD
 70
     0
 62
     3
  6
CONTINUOUS
  0
LAYER
  2
TEAM-HIDE
 70
     0
 62
     8
  6
22
  0
LAYER
  2
TEAM-KAN
 70
     0
 62
     6
  6
CONTINUOUS
  0
LAYER
  2
TEAM-WARM
 70
     0
 62
     1
  6
CONTINUOUS
  0
LAYER
  2
TEAM-INSP
 70
     0
 62
     5
  6
CONTINUOUS
  0
ENDTAB
  0
TABLE
  2
STYLE
 70
     2
  0
STYLE
  2
STANDARD
 70
     0
 40
0.0
 41
1.0
 50
0.0
 71
     0
 42
200.0
  3
txt
  4

  0
STYLE
  2
TEAM
 70
     0
 40
0.0
 41
0.8
 50
15.0
 71
     0
 42
7.0
  3
ROMANS.shx
  4

  0
ENDTAB
  0
TABLE
  2
VIEW
 70
     0
  0
ENDTAB
  0
TABLE
  2
UCS
 70
     0
  0
ENDTAB
  0
TABLE
  2
APPID
 70
     1
  0
APPID
  2
ACAD
 70
     0
  0
ENDTAB
  0
TABLE
  2
DIMSTYLE
 70
     1
  0
DIMSTYLE
  2
TEAM
 70
     0
  3

  4

  5

  6

  7

 40
0.0
 41
20.0
 42
10.0
 43
1.0
 44
1.0
 45
0.0
 46
0.0
 47
0.0
 48
0.0
140
35.0
141
1.0
142
0.0
143
25.4
144
1.0
145
0.0
146
1.0
147
7.0
 71
     0
 72
     0
 73
     0
 74
     0
 75
     0
 76
     0
 77
     0
 78
     0
170
     0
171
     2
172
     0
173
     0
174
     0
175
     0
176
     9
177
     9
178
    11
  0
ENDTAB
  0
ENDSEC
  0
SECTION
  2
BLOCKS
  0
BLOCK
  8
0
  2
$MODEL_SPACE
 70
     0
 10
0.0
 20
0.0
 30
0.0
  3
$MODEL_SPACE
  1

  0
ENDBLK
  5
10F
  8
0
  0
BLOCK
 67
     1
  8
0
  2
$PAPER_SPACE
 70
     0
 10
0.0
 20
0.0
 30
0.0
  3
$PAPER_SPACE
  1

  0
ENDBLK
  5
10D
 67
     1
  8
0
  0
BLOCK
  8
0
  2
*D0
 70
     1
 10
0.0
 20
0.0
 30
0.0
  3
*D0
  1

  0
LINE
  5
AE
  8
0
  6
BYBLOCK
 62
     9
 10
11878.5
 20
161140.0
 30
0.0
 11
11878.5
 21
161075.019731
 31
0.0
  0
LINE
  5
AF
  8
0
  6
BYBLOCK
 62
     9
 10
12031.5
 20
161140.0
 30
0.0
 11
12031.5
 21
161075.019731
 31
0.0
  0
LINE
  5
B0
  8
0
  6
BYBLOCK
 62
     9
 10
11898.5
 20
161076.019731
 30
0.0
 11
11907.166667
 21
161076.019731
 31
0.0
  0
LINE
  5
B1
  8
0
  6
BYBLOCK
 62
     9
 10
12011.5
 20
161076.019731
 30
0.0
 11
12002.833333
 21
161076.019731
 31
0.0
  0
TEXT
  5
B2
  8
0
  6
BYBLOCK
 62
    11
 10
11914.166667
 20
161058.519731
 30
0.0
 40
35.0
  1
153
  0
SOLID
  5
B3
  8
0
  6
BYBLOCK
 62
     9
 10
11898.5
 20
161079.353065
 30
0.0
 11
11898.5
 21
161072.686398
 31
0.0
 12
11878.5
 22
161076.019731
 32
0.0
 13
11878.5
 23
161076.019731
 33
0.0
  0
SOLID
  5
B4
  8
0
  6
BYBLOCK
 62
     9
 10
12011.5
 20
161079.353065
 30
0.0
 11
12011.5
 21
161072.686398
 31
0.0
 12
12031.5
 22
161076.019731
 32
0.0
 13
12031.5
 23
161076.019731
 33
0.0
  0
POINT
  5
B5
  8
DEFPOINTS
  6
BYBLOCK
 62
     0
 10
11878.5
 20
161150.0
 30
0.0
  0
POINT
  5
B6
  8
DEFPOINTS
  6
BYBLOCK
 62
     0
 10
12031.5
 20
161150.0
 30
0.0
  0
POINT
  5
B7
  8
DEFPOINTS
  6
BYBLOCK
 62
     0
 10
12031.5
 20
161076.019731
 30
0.0
  0
ENDBLK
  5
B9
  8
0
  0
BLOCK
  8
0
  2
*D1
 70
     1
 10
0.0
 20
0.0
 30
0.0
  3
*D1
  1

  0
LINE
  5
5B
  8
0
  6
BYBLOCK
 62
     9
 10
12073.0
 20
160505.980383
 30
0.0
 11
12073.0
 21
160418.643428
 31
0.0
  0
LINE
  5
5C
  8
0
  6
BYBLOCK
 62
     9
 10
11993.0
 20
160570.0
 30
0.0
 11
11993.0
 21
160418.643428
 31
0.0
  0
LINE
  5
5D
  8
0
  6
BYBLOCK
 62
     9
 10
12093.0
 20
160419.643428
 30
0.0
 11
12113.0
 21
160419.643428
 31
0.0
  0
LINE
  5
5E
  8
0
  6
BYBLOCK
 62
     9
 10
11973.0
 20
160419.643428
 30
0.0
 11
11953.0
 21
160419.643428
 31
0.0
  0
SOLID
  5
5F
  8
0
  6
BYBLOCK
 62
     9
 10
12093.0
 20
160422.976761
 30
0.0
 11
12093.0
 21
160416.310095
 31
0.0
 12
12073.0
 22
160419.643428
 32
0.0
 13
12073.0
 23
160419.643428
 33
0.0
  0
SOLID
  5
60
  8
0
  6
BYBLOCK
 62
     9
 10
11973.0
 20
160422.976761
 30
0.0
 11
11973.0
 21
160416.310095
 31
0.0
 12
11993.0
 22
160419.643428
 32
0.0
 13
11993.0
 23
160419.643428
 33
0.0
  0
TEXT
  5
61
  8
0
  6
BYBLOCK
 62
    11
 10
12006.75
 20
160402.143428
 30
0.0
 40
35.0
  1
80
  0
POINT
  5
62
  8
DEFPOINTS
  6
BYBLOCK
 62
     0
 10
12073.0
 20
160515.980383
 30
0.0
  0
POINT
  5
63
  8
DEFPOINTS
  6
BYBLOCK
 62
     0
 10
11993.0
 20
160580.0
 30
0.0
  0
POINT
  5
64
  8
DEFPOINTS
  6
BYBLOCK
 62
     0
 10
11993.0
 20
160419.643428
 30
0.0
  0
ENDBLK
  5
66
  8
0
  0
BLOCK
  8
0
  2
*D2
 70
     1
 10
0.0
 20
0.0
 30
0.0
  3
*D2
  1

  0
LINE
  5
4D
  8
0
  6
BYBLOCK
 62
     9
 10
12090.0
 20
160550.0
 30
0.0
 11
12373.434102
 21
160550.0
 31
0.0
  0
LINE
  5
4E
  8
0
  6
BYBLOCK
 62
     9
 10
12315.0
 20
160850.0
 30
0.0
 11
12373.434102
 21
160850.0
 31
0.0
  0
LINE
  5
4F
  8
0
  6
BYBLOCK
 62
     9
 10
12372.434102
 20
160570.0
 30
0.0
 11
12372.434102
 21
160663.955111
 31
0.0
  0
LINE
  5
50
  8
0
  6
BYBLOCK
 62
     9
 10
12372.434102
 20
160830.0
 30
0.0
 11
12372.434102
 21
160759.621777
 31
0.0
  0
TEXT
  5
51
  8
0
  6
BYBLOCK
 62
    11
 10
12389.934102
 20
160670.955111
 30
0.0
 40
35.0
  1
300
 50
90.0
  0
SOLID
  5
52
  8
0
  6
BYBLOCK
 62
     9
 10
12369.100769
 20
160570.0
 30
0.0
 11
12375.767435
 21
160570.0
 31
0.0
 12
12372.434102
 22
160550.0
 32
0.0
 13
12372.434102
 23
160550.0
 33
0.0
  0
SOLID
  5
53
  8
0
  6
BYBLOCK
 62
     9
 10
12369.100769
 20
160830.0
 30
0.0
 11
12375.767435
 21
160830.0
 31
0.0
 12
12372.434102
 22
160850.0
 32
0.0
 13
12372.434102
 23
160850.0
 33
0.0
  0
POINT
  5
54
  8
DEFPOINTS
  6
BYBLOCK
 62
     0
 10
12080.0
 20
160550.0
 30
0.0
  0
POINT
  5
55
  8
DEFPOINTS
  6
BYBLOCK
 62
     0
 10
12305.0
 20
160850.0
 30
0.0
  0
POINT
  5
56
  8
DEFPOINTS
  6
BYBLOCK
 62
     0
 10
12372.434102
 20
160850.0
 30
0.0
  0
ENDBLK
  5
58
  8
0
  0
BLOCK
  8
0
  2
*D3
 70
     1
 10
0.0
 20
0.0
 30
0.0
  3
*D3
  1

  0
LINE
  5
3F
  8
0
  6
BYBLOCK
 62
     9
 10
12010.0
 20
160000.0
 30
0.0
 11
12506.511582
 21
160000.0
 31
0.0
  0
LINE
  5
40
  8
0
  6
BYBLOCK
 62
     9
 10
12041.5
 20
161150.0
 30
0.0
 11
12506.511582
 21
161150.0
 31
0.0
  0
LINE
  5
41
  8
0
  6
BYBLOCK
 62
     9
 10
12505.511582
 20
160020.0
 30
0.0
 11
12505.511582
 21
160439.666667
 31
0.0
  0
LINE
  5
42
  8
0
  6
BYBLOCK
 62
     9
 10
12505.511582
 20
161130.0
 30
0.0
 11
12505.511582
 21
160710.333333
 31
0.0
  0
SOLID
  5
43
  8
0
  6
BYBLOCK
 62
     9
 10
12502.178249
 20
160020.0
 30
0.0
 11
12508.844915
 21
160020.0
 31
0.0
 12
12505.511582
 22
160000.0
 32
0.0
 13
12505.511582
 23
160000.0
 33
0.0
  0
SOLID
  5
44
  8
0
  6
BYBLOCK
 62
     9
 10
12502.178249
 20
161130.0
 30
0.0
 11
12508.844915
 21
161130.0
 31
0.0
 12
12505.511582
 22
161150.0
 32
0.0
 13
12505.511582
 23
161150.0
 33
0.0
  0
TEXT
  5
45
  8
0
  6
BYBLOCK
 62
    11
 10
12523.011582
 20
160446.666667
 30
0.0
 40
35.0
  1
1050-1200
 50
90.0
  0
POINT
  5
46
  8
DEFPOINTS
  6
BYBLOCK
 62
     0
 10
12000.0
 20
160000.0
 30
0.0
  0
POINT
  5
47
  8
DEFPOINTS
  6
BYBLOCK
 62
     0
 10
12031.5
 20
161150.0
 30
0.0
  0
POINT
  5
48
  8
DEFPOINTS
  6
BYBLOCK
 62
     0
 10
12505.511582
 20
161150.0
 30
0.0
  0
ENDBLK
  5
4A
  8
0
  0
BLOCK
  8
0
  2
*D4
 70
     1
 10
0.0
 20
0.0
 30
0.0
  3
*D4
  1

  0
LINE
  5
31
  8
0
  6
BYBLOCK
 62
     9
 10
12010.0
 20
160000.0
 30
0.0
 11
12460.878651
 21
160000.0
 31
0.0
  0
LINE
  5
32
  8
0
  6
BYBLOCK
 62
     9
 10
12041.5
 20
161150.0
 30
0.0
 11
12460.878651
 21
161150.0
 31
0.0
  0
LINE
  5
33
  8
0
  6
BYBLOCK
 62
     9
 10
12459.878651
 20
160020.0
 30
0.0
 11
12459.878651
 21
160518.416667
 31
0.0
  0
LINE
  5
34
  8
0
  6
BYBLOCK
 62
     9
 10
12459.878651
 20
161130.0
 30
0.0
 11
12459.878651
 21
160631.583333
 31
0.0
  0
SOLID
  5
35
  8
0
  6
BYBLOCK
 62
     9
 10
12456.545317
 20
160020.0
 30
0.0
 11
12463.211984
 21
160020.0
 31
0.0
 12
12459.878651
 22
160000.0
 32
0.0
 13
12459.878651
 23
160000.0
 33
0.0
  0
SOLID
  5
36
  8
0
  6
BYBLOCK
 62
     9
 10
12456.545317
 20
161130.0
 30
0.0
 11
12463.211984
 21
161130.0
 31
0.0
 12
12459.878651
 22
161150.0
 32
0.0
 13
12459.878651
 23
161150.0
 33
0.0
  0
TEXT
  5
37
  8
0
  6
BYBLOCK
 62
    11
 10
12477.378651
 20
160525.416667
 30
0.0
 40
35.0
  1
1150
 50
90.0
  0
POINT
  5
38
  8
DEFPOINTS
  6
BYBLOCK
 62
     0
 10
12000.0
 20
160000.0
 30
0.0
  0
POINT
  5
39
  8
DEFPOINTS
  6
BYBLOCK
 62
     0
 10
12031.5
 20
161150.0
 30
0.0
  0
POINT
  5
3A
  8
DEFPOINTS
  6
BYBLOCK
 62
     0
 10
12459.878651
 20
161150.0
 30
0.0
  0
ENDBLK
  5
3C
  8
0
  0
BLOCK
  8
0
  2
*D5
 70
     1
 10
0.0
 20
0.0
 30
0.0
  3
*D5
  1

  0
LINE
  5
22
  8
0
  6
BYBLOCK
 62
     9
 10
12010.0
 20
160000.0
 30
0.0
 11
12416.758828
 21
160000.0
 31
0.0
  0
LINE
  5
23
  8
0
  6
BYBLOCK
 62
     9
 10
12315.0
 20
160850.0
 30
0.0
 11
12416.758828
 21
160850.0
 31
0.0
  0
LINE
  5
24
  8
0
  6
BYBLOCK
 62
     9
 10
12415.758828
 20
160020.0
 30
0.0
 11
12415.758828
 21
160374.25
 31
0.0
  0
LINE
  5
25
  8
0
  6
BYBLOCK
 62
     9
 10
12415.758828
 20
160830.0
 30
0.0
 11
12415.758828
 21
160475.75
 31
0.0
  0
SOLID
  5
26
  8
0
  6
BYBLOCK
 62
     9
 10
12412.425495
 20
160020.0
 30
0.0
 11
12419.092162
 21
160020.0
 31
0.0
 12
12415.758828
 22
160000.0
 32
0.0
 13
12415.758828
 23
160000.0
 33
0.0
  0
SOLID
  5
27
  8
0
  6
BYBLOCK
 62
     9
 10
12412.425495
 20
160830.0
 30
0.0
 11
12419.092162
 21
160830.0
 31
0.0
 12
12415.758828
 22
160850.0
 32
0.0
 13
12415.758828
 23
160850.0
 33
0.0
  0
TEXT
  5
28
  8
0
  6
BYBLOCK
 62
    11
 10
12433.258828
 20
160381.25
 30
0.0
 40
35.0
  1
850
 50
90.0
  0
POINT
  5
29
  8
DEFPOINTS
  6
BYBLOCK
 62
     0
 10
12000.0
 20
160000.0
 30
0.0
  0
POINT
  5
2B
  8
DEFPOINTS
  6
BYBLOCK
 62
     0
 10
12305.0
 20
160850.0
 30
0.0
  0
POINT
  5
2C
  8
DEFPOINTS
  6
BYBLOCK
 62
     0
 10
12415.758828
 20
160850.0
 30
0.0
  0
ENDBLK
  5
2E
  8
0
  0
BLOCK
  8
0
  2
*D6
 70
     1
 10
0.0
 20
0.0
 30
0.0
  3
*D6
  1

  0
LINE
  5
6E
  8
0
  6
BYBLOCK
 62
     9
 10
12010.0
 20
160000.0
 30
0.0
 11
12374.434102
 21
160000.0
 31
0.0
  0
LINE
  5
6F
  8
0
  6
BYBLOCK
 62
     9
 10
12090.0
 20
160550.0
 30
0.0
 11
12374.434102
 21
160550.0
 31
0.0
  0
LINE
  5
70
  8
0
  6
BYBLOCK
 62
     9
 10
12373.434102
 20
160020.0
 30
0.0
 11
12373.434102
 21
160224.25
 31
0.0
  0
LINE
  5
71
  8
0
  6
BYBLOCK
 62
     9
 10
12373.434102
 20
160530.0
 30
0.0
 11
12373.434102
 21
160325.75
 31
0.0
  0
SOLID
  5
72
  8
0
  6
BYBLOCK
 62
     9
 10
12370.100769
 20
160020.0
 30
0.0
 11
12376.767435
 21
160020.0
 31
0.0
 12
12373.434102
 22
160000.0
 32
0.0
 13
12373.434102
 23
160000.0
 33
0.0
  0
SOLID
  5
73
  8
0
  6
BYBLOCK
 62
     9
 10
12370.100769
 20
160530.0
 30
0.0
 11
12376.767435
 21
160530.0
 31
0.0
 12
12373.434102
 22
160550.0
 32
0.0
 13
12373.434102
 23
160550.0
 33
0.0
  0
TEXT
  5
74
  8
0
  6
BYBLOCK
 62
    11
 10
12390.934102
 20
160231.25
 30
0.0
 40
35.0
  1
550
 50
90.0
  0
POINT
  5
75
  8
DEFPOINTS
  6
BYBLOCK
 62
     0
 10
12000.0
 20
160000.0
 30
0.0
  0
POINT
  5
76
  8
DEFPOINTS
  6
BYBLOCK
 62
     0
 10
12080.0
 20
160550.0
 30
0.0
  0
POINT
  5
77
  8
DEFPOINTS
  6
BYBLOCK
 62
     0
 10
12373.434102
 20
160550.0
 30
0.0
  0
ENDBLK
  5
79
  8
0
  0
BLOCK
  8
0
  2
*D7
 70
     1
 10
0.0
 20
0.0
 30
0.0
  3
*D7
  1

  0
LINE
  5
A0
  8
0
  6
BYBLOCK
 62
     9
 10
12104.0
 20
160600.0
 30
0.0
 11
12330.0376
 21
160600.0
 31
0.0
  0
LINE
  5
A1
  8
0
  6
BYBLOCK
 62
     9
 10
12315.0
 20
160850.0
 30
0.0
 11
12330.0376
 21
160850.0
 31
0.0
  0
LINE
  5
A2
  8
0
  6
BYBLOCK
 62
     9
 10
12329.0376
 20
160620.0
 30
0.0
 11
12329.0376
 21
160674.25
 31
0.0
  0
LINE
  5
A3
  8
0
  6
BYBLOCK
 62
     9
 10
12329.0376
 20
160830.0
 30
0.0
 11
12329.0376
 21
160775.75
 31
0.0
  0
SOLID
  5
A4
  8
0
  6
BYBLOCK
 62
     9
 10
12325.704267
 20
160620.0
 30
0.0
 11
12332.370934
 21
160620.0
 31
0.0
 12
12329.0376
 22
160600.0
 32
0.0
 13
12329.0376
 23
160600.0
 33
0.0
  0
SOLID
  5
A5
  8
0
  6
BYBLOCK
 62
     9
 10
12325.704267
 20
160830.0
 30
0.0
 11
12332.370934
 21
160830.0
 31
0.0
 12
12329.0376
 22
160850.0
 32
0.0
 13
12329.0376
 23
160850.0
 33
0.0
  0
TEXT
  5
A6
  8
0
  6
BYBLOCK
 62
    11
 10
12346.5376
 20
160681.25
 30
0.0
 40
35.0
  1
250
 50
90.0
  0
POINT
  5
A7
  8
DEFPOINTS
  6
BYBLOCK
 62
     0
 10
12094.0
 20
160600.0
 30
0.0
  0
POINT
  5
A8
  8
DEFPOINTS
  6
BYBLOCK
 62
     0
 10
12305.0
 20
160850.0
 30
0.0
  0
POINT
  5
A9
  8
DEFPOINTS
  6
BYBLOCK
 62
     0
 10
12329.0376
 20
160850.0
 30
0.0
  0
ENDBLK
  5
AB
  8
0
  0
BLOCK
  8
0
  2
*D8
 70
     1
 10
0.0
 20
0.0
 30
0.0
  3
*D8
  1

  0
LINE
  5
92
  8
0
  6
BYBLOCK
 62
     9
 10
12073.0
 20
160615.0
 30
0.0
 11
12073.0
 21
160963.991876
 31
0.0
  0
LINE
  5
93
  8
0
  6
BYBLOCK
 62
     9
 10
12305.0
 20
160860.0
 30
0.0
 11
12305.0
 21
160963.991876
 31
0.0
  0
LINE
  5
94
  8
0
  6
BYBLOCK
 62
     9
 10
12093.0
 20
160962.991876
 30
0.0
 11
12135.333333
 21
160962.991876
 31
0.0
  0
LINE
  5
95
  8
0
  6
BYBLOCK
 62
     9
 10
12285.0
 20
160962.991876
 30
0.0
 11
12242.666667
 21
160962.991876
 31
0.0
  0
SOLID
  5
96
  8
0
  6
BYBLOCK
 62
     9
 10
12093.0
 20
160966.32521
 30
0.0
 11
12093.0
 21
160959.658543
 31
0.0
 12
12073.0
 22
160962.991876
 32
0.0
 13
12073.0
 23
160962.991876
 33
0.0
  0
SOLID
  5
97
  8
0
  6
BYBLOCK
 62
     9
 10
12285.0
 20
160966.32521
 30
0.0
 11
12285.0
 21
160959.658543
 31
0.0
 12
12305.0
 22
160962.991876
 32
0.0
 13
12305.0
 23
160962.991876
 33
0.0
  0
TEXT
  5
98
  8
0
  6
BYBLOCK
 62
    11
 10
12142.333333
 20
160945.491876
 30
0.0
 40
35.0
  1
232
  0
POINT
  5
99
  8
DEFPOINTS
  6
BYBLOCK
 62
     0
 10
12073.0
 20
160605.0
 30
0.0
  0
POINT
  5
9A
  8
DEFPOINTS
  6
BYBLOCK
 62
     0
 10
12305.0
 20
160850.0
 30
0.0
  0
POINT
  5
9B
  8
DEFPOINTS
  6
BYBLOCK
 62
     0
 10
12305.0
 20
160962.991876
 30
0.0
  0
ENDBLK
  5
9D
  8
0
  0
BLOCK
  8
0
  2
*D9
 70
     1
 10
0.0
 20
0.0
 30
0.0
  3
*D9
  1

  0
LINE
  5
84
  8
0
  6
BYBLOCK
 62
     9
 10
11605.0
 20
160860.0
 30
0.0
 11
11605.0
 21
161019.9938
 31
0.0
  0
LINE
  5
85
  8
0
  6
BYBLOCK
 62
     9
 10
12305.0
 20
160860.0
 30
0.0
 11
12305.0
 21
161019.9938
 31
0.0
  0
LINE
  5
86
  8
0
  6
BYBLOCK
 62
     9
 10
11625.0
 20
161018.9938
 30
0.0
 11
11907.166667
 21
161018.9938
 31
0.0
  0
LINE
  5
87
  8
0
  6
BYBLOCK
 62
     9
 10
12285.0
 20
161018.9938
 30
0.0
 11
12002.833333
 21
161018.9938
 31
0.0
  0
SOLID
  5
88
  8
0
  6
BYBLOCK
 62
     9
 10
11625.0
 20
161022.327133
 30
0.0
 11
11625.0
 21
161015.660466
 31
0.0
 12
11605.0
 22
161018.9938
 32
0.0
 13
11605.0
 23
161018.9938
 33
0.0
  0
SOLID
  5
89
  8
0
  6
BYBLOCK
 62
     9
 10
12285.0
 20
161022.327133
 30
0.0
 11
12285.0
 21
161015.660466
 31
0.0
 12
12305.0
 22
161018.9938
 32
0.0
 13
12305.0
 23
161018.9938
 33
0.0
  0
TEXT
  5
8A
  8
0
  6
BYBLOCK
 62
    11
 10
11914.166667
 20
161001.4938
 30
0.0
 40
35.0
  1
700
  0
POINT
  5
8B
  8
DEFPOINTS
  6
BYBLOCK
 62
     0
 10
11605.0
 20
160850.0
 30
0.0
  0
POINT
  5
8C
  8
DEFPOINTS
  6
BYBLOCK
 62
     0
 10
12305.0
 20
160850.0
 30
0.0
  0
POINT
  5
8D
  8
DEFPOINTS
  6
BYBLOCK
 62
     0
 10
12305.0
 20
161018.9938
 30
0.0
  0
ENDBLK
  5
8F
  8
0
  0
ENDSEC
  0
SECTION
  2
ENTITIES
  0
DIMENSION
  5
20
  8
TEAM-MAS
  2
*D5
 10
415.758828
 20
850.0
 30
0.0
 11
415.758828
 21
425.0
 31
0.0
 12
-12000.0
 22
-160000.0
 32
0.0
 13
0.0
 23
0.0
 33
0.0
 14
305.0
 24
850.0
 34
0.0
 50
90.0
  0
DIMENSION
  5
2F
  8
TEAM-MAS
  2
*D4
 10
459.878651
 20
1150.0
 30
0.0
 11
459.878651
 21
575.0
 31
0.0
 12
-12000.0
 22
-160000.0
 32
0.0
 13
0.0
 23
0.0
 33
0.0
 14
31.5
 24
1150.0
 34
0.0
 50
90.0
  0
DIMENSION
  5
3D
  8
TEAM-MAS
  2
*D3
 10
505.511582
 20
1150.0
 30
0.0
 11
505.511582
 21
575.0
 31
0.0
 12
-12000.0
 22
-160000.0
 32
0.0
  1
1050-1200
 13
0.0
 23
0.0
 33
0.0
 14
31.5
 24
1150.0
 34
0.0
 50
90.0
  0
DIMENSION
  5
4B
  8
TEAM-MAS
  2
*D2
 10
372.434102
 20
850.0
 30
0.0
 11
372.434102
 21
711.788444
 31
0.0
 12
-12000.0
 22
-160000.0
 32
0.0
 70
   128
 13
80.0
 23
550.0
 33
0.0
 14
305.0
 24
850.0
 34
0.0
 50
90.0
  0
DIMENSION
  5
59
  8
TEAM-MAS
  2
*D1
 10
-7.0
 20
419.643428
 30
0.0
 11
33.0
 21
419.643428
 31
0.0
 12
-12000.0
 22
-160000.0
 32
0.0
 13
73.0
 23
515.980383
 33
0.0
 14
-7.0
 24
580.0
 34
0.0
1001
ACAD
1000
DSTYLE
1002
{
1070
    40
1040
1.0
1002
}
  0
LINE
  5
67
  8
TEAM-KAN
 10
73.0
 20
605.0
 30
0.0
 11
73.0
 21
515.980383
 31
0.0
  0
LINE
  5
69
  8
TEAM-AXE
 10
-7.0
 20
520.0
 30
0.0
 11
-7.0
 21
580.0
 31
0.0
  0
DIMENSION
  5
6C
  8
TEAM-MAS
  2
*D6
 10
373.434102
 20
550.0
 30
0.0
 11
373.434102
 21
275.0
 31
0.0
 12
-12000.0
 22
-160000.0
 32
0.0
 13
0.0
 23
0.0
 33
0.0
 14
80.0
 24
550.0
 34
0.0
 50
90.0
  0
CIRCLE
  5
7A
  8
TEAM-INSP
 10
0.0
 20
0.0
 30
0.0
 40
10.0
  0
CIRCLE
  5
7C
  8
TEAM-HIDE
 10
-7.0
 20
550.0
 30
0.0
 40
20.0
  0
ARC
  5
7F
  8
TEAM-HIDE
 10
33.0
 20
515.980383
 30
0.0
 40
40.0
 50
180.0
 51
0.0
  0
LINE
  5
80
  8
TEAM-HIDE
 10
-7.0
 20
520.0
 30
0.0
 11
-7.0
 21
515.980383
 31
0.0
  0
LINE
  5
81
  8
TEAM-AXE
 10
-37.0
 20
550.0
 30
0.0
 11
23.0
 21
550.0
 31
0.0
  0
DIMENSION
  5
82
  8
TEAM-MAS
  2
*D9
 10
305.0
 20
1018.9938
 30
0.0
 11
-45.0
 21
1018.9938
 31
0.0
 12
-12000.0
 22
-160000.0
 32
0.0
 13
-395.0
 23
850.0
 33
0.0
 14
305.0
 24
850.0
 34
0.0
  0
DIMENSION
  5
90
  8
TEAM-MAS
  2
*D8
 10
305.0
 20
962.991876
 30
0.0
 11
189.0
 21
962.991876
 31
0.0
 12
-12000.0
 22
-160000.0
 32
0.0
 13
73.0
 23
605.0
 33
0.0
 14
305.0
 24
850.0
 34
0.0
1001
ACAD
1000
DSTYLE
1002
{
1070
    40
1040
1.0
1002
}
  0
DIMENSION
  5
9E
  8
TEAM-MAS
  2
*D7
 10
329.0376
 20
850.0
 30
0.0
 11
329.0376
 21
725.0
 31
0.0
 12
-12000.0
 22
-160000.0
 32
0.0
 13
94.0
 23
600.0
 33
0.0
 14
305.0
 24
850.0
 34
0.0
 50
90.0
1001
ACAD
1000
DSTYLE
1002
{
1070
    40
1040
1.0
1002
}
  0
DIMENSION
  5
AC
  8
TEAM-MAS
  2
*D0
 10
31.5
 20
1076.019731
 30
0.0
 11
-45.0
 21
1076.019731
 31
0.0
 12
-12000.0
 22
-160000.0
 32
0.0
 70
   128
 13
-121.5
 23
1150.0
 33
0.0
 14
31.5
 24
1150.0
 34
0.0
  0
LINE
  5
BA
  8
TEAM-BODY
 10
305.0
 20
850.0
 30
0.0
 11
-395.0
 21
850.0
 31
0.0
  0
LINE
  5
BC
  8
TEAM-BODY
 10
305.0
 20
840.0
 30
0.0
 11
-395.0
 21
840.0
 31
0.0
  0
ARC
  5
BD
  8
TEAM-BODY
 10
-302.198863
 20
645.0
 30
0.0
 40
30.0
 50
191.898839
 51
270.0
  0
LINE
  5
BE
  8
TEAM-BODY
 10
73.0
 20
605.0
 30
0.0
 11
-302.198863
 21
615.0
 31
0.0
  0
LINE
  5
BF
  8
TEAM-BODY
 10
113.014703
 20
611.305588
 30
0.0
 11
73.0
 21
605.0
 31
0.0
  0
ARC
  5
C0
  8
TEAM-BODY
 10
103.63817
 20
650.728881
 30
0.0
 40
40.523023
 50
283.37879
 51
342.901466
  0
LINE
  5
C1
  8
TEAM-BODY
 10
142.370098
 20
638.814469
 30
0.0
 11
156.049602
 21
840.0
 31
0.0
  0
LINE
  5
C2
  8
TEAM-BODY
 10
-375.0
 20
840.0
 30
0.0
 11
-331.554258
 21
638.814469
 31
0.0
  0
TEXT
  5
C3
  8
TEAM-TXT
 10
-263.801594
 20
649.29514
 30
0.0
 40
30.0
  1
team 431007
 41
0.8
 51
15.0
  7
TEAM
  0
LINE
  5
C6
  8
TEAM-BODY
 10
94.0
 20
600.0
 30
0.0
 11
52.0
 21
600.0
 31
0.0
  0
LINE
  5
C7
  8
TEAM-BODY
 10
94.0
 20
605.0
 30
0.0
 11
94.0
 21
600.0
 31
0.0
  0
LINE
  5
C8
  8
TEAM-BODY
 10
52.0
 20
605.0
 30
0.0
 11
52.0
 21
600.0
 31
0.0
  0
LINE
  5
C9
  8
TEAM-BODY
 10
-395.0
 20
850.0
 30
0.0
 11
-395.0
 21
840.0
 31
0.0
  0
CIRCLE
  5
CA
  8
TEAM-WARM
 10
-121.5
 20
1150.0
 30
0.0
 40
15.0
  0
LINE
  5
CC
  8
TEAM-AXE
 10
-141.5
 20
1150.0
 30
0.0
 11
-101.5
 21
1150.0
 31
0.0
  0
LINE
  5
CD
  8
TEAM-AXE
 10
-121.5
 20
1130.0
 30
0.0
 11
-121.5
 21
1170.0
 31
0.0
  0
CIRCLE
  5
CE
  8
TEAM-COLD
 10
31.5
 20
1150.0
 30
0.0
 40
15.0
  0
LINE
  5
D0
  8
TEAM-AXE
 10
11.5
 20
1150.0
 30
0.0
 11
51.5
 21
1150.0
 31
0.0
  0
LINE
  5
D1
  8
TEAM-AXE
 10
31.5
 20
1130.0
 30
0.0
 11
31.5
 21
1170.0
 31
0.0
  0
LINE
  5
D2
  8
TEAM-BODY
 10
305.0
 20
840.0
 30
0.0
 11
305.0
 21
850.0
 31
0.0
  0
ENDSEC
  0
EOF
