  0
SECTION
  2
HEADER
  9
$ACADVER
  1
AC1009
  9
$INSBASE
 10
0.0
 20
0.0
 30
0.0
  9
$EXTMIN
 10
-252.888468
 20
-10.062079
 30
0.0
  9
$EXTMAX
 10
452.877754
 20
1120.082052
 30
0.000005
  9
$LIMMIN
 10
-252.888468
 20
-10.062079
  9
$LIMMAX
 10
452.877754
 20
1120.082052
  9
$ORTHOMODE
 70
     1
  9
$REGENMODE
 70
     1
  9
$FILLMODE
 70
     1
  9
$QTEXTMODE
 70
     0
  9
$MIRRTEXT
 70
     0
  9
$DRAGMODE
 70
     2
  9
$LTSCALE
 40
50.0
  9
$OSMODE
 70
     0
  9
$ATTMODE
 70
     1
  9
$TEXTSIZE
 40
200.0
  9
$TRACEWID
 40
1.0
  9
$TEXTSTYLE
  7
STANDARD
  9
$CLAYER
  8
TEAM-MAS
  9
$CELTYPE
  6
BYLAYER
  9
$CECOLOR
 62
   256
  9
$DIMSCALE
 40
0.0
  9
$DIMASZ
 40
20.0
  9
$DIMEXO
 40
10.0
  9
$DIMDLI
 40
1.0
  9
$DIMRND
 40
0.0
  9
$DIMDLE
 40
0.0
  9
$DIMEXE
 40
1.0
  9
$DIMTP
 40
0.0
  9
$DIMTM
 40
0.0
  9
$DIMTXT
 40
35.0
  9
$DIMCEN
 40
1.0
  9
$DIMTSZ
 40
0.0
  9
$DIMTOL
 70
     0
  9
$DIMLIM
 70
     0
  9
$DIMTIH
 70
     0
  9
$DIMTOH
 70
     0
  9
$DIMSE1
 70
     0
  9
$DIMSE2
 70
     0
  9
$DIMTAD
 70
     0
  9
$DIMZIN
 70
     0
  9
$DIMBLK
  1

  9
$DIMASO
 70
     1
  9
$DIMSHO
 70
     0
  9
$DIMPOST
  1

  9
$DIMAPOST
  1

  9
$DIMALT
 70
     0
  9
$DIMALTD
 70
     2
  9
$DIMALTF
 40
25.4
  9
$DIMLFAC
 40
1.0
  9
$DIMTOFL
 70
     0
  9
$DIMTVP
 40
0.0
  9
$DIMTIX
 70
     0
  9
$DIMSOXD
 70
     0
  9
$DIMSAH
 70
     0
  9
$DIMBLK1
  1

  9
$DIMBLK2
  1

  9
$DIMSTYLE
  2
TEAM
  9
$DIMCLRD
 70
     9
  9
$DIMCLRE
 70
     9
  9
$DIMCLRT
 70
    11
  9
$DIMTFAC
 40
1.0
  9
$DIMGAP
 40
7.0
  9
$LUNITS
 70
     2
  9
$LUPREC
 70
     1
  9
$SKETCHINC
 40
1.0
  9
$FILLETRAD
 40
50.0
  9
$AUNITS
 70
     0
  9
$AUPREC
 70
     0
  9
$MENU
  1
ROPLANS
  9
$ELEVATION
 40
0.0
  9
$PELEVATION
 40
0.0
  9
$THICKNESS
 40
0.0
  9
$LIMCHECK
 70
     0
  9
$BLIPMODE
 70
     1
  9
$CHAMFERA
 40
0.0
  9
$CHAMFERB
 40
0.0
  9
$SKPOLY
 70
     0
  9
$TDCREATE
 40
2450392.957851
  9
$TDUPDATE
 40
2456272.033233
  9
$TDINDWG
 40
2.315654
  9
$TDUSRTIMER
 40
2.315654
  9
$USRTIMER
 70
     1
  9
$ANGBASE
 50
0.0
  9
$ANGDIR
 70
     0
  9
$PDMODE
 70
     0
  9
$PDSIZE
 40
0.0
  9
$PLINEWID
 40
0.0
  9
$COORDS
 70
     2
  9
$SPLFRAME
 70
     0
  9
$SPLINETYPE
 70
     6
  9
$SPLINESEGS
 70
     8
  9
$ATTDIA
 70
     0
  9
$ATTREQ
 70
     0
  9
$HANDLING
 70
     1
  9
$HANDSEED
  5
F5
  9
$SURFTAB1
 70
    24
  9
$SURFTAB2
 70
    24
  9
$SURFTYPE
 70
     6
  9
$SURFU
 70
     6
  9
$SURFV
 70
     6
  9
$UCSNAME
  2

  9
$UCSORG
 10
0.0
 20
0.0
 30
0.0
  9
$UCSXDIR
 10
1.0
 20
0.0
 30
0.0
  9
$UCSYDIR
 10
0.0
 20
1.0
 30
0.0
  9
$PUCSNAME
  2

  9
$PUCSORG
 10
0.0
 20
0.0
 30
0.0
  9
$PUCSXDIR
 10
1.0
 20
0.0
 30
0.0
  9
$PUCSYDIR
 10
0.0
 20
1.0
 30
0.0
  9
$USERI1
 70
     0
  9
$USERI2
 70
     0
  9
$USERI3
 70
     0
  9
$USERI4
 70
     0
  9
$USERI5
 70
     0
  9
$USERR1
 40
0.0
  9
$USERR2
 40
0.0
  9
$USERR3
 40
0.0
  9
$USERR4
 40
0.0
  9
$USERR5
 40
0.0
  9
$WORLDVIEW
 70
     1
  9
$SHADEDGE
 70
     0
  9
$SHADEDIF
 70
    70
  9
$TILEMODE
 70
     1
  9
$MAXACTVP
 70
    16
  9
$PLIMCHECK
 70
     0
  9
$PEXTMIN
 10
-0.805942
 20
0.005011
 30
0.0
  9
$PEXTMAX
 10
20.250094
 20
11.356329
 30
0.0
  9
$PLIMMIN
 10
0.0
 20
0.0
  9
$PLIMMAX
 10
12.0
 20
9.0
  9
$UNITMODE
 70
     0
  9
$VISRETAIN
 70
     0
  9
$PLINEGEN
 70
     0
  9
$PSLTSCALE
 70
     0
  0
ENDSEC
  0
SECTION
  2
TABLES
  0
TABLE
  2
VPORT
 70
     2
  0
VPORT
  2
*ACTIVE
 70
     0
 10
0.0
 20
0.0
 11
1.0
 21
1.0
 12
99.994643
 22
555.009987
 13
0.0
 23
0.0
 14
1.0
 24
1.0
 15
50.0
 25
50.0
 16
0.0
 26
0.0
 36
1.0
 17
0.0
 27
0.0
 37
0.0
 40
1137.259415
 41
1.911765
 42
50.0
 43
0.0
 44
0.0
 50
0.0
 51
0.0
 71
     0
 72
   100
 73
     1
 74
     1
 75
     0
 76
     0
 77
     0
 78
     0
  0
ENDTAB
  0
TABLE
  2
LTYPE
 70
     2
  0
LTYPE
  2
CONTINUOUS
 70
     0
  3
Solid Line
 72
    65
 73
     0
 40
0.0
  0
LTYPE
  2
31
 70
     0
  3

 72
    65
 73
     4
 40
2.1
 49
1.5
 49
-0.3
 49
0.0
 49
-0.3
  0
ENDTAB
  0
TABLE
  2
LAYER
 70
    10
  0
LAYER
  2
0
 70
     0
 62
     7
  6
CONTINUOUS
  0
LAYER
  2
DEFPOINTS
 70
     0
 62
     7
  6
CONTINUOUS
  0
LAYER
  2
TEAM-BODY
 70
     0
 62
     2
  6
CONTINUOUS
  0
LAYER
  2
TEAM-AXE
 70
     0
 62
    10
  6
31
  0
LAYER
  2
TEAM-MAS
 70
     0
 62
     9
  6
CONTINUOUS
  0
LAYER
  2
TEAM-TXT
 70
     0
 62
    11
  6
CONTINUOUS
  0
LAYER
  2
TEAM-COLD
 70
     0
 62
     3
  6
CONTINUOUS
  0
LAYER
  2
TEAM-KAN
 70
     0
 62
     6
  6
CONTINUOUS
  0
LAYER
  2
TEAM-WARM
 70
     0
 62
     1
  6
CONTINUOUS
  0
LAYER
  2
TEAM-INSP
 70
     0
 62
     5
  6
CONTINUOUS
  0
ENDTAB
  0
TABLE
  2
STYLE
 70
     2
  0
STYLE
  2
STANDARD
 70
     0
 40
0.0
 41
1.0
 50
0.0
 71
     0
 42
200.0
  3
txt
  4

  0
STYLE
  2
TEAM
 70
     0
 40
0.0
 41
0.8
 50
15.0
 71
     0
 42
7.0
  3
ROMANS.shx
  4

  0
ENDTAB
  0
TABLE
  2
VIEW
 70
     0
  0
ENDTAB
  0
TABLE
  2
UCS
 70
     0
  0
ENDTAB
  0
TABLE
  2
APPID
 70
     1
  0
APPID
  2
ACAD
 70
     0
  0
ENDTAB
  0
TABLE
  2
DIMSTYLE
 70
     1
  0
DIMSTYLE
  2
TEAM
 70
     0
  3

  4

  5

  6

  7

 40
0.0
 41
20.0
 42
10.0
 43
1.0
 44
1.0
 45
0.0
 46
0.0
 47
0.0
 48
0.0
140
35.0
141
1.0
142
0.0
143
25.4
144
1.0
145
0.0
146
1.0
147
7.0
 71
     0
 72
     0
 73
     0
 74
     0
 75
     0
 76
     0
 77
     0
 78
     0
170
     0
171
     2
172
     0
173
     0
174
     0
175
     0
176
     9
177
     9
178
    11
  0
ENDTAB
  0
ENDSEC
  0
SECTION
  2
BLOCKS
  0
BLOCK
  8
0
  2
$MODEL_SPACE
 70
     0
 10
0.0
 20
0.0
 30
0.0
  3
$MODEL_SPACE
  1

  0
ENDBLK
  5
EE
  8
0
  0
BLOCK
 67
     1
  8
0
  2
$PAPER_SPACE
 70
     0
 10
0.0
 20
0.0
 30
0.0
  3
$PAPER_SPACE
  1

  0
ENDBLK
  5
EC
 67
     1
  8
0
  0
BLOCK
  8
0
  2
*D0
 70
     1
 10
0.0
 20
0.0
 30
0.0
  3
*D0
  1

  0
LINE
  5
85
  8
0
  6
BYBLOCK
 62
     9
 10
410.0
 20
164850.0
 30
0.0
 11
436.329057
 21
164850.0
 31
0.0
  0
LINE
  5
86
  8
0
  6
BYBLOCK
 62
     9
 10
112.558075
 20
164655.0
 30
0.0
 11
436.329057
 21
164655.0
 31
0.0
  0
LINE
  5
87
  8
0
  6
BYBLOCK
 62
     9
 10
435.329057
 20
164830.0
 30
0.0
 11
435.329057
 21
164800.333333
 31
0.0
  0
LINE
  5
88
  8
0
  6
BYBLOCK
 62
     9
 10
435.329057
 20
164675.0
 30
0.0
 11
435.329057
 21
164704.666667
 31
0.0
  0
SOLID
  5
89
  8
0
  6
BYBLOCK
 62
     9
 10
431.995724
 20
164830.0
 30
0.0
 11
438.662391
 21
164830.0
 31
0.0
 12
435.329057
 22
164850.0
 32
0.0
 13
435.329057
 23
164850.0
 33
0.0
  0
SOLID
  5
8A
  8
0
  6
BYBLOCK
 62
     9
 10
431.995724
 20
164675.0
 30
0.0
 11
438.662391
 21
164675.0
 31
0.0
 12
435.329057
 22
164655.0
 32
0.0
 13
435.329057
 23
164655.0
 33
0.0
  0
TEXT
  5
8B
  8
0
  6
BYBLOCK
 62
    11
 10
452.829057
 20
164711.666667
 30
0.0
 40
35.0
  1
195
 50
90.0
  0
POINT
  5
8C
  8
DEFPOINTS
  6
BYBLOCK
 62
     0
 10
400.0
 20
164850.0
 30
0.0
  0
POINT
  5
8D
  8
DEFPOINTS
  6
BYBLOCK
 62
     0
 10
102.558075
 20
164655.0
 30
0.0
  0
POINT
  5
8E
  8
DEFPOINTS
  6
BYBLOCK
 62
     0
 10
435.329057
 20
164655.0
 30
0.0
  0
ENDBLK
  5
90
  8
0
  0
BLOCK
  8
0
  2
*D1
 70
     1
 10
0.0
 20
0.0
 30
0.0
  3
*D1
  1

  0
LINE
  5
77
  8
0
  6
BYBLOCK
 62
     9
 10
-10.0
 20
164000.0
 30
0.0
 11
-100.215772
 21
164000.0
 31
0.0
  0
LINE
  5
78
  8
0
  6
BYBLOCK
 62
     9
 10
-10.0
 20
164550.0
 30
0.0
 11
-100.215772
 21
164550.0
 31
0.0
  0
LINE
  5
79
  8
0
  6
BYBLOCK
 62
     9
 10
-99.215772
 20
164020.0
 30
0.0
 11
-99.215772
 21
164224.25
 31
0.0
  0
LINE
  5
7A
  8
0
  6
BYBLOCK
 62
     9
 10
-99.215772
 20
164530.0
 30
0.0
 11
-99.215772
 21
164325.75
 31
0.0
  0
SOLID
  5
7B
  8
0
  6
BYBLOCK
 62
     9
 10
-102.549105
 20
164020.0
 30
0.0
 11
-95.882439
 21
164020.0
 31
0.0
 12
-99.215772
 22
164000.0
 32
0.0
 13
-99.215772
 23
164000.0
 33
0.0
  0
SOLID
  5
7C
  8
0
  6
BYBLOCK
 62
     9
 10
-102.549105
 20
164530.0
 30
0.0
 11
-95.882439
 21
164530.0
 31
0.0
 12
-99.215772
 22
164550.0
 32
0.0
 13
-99.215772
 23
164550.0
 33
0.0
  0
TEXT
  5
7D
  8
0
  6
BYBLOCK
 62
    11
 10
-81.715772
 20
164231.25
 30
0.0
 40
35.0
  1
550
 50
90.0
  0
POINT
  5
7E
  8
DEFPOINTS
  6
BYBLOCK
 62
     0
 10
0.0
 20
164000.0
 30
0.0
  0
POINT
  5
7F
  8
DEFPOINTS
  6
BYBLOCK
 62
     0
 10
0.0
 20
164550.0
 30
0.0
  0
POINT
  5
80
  8
DEFPOINTS
  6
BYBLOCK
 62
     0
 10
-99.215772
 20
164550.0
 30
0.0
  0
ENDBLK
  5
82
  8
0
  0
BLOCK
  8
0
  2
*D2
 70
     1
 10
0.0
 20
0.0
 30
0.0
  3
*D2
  1

  0
LINE
  5
69
  8
0
  6
BYBLOCK
 62
     9
 10
-10.0
 20
164000.0
 30
0.0
 11
-146.364002
 21
164000.0
 31
0.0
  0
LINE
  5
6A
  8
0
  6
BYBLOCK
 62
     9
 10
-10.0
 20
164850.0
 30
0.0
 11
-146.364002
 21
164850.0
 31
0.0
  0
LINE
  5
6B
  8
0
  6
BYBLOCK
 62
     9
 10
-145.364002
 20
164020.0
 30
0.0
 11
-145.364002
 21
164374.25
 31
0.0
  0
LINE
  5
6C
  8
0
  6
BYBLOCK
 62
     9
 10
-145.364002
 20
164830.0
 30
0.0
 11
-145.364002
 21
164475.75
 31
0.0
  0
SOLID
  5
6D
  8
0
  6
BYBLOCK
 62
     9
 10
-148.697335
 20
164020.0
 30
0.0
 11
-142.030669
 21
164020.0
 31
0.0
 12
-145.364002
 22
164000.0
 32
0.0
 13
-145.364002
 23
164000.0
 33
0.0
  0
SOLID
  5
6E
  8
0
  6
BYBLOCK
 62
     9
 10
-148.697335
 20
164830.0
 30
0.0
 11
-142.030669
 21
164830.0
 31
0.0
 12
-145.364002
 22
164850.0
 32
0.0
 13
-145.364002
 23
164850.0
 33
0.0
  0
TEXT
  5
6F
  8
0
  6
BYBLOCK
 62
    11
 10
-127.864002
 20
164381.25
 30
0.0
 40
35.0
  1
850
 50
90.0
  0
POINT
  5
70
  8
DEFPOINTS
  6
BYBLOCK
 62
     0
 10
0.0
 20
164000.0
 30
0.0
  0
POINT
  5
71
  8
DEFPOINTS
  6
BYBLOCK
 62
     0
 10
0.0
 20
164850.0
 30
0.0
  0
POINT
  5
72
  8
DEFPOINTS
  6
BYBLOCK
 62
     0
 10
-145.364002
 20
164850.0
 30
0.0
  0
ENDBLK
  5
74
  8
0
  0
BLOCK
  8
0
  2
*D3
 70
     1
 10
0.0
 20
0.0
 30
0.0
  3
*D3
  1

  0
LINE
  5
5B
  8
0
  6
BYBLOCK
 62
     9
 10
-10.0
 20
164000.0
 30
0.0
 11
-236.361651
 21
164000.0
 31
0.0
  0
LINE
  5
5C
  8
0
  6
BYBLOCK
 62
     9
 10
-2.420683
 20
165100.0
 30
0.0
 11
-236.361651
 21
165100.0
 31
0.0
  0
LINE
  5
5D
  8
0
  6
BYBLOCK
 62
     9
 10
-235.361651
 20
164020.0
 30
0.0
 11
-235.361651
 21
164414.666667
 31
0.0
  0
LINE
  5
5E
  8
0
  6
BYBLOCK
 62
     9
 10
-235.361651
 20
165080.0
 30
0.0
 11
-235.361651
 21
164685.333333
 31
0.0
  0
SOLID
  5
5F
  8
0
  6
BYBLOCK
 62
     9
 10
-238.694985
 20
164020.0
 30
0.0
 11
-232.028318
 21
164020.0
 31
0.0
 12
-235.361651
 22
164000.0
 32
0.0
 13
-235.361651
 23
164000.0
 33
0.0
  0
SOLID
  5
60
  8
0
  6
BYBLOCK
 62
     9
 10
-238.694985
 20
165080.0
 30
0.0
 11
-232.028318
 21
165080.0
 31
0.0
 12
-235.361651
 22
165100.0
 32
0.0
 13
-235.361651
 23
165100.0
 33
0.0
  0
TEXT
  5
61
  8
0
  6
BYBLOCK
 62
    11
 10
-217.861651
 20
164421.666667
 30
0.0
 40
35.0
  1
1050-1200
 50
90.0
  0
POINT
  5
62
  8
DEFPOINTS
  6
BYBLOCK
 62
     0
 10
0.0
 20
164000.0
 30
0.0
  0
POINT
  5
63
  8
DEFPOINTS
  6
BYBLOCK
 62
     0
 10
7.579317
 20
165100.0
 30
0.0
  0
POINT
  5
64
  8
DEFPOINTS
  6
BYBLOCK
 62
     0
 10
-235.361651
 20
165100.0
 30
0.0
  0
ENDBLK
  5
66
  8
0
  0
BLOCK
  8
0
  2
*D4
 70
     1
 10
0.0
 20
0.0
 30
0.0
  3
*D4
  1

  0
LINE
  5
4D
  8
0
  6
BYBLOCK
 62
     9
 10
-10.0
 20
164000.0
 30
0.0
 11
-189.609217
 21
164000.0
 31
0.0
  0
LINE
  5
4E
  8
0
  6
BYBLOCK
 62
     9
 10
-10.0
 20
165100.0
 30
0.0
 11
-189.609217
 21
165100.0
 31
0.0
  0
LINE
  5
4F
  8
0
  6
BYBLOCK
 62
     9
 10
-188.609217
 20
164020.0
 30
0.0
 11
-188.609217
 21
164496.333333
 31
0.0
  0
LINE
  5
50
  8
0
  6
BYBLOCK
 62
     9
 10
-188.609217
 20
165080.0
 30
0.0
 11
-188.609217
 21
164603.666667
 31
0.0
  0
SOLID
  5
51
  8
0
  6
BYBLOCK
 62
     9
 10
-191.94255
 20
164020.0
 30
0.0
 11
-185.275883
 21
164020.0
 31
0.0
 12
-188.609217
 22
164000.0
 32
0.0
 13
-188.609217
 23
164000.0
 33
0.0
  0
SOLID
  5
52
  8
0
  6
BYBLOCK
 62
     9
 10
-191.94255
 20
165080.0
 30
0.0
 11
-185.275883
 21
165080.0
 31
0.0
 12
-188.609217
 22
165100.0
 32
0.0
 13
-188.609217
 23
165100.0
 33
0.0
  0
TEXT
  5
53
  8
0
  6
BYBLOCK
 62
    11
 10
-171.109217
 20
164503.333333
 30
0.0
 40
35.0
  1
1100
 50
90.0
  0
POINT
  5
54
  8
DEFPOINTS
  6
BYBLOCK
 62
     0
 10
0.0
 20
164000.0
 30
0.0
  0
POINT
  5
55
  8
DEFPOINTS
  6
BYBLOCK
 62
     0
 10
0.0
 20
165100.0
 30
0.0
  0
POINT
  5
56
  8
DEFPOINTS
  6
BYBLOCK
 62
     0
 10
-188.609217
 20
165100.0
 30
0.0
  0
ENDBLK
  5
58
  8
0
  0
BLOCK
  8
0
  2
*D5
 70
     1
 10
0.0
 20
0.0
 30
0.0
  3
*D5
  1

  0
LINE
  5
3F
  8
0
  6
BYBLOCK
 62
     9
 10
0.0
 20
165090.0
 30
0.0
 11
0.0
 21
164907.838562
 31
0.0
  0
LINE
  5
40
  8
0
  6
BYBLOCK
 62
     9
 10
400.0
 20
164860.0
 30
0.0
 11
400.0
 21
164909.838562
 31
0.0
  0
LINE
  5
41
  8
0
  6
BYBLOCK
 62
     9
 10
20.0
 20
164908.838562
 30
0.0
 11
152.166667
 21
164908.838562
 31
0.0
  0
LINE
  5
42
  8
0
  6
BYBLOCK
 62
     9
 10
380.0
 20
164908.838562
 30
0.0
 11
247.833333
 21
164908.838562
 31
0.0
  0
SOLID
  5
43
  8
0
  6
BYBLOCK
 62
     9
 10
20.0
 20
164912.171896
 30
0.0
 11
20.0
 21
164905.505229
 31
0.0
 12
0.0
 22
164908.838562
 32
0.0
 13
0.0
 23
164908.838562
 33
0.0
  0
SOLID
  5
44
  8
0
  6
BYBLOCK
 62
     9
 10
380.0
 20
164912.171896
 30
0.0
 11
380.0
 21
164905.505229
 31
0.0
 12
400.0
 22
164908.838562
 32
0.0
 13
400.0
 23
164908.838562
 33
0.0
  0
TEXT
  5
45
  8
0
  6
BYBLOCK
 62
    11
 10
159.166667
 20
164891.338562
 30
0.0
 40
35.0
  1
400
  0
POINT
  5
46
  8
DEFPOINTS
  6
BYBLOCK
 62
     0
 10
0.0
 20
165100.0
 30
0.0
  0
POINT
  5
47
  8
DEFPOINTS
  6
BYBLOCK
 62
     0
 10
400.0
 20
164850.0
 30
0.0
  0
POINT
  5
48
  8
DEFPOINTS
  6
BYBLOCK
 62
     0
 10
400.0
 20
164908.838562
 30
0.0
  0
ENDBLK
  5
4A
  8
0
  0
BLOCK
  8
0
  2
*D6
 70
     1
 10
0.0
 20
0.0
 30
0.0
  3
*D6
  1

  0
LINE
  5
31
  8
0
  6
BYBLOCK
 62
     9
 10
-10.0
 20
164844.0
 30
0.0
 11
-53.010886
 21
164844.0
 31
0.0
  0
LINE
  5
32
  8
0
  6
BYBLOCK
 62
     9
 10
50.558075
 20
164640.0
 30
0.0
 11
-53.010886
 21
164640.0
 31
0.0
  0
LINE
  5
33
  8
0
  6
BYBLOCK
 62
     9
 10
-52.010886
 20
164824.0
 30
0.0
 11
-52.010886
 21
164792.75
 31
0.0
  0
LINE
  5
34
  8
0
  6
BYBLOCK
 62
     9
 10
-52.010886
 20
164660.0
 30
0.0
 11
-52.010886
 21
164691.25
 31
0.0
  0
SOLID
  5
35
  8
0
  6
BYBLOCK
 62
     9
 10
-55.344219
 20
164824.0
 30
0.0
 11
-48.677553
 21
164824.0
 31
0.0
 12
-52.010886
 22
164844.0
 32
0.0
 13
-52.010886
 23
164844.0
 33
0.0
  0
SOLID
  5
36
  8
0
  6
BYBLOCK
 62
     9
 10
-55.344219
 20
164660.0
 30
0.0
 11
-48.677553
 21
164660.0
 31
0.0
 12
-52.010886
 22
164640.0
 32
0.0
 13
-52.010886
 23
164640.0
 33
0.0
  0
TEXT
  5
37
  8
0
  6
BYBLOCK
 62
    11
 10
-34.510886
 20
164698.25
 30
0.0
 40
35.0
  1
204
 50
90.0
  0
POINT
  5
38
  8
DEFPOINTS
  6
BYBLOCK
 62
     0
 10
0.0
 20
164844.0
 30
0.0
  0
POINT
  5
39
  8
DEFPOINTS
  6
BYBLOCK
 62
     0
 10
60.558075
 20
164640.0
 30
0.0
  0
POINT
  5
3A
  8
DEFPOINTS
  6
BYBLOCK
 62
     0
 10
-52.010886
 20
164640.0
 30
0.0
  0
ENDBLK
  5
3C
  8
0
  0
BLOCK
  8
0
  2
*D7
 70
     1
 10
0.0
 20
0.0
 30
0.0
  3
*D7
  1

  0
LINE
  5
22
  8
0
  6
BYBLOCK
 62
     9
 10
-10.0
 20
164850.0
 30
0.0
 11
-100.215772
 21
164850.0
 31
0.0
  0
LINE
  5
23
  8
0
  6
BYBLOCK
 62
     9
 10
-40.0
 20
164550.0
 30
0.0
 11
-100.215772
 21
164550.0
 31
0.0
  0
LINE
  5
24
  8
0
  6
BYBLOCK
 62
     9
 10
-99.215772
 20
164830.0
 30
0.0
 11
-99.215772
 21
164747.833333
 31
0.0
  0
LINE
  5
25
  8
0
  6
BYBLOCK
 62
     9
 10
-99.215772
 20
164570.0
 30
0.0
 11
-99.215772
 21
164652.166667
 31
0.0
  0
SOLID
  5
26
  8
0
  6
BYBLOCK
 62
     9
 10
-102.549105
 20
164830.0
 30
0.0
 11
-95.882439
 21
164830.0
 31
0.0
 12
-99.215772
 22
164850.0
 32
0.0
 13
-99.215772
 23
164850.0
 33
0.0
  0
SOLID
  5
27
  8
0
  6
BYBLOCK
 62
     9
 10
-102.549105
 20
164570.0
 30
0.0
 11
-95.882439
 21
164570.0
 31
0.0
 12
-99.215772
 22
164550.0
 32
0.0
 13
-99.215772
 23
164550.0
 33
0.0
  0
TEXT
  5
28
  8
0
  6
BYBLOCK
 62
    11
 10
-81.715772
 20
164659.166667
 30
0.0
 40
35.0
  1
300
 50
90.0
  0
POINT
  5
29
  8
DEFPOINTS
  6
BYBLOCK
 62
     0
 10
0.0
 20
164850.0
 30
0.0
  0
POINT
  5
2B
  8
DEFPOINTS
  6
BYBLOCK
 62
     0
 10
-30.0
 20
164550.0
 30
0.0
  0
POINT
  5
2C
  8
DEFPOINTS
  6
BYBLOCK
 62
     0
 10
-99.215772
 20
164550.0
 30
0.0
  0
ENDBLK
  5
2E
  8
0
  0
ENDSEC
  0
SECTION
  2
ENTITIES
  0
DIMENSION
  5
20
  8
TEAM-MAS
  2
*D7
 10
-99.215772
 20
550.0
 30
0.0
 11
-99.215772
 21
700.0
 31
0.0
 12
0.0
 22
-164000.0
 32
0.0
 13
0.0
 23
850.0
 33
0.0
 14
-30.0
 24
550.0
 34
0.0
 50
90.0
1001
ACAD
1000
DSTYLE
1002
{
1070
    40
1040
1.0
1002
}
  0
DIMENSION
  5
2F
  8
TEAM-MAS
  2
*D6
 10
-52.010886
 20
640.0
 30
0.0
 11
-52.010886
 21
742.0
 31
0.0
 12
0.0
 22
-164000.0
 32
0.0
 13
0.0
 23
844.0
 33
0.0
 14
60.558075
 24
640.0
 34
0.0
 50
90.0
1001
ACAD
1000
DSTYLE
1002
{
1070
    40
1040
1.0
1002
}
  0
DIMENSION
  5
3D
  8
TEAM-MAS
  2
*D5
 10
400.0
 20
908.838562
 30
0.0
 11
200.0
 21
908.838562
 31
0.0
 12
0.0
 22
-164000.0
 32
0.0
 13
0.0
 23
1100.0
 33
0.0
 14
400.0
 24
850.0
 34
0.0
  0
DIMENSION
  5
4B
  8
TEAM-MAS
  2
*D4
 10
-188.609217
 20
1100.0
 30
0.0
 11
-188.609217
 21
550.0
 31
0.0
 12
0.0
 22
-164000.0
 32
0.0
 13
0.0
 23
0.0
 33
0.0
 14
0.0
 24
1100.0
 34
0.0
 50
90.0
  0
DIMENSION
  5
59
  8
TEAM-MAS
  2
*D3
 10
-235.361651
 20
1100.0
 30
0.0
 11
-235.361651
 21
550.0
 31
0.0
 12
0.0
 22
-164000.0
 32
0.0
  1
1050-1200
 13
0.0
 23
0.0
 33
0.0
 14
7.579317
 24
1100.0
 34
0.0
 50
90.0
  0
DIMENSION
  5
67
  8
TEAM-MAS
  2
*D2
 10
-145.364002
 20
850.0
 30
0.0
 11
-145.364002
 21
425.0
 31
0.0
 12
0.0
 22
-164000.0
 32
0.0
 13
0.0
 23
0.0
 33
0.0
 14
0.0
 24
850.0
 34
0.0
 50
90.0
  0
DIMENSION
  5
75
  8
TEAM-MAS
  2
*D1
 10
-99.215772
 20
550.0
 30
0.0
 11
-99.215772
 21
275.0
 31
0.0
 12
0.0
 22
-164000.0
 32
0.0
 13
0.0
 23
0.0
 33
0.0
 14
0.0
 24
550.0
 34
0.0
 50
90.0
  0
DIMENSION
  5
83
  8
TEAM-MAS
  2
*D0
 10
435.329057
 20
655.0
 30
0.0
 11
435.329057
 21
752.5
 31
0.0
 12
0.0
 22
-164000.0
 32
0.0
 13
400.0
 23
850.0
 33
0.0
 14
102.558075
 24
655.0
 34
0.0
 50
90.0
1001
ACAD
1000
DSTYLE
1002
{
1070
    40
1040
1.0
1002
}
  0
CIRCLE
  5
91
  8
TEAM-KAN
 10
0.0
 20
550.0
 30
0.0
 40
20.0
  0
LINE
  5
93
  8
TEAM-AXE
 10
0.0
 20
520.0
 30
0.0
 11
0.0
 21
580.0
 31
0.0
  0
LINE
  5
96
  8
TEAM-AXE
 10
-30.0
 20
550.0
 30
0.0
 11
30.0
 21
550.0
 31
0.0
  0
LINE
  5
97
  8
TEAM-KAN
 10
30.0
 20
550.0
 30
0.0
 11
81.558075
 21
550.0
 31
0.0
  0
LINE
  5
98
  8
TEAM-BODY
 10
0.0
 20
850.0
 30
0.0
 11
0.0
 21
840.0
 31
0.0
  0
CIRCLE
  5
9A
  8
TEAM-COLD
 10
7.579317
 20
1100.0
 30
0.0
 40
15.0
  0
LINE
  5
9C
  8
TEAM-AXE
 10
-12.420683
 20
1100.0
 30
0.0
 11
27.579317
 21
1100.0
 31
0.0
  0
LINE
  5
9D
  8
TEAM-AXE
 10
7.579317
 20
1080.0
 30
0.0
 11
7.579317
 21
1120.0
 31
0.0
  0
CIRCLE
  5
9E
  8
TEAM-WARM
 10
0.0
 20
1100.0
 30
0.0
 40
15.0
  0
LINE
  5
A0
  8
TEAM-AXE
 10
-20.0
 20
1100.0
 30
0.0
 11
20.0
 21
1100.0
 31
0.0
  0
LINE
  5
A1
  8
TEAM-AXE
 10
0.0
 20
1080.0
 30
0.0
 11
0.0
 21
1120.0
 31
0.0
  0
CIRCLE
  5
A2
  8
TEAM-INSP
 10
0.0
 20
0.0
 30
0.0
 40
10.0
  0
LINE
  5
A4
  8
TEAM-BODY
 10
400.0
 20
840.0
 30
0.0
 11
0.0
 21
840.0
 31
0.0
  0
LINE
  5
A5
  8
TEAM-BODY
 10
400.0
 20
850.0
 30
0.0
 11
0.0
 21
850.0
 31
0.0
  0
LINE
  5
A6
  8
TEAM-BODY
 10
400.0
 20
850.0
 30
0.0
 11
0.0
 21
850.0
 31
0.0
  0
LINE
  5
A7
  8
TEAM-BODY
 10
400.0
 20
840.0
 30
0.0
 11
400.0
 21
850.0
 31
0.0
  0
TEXT
  5
A8
  8
TEAM-TXT
 10
39.02919
 20
719.405746
 30
0.0
 40
30.0
  1
team 431201
 41
0.8
 51
15.0
  7
TEAM
  0
LINE
  5
AB
  8
TEAM-BODY
 10
319.181163
 20
703.608231
 30
0.0
 11
363.548382
 21
840.0
 31
0.0
  0
LINE
  5
AC
  8
TEAM-BODY
 10
54.147579
 20
655.0
 30
0.0
 11
102.558075
 21
655.0
 31
0.0
  0
LINE
  5
AD
  8
TEAM-BODY
 10
102.558075
 20
655.0
 30
0.0
 11
289.851715
 21
673.915644
 31
0.0
  0
ARC
  5
AE
  8
TEAM-BODY
 10
283.638437
 20
709.384603
 30
0.0
 40
36.009053
 50
279.935979
 51
350.769048
  0
ARC
  5
AF
  8
TEAM-BODY
 10
54.147579
 20
675.0
 30
0.0
 40
20.0
 50
188.125751
 51
270.0
  0
LINE
  5
B0
  8
TEAM-BODY
 10
30.0
 20
840.0
 30
0.0
 11
34.348375
 21
672.173077
 31
0.0
  0
LINE
  5
B1
  8
TEAM-BODY
 10
102.558075
 20
655.0
 30
0.0
 11
102.558075
 21
640.0
 31
0.0
  0
LINE
  5
B2
  8
TEAM-BODY
 10
60.558075
 20
655.0
 30
0.0
 11
60.558075
 21
640.0
 31
0.0
  0
LINE
  5
B3
  8
TEAM-KAN
 10
81.558075
 20
640.0
 30
0.0
 11
81.558075
 21
475.980383
 31
0.0
  0
LINE
  5
B4
  8
TEAM-BODY
 10
102.558075
 20
640.0
 30
0.0
 11
60.558075
 21
640.0
 31
0.0
  0
LINE
  5
B5
  8
TEAM-AXE
 10
-10.0
 20
844.0
 30
0.0
 11
14.676809
 21
844.0
 31
0.0
  0
ENDSEC
  0
EOF
