  0
SECTION
  2
HEADER
  9
$ACADVER
  1
AC1009
  9
$INSBASE
 10
0.0
 20
0.0
 30
0.0
  9
$EXTMIN
 10
-290.022383
 20
-10.062079
 30
0.0
  9
$EXTMAX
 10
503.095789
 20
1120.082052
 30
0.000005
  9
$LIMMIN
 10
-290.022383
 20
-10.062079
  9
$LIMMAX
 10
503.095789
 20
1120.082052
  9
$ORTHOMODE
 70
     1
  9
$REGENMODE
 70
     1
  9
$FILLMODE
 70
     1
  9
$QTEXTMODE
 70
     0
  9
$MIRRTEXT
 70
     0
  9
$DRAGMODE
 70
     2
  9
$LTSCALE
 40
50.0
  9
$OSMODE
 70
     0
  9
$ATTMODE
 70
     1
  9
$TEXTSIZE
 40
200.0
  9
$TRACEWID
 40
1.0
  9
$TEXTSTYLE
  7
STANDARD
  9
$CLAYER
  8
TEAM-MAS
  9
$CELTYPE
  6
BYLAYER
  9
$CECOLOR
 62
   256
  9
$DIMSCALE
 40
0.0
  9
$DIMASZ
 40
20.0
  9
$DIMEXO
 40
10.0
  9
$DIMDLI
 40
1.0
  9
$DIMRND
 40
0.0
  9
$DIMDLE
 40
0.0
  9
$DIMEXE
 40
1.0
  9
$DIMTP
 40
0.0
  9
$DIMTM
 40
0.0
  9
$DIMTXT
 40
35.0
  9
$DIMCEN
 40
1.0
  9
$DIMTSZ
 40
0.0
  9
$DIMTOL
 70
     0
  9
$DIMLIM
 70
     0
  9
$DIMTIH
 70
     0
  9
$DIMTOH
 70
     0
  9
$DIMSE1
 70
     0
  9
$DIMSE2
 70
     0
  9
$DIMTAD
 70
     0
  9
$DIMZIN
 70
     0
  9
$DIMBLK
  1

  9
$DIMASO
 70
     1
  9
$DIMSHO
 70
     0
  9
$DIMPOST
  1

  9
$DIMAPOST
  1

  9
$DIMALT
 70
     0
  9
$DIMALTD
 70
     2
  9
$DIMALTF
 40
25.4
  9
$DIMLFAC
 40
1.0
  9
$DIMTOFL
 70
     0
  9
$DIMTVP
 40
0.0
  9
$DIMTIX
 70
     0
  9
$DIMSOXD
 70
     0
  9
$DIMSAH
 70
     0
  9
$DIMBLK1
  1

  9
$DIMBLK2
  1

  9
$DIMSTYLE
  2
TEAM
  9
$DIMCLRD
 70
     9
  9
$DIMCLRE
 70
     9
  9
$DIMCLRT
 70
    11
  9
$DIMTFAC
 40
1.0
  9
$DIMGAP
 40
7.0
  9
$LUNITS
 70
     2
  9
$LUPREC
 70
     1
  9
$SKETCHINC
 40
1.0
  9
$FILLETRAD
 40
50.0
  9
$AUNITS
 70
     0
  9
$AUPREC
 70
     0
  9
$MENU
  1
ROPLANS
  9
$ELEVATION
 40
0.0
  9
$PELEVATION
 40
0.0
  9
$THICKNESS
 40
0.0
  9
$LIMCHECK
 70
     0
  9
$BLIPMODE
 70
     1
  9
$CHAMFERA
 40
0.0
  9
$CHAMFERB
 40
0.0
  9
$SKPOLY
 70
     0
  9
$TDCREATE
 40
2450392.957851
  9
$TDUPDATE
 40
2456272.033233
  9
$TDINDWG
 40
2.315654
  9
$TDUSRTIMER
 40
2.315654
  9
$USRTIMER
 70
     1
  9
$ANGBASE
 50
0.0
  9
$ANGDIR
 70
     0
  9
$PDMODE
 70
     0
  9
$PDSIZE
 40
0.0
  9
$PLINEWID
 40
0.0
  9
$COORDS
 70
     2
  9
$SPLFRAME
 70
     0
  9
$SPLINETYPE
 70
     6
  9
$SPLINESEGS
 70
     8
  9
$ATTDIA
 70
     0
  9
$ATTREQ
 70
     0
  9
$HANDLING
 70
     1
  9
$HANDSEED
  5
11F
  9
$SURFTAB1
 70
    24
  9
$SURFTAB2
 70
    24
  9
$SURFTYPE
 70
     6
  9
$SURFU
 70
     6
  9
$SURFV
 70
     6
  9
$UCSNAME
  2

  9
$UCSORG
 10
0.0
 20
0.0
 30
0.0
  9
$UCSXDIR
 10
1.0
 20
0.0
 30
0.0
  9
$UCSYDIR
 10
0.0
 20
1.0
 30
0.0
  9
$PUCSNAME
  2

  9
$PUCSORG
 10
0.0
 20
0.0
 30
0.0
  9
$PUCSXDIR
 10
1.0
 20
0.0
 30
0.0
  9
$PUCSYDIR
 10
0.0
 20
1.0
 30
0.0
  9
$USERI1
 70
     0
  9
$USERI2
 70
     0
  9
$USERI3
 70
     0
  9
$USERI4
 70
     0
  9
$USERI5
 70
     0
  9
$USERR1
 40
0.0
  9
$USERR2
 40
0.0
  9
$USERR3
 40
0.0
  9
$USERR4
 40
0.0
  9
$USERR5
 40
0.0
  9
$WORLDVIEW
 70
     1
  9
$SHADEDGE
 70
     0
  9
$SHADEDIF
 70
    70
  9
$TILEMODE
 70
     1
  9
$MAXACTVP
 70
    16
  9
$PLIMCHECK
 70
     0
  9
$PEXTMIN
 10
-0.805942
 20
0.005011
 30
0.0
  9
$PEXTMAX
 10
20.250094
 20
11.356329
 30
0.0
  9
$PLIMMIN
 10
0.0
 20
0.0
  9
$PLIMMAX
 10
12.0
 20
9.0
  9
$UNITMODE
 70
     0
  9
$VISRETAIN
 70
     0
  9
$PLINEGEN
 70
     0
  9
$PSLTSCALE
 70
     0
  0
ENDSEC
  0
SECTION
  2
TABLES
  0
TABLE
  2
VPORT
 70
     2
  0
VPORT
  2
*ACTIVE
 70
     0
 10
0.0
 20
0.0
 11
1.0
 21
1.0
 12
106.536703
 22
555.009987
 13
0.0
 23
0.0
 14
1.0
 24
1.0
 15
50.0
 25
50.0
 16
0.0
 26
0.0
 36
1.0
 17
0.0
 27
0.0
 37
0.0
 40
1137.259415
 41
1.911765
 42
50.0
 43
0.0
 44
0.0
 50
0.0
 51
0.0
 71
     0
 72
   100
 73
     1
 74
     1
 75
     0
 76
     0
 77
     0
 78
     0
  0
ENDTAB
  0
TABLE
  2
LTYPE
 70
     3
  0
LTYPE
  2
CONTINUOUS
 70
     0
  3
Solid Line
 72
    65
 73
     0
 40
0.0
  0
LTYPE
  2
31
 70
     0
  3

 72
    65
 73
     4
 40
2.1
 49
1.5
 49
-0.3
 49
0.0
 49
-0.3
  0
LTYPE
  2
22
 70
     0
  3

 72
    65
 73
     2
 40
1.4
 49
1.2
 49
-0.2
  0
ENDTAB
  0
TABLE
  2
LAYER
 70
    11
  0
LAYER
  2
0
 70
     0
 62
     7
  6
CONTINUOUS
  0
LAYER
  2
DEFPOINTS
 70
     0
 62
     7
  6
CONTINUOUS
  0
LAYER
  2
TEAM-BODY
 70
     0
 62
     2
  6
CONTINUOUS
  0
LAYER
  2
TEAM-AXE
 70
     0
 62
    10
  6
31
  0
LAYER
  2
TEAM-MAS
 70
     0
 62
     9
  6
CONTINUOUS
  0
LAYER
  2
TEAM-TXT
 70
     0
 62
    11
  6
CONTINUOUS
  0
LAYER
  2
TEAM-COLD
 70
     0
 62
     3
  6
CONTINUOUS
  0
LAYER
  2
TEAM-HIDE
 70
     0
 62
     8
  6
22
  0
LAYER
  2
TEAM-KAN
 70
     0
 62
     6
  6
CONTINUOUS
  0
LAYER
  2
TEAM-WARM
 70
     0
 62
     1
  6
CONTINUOUS
  0
LAYER
  2
TEAM-INSP
 70
     0
 62
     5
  6
CONTINUOUS
  0
ENDTAB
  0
TABLE
  2
STYLE
 70
     2
  0
STYLE
  2
STANDARD
 70
     0
 40
0.0
 41
1.0
 50
0.0
 71
     0
 42
200.0
  3
txt
  4

  0
STYLE
  2
TEAM
 70
     0
 40
0.0
 41
0.8
 50
15.0
 71
     0
 42
7.0
  3
ROMANS.shx
  4

  0
ENDTAB
  0
TABLE
  2
VIEW
 70
     0
  0
ENDTAB
  0
TABLE
  2
UCS
 70
     0
  0
ENDTAB
  0
TABLE
  2
APPID
 70
     1
  0
APPID
  2
ACAD
 70
     0
  0
ENDTAB
  0
TABLE
  2
DIMSTYLE
 70
     1
  0
DIMSTYLE
  2
TEAM
 70
     0
  3

  4

  5

  6

  7

 40
0.0
 41
20.0
 42
10.0
 43
1.0
 44
1.0
 45
0.0
 46
0.0
 47
0.0
 48
0.0
140
35.0
141
1.0
142
0.0
143
25.4
144
1.0
145
0.0
146
1.0
147
7.0
 71
     0
 72
     0
 73
     0
 74
     0
 75
     0
 76
     0
 77
     0
 78
     0
170
     0
171
     2
172
     0
173
     0
174
     0
175
     0
176
     9
177
     9
178
    11
  0
ENDTAB
  0
ENDSEC
  0
SECTION
  2
BLOCKS
  0
BLOCK
  8
0
  2
$MODEL_SPACE
 70
     0
 10
0.0
 20
0.0
 30
0.0
  3
$MODEL_SPACE
  1

  0
ENDBLK
  5
118
  8
0
  0
BLOCK
 67
     1
  8
0
  2
$PAPER_SPACE
 70
     0
 10
0.0
 20
0.0
 30
0.0
  3
$PAPER_SPACE
  1

  0
ENDBLK
  5
116
 67
     1
  8
0
  0
BLOCK
  8
0
  2
*D0
 70
     1
 10
0.0
 20
0.0
 30
0.0
  3
*D0
  1

  0
LINE
  5
B7
  8
0
  6
BYBLOCK
 62
     9
 10
4010.0
 20
164000.0
 30
0.0
 11
4486.589127
 21
164000.0
 31
0.0
  0
LINE
  5
B8
  8
0
  6
BYBLOCK
 62
     9
 10
4086.5
 20
165100.0
 30
0.0
 11
4486.589127
 21
165100.0
 31
0.0
  0
LINE
  5
B9
  8
0
  6
BYBLOCK
 62
     9
 10
4485.589127
 20
164020.0
 30
0.0
 11
4485.589127
 21
164414.666667
 31
0.0
  0
LINE
  5
BA
  8
0
  6
BYBLOCK
 62
     9
 10
4485.589127
 20
165080.0
 30
0.0
 11
4485.589127
 21
164685.333333
 31
0.0
  0
SOLID
  5
BB
  8
0
  6
BYBLOCK
 62
     9
 10
4482.255793
 20
164020.0
 30
0.0
 11
4488.92246
 21
164020.0
 31
0.0
 12
4485.589127
 22
164000.0
 32
0.0
 13
4485.589127
 23
164000.0
 33
0.0
  0
SOLID
  5
BC
  8
0
  6
BYBLOCK
 62
     9
 10
4482.255793
 20
165080.0
 30
0.0
 11
4488.92246
 21
165080.0
 31
0.0
 12
4485.589127
 22
165100.0
 32
0.0
 13
4485.589127
 23
165100.0
 33
0.0
  0
TEXT
  5
BD
  8
0
  6
BYBLOCK
 62
    11
 10
4503.089127
 20
164421.666667
 30
0.0
 40
35.0
  1
1050-1200
 50
90.0
  0
POINT
  5
BE
  8
DEFPOINTS
  6
BYBLOCK
 62
     0
 10
4000.0
 20
164000.0
 30
0.0
  0
POINT
  5
BF
  8
DEFPOINTS
  6
BYBLOCK
 62
     0
 10
4076.5
 20
165100.0
 30
0.0
  0
POINT
  5
C0
  8
DEFPOINTS
  6
BYBLOCK
 62
     0
 10
4485.589127
 20
165100.0
 30
0.0
  0
ENDBLK
  5
C2
  8
0
  0
BLOCK
  8
0
  2
*D1
 70
     1
 10
0.0
 20
0.0
 30
0.0
  3
*D1
  1

  0
LINE
  5
A9
  8
0
  6
BYBLOCK
 62
     9
 10
4010.0
 20
164000.0
 30
0.0
 11
4440.135739
 21
164000.0
 31
0.0
  0
LINE
  5
AA
  8
0
  6
BYBLOCK
 62
     9
 10
4086.5
 20
165100.0
 30
0.0
 11
4440.135739
 21
165100.0
 31
0.0
  0
LINE
  5
AB
  8
0
  6
BYBLOCK
 62
     9
 10
4439.135739
 20
164020.0
 30
0.0
 11
4439.135739
 21
164496.333333
 31
0.0
  0
LINE
  5
AC
  8
0
  6
BYBLOCK
 62
     9
 10
4439.135739
 20
165080.0
 30
0.0
 11
4439.135739
 21
164603.666667
 31
0.0
  0
SOLID
  5
AD
  8
0
  6
BYBLOCK
 62
     9
 10
4435.802406
 20
164020.0
 30
0.0
 11
4442.469072
 21
164020.0
 31
0.0
 12
4439.135739
 22
164000.0
 32
0.0
 13
4439.135739
 23
164000.0
 33
0.0
  0
SOLID
  5
AE
  8
0
  6
BYBLOCK
 62
     9
 10
4435.802406
 20
165080.0
 30
0.0
 11
4442.469072
 21
165080.0
 31
0.0
 12
4439.135739
 22
165100.0
 32
0.0
 13
4439.135739
 23
165100.0
 33
0.0
  0
TEXT
  5
AF
  8
0
  6
BYBLOCK
 62
    11
 10
4456.635739
 20
164503.333333
 30
0.0
 40
35.0
  1
1100
 50
90.0
  0
POINT
  5
B0
  8
DEFPOINTS
  6
BYBLOCK
 62
     0
 10
4000.0
 20
164000.0
 30
0.0
  0
POINT
  5
B1
  8
DEFPOINTS
  6
BYBLOCK
 62
     0
 10
4076.5
 20
165100.0
 30
0.0
  0
POINT
  5
B2
  8
DEFPOINTS
  6
BYBLOCK
 62
     0
 10
4439.135739
 20
165100.0
 30
0.0
  0
ENDBLK
  5
B4
  8
0
  0
BLOCK
  8
0
  2
*D2
 70
     1
 10
0.0
 20
0.0
 30
0.0
  3
*D2
  1

  0
LINE
  5
9A
  8
0
  6
BYBLOCK
 62
     9
 10
4200.0
 20
164864.0
 30
0.0
 11
4200.0
 21
164883.595615
 31
0.0
  0
LINE
  5
9B
  8
0
  6
BYBLOCK
 62
     9
 10
4250.0
 20
164860.0
 30
0.0
 11
4250.0
 21
164883.595615
 31
0.0
  0
LINE
  5
9C
  8
0
  6
BYBLOCK
 62
     9
 10
4180.0
 20
164882.595615
 30
0.0
 11
4160.0
 21
164882.595615
 31
0.0
  0
LINE
  5
9D
  8
0
  6
BYBLOCK
 62
     9
 10
4270.0
 20
164882.595615
 30
0.0
 11
4290.0
 21
164882.595615
 31
0.0
  0
TEXT
  5
9E
  8
0
  6
BYBLOCK
 62
    11
 10
4093.322918
 20
164865.095615
 30
0.0
 40
35.0
  1
50
  0
LINE
  5
9F
  8
0
  6
BYBLOCK
 62
     9
 10
4200.0
 20
164882.595615
 30
0.0
 11
4250.0
 21
164882.595615
 31
0.0
  0
SOLID
  5
A0
  8
0
  6
BYBLOCK
 62
     9
 10
4180.0
 20
164885.928948
 30
0.0
 11
4180.0
 21
164879.262282
 31
0.0
 12
4200.0
 22
164882.595615
 32
0.0
 13
4200.0
 23
164882.595615
 33
0.0
  0
SOLID
  5
A1
  8
0
  6
BYBLOCK
 62
     9
 10
4270.0
 20
164885.928948
 30
0.0
 11
4270.0
 21
164879.262282
 31
0.0
 12
4250.0
 22
164882.595615
 32
0.0
 13
4250.0
 23
164882.595615
 33
0.0
  0
POINT
  5
A2
  8
DEFPOINTS
  6
BYBLOCK
 62
     0
 10
4200.0
 20
164854.0
 30
0.0
  0
POINT
  5
A3
  8
DEFPOINTS
  6
BYBLOCK
 62
     0
 10
4250.0
 20
164850.0
 30
0.0
  0
POINT
  5
A4
  8
DEFPOINTS
  6
BYBLOCK
 62
     0
 10
4250.0
 20
164882.595615
 30
0.0
  0
ENDBLK
  5
A6
  8
0
  0
BLOCK
  8
0
  2
*D3
 70
     1
 10
0.0
 20
0.0
 30
0.0
  3
*D3
  1

  0
LINE
  5
3D
  8
0
  6
BYBLOCK
 62
     9
 10
3750.0
 20
164860.0
 30
0.0
 11
3750.0
 21
164883.595615
 31
0.0
  0
LINE
  5
3E
  8
0
  6
BYBLOCK
 62
     9
 10
3800.0
 20
164864.0
 30
0.0
 11
3800.0
 21
164883.595615
 31
0.0
  0
LINE
  5
3F
  8
0
  6
BYBLOCK
 62
     9
 10
3730.0
 20
164882.595615
 30
0.0
 11
3710.0
 21
164882.595615
 31
0.0
  0
LINE
  5
40
  8
0
  6
BYBLOCK
 62
     9
 10
3820.0
 20
164882.595615
 30
0.0
 11
3840.0
 21
164882.595615
 31
0.0
  0
TEXT
  5
41
  8
0
  6
BYBLOCK
 62
    11
 10
3843.069651
 20
164865.095615
 30
0.0
 40
35.0
  1
50
  0
LINE
  5
42
  8
0
  6
BYBLOCK
 62
     9
 10
3750.0
 20
164882.595615
 30
0.0
 11
3800.0
 21
164882.595615
 31
0.0
  0
SOLID
  5
43
  8
0
  6
BYBLOCK
 62
     9
 10
3730.0
 20
164885.928948
 30
0.0
 11
3730.0
 21
164879.262282
 31
0.0
 12
3750.0
 22
164882.595615
 32
0.0
 13
3750.0
 23
164882.595615
 33
0.0
  0
SOLID
  5
44
  8
0
  6
BYBLOCK
 62
     9
 10
3820.0
 20
164885.928948
 30
0.0
 11
3820.0
 21
164879.262282
 31
0.0
 12
3800.0
 22
164882.595615
 32
0.0
 13
3800.0
 23
164882.595615
 33
0.0
  0
POINT
  5
45
  8
DEFPOINTS
  6
BYBLOCK
 62
     0
 10
3750.0
 20
164850.0
 30
0.0
  0
POINT
  5
46
  8
DEFPOINTS
  6
BYBLOCK
 62
     0
 10
3800.0
 20
164854.0
 30
0.0
  0
POINT
  5
47
  8
DEFPOINTS
  6
BYBLOCK
 62
     0
 10
3800.0
 20
164882.595615
 30
0.0
  0
ENDBLK
  5
49
  8
0
  0
BLOCK
  8
0
  2
*D4
 70
     1
 10
0.0
 20
0.0
 30
0.0
  3
*D4
  1

  0
LINE
  5
8C
  8
0
  6
BYBLOCK
 62
     9
 10
3923.5
 20
165090.0
 30
0.0
 11
3923.5
 21
164998.806902
 31
0.0
  0
LINE
  5
8D
  8
0
  6
BYBLOCK
 62
     9
 10
4076.5
 20
165090.0
 30
0.0
 11
4076.5
 21
164998.806902
 31
0.0
  0
LINE
  5
8E
  8
0
  6
BYBLOCK
 62
     9
 10
3943.5
 20
164999.806902
 30
0.0
 11
3952.166667
 21
164999.806902
 31
0.0
  0
LINE
  5
8F
  8
0
  6
BYBLOCK
 62
     9
 10
4056.5
 20
164999.806902
 30
0.0
 11
4047.833333
 21
164999.806902
 31
0.0
  0
TEXT
  5
90
  8
0
  6
BYBLOCK
 62
    11
 10
3959.166667
 20
164982.306902
 30
0.0
 40
35.0
  1
153
  0
SOLID
  5
91
  8
0
  6
BYBLOCK
 62
     9
 10
3943.5
 20
165003.140235
 30
0.0
 11
3943.5
 21
164996.473569
 31
0.0
 12
3923.5
 22
164999.806902
 32
0.0
 13
3923.5
 23
164999.806902
 33
0.0
  0
SOLID
  5
92
  8
0
  6
BYBLOCK
 62
     9
 10
4056.5
 20
165003.140235
 30
0.0
 11
4056.5
 21
164996.473569
 31
0.0
 12
4076.5
 22
164999.806902
 32
0.0
 13
4076.5
 23
164999.806902
 33
0.0
  0
POINT
  5
93
  8
DEFPOINTS
  6
BYBLOCK
 62
     0
 10
3923.5
 20
165100.0
 30
0.0
  0
POINT
  5
94
  8
DEFPOINTS
  6
BYBLOCK
 62
     0
 10
4076.5
 20
165100.0
 30
0.0
  0
POINT
  5
95
  8
DEFPOINTS
  6
BYBLOCK
 62
     0
 10
4076.5
 20
164999.806902
 30
0.0
  0
ENDBLK
  5
97
  8
0
  0
BLOCK
  8
0
  2
*D5
 70
     1
 10
0.0
 20
0.0
 30
0.0
  3
*D5
  1

  0
LINE
  5
22
  8
0
  6
BYBLOCK
 62
     9
 10
3750.0
 20
164860.0
 30
0.0
 11
3750.0
 21
164945.581974
 31
0.0
  0
LINE
  5
23
  8
0
  6
BYBLOCK
 62
     9
 10
4250.0
 20
164860.0
 30
0.0
 11
4250.0
 21
164945.581974
 31
0.0
  0
LINE
  5
24
  8
0
  6
BYBLOCK
 62
     9
 10
3770.0
 20
164944.581974
 30
0.0
 11
3952.166667
 21
164944.581974
 31
0.0
  0
LINE
  5
25
  8
0
  6
BYBLOCK
 62
     9
 10
4230.0
 20
164944.581974
 30
0.0
 11
4047.833333
 21
164944.581974
 31
0.0
  0
SOLID
  5
26
  8
0
  6
BYBLOCK
 62
     9
 10
3770.0
 20
164947.915308
 30
0.0
 11
3770.0
 21
164941.248641
 31
0.0
 12
3750.0
 22
164944.581974
 32
0.0
 13
3750.0
 23
164944.581974
 33
0.0
  0
SOLID
  5
27
  8
0
  6
BYBLOCK
 62
     9
 10
4230.0
 20
164947.915308
 30
0.0
 11
4230.0
 21
164941.248641
 31
0.0
 12
4250.0
 22
164944.581974
 32
0.0
 13
4250.0
 23
164944.581974
 33
0.0
  0
TEXT
  5
28
  8
0
  6
BYBLOCK
 62
    11
 10
3959.166667
 20
164927.081974
 30
0.0
 40
35.0
  1
500
  0
POINT
  5
29
  8
DEFPOINTS
  6
BYBLOCK
 62
     0
 10
3750.0
 20
164850.0
 30
0.0
  0
POINT
  5
2B
  8
DEFPOINTS
  6
BYBLOCK
 62
     0
 10
4250.0
 20
164850.0
 30
0.0
  0
POINT
  5
2C
  8
DEFPOINTS
  6
BYBLOCK
 62
     0
 10
4250.0
 20
164944.581974
 30
0.0
  0
ENDBLK
  5
2E
  8
0
  0
BLOCK
  8
0
  2
*D6
 70
     1
 10
0.0
 20
0.0
 30
0.0
  3
*D6
  1

  0
LINE
  5
7E
  8
0
  6
BYBLOCK
 62
     9
 10
4010.0
 20
164000.0
 30
0.0
 11
4396.285772
 21
164000.0
 31
0.0
  0
LINE
  5
7F
  8
0
  6
BYBLOCK
 62
     9
 10
4260.0
 20
164850.0
 30
0.0
 11
4396.285772
 21
164850.0
 31
0.0
  0
LINE
  5
80
  8
0
  6
BYBLOCK
 62
     9
 10
4395.285772
 20
164020.0
 30
0.0
 11
4395.285772
 21
164374.25
 31
0.0
  0
LINE
  5
81
  8
0
  6
BYBLOCK
 62
     9
 10
4395.285772
 20
164830.0
 30
0.0
 11
4395.285772
 21
164475.75
 31
0.0
  0
SOLID
  5
82
  8
0
  6
BYBLOCK
 62
     9
 10
4391.952439
 20
164020.0
 30
0.0
 11
4398.619105
 21
164020.0
 31
0.0
 12
4395.285772
 22
164000.0
 32
0.0
 13
4395.285772
 23
164000.0
 33
0.0
  0
SOLID
  5
83
  8
0
  6
BYBLOCK
 62
     9
 10
4391.952439
 20
164830.0
 30
0.0
 11
4398.619105
 21
164830.0
 31
0.0
 12
4395.285772
 22
164850.0
 32
0.0
 13
4395.285772
 23
164850.0
 33
0.0
  0
TEXT
  5
84
  8
0
  6
BYBLOCK
 62
    11
 10
4412.785772
 20
164381.25
 30
0.0
 40
35.0
  1
850
 50
90.0
  0
POINT
  5
85
  8
DEFPOINTS
  6
BYBLOCK
 62
     0
 10
4000.0
 20
164000.0
 30
0.0
  0
POINT
  5
86
  8
DEFPOINTS
  6
BYBLOCK
 62
     0
 10
4250.0
 20
164850.0
 30
0.0
  0
POINT
  5
87
  8
DEFPOINTS
  6
BYBLOCK
 62
     0
 10
4395.285772
 20
164850.0
 30
0.0
  0
ENDBLK
  5
89
  8
0
  0
BLOCK
  8
0
  2
*D7
 70
     1
 10
0.0
 20
0.0
 30
0.0
  3
*D7
  1

  0
LINE
  5
70
  8
0
  6
BYBLOCK
 62
     9
 10
4010.0
 20
164000.0
 30
0.0
 11
4349.74393
 21
164000.0
 31
0.0
  0
LINE
  5
71
  8
0
  6
BYBLOCK
 62
     9
 10
4040.0
 20
164550.0
 30
0.0
 11
4349.74393
 21
164550.0
 31
0.0
  0
LINE
  5
72
  8
0
  6
BYBLOCK
 62
     9
 10
4348.74393
 20
164020.0
 30
0.0
 11
4348.74393
 21
164224.25
 31
0.0
  0
LINE
  5
73
  8
0
  6
BYBLOCK
 62
     9
 10
4348.74393
 20
164530.0
 30
0.0
 11
4348.74393
 21
164325.75
 31
0.0
  0
SOLID
  5
74
  8
0
  6
BYBLOCK
 62
     9
 10
4345.410597
 20
164020.0
 30
0.0
 11
4352.077264
 21
164020.0
 31
0.0
 12
4348.74393
 22
164000.0
 32
0.0
 13
4348.74393
 23
164000.0
 33
0.0
  0
SOLID
  5
75
  8
0
  6
BYBLOCK
 62
     9
 10
4345.410597
 20
164530.0
 30
0.0
 11
4352.077264
 21
164530.0
 31
0.0
 12
4348.74393
 22
164550.0
 32
0.0
 13
4348.74393
 23
164550.0
 33
0.0
  0
TEXT
  5
76
  8
0
  6
BYBLOCK
 62
    11
 10
4366.24393
 20
164231.25
 30
0.0
 40
35.0
  1
550
 50
90.0
  0
POINT
  5
77
  8
DEFPOINTS
  6
BYBLOCK
 62
     0
 10
4000.0
 20
164000.0
 30
0.0
  0
POINT
  5
78
  8
DEFPOINTS
  6
BYBLOCK
 62
     0
 10
4030.0
 20
164550.0
 30
0.0
  0
POINT
  5
79
  8
DEFPOINTS
  6
BYBLOCK
 62
     0
 10
4348.74393
 20
164550.0
 30
0.0
  0
ENDBLK
  5
7B
  8
0
  0
BLOCK
  8
0
  2
*D8
 70
     1
 10
0.0
 20
0.0
 30
0.0
  3
*D8
  1

  0
LINE
  5
62
  8
0
  6
BYBLOCK
 62
     9
 10
4260.0
 20
164850.0
 30
0.0
 11
4350.74393
 21
164850.0
 31
0.0
  0
LINE
  5
63
  8
0
  6
BYBLOCK
 62
     9
 10
4100.0
 20
164550.0
 30
0.0
 11
4350.74393
 21
164550.0
 31
0.0
  0
LINE
  5
64
  8
0
  6
BYBLOCK
 62
     9
 10
4349.74393
 20
164830.0
 30
0.0
 11
4349.74393
 21
164747.833333
 31
0.0
  0
LINE
  5
65
  8
0
  6
BYBLOCK
 62
     9
 10
4349.74393
 20
164570.0
 30
0.0
 11
4349.74393
 21
164652.166667
 31
0.0
  0
SOLID
  5
66
  8
0
  6
BYBLOCK
 62
     9
 10
4346.410597
 20
164830.0
 30
0.0
 11
4353.077264
 21
164830.0
 31
0.0
 12
4349.74393
 22
164850.0
 32
0.0
 13
4349.74393
 23
164850.0
 33
0.0
  0
SOLID
  5
67
  8
0
  6
BYBLOCK
 62
     9
 10
4346.410597
 20
164570.0
 30
0.0
 11
4353.077264
 21
164570.0
 31
0.0
 12
4349.74393
 22
164550.0
 32
0.0
 13
4349.74393
 23
164550.0
 33
0.0
  0
TEXT
  5
68
  8
0
  6
BYBLOCK
 62
    11
 10
4367.24393
 20
164659.166667
 30
0.0
 40
35.0
  1
300
 50
90.0
  0
POINT
  5
69
  8
DEFPOINTS
  6
BYBLOCK
 62
     0
 10
4250.0
 20
164850.0
 30
0.0
  0
POINT
  5
6A
  8
DEFPOINTS
  6
BYBLOCK
 62
     0
 10
4090.0
 20
164550.0
 30
0.0
  0
POINT
  5
6B
  8
DEFPOINTS
  6
BYBLOCK
 62
     0
 10
4349.74393
 20
164550.0
 30
0.0
  0
ENDBLK
  5
6D
  8
0
  0
BLOCK
  8
0
  2
*D9
 70
     1
 10
0.0
 20
0.0
 30
0.0
  3
*D9
  1

  0
LINE
  5
54
  8
0
  6
BYBLOCK
 62
     9
 10
4010.0
 20
164655.0
 30
0.0
 11
4306.246693
 21
164655.0
 31
0.0
  0
LINE
  5
55
  8
0
  6
BYBLOCK
 62
     9
 10
4260.0
 20
164850.0
 30
0.0
 11
4306.246693
 21
164850.0
 31
0.0
  0
LINE
  5
56
  8
0
  6
BYBLOCK
 62
     9
 10
4305.246693
 20
164675.0
 30
0.0
 11
4305.246693
 21
164704.666667
 31
0.0
  0
LINE
  5
57
  8
0
  6
BYBLOCK
 62
     9
 10
4305.246693
 20
164830.0
 30
0.0
 11
4305.246693
 21
164800.333333
 31
0.0
  0
SOLID
  5
58
  8
0
  6
BYBLOCK
 62
     9
 10
4301.91336
 20
164675.0
 30
0.0
 11
4308.580026
 21
164675.0
 31
0.0
 12
4305.246693
 22
164655.0
 32
0.0
 13
4305.246693
 23
164655.0
 33
0.0
  0
SOLID
  5
59
  8
0
  6
BYBLOCK
 62
     9
 10
4301.91336
 20
164830.0
 30
0.0
 11
4308.580026
 21
164830.0
 31
0.0
 12
4305.246693
 22
164850.0
 32
0.0
 13
4305.246693
 23
164850.0
 33
0.0
  0
TEXT
  5
5A
  8
0
  6
BYBLOCK
 62
    11
 10
4322.746693
 20
164711.666667
 30
0.0
 40
35.0
  1
195
 50
90.0
  0
POINT
  5
5B
  8
DEFPOINTS
  6
BYBLOCK
 62
     0
 10
4000.0
 20
164655.0
 30
0.0
  0
POINT
  5
5C
  8
DEFPOINTS
  6
BYBLOCK
 62
     0
 10
4250.0
 20
164850.0
 30
0.0
  0
POINT
  5
5D
  8
DEFPOINTS
  6
BYBLOCK
 62
     0
 10
4305.246693
 20
164850.0
 30
0.0
  0
ENDBLK
  5
5F
  8
0
  0
ENDSEC
  0
SECTION
  2
ENTITIES
  0
DIMENSION
  5
20
  8
TEAM-MAS
  2
*D5
 10
250.0
 20
944.581974
 30
0.0
 11
0.0
 21
944.581974
 31
0.0
 12
-4000.0
 22
-164000.0
 32
0.0
 13
-250.0
 23
850.0
 33
0.0
 14
250.0
 24
850.0
 34
0.0
  0
CIRCLE
  5
2F
  8
TEAM-WARM
 10
-76.5
 20
1100.0
 30
0.0
 40
15.0
  0
LINE
  5
31
  8
TEAM-AXE
 10
-96.5
 20
1100.0
 30
0.0
 11
-56.5
 21
1100.0
 31
0.0
  0
TEXT
  5
34
  8
TEAM-TXT
 10
-100.909719
 20
699.29514
 30
0.0
 40
30.0
  1
team 431201
 41
0.8
 51
15.0
  7
TEAM
  0
LINE
  5
37
  8
TEAM-BODY
 10
0.0
 20
655.0
 30
0.0
 11
-187.198863
 21
665.0
 31
0.0
  0
LINE
  5
39
  8
TEAM-BODY
 10
250.0
 20
840.0
 30
0.0
 11
-250.0
 21
840.0
 31
0.0
  0
LINE
  5
3A
  8
TEAM-BODY
 10
250.0
 20
850.0
 30
0.0
 11
-250.0
 21
850.0
 31
0.0
  0
DIMENSION
  5
3B
  8
TEAM-MAS
  2
*D3
 10
-200.0
 20
882.595615
 30
0.0
 11
-130.680349
 21
882.595615
 31
0.0
 12
-4000.0
 22
-164000.0
 32
0.0
 70
   128
 13
-250.0
 23
850.0
 33
0.0
 14
-200.0
 24
854.0
 34
0.0
1001
ACAD
1000
DSTYLE
1002
{
1070
    40
1040
1.0
1002
}
  0
ARC
  5
4A
  8
TEAM-BODY
 10
-187.198863
 20
695.0
 30
0.0
 40
30.0
 50
191.898839
 51
270.0
  0
LINE
  5
4B
  8
TEAM-BODY
 10
-230.0
 20
840.0
 30
0.0
 11
-216.554258
 21
688.814469
 31
0.0
  0
LINE
  5
4C
  8
TEAM-BODY
 10
-250.0
 20
850.0
 30
0.0
 11
-250.0
 21
840.0
 31
0.0
  0
CIRCLE
  5
4D
  8
TEAM-HIDE
 10
-200.0
 20
844.0
 30
0.0
 40
5.0
  0
LINE
  5
50
  8
TEAM-AXE
 10
-190.0
 20
844.0
 30
0.0
 11
-210.0
 21
844.0
 31
0.0
  0
LINE
  5
51
  8
TEAM-AXE
 10
-200.0
 20
854.0
 30
0.0
 11
-200.0
 21
834.0
 31
0.0
  0
DIMENSION
  5
52
  8
TEAM-MAS
  2
*D9
 10
305.246693
 20
850.0
 30
0.0
 11
305.246693
 21
752.5
 31
0.0
 12
-4000.0
 22
-164000.0
 32
0.0
 13
0.0
 23
655.0
 33
0.0
 14
250.0
 24
850.0
 34
0.0
 50
90.0
  0
DIMENSION
  5
60
  8
TEAM-MAS
  2
*D8
 10
349.74393
 20
550.0
 30
0.0
 11
349.74393
 21
700.0
 31
0.0
 12
-4000.0
 22
-164000.0
 32
0.0
 13
250.0
 23
850.0
 33
0.0
 14
90.0
 24
550.0
 34
0.0
 50
90.0
1001
ACAD
1000
DSTYLE
1002
{
1070
    40
1040
1.0
1002
}
  0
DIMENSION
  5
6E
  8
TEAM-MAS
  2
*D7
 10
348.74393
 20
550.0
 30
0.0
 11
348.74393
 21
275.0
 31
0.0
 12
-4000.0
 22
-164000.0
 32
0.0
 13
0.0
 23
0.0
 33
0.0
 14
30.0
 24
550.0
 34
0.0
 50
90.0
  0
DIMENSION
  5
7C
  8
TEAM-MAS
  2
*D6
 10
395.285772
 20
850.0
 30
0.0
 11
395.285772
 21
425.0
 31
0.0
 12
-4000.0
 22
-164000.0
 32
0.0
 13
0.0
 23
0.0
 33
0.0
 14
250.0
 24
850.0
 34
0.0
 50
90.0
  0
DIMENSION
  5
8A
  8
TEAM-MAS
  2
*D4
 10
76.5
 20
999.806902
 30
0.0
 11
0.0
 21
999.806902
 31
0.0
 12
-4000.0
 22
-164000.0
 32
0.0
 70
   128
 13
-76.5
 23
1100.0
 33
0.0
 14
76.5
 24
1100.0
 34
0.0
  0
DIMENSION
  5
98
  8
TEAM-MAS
  2
*D2
 10
250.0
 20
882.595615
 30
0.0
 11
119.572918
 21
882.595615
 31
0.0
 12
-4000.0
 22
-164000.0
 32
0.0
 70
   128
 13
200.0
 23
854.0
 33
0.0
 14
250.0
 24
850.0
 34
0.0
1001
ACAD
1000
DSTYLE
1002
{
1070
    40
1040
1.0
1002
}
  0
DIMENSION
  5
A7
  8
TEAM-MAS
  2
*D1
 10
439.135739
 20
1100.0
 30
0.0
 11
439.135739
 21
550.0
 31
0.0
 12
-4000.0
 22
-164000.0
 32
0.0
 13
0.0
 23
0.0
 33
0.0
 14
76.5
 24
1100.0
 34
0.0
 50
90.0
  0
DIMENSION
  5
B5
  8
TEAM-MAS
  2
*D0
 10
485.589127
 20
1100.0
 30
0.0
 11
485.589127
 21
550.0
 31
0.0
 12
-4000.0
 22
-164000.0
 32
0.0
  1
1050-1200
 13
0.0
 23
0.0
 33
0.0
 14
76.5
 24
1100.0
 34
0.0
 50
90.0
  0
CIRCLE
  5
C3
  8
TEAM-COLD
 10
76.5
 20
1100.0
 30
0.0
 40
15.0
  0
LINE
  5
C5
  8
TEAM-AXE
 10
56.5
 20
1100.0
 30
0.0
 11
96.5
 21
1100.0
 31
0.0
  0
LINE
  5
C6
  8
TEAM-AXE
 10
76.5
 20
1080.0
 30
0.0
 11
76.5
 21
1120.0
 31
0.0
  0
LINE
  5
C7
  8
TEAM-AXE
 10
0.0
 20
520.0
 30
0.0
 11
0.0
 21
580.0
 31
0.0
  0
CIRCLE
  5
C8
  8
TEAM-KAN
 10
0.0
 20
550.0
 30
0.0
 40
20.0
  0
LINE
  5
CA
  8
TEAM-KAN
 10
0.0
 20
520.0
 30
0.0
 11
0.0
 21
515.980383
 31
0.0
  0
LINE
  5
CB
  8
TEAM-AXE
 10
-30.0
 20
550.0
 30
0.0
 11
30.0
 21
550.0
 31
0.0
  0
CIRCLE
  5
CC
  8
TEAM-INSP
 10
0.0
 20
0.0
 30
0.0
 40
10.0
  0
LINE
  5
CE
  8
TEAM-AXE
 10
-76.5
 20
1080.0
 30
0.0
 11
-76.5
 21
1120.0
 31
0.0
  0
ARC
  5
CF
  8
TEAM-BODY
 10
187.198863
 20
695.0
 30
0.0
 40
30.0
 50
270.0
 51
348.101161
  0
LINE
  5
D0
  8
TEAM-BODY
 10
-21.0
 20
640.0
 30
0.0
 11
21.0
 21
640.0
 31
0.0
  0
LINE
  5
D1
  8
TEAM-BODY
 10
-21.0
 20
655.757579
 30
0.0
 11
-21.0
 21
640.0
 31
0.0
  0
LINE
  5
D2
  8
TEAM-BODY
 10
21.0
 20
655.757579
 30
0.0
 11
21.0
 21
640.0
 31
0.0
  0
LINE
  5
D3
  8
TEAM-BODY
 10
187.198863
 20
665.0
 30
0.0
 11
0.0
 21
655.0
 31
0.0
  0
LINE
  5
D4
  8
TEAM-BODY
 10
216.554258
 20
688.814469
 30
0.0
 11
230.0
 21
840.0
 31
0.0
  0
LINE
  5
D5
  8
TEAM-BODY
 10
250.0
 20
840.0
 30
0.0
 11
250.0
 21
850.0
 31
0.0
  0
CIRCLE
  5
D6
  8
TEAM-HIDE
 10
200.0
 20
844.0
 30
0.0
 40
5.0
  0
LINE
  5
D7
  8
TEAM-AXE
 10
210.0
 20
844.0
 30
0.0
 11
190.0
 21
844.0
 31
0.0
  0
LINE
  5
D8
  8
TEAM-AXE
 10
200.0
 20
854.0
 30
0.0
 11
200.0
 21
834.0
 31
0.0
  0
LINE
  5
D9
  8
TEAM-AXE
 10
0.0
 20
650.0
 30
0.0
 11
0.0
 21
630.0
 31
0.0
  0
LINE
  5
DA
  8
TEAM-AXE
 10
10.0
 20
640.0
 30
0.0
 11
-10.0
 21
640.0
 31
0.0
  0
CIRCLE
  5
DB
  8
TEAM-HIDE
 10
0.0
 20
640.0
 30
0.0
 40
5.0
  0
ENDSEC
  0
EOF
