  0
SECTION
  2
HEADER
  9
$ACADVER
  1
AC1009
  9
$INSBASE
 10
0.0
 20
0.0
 30
0.0
  9
$EXTMIN
 10
-235.045844
 20
-10.062079
 30
0.0
  9
$EXTMAX
 10
511.37181
 20
1119.995325
 30
0.000005
  9
$LIMMIN
 10
-235.045844
 20
-10.062079
  9
$LIMMAX
 10
511.37181
 20
1119.995325
  9
$ORTHOMODE
 70
     1
  9
$REGENMODE
 70
     1
  9
$FILLMODE
 70
     1
  9
$QTEXTMODE
 70
     0
  9
$MIRRTEXT
 70
     0
  9
$DRAGMODE
 70
     2
  9
$LTSCALE
 40
50.0
  9
$OSMODE
 70
     0
  9
$ATTMODE
 70
     1
  9
$TEXTSIZE
 40
200.0
  9
$TRACEWID
 40
1.0
  9
$TEXTSTYLE
  7
STANDARD
  9
$CLAYER
  8
TEAM-MAS
  9
$CELTYPE
  6
BYLAYER
  9
$CECOLOR
 62
   256
  9
$DIMSCALE
 40
0.0
  9
$DIMASZ
 40
20.0
  9
$DIMEXO
 40
10.0
  9
$DIMDLI
 40
1.0
  9
$DIMRND
 40
0.0
  9
$DIMDLE
 40
0.0
  9
$DIMEXE
 40
1.0
  9
$DIMTP
 40
0.0
  9
$DIMTM
 40
0.0
  9
$DIMTXT
 40
35.0
  9
$DIMCEN
 40
1.0
  9
$DIMTSZ
 40
0.0
  9
$DIMTOL
 70
     0
  9
$DIMLIM
 70
     0
  9
$DIMTIH
 70
     0
  9
$DIMTOH
 70
     0
  9
$DIMSE1
 70
     0
  9
$DIMSE2
 70
     0
  9
$DIMTAD
 70
     0
  9
$DIMZIN
 70
     0
  9
$DIMBLK
  1

  9
$DIMASO
 70
     1
  9
$DIMSHO
 70
     0
  9
$DIMPOST
  1

  9
$DIMAPOST
  1

  9
$DIMALT
 70
     0
  9
$DIMALTD
 70
     2
  9
$DIMALTF
 40
25.4
  9
$DIMLFAC
 40
1.0
  9
$DIMTOFL
 70
     0
  9
$DIMTVP
 40
0.0
  9
$DIMTIX
 70
     0
  9
$DIMSOXD
 70
     0
  9
$DIMSAH
 70
     0
  9
$DIMBLK1
  1

  9
$DIMBLK2
  1

  9
$DIMSTYLE
  2
TEAM
  9
$DIMCLRD
 70
     9
  9
$DIMCLRE
 70
     9
  9
$DIMCLRT
 70
    11
  9
$DIMTFAC
 40
1.0
  9
$DIMGAP
 40
7.0
  9
$LUNITS
 70
     2
  9
$LUPREC
 70
     1
  9
$SKETCHINC
 40
1.0
  9
$FILLETRAD
 40
50.0
  9
$AUNITS
 70
     0
  9
$AUPREC
 70
     0
  9
$MENU
  1
ROPLANS
  9
$ELEVATION
 40
0.0
  9
$PELEVATION
 40
0.0
  9
$THICKNESS
 40
0.0
  9
$LIMCHECK
 70
     0
  9
$BLIPMODE
 70
     1
  9
$CHAMFERA
 40
0.0
  9
$CHAMFERB
 40
0.0
  9
$SKPOLY
 70
     0
  9
$TDCREATE
 40
2450392.957851
  9
$TDUPDATE
 40
2456272.033233
  9
$TDINDWG
 40
2.315654
  9
$TDUSRTIMER
 40
2.315654
  9
$USRTIMER
 70
     1
  9
$ANGBASE
 50
0.0
  9
$ANGDIR
 70
     0
  9
$PDMODE
 70
     0
  9
$PDSIZE
 40
0.0
  9
$PLINEWID
 40
0.0
  9
$COORDS
 70
     2
  9
$SPLFRAME
 70
     0
  9
$SPLINETYPE
 70
     6
  9
$SPLINESEGS
 70
     8
  9
$ATTDIA
 70
     0
  9
$ATTREQ
 70
     0
  9
$HANDLING
 70
     1
  9
$HANDSEED
  5
162
  9
$SURFTAB1
 70
    24
  9
$SURFTAB2
 70
    24
  9
$SURFTYPE
 70
     6
  9
$SURFU
 70
     6
  9
$SURFV
 70
     6
  9
$UCSNAME
  2

  9
$UCSORG
 10
0.0
 20
0.0
 30
0.0
  9
$UCSXDIR
 10
1.0
 20
0.0
 30
0.0
  9
$UCSYDIR
 10
0.0
 20
1.0
 30
0.0
  9
$PUCSNAME
  2

  9
$PUCSORG
 10
0.0
 20
0.0
 30
0.0
  9
$PUCSXDIR
 10
1.0
 20
0.0
 30
0.0
  9
$PUCSYDIR
 10
0.0
 20
1.0
 30
0.0
  9
$USERI1
 70
     0
  9
$USERI2
 70
     0
  9
$USERI3
 70
     0
  9
$USERI4
 70
     0
  9
$USERI5
 70
     0
  9
$USERR1
 40
0.0
  9
$USERR2
 40
0.0
  9
$USERR3
 40
0.0
  9
$USERR4
 40
0.0
  9
$USERR5
 40
0.0
  9
$WORLDVIEW
 70
     1
  9
$SHADEDGE
 70
     0
  9
$SHADEDIF
 70
    70
  9
$TILEMODE
 70
     1
  9
$MAXACTVP
 70
    16
  9
$PLIMCHECK
 70
     0
  9
$PEXTMIN
 10
-0.805942
 20
0.005011
 30
0.0
  9
$PEXTMAX
 10
20.250094
 20
11.356329
 30
0.0
  9
$PLIMMIN
 10
0.0
 20
0.0
  9
$PLIMMAX
 10
12.0
 20
9.0
  9
$UNITMODE
 70
     0
  9
$VISRETAIN
 70
     0
  9
$PLINEGEN
 70
     0
  9
$PSLTSCALE
 70
     0
  0
ENDSEC
  0
SECTION
  2
TABLES
  0
TABLE
  2
VPORT
 70
     2
  0
VPORT
  2
*ACTIVE
 70
     0
 10
0.0
 20
0.0
 11
1.0
 21
1.0
 12
138.162983
 22
554.966623
 13
0.0
 23
0.0
 14
1.0
 24
1.0
 15
50.0
 25
50.0
 16
0.0
 26
0.0
 36
1.0
 17
0.0
 27
0.0
 37
0.0
 40
1137.172141
 41
1.911765
 42
50.0
 43
0.0
 44
0.0
 50
0.0
 51
0.0
 71
     0
 72
   100
 73
     1
 74
     1
 75
     0
 76
     0
 77
     0
 78
     0
  0
ENDTAB
  0
TABLE
  2
LTYPE
 70
     3
  0
LTYPE
  2
CONTINUOUS
 70
     0
  3
Solid Line
 72
    65
 73
     0
 40
0.0
  0
LTYPE
  2
31
 70
     0
  3

 72
    65
 73
     4
 40
2.1
 49
1.5
 49
-0.3
 49
0.0
 49
-0.3
  0
LTYPE
  2
22
 70
     0
  3

 72
    65
 73
     2
 40
1.4
 49
1.2
 49
-0.2
  0
ENDTAB
  0
TABLE
  2
LAYER
 70
    13
  0
LAYER
  2
0
 70
     0
 62
     7
  6
CONTINUOUS
  0
LAYER
  2
079300000000
 70
     0
 62
     7
  6
CONTINUOUS
  0
LAYER
  2
DEFPOINTS
 70
     0
 62
     7
  6
CONTINUOUS
  0
LAYER
  2
TEAM-BODY
 70
     0
 62
     2
  6
CONTINUOUS
  0
LAYER
  2
TEAM-AXE
 70
     0
 62
    10
  6
31
  0
LAYER
  2
TEAM-MAS
 70
     0
 62
     9
  6
CONTINUOUS
  0
LAYER
  2
TEAM-TXT
 70
     0
 62
    11
  6
CONTINUOUS
  0
LAYER
  2
TEAM-DET1
 70
     0
 62
     4
  6
CONTINUOUS
  0
LAYER
  2
TEAM-COLD
 70
     0
 62
     3
  6
CONTINUOUS
  0
LAYER
  2
TEAM-HIDE
 70
     0
 62
     8
  6
22
  0
LAYER
  2
TEAM-KAN
 70
     0
 62
     6
  6
CONTINUOUS
  0
LAYER
  2
TEAM-WARM
 70
     0
 62
     1
  6
CONTINUOUS
  0
LAYER
  2
TEAM-INSP
 70
     0
 62
     5
  6
CONTINUOUS
  0
ENDTAB
  0
TABLE
  2
STYLE
 70
     2
  0
STYLE
  2
STANDARD
 70
     0
 40
0.0
 41
1.0
 50
0.0
 71
     0
 42
200.0
  3
txt
  4

  0
STYLE
  2
TEAM
 70
     0
 40
0.0
 41
0.8
 50
15.0
 71
     0
 42
7.0
  3
ROMANS.shx
  4

  0
ENDTAB
  0
TABLE
  2
VIEW
 70
     0
  0
ENDTAB
  0
TABLE
  2
UCS
 70
     0
  0
ENDTAB
  0
TABLE
  2
APPID
 70
     1
  0
APPID
  2
ACAD
 70
     0
  0
ENDTAB
  0
TABLE
  2
DIMSTYLE
 70
     1
  0
DIMSTYLE
  2
TEAM
 70
     0
  3

  4

  5

  6

  7

 40
0.0
 41
20.0
 42
10.0
 43
1.0
 44
1.0
 45
0.0
 46
0.0
 47
0.0
 48
0.0
140
35.0
141
1.0
142
0.0
143
25.4
144
1.0
145
0.0
146
1.0
147
7.0
 71
     0
 72
     0
 73
     0
 74
     0
 75
     0
 76
     0
 77
     0
 78
     0
170
     0
171
     2
172
     0
173
     0
174
     0
175
     0
176
     9
177
     9
178
    11
  0
ENDTAB
  0
ENDSEC
  0
SECTION
  2
BLOCKS
  0
BLOCK
  8
0
  2
$MODEL_SPACE
 70
     0
 10
0.0
 20
0.0
 30
0.0
  3
$MODEL_SPACE
  1

  0
ENDBLK
  5
15B
  8
0
  0
BLOCK
 67
     1
  8
0
  2
$PAPER_SPACE
 70
     0
 10
0.0
 20
0.0
 30
0.0
  3
$PAPER_SPACE
  1

  0
ENDBLK
  5
159
 67
     1
  8
0
  0
BLOCK
  8
0
  2
*D0
 70
     1
 10
0.0
 20
0.0
 30
0.0
  3
*D0
  1

  0
LINE
  5
E6
  8
0
  6
BYBLOCK
 62
     9
 10
4010.0
 20
172000.0
 30
0.0
 11
4319.444548
 21
172000.0
 31
0.0
  0
LINE
  5
E7
  8
0
  6
BYBLOCK
 62
     9
 10
4090.0
 20
172400.0
 30
0.0
 11
4319.444548
 21
172400.0
 31
0.0
  0
LINE
  5
E8
  8
0
  6
BYBLOCK
 62
     9
 10
4318.444548
 20
172020.0
 30
0.0
 11
4318.444548
 21
172085.083333
 31
0.0
  0
LINE
  5
E9
  8
0
  6
BYBLOCK
 62
     9
 10
4318.444548
 20
172380.0
 30
0.0
 11
4318.444548
 21
172314.916667
 31
0.0
  0
SOLID
  5
EA
  8
0
  6
BYBLOCK
 62
     9
 10
4315.111215
 20
172020.0
 30
0.0
 11
4321.777881
 21
172020.0
 31
0.0
 12
4318.444548
 22
172000.0
 32
0.0
 13
4318.444548
 23
172000.0
 33
0.0
  0
SOLID
  5
EB
  8
0
  6
BYBLOCK
 62
     9
 10
4315.111215
 20
172380.0
 30
0.0
 11
4321.777881
 21
172380.0
 31
0.0
 12
4318.444548
 22
172400.0
 32
0.0
 13
4318.444548
 23
172400.0
 33
0.0
  0
TEXT
  5
EC
  8
0
  6
BYBLOCK
 62
    11
 10
4335.944548
 20
172092.083333
 30
0.0
 40
35.0
  1
300-450
 50
90.0
  0
POINT
  5
ED
  8
DEFPOINTS
  6
BYBLOCK
 62
     0
 10
4000.0
 20
172000.0
 30
0.0
  0
POINT
  5
EE
  8
DEFPOINTS
  6
BYBLOCK
 62
     0
 10
4080.0
 20
172400.0
 30
0.0
  0
POINT
  5
EF
  8
DEFPOINTS
  6
BYBLOCK
 62
     0
 10
4318.444548
 20
172400.0
 30
0.0
  0
ENDBLK
  5
F1
  8
0
  0
BLOCK
  8
0
  2
*D1
 70
     1
 10
0.0
 20
0.0
 30
0.0
  3
*D1
  1

  0
LINE
  5
D8
  8
0
  6
BYBLOCK
 62
     9
 10
4010.0
 20
172000.0
 30
0.0
 11
4277.394226
 21
172000.0
 31
0.0
  0
LINE
  5
D9
  8
0
  6
BYBLOCK
 62
     9
 10
4090.0
 20
172400.0
 30
0.0
 11
4277.394226
 21
172400.0
 31
0.0
  0
LINE
  5
DA
  8
0
  6
BYBLOCK
 62
     9
 10
4276.394226
 20
172020.0
 30
0.0
 11
4276.394226
 21
172152.166667
 31
0.0
  0
LINE
  5
DB
  8
0
  6
BYBLOCK
 62
     9
 10
4276.394226
 20
172380.0
 30
0.0
 11
4276.394226
 21
172247.833333
 31
0.0
  0
SOLID
  5
DC
  8
0
  6
BYBLOCK
 62
     9
 10
4273.060893
 20
172020.0
 30
0.0
 11
4279.72756
 21
172020.0
 31
0.0
 12
4276.394226
 22
172000.0
 32
0.0
 13
4276.394226
 23
172000.0
 33
0.0
  0
SOLID
  5
DD
  8
0
  6
BYBLOCK
 62
     9
 10
4273.060893
 20
172380.0
 30
0.0
 11
4279.72756
 21
172380.0
 31
0.0
 12
4276.394226
 22
172400.0
 32
0.0
 13
4276.394226
 23
172400.0
 33
0.0
  0
TEXT
  5
DE
  8
0
  6
BYBLOCK
 62
    11
 10
4293.894226
 20
172159.166667
 30
0.0
 40
35.0
  1
400
 50
90.0
  0
POINT
  5
DF
  8
DEFPOINTS
  6
BYBLOCK
 62
     0
 10
4000.0
 20
172000.0
 30
0.0
  0
POINT
  5
E0
  8
DEFPOINTS
  6
BYBLOCK
 62
     0
 10
4080.0
 20
172400.0
 30
0.0
  0
POINT
  5
E1
  8
DEFPOINTS
  6
BYBLOCK
 62
     0
 10
4276.394226
 20
172400.0
 30
0.0
  0
ENDBLK
  5
E3
  8
0
  0
BLOCK
  8
0
  2
*D2
 70
     1
 10
0.0
 20
0.0
 30
0.0
  3
*D2
  1

  0
LINE
  5
CA
  8
0
  6
BYBLOCK
 62
     9
 10
4010.0
 20
172000.0
 30
0.0
 11
4450.977176
 21
172000.0
 31
0.0
  0
LINE
  5
CB
  8
0
  6
BYBLOCK
 62
     9
 10
4086.5
 20
173100.0
 30
0.0
 11
4450.977176
 21
173100.0
 31
0.0
  0
LINE
  5
CC
  8
0
  6
BYBLOCK
 62
     9
 10
4449.977176
 20
172020.0
 30
0.0
 11
4449.977176
 21
172496.333333
 31
0.0
  0
LINE
  5
CD
  8
0
  6
BYBLOCK
 62
     9
 10
4449.977176
 20
173080.0
 30
0.0
 11
4449.977176
 21
172603.666667
 31
0.0
  0
SOLID
  5
CE
  8
0
  6
BYBLOCK
 62
     9
 10
4446.643842
 20
172020.0
 30
0.0
 11
4453.310509
 21
172020.0
 31
0.0
 12
4449.977176
 22
172000.0
 32
0.0
 13
4449.977176
 23
172000.0
 33
0.0
  0
SOLID
  5
CF
  8
0
  6
BYBLOCK
 62
     9
 10
4446.643842
 20
173080.0
 30
0.0
 11
4453.310509
 21
173080.0
 31
0.0
 12
4449.977176
 22
173100.0
 32
0.0
 13
4449.977176
 23
173100.0
 33
0.0
  0
TEXT
  5
D0
  8
0
  6
BYBLOCK
 62
    11
 10
4467.477176
 20
172503.333333
 30
0.0
 40
35.0
  1
1100
 50
90.0
  0
POINT
  5
D1
  8
DEFPOINTS
  6
BYBLOCK
 62
     0
 10
4000.0
 20
172000.0
 30
0.0
  0
POINT
  5
D2
  8
DEFPOINTS
  6
BYBLOCK
 62
     0
 10
4076.5
 20
173100.0
 30
0.0
  0
POINT
  5
D3
  8
DEFPOINTS
  6
BYBLOCK
 62
     0
 10
4449.977176
 20
173100.0
 30
0.0
  0
ENDBLK
  5
D5
  8
0
  0
BLOCK
  8
0
  2
*D3
 70
     1
 10
0.0
 20
0.0
 30
0.0
  3
*D3
  1

  0
LINE
  5
BC
  8
0
  6
BYBLOCK
 62
     9
 10
4010.0
 20
172000.0
 30
0.0
 11
4361.493461
 21
172000.0
 31
0.0
  0
LINE
  5
BD
  8
0
  6
BYBLOCK
 62
     9
 10
4245.0
 20
172800.0
 30
0.0
 11
4361.493461
 21
172800.0
 31
0.0
  0
LINE
  5
BE
  8
0
  6
BYBLOCK
 62
     9
 10
4360.493461
 20
172020.0
 30
0.0
 11
4360.493461
 21
172352.166667
 31
0.0
  0
LINE
  5
BF
  8
0
  6
BYBLOCK
 62
     9
 10
4360.493461
 20
172780.0
 30
0.0
 11
4360.493461
 21
172447.833333
 31
0.0
  0
SOLID
  5
C0
  8
0
  6
BYBLOCK
 62
     9
 10
4357.160127
 20
172020.0
 30
0.0
 11
4363.826794
 21
172020.0
 31
0.0
 12
4360.493461
 22
172000.0
 32
0.0
 13
4360.493461
 23
172000.0
 33
0.0
  0
SOLID
  5
C1
  8
0
  6
BYBLOCK
 62
     9
 10
4357.160127
 20
172780.0
 30
0.0
 11
4363.826794
 21
172780.0
 31
0.0
 12
4360.493461
 22
172800.0
 32
0.0
 13
4360.493461
 23
172800.0
 33
0.0
  0
TEXT
  5
C2
  8
0
  6
BYBLOCK
 62
    11
 10
4377.993461
 20
172359.166667
 30
0.0
 40
35.0
  1
800
 50
90.0
  0
POINT
  5
C3
  8
DEFPOINTS
  6
BYBLOCK
 62
     0
 10
4000.0
 20
172000.0
 30
0.0
  0
POINT
  5
C4
  8
DEFPOINTS
  6
BYBLOCK
 62
     0
 10
4235.0
 20
172800.0
 30
0.0
  0
POINT
  5
C5
  8
DEFPOINTS
  6
BYBLOCK
 62
     0
 10
4360.493461
 20
172800.0
 30
0.0
  0
ENDBLK
  5
C7
  8
0
  0
BLOCK
  8
0
  2
*D4
 70
     1
 10
0.0
 20
0.0
 30
0.0
  3
*D4
  1

  0
LINE
  5
AE
  8
0
  6
BYBLOCK
 62
     9
 10
4010.0
 20
172000.0
 30
0.0
 11
4407.133436
 21
172000.0
 31
0.0
  0
LINE
  5
AF
  8
0
  6
BYBLOCK
 62
     9
 10
4245.0
 20
172800.0
 30
0.0
 11
4407.133436
 21
172800.0
 31
0.0
  0
LINE
  5
B0
  8
0
  6
BYBLOCK
 62
     9
 10
4406.133436
 20
172020.0
 30
0.0
 11
4406.133436
 21
172285.083333
 31
0.0
  0
LINE
  5
B1
  8
0
  6
BYBLOCK
 62
     9
 10
4406.133436
 20
172780.0
 30
0.0
 11
4406.133436
 21
172514.916667
 31
0.0
  0
SOLID
  5
B2
  8
0
  6
BYBLOCK
 62
     9
 10
4402.800103
 20
172020.0
 30
0.0
 11
4409.466769
 21
172020.0
 31
0.0
 12
4406.133436
 22
172000.0
 32
0.0
 13
4406.133436
 23
172000.0
 33
0.0
  0
SOLID
  5
B3
  8
0
  6
BYBLOCK
 62
     9
 10
4402.800103
 20
172780.0
 30
0.0
 11
4409.466769
 21
172780.0
 31
0.0
 12
4406.133436
 22
172800.0
 32
0.0
 13
4406.133436
 23
172800.0
 33
0.0
  0
TEXT
  5
B4
  8
0
  6
BYBLOCK
 62
    11
 10
4423.633436
 20
172292.083333
 30
0.0
 40
35.0
  1
700-850
 50
90.0
  0
POINT
  5
B5
  8
DEFPOINTS
  6
BYBLOCK
 62
     0
 10
4000.0
 20
172000.0
 30
0.0
  0
POINT
  5
B6
  8
DEFPOINTS
  6
BYBLOCK
 62
     0
 10
4235.0
 20
172800.0
 30
0.0
  0
POINT
  5
B7
  8
DEFPOINTS
  6
BYBLOCK
 62
     0
 10
4406.133436
 20
172800.0
 30
0.0
  0
ENDBLK
  5
B9
  8
0
  0
BLOCK
  8
0
  2
*D5
 70
     1
 10
0.0
 20
0.0
 30
0.0
  3
*D5
  1

  0
LINE
  5
A0
  8
0
  6
BYBLOCK
 62
     9
 10
4010.0
 20
172000.0
 30
0.0
 11
4494.820915
 21
172000.0
 31
0.0
  0
LINE
  5
A1
  8
0
  6
BYBLOCK
 62
     9
 10
4086.5
 20
173100.0
 30
0.0
 11
4494.820915
 21
173100.0
 31
0.0
  0
LINE
  5
A2
  8
0
  6
BYBLOCK
 62
     9
 10
4493.820915
 20
172020.0
 30
0.0
 11
4493.820915
 21
172417.583333
 31
0.0
  0
LINE
  5
A3
  8
0
  6
BYBLOCK
 62
     9
 10
4493.820915
 20
173080.0
 30
0.0
 11
4493.820915
 21
172682.416667
 31
0.0
  0
SOLID
  5
A4
  8
0
  6
BYBLOCK
 62
     9
 10
4490.487582
 20
172020.0
 30
0.0
 11
4497.154249
 21
172020.0
 31
0.0
 12
4493.820915
 22
172000.0
 32
0.0
 13
4493.820915
 23
172000.0
 33
0.0
  0
SOLID
  5
A5
  8
0
  6
BYBLOCK
 62
     9
 10
4490.487582
 20
173080.0
 30
0.0
 11
4497.154249
 21
173080.0
 31
0.0
 12
4493.820915
 22
173100.0
 32
0.0
 13
4493.820915
 23
173100.0
 33
0.0
  0
TEXT
  5
A6
  8
0
  6
BYBLOCK
 62
    11
 10
4511.320915
 20
172424.583333
 30
0.0
 40
35.0
  1
1100-1250
 50
90.0
  0
POINT
  5
A7
  8
DEFPOINTS
  6
BYBLOCK
 62
     0
 10
4000.0
 20
172000.0
 30
0.0
  0
POINT
  5
A8
  8
DEFPOINTS
  6
BYBLOCK
 62
     0
 10
4076.5
 20
173100.0
 30
0.0
  0
POINT
  5
A9
  8
DEFPOINTS
  6
BYBLOCK
 62
     0
 10
4493.820915
 20
173100.0
 30
0.0
  0
ENDBLK
  5
AB
  8
0
  0
BLOCK
  8
0
  2
*D6
 70
     1
 10
0.0
 20
0.0
 30
0.0
  3
*D6
  1

  0
LINE
  5
31
  8
0
  6
BYBLOCK
 62
     9
 10
4235.0
 20
172778.8
 30
0.0
 11
4235.0
 21
172890.544655
 31
0.0
  0
LINE
  5
32
  8
0
  6
BYBLOCK
 62
     9
 10
3765.0
 20
172778.8
 30
0.0
 11
3765.0
 21
172890.544655
 31
0.0
  0
LINE
  5
33
  8
0
  6
BYBLOCK
 62
     9
 10
4215.0
 20
172889.544655
 30
0.0
 11
4050.75
 21
172889.544655
 31
0.0
  0
LINE
  5
34
  8
0
  6
BYBLOCK
 62
     9
 10
3785.0
 20
172889.544655
 30
0.0
 11
3949.25
 21
172889.544655
 31
0.0
  0
SOLID
  5
35
  8
0
  6
BYBLOCK
 62
     9
 10
4215.0
 20
172892.877988
 30
0.0
 11
4215.0
 21
172886.211321
 31
0.0
 12
4235.0
 22
172889.544655
 32
0.0
 13
4235.0
 23
172889.544655
 33
0.0
  0
SOLID
  5
36
  8
0
  6
BYBLOCK
 62
     9
 10
3785.0
 20
172892.877988
 30
0.0
 11
3785.0
 21
172886.211321
 31
0.0
 12
3765.0
 22
172889.544655
 32
0.0
 13
3765.0
 23
172889.544655
 33
0.0
  0
TEXT
  5
37
  8
0
  6
BYBLOCK
 62
    11
 10
3956.25
 20
172872.044655
 30
0.0
 40
35.0
  1
470
  0
POINT
  5
38
  8
DEFPOINTS
  6
BYBLOCK
 62
     0
 10
4235.0
 20
172768.8
 30
0.0
  0
POINT
  5
39
  8
DEFPOINTS
  6
BYBLOCK
 62
     0
 10
3765.0
 20
172768.8
 30
0.0
  0
POINT
  5
3A
  8
DEFPOINTS
  6
BYBLOCK
 62
     0
 10
3765.0
 20
172889.544655
 30
0.0
  0
ENDBLK
  5
3C
  8
0
  0
BLOCK
  8
0
  2
*D7
 70
     1
 10
0.0
 20
0.0
 30
0.0
  3
*D7
  1

  0
LINE
  5
22
  8
0
  6
BYBLOCK
 62
     9
 10
3788.5
 20
172769.8
 30
0.0
 11
3788.5
 21
172845.376342
 31
0.0
  0
LINE
  5
23
  8
0
  6
BYBLOCK
 62
     9
 10
4211.5
 20
172769.8
 30
0.0
 11
4211.5
 21
172845.376342
 31
0.0
  0
LINE
  5
24
  8
0
  6
BYBLOCK
 62
     9
 10
3808.5
 20
172844.376342
 30
0.0
 11
3879.25
 21
172844.376342
 31
0.0
  0
LINE
  5
25
  8
0
  6
BYBLOCK
 62
     9
 10
4191.5
 20
172844.376342
 30
0.0
 11
4120.75
 21
172844.376342
 31
0.0
  0
SOLID
  5
26
  8
0
  6
BYBLOCK
 62
     9
 10
3808.5
 20
172847.709676
 30
0.0
 11
3808.5
 21
172841.043009
 31
0.0
 12
3788.5
 22
172844.376342
 32
0.0
 13
3788.5
 23
172844.376342
 33
0.0
  0
SOLID
  5
27
  8
0
  6
BYBLOCK
 62
     9
 10
4191.5
 20
172847.709676
 30
0.0
 11
4191.5
 21
172841.043009
 31
0.0
 12
4211.5
 22
172844.376342
 32
0.0
 13
4211.5
 23
172844.376342
 33
0.0
  0
TEXT
  5
28
  8
0
  6
BYBLOCK
 62
    11
 10
3886.25
 20
172826.876342
 30
0.0
 40
35.0
  1
423/405
  0
POINT
  5
29
  8
DEFPOINTS
  6
BYBLOCK
 62
     0
 10
3788.5
 20
172759.8
 30
0.0
  0
POINT
  5
2B
  8
DEFPOINTS
  6
BYBLOCK
 62
     0
 10
4211.5
 20
172759.8
 30
0.0
  0
POINT
  5
2C
  8
DEFPOINTS
  6
BYBLOCK
 62
     0
 10
4211.5
 20
172844.376342
 30
0.0
  0
ENDBLK
  5
2E
  8
0
  0
BLOCK
  8
0
  2
*D8
 70
     1
 10
0.0
 20
0.0
 30
0.0
  3
*D8
  1

  0
LINE
  5
93
  8
0
  6
BYBLOCK
 62
     9
 10
4000.0
 20
172355.980383
 30
0.0
 11
4000.0
 21
172224.878354
 31
0.0
  0
LINE
  5
94
  8
0
  6
BYBLOCK
 62
     9
 10
4080.0
 20
172390.0
 30
0.0
 11
4080.0
 21
172224.878354
 31
0.0
  0
LINE
  5
95
  8
0
  6
BYBLOCK
 62
     9
 10
4020.0
 20
172225.878354
 30
0.0
 11
4060.0
 21
172225.878354
 31
0.0
  0
TEXT
  5
96
  8
0
  6
BYBLOCK
 62
    11
 10
4013.75
 20
172237.768197
 30
0.0
 40
35.0
  1
80
  0
SOLID
  5
97
  8
0
  6
BYBLOCK
 62
     9
 10
4020.0
 20
172229.211687
 30
0.0
 11
4020.0
 21
172222.54502
 31
0.0
 12
4000.0
 22
172225.878354
 32
0.0
 13
4000.0
 23
172225.878354
 33
0.0
  0
SOLID
  5
98
  8
0
  6
BYBLOCK
 62
     9
 10
4060.0
 20
172229.211687
 30
0.0
 11
4060.0
 21
172222.54502
 31
0.0
 12
4080.0
 22
172225.878354
 32
0.0
 13
4080.0
 23
172225.878354
 33
0.0
  0
POINT
  5
99
  8
DEFPOINTS
  6
BYBLOCK
 62
     0
 10
4000.0
 20
172365.980383
 30
0.0
  0
POINT
  5
9A
  8
DEFPOINTS
  6
BYBLOCK
 62
     0
 10
4080.0
 20
172400.0
 30
0.0
  0
POINT
  5
9B
  8
DEFPOINTS
  6
BYBLOCK
 62
     0
 10
4080.0
 20
172225.878354
 30
0.0
  0
ENDBLK
  5
9D
  8
0
  0
BLOCK
  8
0
  2
*D9
 70
     1
 10
0.0
 20
0.0
 30
0.0
  3
*D9
  1

  0
LINE
  5
84
  8
0
  6
BYBLOCK
 62
     9
 10
4076.5
 20
173090.0
 30
0.0
 11
4076.5
 21
172985.635644
 31
0.0
  0
LINE
  5
85
  8
0
  6
BYBLOCK
 62
     9
 10
3923.5
 20
173090.0
 30
0.0
 11
3923.5
 21
172985.635644
 31
0.0
  0
LINE
  5
86
  8
0
  6
BYBLOCK
 62
     9
 10
4056.5
 20
172986.635644
 30
0.0
 11
4047.833333
 21
172986.635644
 31
0.0
  0
LINE
  5
87
  8
0
  6
BYBLOCK
 62
     9
 10
3943.5
 20
172986.635644
 30
0.0
 11
3952.166667
 21
172986.635644
 31
0.0
  0
TEXT
  5
88
  8
0
  6
BYBLOCK
 62
    11
 10
3959.166667
 20
172969.135644
 30
0.0
 40
35.0
  1
153
  0
SOLID
  5
89
  8
0
  6
BYBLOCK
 62
     9
 10
4056.5
 20
172989.968977
 30
0.0
 11
4056.5
 21
172983.302311
 31
0.0
 12
4076.5
 22
172986.635644
 32
0.0
 13
4076.5
 23
172986.635644
 33
0.0
  0
SOLID
  5
8A
  8
0
  6
BYBLOCK
 62
     9
 10
3943.5
 20
172989.968977
 30
0.0
 11
3943.5
 21
172983.302311
 31
0.0
 12
3923.5
 22
172986.635644
 32
0.0
 13
3923.5
 23
172986.635644
 33
0.0
  0
POINT
  5
8B
  8
DEFPOINTS
  6
BYBLOCK
 62
     0
 10
4076.5
 20
173100.0
 30
0.0
  0
POINT
  5
8C
  8
DEFPOINTS
  6
BYBLOCK
 62
     0
 10
3923.5
 20
173100.0
 30
0.0
  0
POINT
  5
8D
  8
DEFPOINTS
  6
BYBLOCK
 62
     0
 10
3923.5
 20
172986.635644
 30
0.0
  0
ENDBLK
  5
8F
  8
0
  0
BLOCK
  8
0
  2
*D10
 70
     1
 10
0.0
 20
0.0
 30
0.0
  3
*D10
  1

  0
LINE
  5
76
  8
0
  6
BYBLOCK
 62
     9
 10
4010.0
 20
172560.0
 30
0.0
 11
4319.444548
 21
172560.0
 31
0.0
  0
LINE
  5
77
  8
0
  6
BYBLOCK
 62
     9
 10
4245.0
 20
172800.0
 30
0.0
 11
4319.444548
 21
172800.0
 31
0.0
  0
LINE
  5
78
  8
0
  6
BYBLOCK
 62
     9
 10
4318.444548
 20
172580.0
 30
0.0
 11
4318.444548
 21
172629.25
 31
0.0
  0
LINE
  5
79
  8
0
  6
BYBLOCK
 62
     9
 10
4318.444548
 20
172780.0
 30
0.0
 11
4318.444548
 21
172730.75
 31
0.0
  0
SOLID
  5
7A
  8
0
  6
BYBLOCK
 62
     9
 10
4315.111215
 20
172580.0
 30
0.0
 11
4321.777881
 21
172580.0
 31
0.0
 12
4318.444548
 22
172560.0
 32
0.0
 13
4318.444548
 23
172560.0
 33
0.0
  0
SOLID
  5
7B
  8
0
  6
BYBLOCK
 62
     9
 10
4315.111215
 20
172780.0
 30
0.0
 11
4321.777881
 21
172780.0
 31
0.0
 12
4318.444548
 22
172800.0
 32
0.0
 13
4318.444548
 23
172800.0
 33
0.0
  0
TEXT
  5
7C
  8
0
  6
BYBLOCK
 62
    11
 10
4335.944548
 20
172636.25
 30
0.0
 40
35.0
  1
240
 50
90.0
  0
POINT
  5
7D
  8
DEFPOINTS
  6
BYBLOCK
 62
     0
 10
4000.0
 20
172560.0
 30
0.0
  0
POINT
  5
7E
  8
DEFPOINTS
  6
BYBLOCK
 62
     0
 10
4235.0
 20
172800.0
 30
0.0
  0
POINT
  5
7F
  8
DEFPOINTS
  6
BYBLOCK
 62
     0
 10
4318.444548
 20
172800.0
 30
0.0
  0
ENDBLK
  5
81
  8
0
  0
BLOCK
  8
0
  2
*D11
 70
     1
 10
0.0
 20
0.0
 30
0.0
  3
*D11
  1

  0
LINE
  5
68
  8
0
  6
BYBLOCK
 62
     9
 10
4227.5
 20
172753.8
 30
0.0
 11
4276.485626
 21
172753.8
 31
0.0
  0
LINE
  5
69
  8
0
  6
BYBLOCK
 62
     9
 10
4227.5
 20
172614.8
 30
0.0
 11
4276.485626
 21
172614.8
 31
0.0
  0
LINE
  5
6A
  8
0
  6
BYBLOCK
 62
     9
 10
4275.485626
 20
172733.8
 30
0.0
 11
4275.485626
 21
172726.8
 31
0.0
  0
LINE
  5
6B
  8
0
  6
BYBLOCK
 62
     9
 10
4275.485626
 20
172634.8
 30
0.0
 11
4275.485626
 21
172641.8
 31
0.0
  0
TEXT
  5
6C
  8
0
  6
BYBLOCK
 62
    11
 10
4292.985626
 20
172643.466667
 30
0.0
 40
35.0
  1
139
 50
90.0
  0
SOLID
  5
6D
  8
0
  6
BYBLOCK
 62
     9
 10
4272.152293
 20
172733.8
 30
0.0
 11
4278.81896
 21
172733.8
 31
0.0
 12
4275.485626
 22
172753.8
 32
0.0
 13
4275.485626
 23
172753.8
 33
0.0
  0
SOLID
  5
6E
  8
0
  6
BYBLOCK
 62
     9
 10
4272.152293
 20
172634.8
 30
0.0
 11
4278.81896
 21
172634.8
 31
0.0
 12
4275.485626
 22
172614.8
 32
0.0
 13
4275.485626
 23
172614.8
 33
0.0
  0
POINT
  5
6F
  8
DEFPOINTS
  6
BYBLOCK
 62
     0
 10
4217.5
 20
172753.8
 30
0.0
  0
POINT
  5
70
  8
DEFPOINTS
  6
BYBLOCK
 62
     0
 10
4217.5
 20
172614.8
 30
0.0
  0
POINT
  5
71
  8
DEFPOINTS
  6
BYBLOCK
 62
     0
 10
4275.485626
 20
172614.8
 30
0.0
  0
ENDBLK
  5
73
  8
0
  0
ENDSEC
  0
SECTION
  2
ENTITIES
  0
DIMENSION
  5
20
  8
TEAM-MAS
  2
*D7
 10
211.5
 20
844.376342
 30
0.0
 11
0.0
 21
844.376342
 31
0.0
 12
-4000.0
 22
-172000.0
 32
0.0
  1
423/405
 13
-211.5
 23
759.8
 33
0.0
 14
211.5
 24
759.8
 34
0.0
1001
ACAD
1000
DSTYLE
1002
{
1070
    40
1040
1.0
1002
}
  0
DIMENSION
  5
2F
  8
TEAM-MAS
  2
*D6
 10
-235.0
 20
889.544655
 30
0.0
 11
0.0
 21
889.544655
 31
0.0
 12
-4000.0
 22
-172000.0
 32
0.0
 13
235.0
 23
768.8
 33
0.0
 14
-235.0
 24
768.8
 34
0.0
  0
LINE
  5
3D
  8
TEAM-AXE
 10
-96.5
 20
1099.97844
 30
0.0
 11
-56.5
 21
1099.97844
 31
0.0
  0
CIRCLE
  5
40
  8
TEAM-WARM
 10
-76.5
 20
1099.97844
 30
0.0
 40
15.0
  0
LINE
  5
42
  8
TEAM-BODY
 10
-38.895976
 20
560.098747
 30
0.0
 11
-129.840781
 21
567.830138
 31
0.0
  0
ARC
  5
44
  8
TEAM-KAN
 10
-40.0
 20
365.980383
 30
0.0
 40
40.0
 50
180.0
 51
0.0
  0
LINE
  5
46
  8
TEAM-AXE
 10
-50.0
 20
400.0
 30
0.0
 11
-110.0
 21
400.0
 31
0.0
  0
CIRCLE
  5
47
  8
TEAM-KAN
 10
-80.0
 20
400.0
 30
0.0
 40
20.0
  0
LINE
  5
48
  8
TEAM-DET1
 10
135.5
 20
703.82187
 30
0.0
 11
-135.5
 21
703.82187
 31
0.0
  0
LINE
  5
4A
  8
TEAM-DET1
 10
135.5
 20
718.52187
 30
0.0
 11
-135.5
 21
718.52187
 31
0.0
  0
LINE
  5
4B
  8
TEAM-DET1
 10
135.5
 20
616.683128
 30
0.0
 11
-135.5
 21
616.683128
 31
0.0
  0
LINE
  5
4C
  8
TEAM-DET1
 10
135.5
 20
645.183128
 30
0.0
 11
-135.5
 21
645.183128
 31
0.0
  0
LINE
  5
4D
  8
TEAM-DET1
 10
135.5
 20
674.433128
 30
0.0
 11
-135.5
 21
674.433128
 31
0.0
  0
LINE
  5
4E
  8
TEAM-DET1
 10
135.5
 20
689.133128
 30
0.0
 11
-135.5
 21
689.133128
 31
0.0
  0
LINE
  5
4F
  8
TEAM-DET1
 10
135.5
 20
659.733128
 30
0.0
 11
-135.5
 21
659.733128
 31
0.0
  0
LINE
  5
50
  8
TEAM-DET1
 10
135.5
 20
630.483128
 30
0.0
 11
-135.5
 21
630.483128
 31
0.0
  0
LINE
  5
51
  8
TEAM-DET1
 10
135.5
 20
601.983128
 30
0.0
 11
-135.5
 21
601.983128
 31
0.0
  0
LINE
  5
52
  8
TEAM-BODY
 10
-235.0
 20
768.8
 30
0.0
 11
235.0
 21
768.8
 31
0.0
  0
LINE
  5
53
  8
TEAM-BODY
 10
-235.0
 20
815.0
 30
0.0
 11
235.0
 21
815.0
 31
0.0
  0
LINE
  5
54
  8
TEAM-BODY
 10
-235.0
 20
800.0
 30
0.0
 11
235.0
 21
800.0
 31
0.0
  0
CIRCLE
  5
55
  8
TEAM-HIDE
 10
-211.5
 20
614.8
 30
0.0
 40
5.0
  0
LINE
  5
58
  8
TEAM-AXE
 10
-211.5
 20
620.8
 30
0.0
 11
-211.5
 21
608.8
 31
0.0
  0
LINE
  5
59
  8
TEAM-AXE
 10
-217.5
 20
614.8
 30
0.0
 11
-205.5
 21
614.8
 31
0.0
  0
LINE
  5
5A
  8
TEAM-AXE
 10
-217.5
 20
753.8
 30
0.0
 11
-205.5
 21
753.8
 31
0.0
  0
LINE
  5
5B
  8
TEAM-AXE
 10
-211.5
 20
759.8
 30
0.0
 11
-211.5
 21
747.8
 31
0.0
  0
CIRCLE
  5
5C
  8
TEAM-HIDE
 10
-211.5
 20
753.8
 30
0.0
 40
5.0
  0
LINE
  5
5D
  8
TEAM-BODY
 10
-198.805348
 20
598.8
 30
0.0
 11
-228.805348
 21
598.8
 31
0.0
  0
LINE
  5
5E
  8
TEAM-BODY
 10
-228.805348
 20
768.8
 30
0.0
 11
-228.805348
 21
598.8
 31
0.0
  0
LINE
  5
5F
  8
TEAM-BODY
 10
-191.890272
 20
768.8
 30
0.0
 11
-198.805348
 21
598.8
 31
0.0
  0
LINE
  5
60
  8
TEAM-BODY
 10
-191.890272
 20
768.8
 30
0.0
 11
-177.049911
 21
613.404674
 31
0.0
  0
ARC
  5
61
  8
TEAM-BODY
 10
-127.240176
 20
617.762461
 30
0.0
 40
50.0
 50
185.0
 51
267.018581
  0
LINE
  5
62
  8
TEAM-AXE
 10
-80.0
 20
370.0
 30
0.0
 11
-80.0
 21
430.0
 31
0.0
  0
LINE
  5
63
  8
TEAM-KAN
 10
-80.0
 20
370.0
 30
0.0
 11
-80.0
 21
365.980383
 31
0.0
  0
LINE
  5
64
  8
TEAM-DET1
 10
-135.5
 20
601.983128
 30
0.0
 11
-135.5
 21
718.52187
 31
0.0
  0
LINE
  5
65
  8
TEAM-BODY
 10
-235.0
 20
815.0
 30
0.0
 11
-235.0
 21
768.8
 31
0.0
  0
DIMENSION
  5
66
  8
TEAM-MAS
  2
*D11
 10
275.485626
 20
614.8
 30
0.0
 11
275.485626
 21
684.3
 31
0.0
 12
-4000.0
 22
-172000.0
 32
0.0
 70
   128
 13
217.5
 23
753.8
 33
0.0
 14
217.5
 24
614.8
 34
0.0
 50
270.0
1001
ACAD
1000
DSTYLE
1002
{
1070
    40
1040
1.0
1002
}
  0
DIMENSION
  5
74
  8
TEAM-MAS
  2
*D10
 10
318.444548
 20
800.0
 30
0.0
 11
318.444548
 21
680.0
 31
0.0
 12
-4000.0
 22
-172000.0
 32
0.0
 13
0.0
 23
560.0
 33
0.0
 14
235.0
 24
800.0
 34
0.0
 50
90.0
  0
DIMENSION
  5
82
  8
TEAM-MAS
  2
*D9
 10
-76.5
 20
986.635644
 30
0.0
 11
0.0
 21
986.635644
 31
0.0
 12
-4000.0
 22
-172000.0
 32
0.0
 70
   128
 13
76.5
 23
1100.0
 33
0.0
 14
-76.5
 24
1100.0
 34
0.0
  0
DIMENSION
  5
90
  8
079300000000
  2
*D8
 10
80.0
 20
225.878354
 30
0.0
 11
40.0
 21
255.268197
 31
0.0
 12
-4000.0
 22
-172000.0
 32
0.0
 70
   128
 13
0.0
 23
365.980383
 33
0.0
 14
80.0
 24
400.0
 34
0.0
  0
DIMENSION
  5
9E
  8
TEAM-MAS
  2
*D5
 10
493.820915
 20
1100.0
 30
0.0
 11
493.820915
 21
550.0
 31
0.0
 12
-4000.0
 22
-172000.0
 32
0.0
  1
1100-1250
 13
0.0
 23
0.0
 33
0.0
 14
76.5
 24
1100.0
 34
0.0
 50
90.0
  0
DIMENSION
  5
AC
  8
TEAM-MAS
  2
*D4
 10
406.133436
 20
800.0
 30
0.0
 11
406.133436
 21
400.0
 31
0.0
 12
-4000.0
 22
-172000.0
 32
0.0
  1
700-850
 13
0.0
 23
0.0
 33
0.0
 14
235.0
 24
800.0
 34
0.0
 50
90.0
  0
DIMENSION
  5
BA
  8
TEAM-MAS
  2
*D3
 10
360.493461
 20
800.0
 30
0.0
 11
360.493461
 21
400.0
 31
0.0
 12
-4000.0
 22
-172000.0
 32
0.0
 13
0.0
 23
0.0
 33
0.0
 14
235.0
 24
800.0
 34
0.0
 50
90.0
  0
DIMENSION
  5
C8
  8
TEAM-MAS
  2
*D2
 10
449.977176
 20
1100.0
 30
0.0
 11
449.977176
 21
550.0
 31
0.0
 12
-4000.0
 22
-172000.0
 32
0.0
 13
0.0
 23
0.0
 33
0.0
 14
76.5
 24
1100.0
 34
0.0
 50
90.0
  0
DIMENSION
  5
D6
  8
TEAM-MAS
  2
*D1
 10
276.394226
 20
400.0
 30
0.0
 11
276.394226
 21
200.0
 31
0.0
 12
-4000.0
 22
-172000.0
 32
0.0
 13
0.0
 23
0.0
 33
0.0
 14
80.0
 24
400.0
 34
0.0
 50
90.0
  0
DIMENSION
  5
E4
  8
TEAM-MAS
  2
*D0
 10
318.444548
 20
400.0
 30
0.0
 11
318.444548
 21
200.0
 31
0.0
 12
-4000.0
 22
-172000.0
 32
0.0
  1
300-450
 13
0.0
 23
0.0
 33
0.0
 14
80.0
 24
400.0
 34
0.0
 50
90.0
  0
LINE
  5
F2
  8
TEAM-AXE
 10
76.5
 20
1119.97844
 30
0.0
 11
76.5
 21
1079.97844
 31
0.0
  0
LINE
  5
F3
  8
TEAM-AXE
 10
56.5
 20
1099.97844
 30
0.0
 11
96.5
 21
1099.97844
 31
0.0
  0
CIRCLE
  5
F4
  8
TEAM-COLD
 10
76.5
 20
1099.97844
 30
0.0
 40
15.0
  0
LINE
  5
F6
  8
TEAM-AXE
 10
-76.5
 20
1119.97844
 30
0.0
 11
-76.5
 21
1079.97844
 31
0.0
  0
CIRCLE
  5
F7
  8
TEAM-HIDE
 10
211.5
 20
614.8
 30
0.0
 40
5.0
  0
LINE
  5
F8
  8
TEAM-AXE
 10
211.5
 20
620.8
 30
0.0
 11
211.5
 21
608.8
 31
0.0
  0
LINE
  5
F9
  8
TEAM-AXE
 10
205.5
 20
614.8
 30
0.0
 11
217.5
 21
614.8
 31
0.0
  0
CIRCLE
  5
FA
  8
TEAM-HIDE
 10
211.5
 20
753.8
 30
0.0
 40
5.0
  0
LINE
  5
FB
  8
TEAM-AXE
 10
211.5
 20
759.8
 30
0.0
 11
211.5
 21
747.8
 31
0.0
  0
LINE
  5
FC
  8
TEAM-AXE
 10
205.5
 20
753.8
 30
0.0
 11
217.5
 21
753.8
 31
0.0
  0
LINE
  5
FD
  8
TEAM-BODY
 10
198.805348
 20
598.8
 30
0.0
 11
228.805348
 21
598.8
 31
0.0
  0
LINE
  5
FE
  8
TEAM-BODY
 10
228.805348
 20
768.8
 30
0.0
 11
228.805348
 21
598.8
 31
0.0
  0
LINE
  5
FF
  8
TEAM-BODY
 10
191.890273
 20
768.8
 30
0.0
 11
198.805348
 21
598.8
 31
0.0
  0
LINE
  5
100
  8
TEAM-BODY
 10
191.890273
 20
768.8
 30
0.0
 11
177.05427
 21
613.455085
 31
0.0
  0
LINE
  5
101
  8
TEAM-BODY
 10
38.895976
 20
560.098747
 30
0.0
 11
129.840755
 21
567.830137
 31
0.0
  0
ARC
  5
102
  8
TEAM-BODY
 10
127.24015
 20
617.762459
 30
0.0
 40
50.0
 50
272.981419
 51
355.057986
  0
LINE
  5
103
  8
TEAM-BODY
 10
35.0
 20
485.0
 30
0.0
 11
35.0
 21
555.0
 31
0.0
  0
LINE
  5
104
  8
TEAM-AXE
 10
80.0
 20
370.0
 30
0.0
 11
80.0
 21
430.0
 31
0.0
  0
LINE
  5
105
  8
TEAM-HIDE
 10
80.0
 20
370.0
 30
0.0
 11
80.0
 21
365.980383
 31
0.0
  0
CIRCLE
  5
106
  8
TEAM-HIDE
 10
80.0
 20
400.0
 30
0.0
 40
20.0
  0
LINE
  5
107
  8
TEAM-AXE
 10
110.0
 20
400.0
 30
0.0
 11
50.0
 21
400.0
 31
0.0
  0
LINE
  5
108
  8
TEAM-BODY
 10
37.0
 20
557.0
 30
0.0
 11
37.0
 21
558.101454
 31
0.0
  0
ARC
  5
109
  8
TEAM-BODY
 10
35.0
 20
557.0
 30
0.0
 40
2.0
 50
270.0
 51
0.0
  0
ARC
  5
10A
  8
TEAM-BODY
 10
39.0
 20
558.101454
 30
0.0
 40
2.0
 50
92.981419
 51
180.0
  0
LINE
  5
10B
  8
TEAM-DET1
 10
135.5
 20
601.983128
 30
0.0
 11
135.5
 21
718.52187
 31
0.0
  0
LINE
  5
10C
  8
TEAM-BODY
 10
235.0
 20
815.0
 30
0.0
 11
235.0
 21
768.8
 31
0.0
  0
LINE
  5
10D
  8
TEAM-BODY
 10
-35.0
 20
485.0
 30
0.0
 11
-35.0
 21
555.0
 31
0.0
  0
LINE
  5
10E
  8
TEAM-BODY
 10
-37.0
 20
557.0
 30
0.0
 11
-37.0
 21
558.101454
 31
0.0
  0
ARC
  5
10F
  8
TEAM-BODY
 10
-39.0
 20
558.101454
 30
0.0
 40
2.0
 50
0.0
 51
87.018581
  0
ARC
  5
110
  8
TEAM-BODY
 10
-35.0
 20
557.0
 30
0.0
 40
2.0
 50
180.0
 51
270.0
  0
LINE
  5
111
  8
TEAM-KAN
 10
0.0
 20
555.0
 30
0.0
 11
0.0
 21
365.980383
 31
0.0
  0
TEXT
  5
112
  8
TEAM-TXT
 10
-67.846762
 20
729.505415
 30
0.0
 40
30.0
  1
team 433011
 41
0.8
 51
15.0
  7
TEAM
  0
ARC
  5
115
  8
TEAM-HIDE
 10
40.0
 20
365.980383
 30
0.0
 40
40.0
 50
180.0
 51
0.0
  0
LINE
  5
116
  8
TEAM-BODY
 10
-38.371092
 20
560.0
 30
0.0
 11
38.371092
 21
560.0
 31
0.0
  0
LINE
  5
117
  8
TEAM-BODY
 10
-35.0
 20
555.0
 30
0.0
 11
35.0
 21
555.0
 31
0.0
  0
LINE
  5
118
  8
TEAM-BODY
 10
-35.0
 20
485.0
 30
0.0
 11
35.0
 21
485.0
 31
0.0
  0
CIRCLE
  5
119
  8
TEAM-INSP
 10
0.0
 20
0.0
 30
0.0
 40
10.0
  0
ENDSEC
  0
EOF
