  0
SECTION
  2
HEADER
  9
$ACADVER
  1
AC1009
  9
$INSBASE
 10
0.0
 20
0.0
 30
0.0
  9
$EXTMIN
 10
-280.029298
 20
-10.061346
 30
0.0
  9
$EXTMAX
 10
494.66836
 20
1130.019789
 30
0.000005
  9
$LIMMIN
 10
-280.029298
 20
-10.061346
  9
$LIMMAX
 10
494.66836
 20
1130.019789
  9
$ORTHOMODE
 70
     1
  9
$REGENMODE
 70
     1
  9
$FILLMODE
 70
     1
  9
$QTEXTMODE
 70
     0
  9
$MIRRTEXT
 70
     0
  9
$DRAGMODE
 70
     2
  9
$LTSCALE
 40
50.0
  9
$OSMODE
 70
     0
  9
$ATTMODE
 70
     1
  9
$TEXTSIZE
 40
200.0
  9
$TRACEWID
 40
1.0
  9
$TEXTSTYLE
  7
STANDARD
  9
$CLAYER
  8
TEAM-MAS
  9
$CELTYPE
  6
BYLAYER
  9
$CECOLOR
 62
   256
  9
$DIMSCALE
 40
0.0
  9
$DIMASZ
 40
20.0
  9
$DIMEXO
 40
10.0
  9
$DIMDLI
 40
1.0
  9
$DIMRND
 40
0.0
  9
$DIMDLE
 40
0.0
  9
$DIMEXE
 40
1.0
  9
$DIMTP
 40
0.0
  9
$DIMTM
 40
0.0
  9
$DIMTXT
 40
35.0
  9
$DIMCEN
 40
1.0
  9
$DIMTSZ
 40
0.0
  9
$DIMTOL
 70
     0
  9
$DIMLIM
 70
     0
  9
$DIMTIH
 70
     0
  9
$DIMTOH
 70
     0
  9
$DIMSE1
 70
     0
  9
$DIMSE2
 70
     0
  9
$DIMTAD
 70
     0
  9
$DIMZIN
 70
     0
  9
$DIMBLK
  1

  9
$DIMASO
 70
     1
  9
$DIMSHO
 70
     0
  9
$DIMPOST
  1

  9
$DIMAPOST
  1

  9
$DIMALT
 70
     0
  9
$DIMALTD
 70
     2
  9
$DIMALTF
 40
25.4
  9
$DIMLFAC
 40
1.0
  9
$DIMTOFL
 70
     0
  9
$DIMTVP
 40
0.0
  9
$DIMTIX
 70
     0
  9
$DIMSOXD
 70
     0
  9
$DIMSAH
 70
     0
  9
$DIMBLK1
  1

  9
$DIMBLK2
  1

  9
$DIMSTYLE
  2
TEAM
  9
$DIMCLRD
 70
     9
  9
$DIMCLRE
 70
     9
  9
$DIMCLRT
 70
    11
  9
$DIMTFAC
 40
1.0
  9
$DIMGAP
 40
7.0
  9
$LUNITS
 70
     2
  9
$LUPREC
 70
     1
  9
$SKETCHINC
 40
1.0
  9
$FILLETRAD
 40
50.0
  9
$AUNITS
 70
     0
  9
$AUPREC
 70
     0
  9
$MENU
  1
ROPLANS
  9
$ELEVATION
 40
0.0
  9
$PELEVATION
 40
0.0
  9
$THICKNESS
 40
0.0
  9
$LIMCHECK
 70
     0
  9
$BLIPMODE
 70
     1
  9
$CHAMFERA
 40
0.0
  9
$CHAMFERB
 40
0.0
  9
$SKPOLY
 70
     0
  9
$TDCREATE
 40
2450392.957851
  9
$TDUPDATE
 40
2456272.033233
  9
$TDINDWG
 40
2.315654
  9
$TDUSRTIMER
 40
2.315654
  9
$USRTIMER
 70
     1
  9
$ANGBASE
 50
0.0
  9
$ANGDIR
 70
     0
  9
$PDMODE
 70
     0
  9
$PDSIZE
 40
0.0
  9
$PLINEWID
 40
0.0
  9
$COORDS
 70
     2
  9
$SPLFRAME
 70
     0
  9
$SPLINETYPE
 70
     6
  9
$SPLINESEGS
 70
     8
  9
$ATTDIA
 70
     0
  9
$ATTREQ
 70
     0
  9
$HANDLING
 70
     1
  9
$HANDSEED
  5
111
  9
$SURFTAB1
 70
    24
  9
$SURFTAB2
 70
    24
  9
$SURFTYPE
 70
     6
  9
$SURFU
 70
     6
  9
$SURFV
 70
     6
  9
$UCSNAME
  2

  9
$UCSORG
 10
0.0
 20
0.0
 30
0.0
  9
$UCSXDIR
 10
1.0
 20
0.0
 30
0.0
  9
$UCSYDIR
 10
0.0
 20
1.0
 30
0.0
  9
$PUCSNAME
  2

  9
$PUCSORG
 10
0.0
 20
0.0
 30
0.0
  9
$PUCSXDIR
 10
1.0
 20
0.0
 30
0.0
  9
$PUCSYDIR
 10
0.0
 20
1.0
 30
0.0
  9
$USERI1
 70
     0
  9
$USERI2
 70
     0
  9
$USERI3
 70
     0
  9
$USERI4
 70
     0
  9
$USERI5
 70
     0
  9
$USERR1
 40
0.0
  9
$USERR2
 40
0.0
  9
$USERR3
 40
0.0
  9
$USERR4
 40
0.0
  9
$USERR5
 40
0.0
  9
$WORLDVIEW
 70
     1
  9
$SHADEDGE
 70
     0
  9
$SHADEDIF
 70
    70
  9
$TILEMODE
 70
     1
  9
$MAXACTVP
 70
    16
  9
$PLIMCHECK
 70
     0
  9
$PEXTMIN
 10
-0.805942
 20
0.005011
 30
0.0
  9
$PEXTMAX
 10
20.250094
 20
11.356329
 30
0.0
  9
$PLIMMIN
 10
0.0
 20
0.0
  9
$PLIMMAX
 10
12.0
 20
9.0
  9
$UNITMODE
 70
     0
  9
$VISRETAIN
 70
     0
  9
$PLINEGEN
 70
     0
  9
$PSLTSCALE
 70
     0
  0
ENDSEC
  0
SECTION
  2
TABLES
  0
TABLE
  2
VPORT
 70
     2
  0
VPORT
  2
*ACTIVE
 70
     0
 10
0.0
 20
0.0
 11
1.0
 21
1.0
 12
107.319531
 22
559.979221
 13
0.0
 23
0.0
 14
1.0
 24
1.0
 15
50.0
 25
50.0
 16
0.0
 26
0.0
 36
1.0
 17
0.0
 27
0.0
 37
0.0
 40
1147.258981
 41
1.911765
 42
50.0
 43
0.0
 44
0.0
 50
0.0
 51
0.0
 71
     0
 72
   100
 73
     1
 74
     1
 75
     0
 76
     0
 77
     0
 78
     0
  0
ENDTAB
  0
TABLE
  2
LTYPE
 70
     2
  0
LTYPE
  2
CONTINUOUS
 70
     0
  3
Solid Line
 72
    65
 73
     0
 40
0.0
  0
LTYPE
  2
31
 70
     0
  3

 72
    65
 73
     4
 40
2.1
 49
1.5
 49
-0.3
 49
0.0
 49
-0.3
  0
ENDTAB
  0
TABLE
  2
LAYER
 70
    10
  0
LAYER
  2
0
 70
     0
 62
     7
  6
CONTINUOUS
  0
LAYER
  2
DEFPOINTS
 70
     0
 62
     7
  6
CONTINUOUS
  0
LAYER
  2
TEAM-BODY
 70
     0
 62
     2
  6
CONTINUOUS
  0
LAYER
  2
TEAM-AXE
 70
     0
 62
    10
  6
31
  0
LAYER
  2
TEAM-MAS
 70
     0
 62
     9
  6
CONTINUOUS
  0
LAYER
  2
TEAM-TXT
 70
     0
 62
    11
  6
CONTINUOUS
  0
LAYER
  2
TEAM-COLD
 70
     0
 62
     3
  6
CONTINUOUS
  0
LAYER
  2
TEAM-KAN
 70
     0
 62
     6
  6
CONTINUOUS
  0
LAYER
  2
TEAM-WARM
 70
     0
 62
     1
  6
CONTINUOUS
  0
LAYER
  2
TEAM-INSP
 70
     0
 62
     5
  6
CONTINUOUS
  0
ENDTAB
  0
TABLE
  2
STYLE
 70
     2
  0
STYLE
  2
STANDARD
 70
     0
 40
0.0
 41
1.0
 50
0.0
 71
     0
 42
200.0
  3
txt
  4

  0
STYLE
  2
TEAM
 70
     0
 40
0.0
 41
0.8
 50
15.0
 71
     0
 42
7.0
  3
ROMANS.shx
  4

  0
ENDTAB
  0
TABLE
  2
VIEW
 70
     0
  0
ENDTAB
  0
TABLE
  2
UCS
 70
     0
  0
ENDTAB
  0
TABLE
  2
APPID
 70
     1
  0
APPID
  2
ACAD
 70
     0
  0
ENDTAB
  0
TABLE
  2
DIMSTYLE
 70
     1
  0
DIMSTYLE
  2
TEAM
 70
     0
  3

  4

  5

  6

  7

 40
0.0
 41
20.0
 42
10.0
 43
1.0
 44
1.0
 45
0.0
 46
0.0
 47
0.0
 48
0.0
140
35.0
141
1.0
142
0.0
143
25.4
144
1.0
145
0.0
146
1.0
147
7.0
 71
     0
 72
     0
 73
     0
 74
     0
 75
     0
 76
     0
 77
     0
 78
     0
170
     0
171
     2
172
     0
173
     0
174
     0
175
     0
176
     9
177
     9
178
    11
  0
ENDTAB
  0
ENDSEC
  0
SECTION
  2
BLOCKS
  0
BLOCK
  8
0
  2
$MODEL_SPACE
 70
     0
 10
0.0
 20
0.0
 30
0.0
  3
$MODEL_SPACE
  1

  0
ENDBLK
  5
10A
  8
0
  0
BLOCK
 67
     1
  8
0
  2
$PAPER_SPACE
 70
     0
 10
0.0
 20
0.0
 30
0.0
  3
$PAPER_SPACE
  1

  0
ENDBLK
  5
108
 67
     1
  8
0
  0
BLOCK
  8
0
  2
*D0
 70
     1
 10
0.0
 20
0.0
 30
0.0
  3
*D0
  1

  0
LINE
  5
B0
  8
0
  6
BYBLOCK
 62
     9
 10
4010.0
 20
180620.0
 30
0.0
 11
4305.099752
 21
180620.0
 31
0.0
  0
LINE
  5
B1
  8
0
  6
BYBLOCK
 62
     9
 10
4290.0
 20
180850.0
 30
0.0
 11
4305.099752
 21
180850.0
 31
0.0
  0
LINE
  5
B2
  8
0
  6
BYBLOCK
 62
     9
 10
4304.099752
 20
180640.0
 30
0.0
 11
4304.099752
 21
180684.25
 31
0.0
  0
LINE
  5
B3
  8
0
  6
BYBLOCK
 62
     9
 10
4304.099752
 20
180830.0
 30
0.0
 11
4304.099752
 21
180785.75
 31
0.0
  0
SOLID
  5
B4
  8
0
  6
BYBLOCK
 62
     9
 10
4300.766419
 20
180640.0
 30
0.0
 11
4307.433085
 21
180640.0
 31
0.0
 12
4304.099752
 22
180620.0
 32
0.0
 13
4304.099752
 23
180620.0
 33
0.0
  0
SOLID
  5
B5
  8
0
  6
BYBLOCK
 62
     9
 10
4300.766419
 20
180830.0
 30
0.0
 11
4307.433085
 21
180830.0
 31
0.0
 12
4304.099752
 22
180850.0
 32
0.0
 13
4304.099752
 23
180850.0
 33
0.0
  0
TEXT
  5
B6
  8
0
  6
BYBLOCK
 62
    11
 10
4321.599752
 20
180691.25
 30
0.0
 40
35.0
  1
230
 50
90.0
  0
POINT
  5
B7
  8
DEFPOINTS
  6
BYBLOCK
 62
     0
 10
4000.0
 20
180620.0
 30
0.0
  0
POINT
  5
B8
  8
DEFPOINTS
  6
BYBLOCK
 62
     0
 10
4280.0
 20
180850.0
 30
0.0
  0
POINT
  5
B9
  8
DEFPOINTS
  6
BYBLOCK
 62
     0
 10
4304.099752
 20
180850.0
 30
0.0
  0
ENDBLK
  5
BB
  8
0
  0
BLOCK
  8
0
  2
*D1
 70
     1
 10
0.0
 20
0.0
 30
0.0
  3
*D1
  1

  0
LINE
  5
A2
  8
0
  6
BYBLOCK
 62
     9
 10
4290.0
 20
180850.0
 30
0.0
 11
4348.702672
 21
180850.0
 31
0.0
  0
LINE
  5
A3
  8
0
  6
BYBLOCK
 62
     9
 10
4100.0
 20
180550.0
 30
0.0
 11
4348.702672
 21
180550.0
 31
0.0
  0
LINE
  5
A4
  8
0
  6
BYBLOCK
 62
     9
 10
4347.702672
 20
180830.0
 30
0.0
 11
4347.702672
 21
180747.833333
 31
0.0
  0
LINE
  5
A5
  8
0
  6
BYBLOCK
 62
     9
 10
4347.702672
 20
180570.0
 30
0.0
 11
4347.702672
 21
180652.166667
 31
0.0
  0
SOLID
  5
A6
  8
0
  6
BYBLOCK
 62
     9
 10
4344.369338
 20
180830.0
 30
0.0
 11
4351.036005
 21
180830.0
 31
0.0
 12
4347.702672
 22
180850.0
 32
0.0
 13
4347.702672
 23
180850.0
 33
0.0
  0
SOLID
  5
A7
  8
0
  6
BYBLOCK
 62
     9
 10
4344.369338
 20
180570.0
 30
0.0
 11
4351.036005
 21
180570.0
 31
0.0
 12
4347.702672
 22
180550.0
 32
0.0
 13
4347.702672
 23
180550.0
 33
0.0
  0
TEXT
  5
A8
  8
0
  6
BYBLOCK
 62
    11
 10
4365.202672
 20
180659.166667
 30
0.0
 40
35.0
  1
300
 50
90.0
  0
POINT
  5
A9
  8
DEFPOINTS
  6
BYBLOCK
 62
     0
 10
4280.0
 20
180850.0
 30
0.0
  0
POINT
  5
AA
  8
DEFPOINTS
  6
BYBLOCK
 62
     0
 10
4090.0
 20
180550.0
 30
0.0
  0
POINT
  5
AB
  8
DEFPOINTS
  6
BYBLOCK
 62
     0
 10
4347.702672
 20
180550.0
 30
0.0
  0
ENDBLK
  5
AD
  8
0
  0
BLOCK
  8
0
  2
*D2
 70
     1
 10
0.0
 20
0.0
 30
0.0
  3
*D2
  1

  0
LINE
  5
94
  8
0
  6
BYBLOCK
 62
     9
 10
4280.0
 20
180860.0
 30
0.0
 11
4280.0
 21
180928.877577
 31
0.0
  0
LINE
  5
95
  8
0
  6
BYBLOCK
 62
     9
 10
4000.0
 20
181060.0
 30
0.0
 11
4000.0
 21
180926.877577
 31
0.0
  0
LINE
  5
96
  8
0
  6
BYBLOCK
 62
     9
 10
4260.0
 20
180927.877577
 30
0.0
 11
4190.75
 21
180927.877577
 31
0.0
  0
LINE
  5
97
  8
0
  6
BYBLOCK
 62
     9
 10
4020.0
 20
180927.877577
 30
0.0
 11
4089.25
 21
180927.877577
 31
0.0
  0
SOLID
  5
98
  8
0
  6
BYBLOCK
 62
     9
 10
4260.0
 20
180931.21091
 30
0.0
 11
4260.0
 21
180924.544244
 31
0.0
 12
4280.0
 22
180927.877577
 32
0.0
 13
4280.0
 23
180927.877577
 33
0.0
  0
SOLID
  5
99
  8
0
  6
BYBLOCK
 62
     9
 10
4020.0
 20
180931.21091
 30
0.0
 11
4020.0
 21
180924.544244
 31
0.0
 12
4000.0
 22
180927.877577
 32
0.0
 13
4000.0
 23
180927.877577
 33
0.0
  0
TEXT
  5
9A
  8
0
  6
BYBLOCK
 62
    11
 10
4096.25
 20
180910.377577
 30
0.0
 40
35.0
  1
280
  0
POINT
  5
9B
  8
DEFPOINTS
  6
BYBLOCK
 62
     0
 10
4280.0
 20
180850.0
 30
0.0
  0
POINT
  5
9C
  8
DEFPOINTS
  6
BYBLOCK
 62
     0
 10
4000.0
 20
181070.0
 30
0.0
  0
POINT
  5
9D
  8
DEFPOINTS
  6
BYBLOCK
 62
     0
 10
4000.0
 20
180927.877577
 30
0.0
  0
ENDBLK
  5
9F
  8
0
  0
BLOCK
  8
0
  2
*D3
 70
     1
 10
0.0
 20
0.0
 30
0.0
  3
*D3
  1

  0
LINE
  5
86
  8
0
  6
BYBLOCK
 62
     9
 10
4010.0
 20
180000.0
 30
0.0
 11
4347.702672
 21
180000.0
 31
0.0
  0
LINE
  5
87
  8
0
  6
BYBLOCK
 62
     9
 10
4090.0
 20
180550.0
 30
0.0
 11
4347.702672
 21
180550.0
 31
0.0
  0
LINE
  5
88
  8
0
  6
BYBLOCK
 62
     9
 10
4346.702672
 20
180020.0
 30
0.0
 11
4346.702672
 21
180224.25
 31
0.0
  0
LINE
  5
89
  8
0
  6
BYBLOCK
 62
     9
 10
4346.702672
 20
180530.0
 30
0.0
 11
4346.702672
 21
180325.75
 31
0.0
  0
SOLID
  5
8A
  8
0
  6
BYBLOCK
 62
     9
 10
4343.369338
 20
180020.0
 30
0.0
 11
4350.036005
 21
180020.0
 31
0.0
 12
4346.702672
 22
180000.0
 32
0.0
 13
4346.702672
 23
180000.0
 33
0.0
  0
SOLID
  5
8B
  8
0
  6
BYBLOCK
 62
     9
 10
4343.369338
 20
180530.0
 30
0.0
 11
4350.036005
 21
180530.0
 31
0.0
 12
4346.702672
 22
180550.0
 32
0.0
 13
4346.702672
 23
180550.0
 33
0.0
  0
TEXT
  5
8C
  8
0
  6
BYBLOCK
 62
    11
 10
4364.202672
 20
180231.25
 30
0.0
 40
35.0
  1
550
 50
90.0
  0
POINT
  5
8D
  8
DEFPOINTS
  6
BYBLOCK
 62
     0
 10
4000.0
 20
180000.0
 30
0.0
  0
POINT
  5
8E
  8
DEFPOINTS
  6
BYBLOCK
 62
     0
 10
4080.0
 20
180550.0
 30
0.0
  0
POINT
  5
8F
  8
DEFPOINTS
  6
BYBLOCK
 62
     0
 10
4346.702672
 20
180550.0
 30
0.0
  0
ENDBLK
  5
91
  8
0
  0
BLOCK
  8
0
  2
*D4
 70
     1
 10
0.0
 20
0.0
 30
0.0
  3
*D4
  1

  0
LINE
  5
78
  8
0
  6
BYBLOCK
 62
     9
 10
4010.0
 20
180000.0
 30
0.0
 11
4434.427093
 21
180000.0
 31
0.0
  0
LINE
  5
79
  8
0
  6
BYBLOCK
 62
     9
 10
4086.5
 20
181100.0
 30
0.0
 11
4434.427093
 21
181100.0
 31
0.0
  0
LINE
  5
7A
  8
0
  6
BYBLOCK
 62
     9
 10
4433.427093
 20
180020.0
 30
0.0
 11
4433.427093
 21
180496.333333
 31
0.0
  0
LINE
  5
7B
  8
0
  6
BYBLOCK
 62
     9
 10
4433.427093
 20
181080.0
 30
0.0
 11
4433.427093
 21
180603.666667
 31
0.0
  0
SOLID
  5
7C
  8
0
  6
BYBLOCK
 62
     9
 10
4430.093759
 20
180020.0
 30
0.0
 11
4436.760426
 21
180020.0
 31
0.0
 12
4433.427093
 22
180000.0
 32
0.0
 13
4433.427093
 23
180000.0
 33
0.0
  0
SOLID
  5
7D
  8
0
  6
BYBLOCK
 62
     9
 10
4430.093759
 20
181080.0
 30
0.0
 11
4436.760426
 21
181080.0
 31
0.0
 12
4433.427093
 22
181100.0
 32
0.0
 13
4433.427093
 23
181100.0
 33
0.0
  0
TEXT
  5
7E
  8
0
  6
BYBLOCK
 62
    11
 10
4450.927093
 20
180503.333333
 30
0.0
 40
35.0
  1
1100
 50
90.0
  0
POINT
  5
7F
  8
DEFPOINTS
  6
BYBLOCK
 62
     0
 10
4000.0
 20
180000.0
 30
0.0
  0
POINT
  5
80
  8
DEFPOINTS
  6
BYBLOCK
 62
     0
 10
4076.5
 20
181100.0
 30
0.0
  0
POINT
  5
81
  8
DEFPOINTS
  6
BYBLOCK
 62
     0
 10
4433.427093
 20
181100.0
 30
0.0
  0
ENDBLK
  5
83
  8
0
  0
BLOCK
  8
0
  2
*D5
 70
     1
 10
0.0
 20
0.0
 30
0.0
  3
*D5
  1

  0
LINE
  5
6A
  8
0
  6
BYBLOCK
 62
     9
 10
4010.0
 20
180000.0
 30
0.0
 11
4478.108819
 21
180000.0
 31
0.0
  0
LINE
  5
6B
  8
0
  6
BYBLOCK
 62
     9
 10
4086.5
 20
181100.0
 30
0.0
 11
4478.108819
 21
181100.0
 31
0.0
  0
LINE
  5
6C
  8
0
  6
BYBLOCK
 62
     9
 10
4477.108819
 20
180020.0
 30
0.0
 11
4477.108819
 21
180414.666667
 31
0.0
  0
LINE
  5
6D
  8
0
  6
BYBLOCK
 62
     9
 10
4477.108819
 20
181080.0
 30
0.0
 11
4477.108819
 21
180685.333333
 31
0.0
  0
SOLID
  5
6E
  8
0
  6
BYBLOCK
 62
     9
 10
4473.775485
 20
180020.0
 30
0.0
 11
4480.442152
 21
180020.0
 31
0.0
 12
4477.108819
 22
180000.0
 32
0.0
 13
4477.108819
 23
180000.0
 33
0.0
  0
SOLID
  5
6F
  8
0
  6
BYBLOCK
 62
     9
 10
4473.775485
 20
181080.0
 30
0.0
 11
4480.442152
 21
181080.0
 31
0.0
 12
4477.108819
 22
181100.0
 32
0.0
 13
4477.108819
 23
181100.0
 33
0.0
  0
TEXT
  5
70
  8
0
  6
BYBLOCK
 62
    11
 10
4494.608819
 20
180421.666667
 30
0.0
 40
35.0
  1
1050-1200
 50
90.0
  0
POINT
  5
71
  8
DEFPOINTS
  6
BYBLOCK
 62
     0
 10
4000.0
 20
180000.0
 30
0.0
  0
POINT
  5
72
  8
DEFPOINTS
  6
BYBLOCK
 62
     0
 10
4076.5
 20
181100.0
 30
0.0
  0
POINT
  5
73
  8
DEFPOINTS
  6
BYBLOCK
 62
     0
 10
4477.108819
 20
181100.0
 30
0.0
  0
ENDBLK
  5
75
  8
0
  0
BLOCK
  8
0
  2
*D6
 70
     1
 10
0.0
 20
0.0
 30
0.0
  3
*D6
  1

  0
LINE
  5
5C
  8
0
  6
BYBLOCK
 62
     9
 10
4010.0
 20
180000.0
 30
0.0
 11
4393.226522
 21
180000.0
 31
0.0
  0
LINE
  5
5D
  8
0
  6
BYBLOCK
 62
     9
 10
4290.0
 20
180850.0
 30
0.0
 11
4393.226522
 21
180850.0
 31
0.0
  0
LINE
  5
5E
  8
0
  6
BYBLOCK
 62
     9
 10
4392.226522
 20
180020.0
 30
0.0
 11
4392.226522
 21
180374.25
 31
0.0
  0
LINE
  5
5F
  8
0
  6
BYBLOCK
 62
     9
 10
4392.226522
 20
180830.0
 30
0.0
 11
4392.226522
 21
180475.75
 31
0.0
  0
SOLID
  5
60
  8
0
  6
BYBLOCK
 62
     9
 10
4388.893188
 20
180020.0
 30
0.0
 11
4395.559855
 21
180020.0
 31
0.0
 12
4392.226522
 22
180000.0
 32
0.0
 13
4392.226522
 23
180000.0
 33
0.0
  0
SOLID
  5
61
  8
0
  6
BYBLOCK
 62
     9
 10
4388.893188
 20
180830.0
 30
0.0
 11
4395.559855
 21
180830.0
 31
0.0
 12
4392.226522
 22
180850.0
 32
0.0
 13
4392.226522
 23
180850.0
 33
0.0
  0
TEXT
  5
62
  8
0
  6
BYBLOCK
 62
    11
 10
4409.726522
 20
180381.25
 30
0.0
 40
35.0
  1
850
 50
90.0
  0
POINT
  5
63
  8
DEFPOINTS
  6
BYBLOCK
 62
     0
 10
4000.0
 20
180000.0
 30
0.0
  0
POINT
  5
64
  8
DEFPOINTS
  6
BYBLOCK
 62
     0
 10
4280.0
 20
180850.0
 30
0.0
  0
POINT
  5
65
  8
DEFPOINTS
  6
BYBLOCK
 62
     0
 10
4392.226522
 20
180850.0
 30
0.0
  0
ENDBLK
  5
67
  8
0
  0
BLOCK
  8
0
  2
*D7
 70
     1
 10
0.0
 20
0.0
 30
0.0
  3
*D7
  1

  0
LINE
  5
31
  8
0
  6
BYBLOCK
 62
     9
 10
3720.0
 20
180860.0
 30
0.0
 11
3720.0
 21
180884.033725
 31
0.0
  0
LINE
  5
32
  8
0
  6
BYBLOCK
 62
     9
 10
4280.0
 20
180860.0
 30
0.0
 11
4280.0
 21
180884.033725
 31
0.0
  0
LINE
  5
33
  8
0
  6
BYBLOCK
 62
     9
 10
3740.0
 20
180883.033725
 30
0.0
 11
3949.25
 21
180883.033725
 31
0.0
  0
LINE
  5
34
  8
0
  6
BYBLOCK
 62
     9
 10
4260.0
 20
180883.033725
 30
0.0
 11
4050.75
 21
180883.033725
 31
0.0
  0
SOLID
  5
35
  8
0
  6
BYBLOCK
 62
     9
 10
3740.0
 20
180886.367059
 30
0.0
 11
3740.0
 21
180879.700392
 31
0.0
 12
3720.0
 22
180883.033725
 32
0.0
 13
3720.0
 23
180883.033725
 33
0.0
  0
SOLID
  5
36
  8
0
  6
BYBLOCK
 62
     9
 10
4260.0
 20
180886.367059
 30
0.0
 11
4260.0
 21
180879.700392
 31
0.0
 12
4280.0
 22
180883.033725
 32
0.0
 13
4280.0
 23
180883.033725
 33
0.0
  0
TEXT
  5
37
  8
0
  6
BYBLOCK
 62
    11
 10
3956.25
 20
180865.533725
 30
0.0
 40
35.0
  1
560
  0
POINT
  5
38
  8
DEFPOINTS
  6
BYBLOCK
 62
     0
 10
3720.0
 20
180850.0
 30
0.0
  0
POINT
  5
39
  8
DEFPOINTS
  6
BYBLOCK
 62
     0
 10
4280.0
 20
180850.0
 30
0.0
  0
POINT
  5
3A
  8
DEFPOINTS
  6
BYBLOCK
 62
     0
 10
4280.0
 20
180883.033725
 30
0.0
  0
ENDBLK
  5
3C
  8
0
  0
BLOCK
  8
0
  2
*D8
 70
     1
 10
0.0
 20
0.0
 30
0.0
  3
*D8
  1

  0
LINE
  5
4E
  8
0
  6
BYBLOCK
 62
     9
 10
3923.5
 20
181090.0
 30
0.0
 11
3923.5
 21
181000.152387
 31
0.0
  0
LINE
  5
4F
  8
0
  6
BYBLOCK
 62
     9
 10
4076.5
 20
181090.0
 30
0.0
 11
4076.5
 21
181000.152387
 31
0.0
  0
LINE
  5
50
  8
0
  6
BYBLOCK
 62
     9
 10
3943.5
 20
181001.152387
 30
0.0
 11
3952.166667
 21
181001.152387
 31
0.0
  0
LINE
  5
51
  8
0
  6
BYBLOCK
 62
     9
 10
4056.5
 20
181001.152387
 30
0.0
 11
4047.833333
 21
181001.152387
 31
0.0
  0
TEXT
  5
52
  8
0
  6
BYBLOCK
 62
    11
 10
3959.166667
 20
180983.652387
 30
0.0
 40
35.0
  1
153
  0
SOLID
  5
53
  8
0
  6
BYBLOCK
 62
     9
 10
3943.5
 20
181004.48572
 30
0.0
 11
3943.5
 21
180997.819054
 31
0.0
 12
3923.5
 22
181001.152387
 32
0.0
 13
3923.5
 23
181001.152387
 33
0.0
  0
SOLID
  5
54
  8
0
  6
BYBLOCK
 62
     9
 10
4056.5
 20
181004.48572
 30
0.0
 11
4056.5
 21
180997.819054
 31
0.0
 12
4076.5
 22
181001.152387
 32
0.0
 13
4076.5
 23
181001.152387
 33
0.0
  0
POINT
  5
55
  8
DEFPOINTS
  6
BYBLOCK
 62
     0
 10
3923.5
 20
181100.0
 30
0.0
  0
POINT
  5
56
  8
DEFPOINTS
  6
BYBLOCK
 62
     0
 10
4076.5
 20
181100.0
 30
0.0
  0
POINT
  5
57
  8
DEFPOINTS
  6
BYBLOCK
 62
     0
 10
4076.5
 20
181001.152387
 30
0.0
  0
ENDBLK
  5
59
  8
0
  0
BLOCK
  8
0
  2
*D9
 70
     1
 10
0.0
 20
0.0
 30
0.0
  3
*D9
  1

  0
LINE
  5
22
  8
0
  6
BYBLOCK
 62
     9
 10
3720.0
 20
180860.0
 30
0.0
 11
3720.0
 21
180928.877577
 31
0.0
  0
LINE
  5
23
  8
0
  6
BYBLOCK
 62
     9
 10
4000.0
 20
181060.0
 30
0.0
 11
4000.0
 21
180926.877577
 31
0.0
  0
LINE
  5
24
  8
0
  6
BYBLOCK
 62
     9
 10
3740.0
 20
180927.877577
 30
0.0
 11
3809.25
 21
180927.877577
 31
0.0
  0
LINE
  5
25
  8
0
  6
BYBLOCK
 62
     9
 10
3980.0
 20
180927.877577
 30
0.0
 11
3910.75
 21
180927.877577
 31
0.0
  0
SOLID
  5
26
  8
0
  6
BYBLOCK
 62
     9
 10
3740.0
 20
180931.21091
 30
0.0
 11
3740.0
 21
180924.544244
 31
0.0
 12
3720.0
 22
180927.877577
 32
0.0
 13
3720.0
 23
180927.877577
 33
0.0
  0
SOLID
  5
27
  8
0
  6
BYBLOCK
 62
     9
 10
3980.0
 20
180931.21091
 30
0.0
 11
3980.0
 21
180924.544244
 31
0.0
 12
4000.0
 22
180927.877577
 32
0.0
 13
4000.0
 23
180927.877577
 33
0.0
  0
TEXT
  5
28
  8
0
  6
BYBLOCK
 62
    11
 10
3816.25
 20
180910.377577
 30
0.0
 40
35.0
  1
280
  0
POINT
  5
29
  8
DEFPOINTS
  6
BYBLOCK
 62
     0
 10
3720.0
 20
180850.0
 30
0.0
  0
POINT
  5
2B
  8
DEFPOINTS
  6
BYBLOCK
 62
     0
 10
4000.0
 20
181070.0
 30
0.0
  0
POINT
  5
2C
  8
DEFPOINTS
  6
BYBLOCK
 62
     0
 10
4000.0
 20
180927.877577
 30
0.0
  0
ENDBLK
  5
2E
  8
0
  0
ENDSEC
  0
SECTION
  2
ENTITIES
  0
DIMENSION
  5
20
  8
TEAM-MAS
  2
*D9
 10
0.0
 20
927.877577
 30
0.0
 11
-140.0
 21
927.877577
 31
0.0
 12
-4000.0
 22
-180000.0
 32
0.0
 13
-280.0
 23
850.0
 33
0.0
 14
0.0
 24
1070.0
 34
0.0
1001
ACAD
1000
DSTYLE
1002
{
1070
    78
1070
     0
1070
    40
1040
1.0
1002
}
  0
DIMENSION
  5
2F
  8
TEAM-MAS
  2
*D7
 10
280.0
 20
883.033725
 30
0.0
 11
0.0
 21
883.033725
 31
0.0
 12
-4000.0
 22
-180000.0
 32
0.0
 13
-280.0
 23
850.0
 33
0.0
 14
280.0
 24
850.0
 34
0.0
  0
LINE
  5
3D
  8
TEAM-BODY
 10
0.0
 20
620.0
 30
0.0
 11
-187.198863
 21
630.0
 31
0.0
  0
TEXT
  5
3F
  8
TEAM-TXT
 10
-100.909719
 20
664.29514
 30
0.0
 40
30.0
  1
team 433101
 41
0.8
 51
15.0
  7
TEAM
  0
LINE
  5
42
  8
TEAM-BODY
 10
280.0
 20
850.0
 30
0.0
 11
-280.0
 21
850.0
 31
0.0
  0
LINE
  5
43
  8
TEAM-BODY
 10
280.0
 20
840.0
 30
0.0
 11
-280.0
 21
840.0
 31
0.0
  0
LINE
  5
44
  8
TEAM-AXE
 10
-96.5
 20
1100.0
 30
0.0
 11
-56.5
 21
1100.0
 31
0.0
  0
CIRCLE
  5
47
  8
TEAM-WARM
 10
-76.5
 20
1100.0
 30
0.0
 40
15.0
  0
LINE
  5
49
  8
TEAM-BODY
 10
-260.0
 20
840.0
 30
0.0
 11
-216.554258
 21
653.814469
 31
0.0
  0
ARC
  5
4A
  8
TEAM-BODY
 10
-187.198863
 20
660.0
 30
0.0
 40
30.0
 50
191.898839
 51
270.0
  0
LINE
  5
4B
  8
TEAM-BODY
 10
-280.0
 20
850.0
 30
0.0
 11
-280.0
 21
840.0
 31
0.0
  0
DIMENSION
  5
4C
  8
TEAM-MAS
  2
*D8
 10
76.5
 20
1001.152387
 30
0.0
 11
0.0
 21
1001.152387
 31
0.0
 12
-4000.0
 22
-180000.0
 32
0.0
 70
   128
 13
-76.5
 23
1100.0
 33
0.0
 14
76.5
 24
1100.0
 34
0.0
  0
DIMENSION
  5
5A
  8
TEAM-MAS
  2
*D6
 10
392.226522
 20
850.0
 30
0.0
 11
392.226522
 21
425.0
 31
0.0
 12
-4000.0
 22
-180000.0
 32
0.0
 13
0.0
 23
0.0
 33
0.0
 14
280.0
 24
850.0
 34
0.0
 50
90.0
  0
DIMENSION
  5
68
  8
TEAM-MAS
  2
*D5
 10
477.108819
 20
1100.0
 30
0.0
 11
477.108819
 21
550.0
 31
0.0
 12
-4000.0
 22
-180000.0
 32
0.0
  1
1050-1200
 13
0.0
 23
0.0
 33
0.0
 14
76.5
 24
1100.0
 34
0.0
 50
90.0
  0
DIMENSION
  5
76
  8
TEAM-MAS
  2
*D4
 10
433.427093
 20
1100.0
 30
0.0
 11
433.427093
 21
550.0
 31
0.0
 12
-4000.0
 22
-180000.0
 32
0.0
 13
0.0
 23
0.0
 33
0.0
 14
76.5
 24
1100.0
 34
0.0
 50
90.0
  0
DIMENSION
  5
84
  8
TEAM-MAS
  2
*D3
 10
346.702672
 20
550.0
 30
0.0
 11
346.702672
 21
275.0
 31
0.0
 12
-4000.0
 22
-180000.0
 32
0.0
 13
0.0
 23
0.0
 33
0.0
 14
80.0
 24
550.0
 34
0.0
 50
90.0
  0
DIMENSION
  5
92
  8
TEAM-MAS
  2
*D2
 10
0.0
 20
927.877577
 30
0.0
 11
140.0
 21
927.877577
 31
0.0
 12
-4000.0
 22
-180000.0
 32
0.0
 13
280.0
 23
850.0
 33
0.0
 14
0.0
 24
1070.0
 34
0.0
1001
ACAD
1000
DSTYLE
1002
{
1070
    78
1070
     0
1070
    40
1040
1.0
1002
}
  0
DIMENSION
  5
A0
  8
TEAM-MAS
  2
*D1
 10
347.702672
 20
550.0
 30
0.0
 11
347.702672
 21
700.0
 31
0.0
 12
-4000.0
 22
-180000.0
 32
0.0
 13
280.0
 23
850.0
 33
0.0
 14
90.0
 24
550.0
 34
0.0
 50
90.0
1001
ACAD
1000
DSTYLE
1002
{
1070
    40
1040
1.0
1002
}
  0
DIMENSION
  5
AE
  8
TEAM-MAS
  2
*D0
 10
304.099752
 20
850.0
 30
0.0
 11
304.099752
 21
735.0
 31
0.0
 12
-4000.0
 22
-180000.0
 32
0.0
 13
0.0
 23
620.0
 33
0.0
 14
280.0
 24
850.0
 34
0.0
 50
90.0
  0
LINE
  5
BC
  8
TEAM-AXE
 10
-76.5
 20
1080.0
 30
0.0
 11
-76.5
 21
1120.0
 31
0.0
  0
CIRCLE
  5
BD
  8
TEAM-INSP
 10
0.0
 20
0.0
 30
0.0
 40
10.0
  0
LINE
  5
BF
  8
TEAM-AXE
 10
0.0
 20
1070.0
 30
0.0
 11
0.0
 21
1130.0
 31
0.0
  0
LINE
  5
C0
  8
TEAM-BODY
 10
216.554258
 20
653.814469
 30
0.0
 11
260.0
 21
840.0
 31
0.0
  0
ARC
  5
C1
  8
TEAM-BODY
 10
187.198863
 20
660.0
 30
0.0
 40
30.0
 50
270.0
 51
348.101161
  0
LINE
  5
C2
  8
TEAM-BODY
 10
280.0
 20
840.0
 30
0.0
 11
280.0
 21
850.0
 31
0.0
  0
LINE
  5
C3
  8
TEAM-AXE
 10
-30.0
 20
550.0
 30
0.0
 11
30.0
 21
550.0
 31
0.0
  0
LINE
  5
C4
  8
TEAM-KAN
 10
0.0
 20
520.0
 30
0.0
 11
0.0
 21
515.980383
 31
0.0
  0
CIRCLE
  5
C6
  8
TEAM-KAN
 10
0.0
 20
550.0
 30
0.0
 40
20.0
  0
LINE
  5
C7
  8
TEAM-AXE
 10
0.0
 20
520.0
 30
0.0
 11
0.0
 21
580.0
 31
0.0
  0
LINE
  5
C8
  8
TEAM-BODY
 10
-21.0
 20
605.0
 30
0.0
 11
21.0
 21
605.0
 31
0.0
  0
LINE
  5
C9
  8
TEAM-BODY
 10
-21.0
 20
620.757579
 30
0.0
 11
-21.0
 21
605.0
 31
0.0
  0
LINE
  5
CA
  8
TEAM-BODY
 10
21.0
 20
620.757579
 30
0.0
 11
21.0
 21
605.0
 31
0.0
  0
LINE
  5
CB
  8
TEAM-AXE
 10
76.5
 20
1080.0
 30
0.0
 11
76.5
 21
1120.0
 31
0.0
  0
LINE
  5
CC
  8
TEAM-BODY
 10
187.198863
 20
630.0
 30
0.0
 11
0.0
 21
620.0
 31
0.0
  0
LINE
  5
CD
  8
TEAM-AXE
 10
56.5
 20
1100.0
 30
0.0
 11
96.5
 21
1100.0
 31
0.0
  0
CIRCLE
  5
CE
  8
TEAM-COLD
 10
76.5
 20
1100.0
 30
0.0
 40
15.0
  0
ENDSEC
  0
EOF
