  0
SECTION
  2
HEADER
  9
$ACADVER
  1
AC1009
  9
$INSBASE
 10
0.0
 20
0.0
 30
0.0
  9
$EXTMIN
 10
-425.082657
 20
-628.537931
 30
0.0
  9
$EXTMAX
 10
800.851257
 20
91.699667
 30
0.000005
  9
$LIMMIN
 10
-425.082657
 20
-628.537931
  9
$LIMMAX
 10
800.851257
 20
91.699667
  9
$ORTHOMODE
 70
     1
  9
$REGENMODE
 70
     1
  9
$FILLMODE
 70
     1
  9
$QTEXTMODE
 70
     0
  9
$MIRRTEXT
 70
     0
  9
$DRAGMODE
 70
     2
  9
$LTSCALE
 40
50.0
  9
$OSMODE
 70
     0
  9
$ATTMODE
 70
     1
  9
$TEXTSIZE
 40
200.0
  9
$TRACEWID
 40
1.0
  9
$TEXTSTYLE
  7
STANDARD
  9
$CLAYER
  8
TEAM-MAS
  9
$CELTYPE
  6
BYLAYER
  9
$CECOLOR
 62
   256
  9
$DIMSCALE
 40
0.0
  9
$DIMASZ
 40
20.0
  9
$DIMEXO
 40
10.0
  9
$DIMDLI
 40
1.0
  9
$DIMRND
 40
0.0
  9
$DIMDLE
 40
0.0
  9
$DIMEXE
 40
1.0
  9
$DIMTP
 40
0.0
  9
$DIMTM
 40
0.0
  9
$DIMTXT
 40
35.0
  9
$DIMCEN
 40
1.0
  9
$DIMTSZ
 40
0.0
  9
$DIMTOL
 70
     0
  9
$DIMLIM
 70
     0
  9
$DIMTIH
 70
     0
  9
$DIMTOH
 70
     0
  9
$DIMSE1
 70
     0
  9
$DIMSE2
 70
     0
  9
$DIMTAD
 70
     0
  9
$DIMZIN
 70
     0
  9
$DIMBLK
  1

  9
$DIMASO
 70
     1
  9
$DIMSHO
 70
     0
  9
$DIMPOST
  1

  9
$DIMAPOST
  1

  9
$DIMALT
 70
     0
  9
$DIMALTD
 70
     2
  9
$DIMALTF
 40
25.4
  9
$DIMLFAC
 40
1.0
  9
$DIMTOFL
 70
     0
  9
$DIMTVP
 40
0.0
  9
$DIMTIX
 70
     0
  9
$DIMSOXD
 70
     0
  9
$DIMSAH
 70
     0
  9
$DIMBLK1
  1

  9
$DIMBLK2
  1

  9
$DIMSTYLE
  2
TEAM
  9
$DIMCLRD
 70
     9
  9
$DIMCLRE
 70
     9
  9
$DIMCLRT
 70
    11
  9
$DIMTFAC
 40
1.0
  9
$DIMGAP
 40
7.0
  9
$LUNITS
 70
     2
  9
$LUPREC
 70
     1
  9
$SKETCHINC
 40
1.0
  9
$FILLETRAD
 40
50.0
  9
$AUNITS
 70
     0
  9
$AUPREC
 70
     0
  9
$MENU
  1
ROPLANS
  9
$ELEVATION
 40
0.0
  9
$PELEVATION
 40
0.0
  9
$THICKNESS
 40
0.0
  9
$LIMCHECK
 70
     0
  9
$BLIPMODE
 70
     1
  9
$CHAMFERA
 40
0.0
  9
$CHAMFERB
 40
0.0
  9
$SKPOLY
 70
     0
  9
$TDCREATE
 40
2450392.957851
  9
$TDUPDATE
 40
2456272.033233
  9
$TDINDWG
 40
2.315654
  9
$TDUSRTIMER
 40
2.315654
  9
$USRTIMER
 70
     1
  9
$ANGBASE
 50
0.0
  9
$ANGDIR
 70
     0
  9
$PDMODE
 70
     0
  9
$PDSIZE
 40
0.0
  9
$PLINEWID
 40
0.0
  9
$COORDS
 70
     2
  9
$SPLFRAME
 70
     0
  9
$SPLINETYPE
 70
     6
  9
$SPLINESEGS
 70
     8
  9
$ATTDIA
 70
     0
  9
$ATTREQ
 70
     0
  9
$HANDLING
 70
     1
  9
$HANDSEED
  5
14A
  9
$SURFTAB1
 70
    24
  9
$SURFTAB2
 70
    24
  9
$SURFTYPE
 70
     6
  9
$SURFU
 70
     6
  9
$SURFV
 70
     6
  9
$UCSNAME
  2

  9
$UCSORG
 10
0.0
 20
0.0
 30
0.0
  9
$UCSXDIR
 10
1.0
 20
0.0
 30
0.0
  9
$UCSYDIR
 10
0.0
 20
1.0
 30
0.0
  9
$PUCSNAME
  2

  9
$PUCSORG
 10
0.0
 20
0.0
 30
0.0
  9
$PUCSXDIR
 10
1.0
 20
0.0
 30
0.0
  9
$PUCSYDIR
 10
0.0
 20
1.0
 30
0.0
  9
$USERI1
 70
     0
  9
$USERI2
 70
     0
  9
$USERI3
 70
     0
  9
$USERI4
 70
     0
  9
$USERI5
 70
     0
  9
$USERR1
 40
0.0
  9
$USERR2
 40
0.0
  9
$USERR3
 40
0.0
  9
$USERR4
 40
0.0
  9
$USERR5
 40
0.0
  9
$WORLDVIEW
 70
     1
  9
$SHADEDGE
 70
     0
  9
$SHADEDIF
 70
    70
  9
$TILEMODE
 70
     1
  9
$MAXACTVP
 70
    16
  9
$PLIMCHECK
 70
     0
  9
$PEXTMIN
 10
-0.805942
 20
0.005011
 30
0.0
  9
$PEXTMAX
 10
20.250094
 20
11.356329
 30
0.0
  9
$PLIMMIN
 10
0.0
 20
0.0
  9
$PLIMMAX
 10
12.0
 20
9.0
  9
$UNITMODE
 70
     0
  9
$VISRETAIN
 70
     0
  9
$PLINEGEN
 70
     0
  9
$PSLTSCALE
 70
     0
  0
ENDSEC
  0
SECTION
  2
TABLES
  0
TABLE
  2
VPORT
 70
     2
  0
VPORT
  2
*ACTIVE
 70
     0
 10
0.0
 20
0.0
 11
1.0
 21
1.0
 12
187.8843
 22
-268.419132
 13
0.0
 23
0.0
 14
1.0
 24
1.0
 15
50.0
 25
50.0
 16
0.0
 26
0.0
 36
1.0
 17
0.0
 27
0.0
 37
0.0
 40
724.772148
 41
1.911765
 42
50.0
 43
0.0
 44
0.0
 50
0.0
 51
0.0
 71
     0
 72
   100
 73
     1
 74
     1
 75
     0
 76
     0
 77
     0
 78
     0
  0
ENDTAB
  0
TABLE
  2
LTYPE
 70
     2
  0
LTYPE
  2
CONTINUOUS
 70
     0
  3
Solid Line
 72
    65
 73
     0
 40
0.0
  0
LTYPE
  2
31
 70
     0
  3

 72
    65
 73
     4
 40
2.1
 49
1.5
 49
-0.3
 49
0.0
 49
-0.3
  0
ENDTAB
  0
TABLE
  2
LAYER
 70
    11
  0
LAYER
  2
0
 70
     0
 62
     7
  6
CONTINUOUS
  0
LAYER
  2
DEFPOINTS
 70
     0
 62
     7
  6
CONTINUOUS
  0
LAYER
  2
TEAM-BODY
 70
     0
 62
     2
  6
CONTINUOUS
  0
LAYER
  2
TEAM-AXE
 70
     0
 62
    10
  6
31
  0
LAYER
  2
TEAM-MAS
 70
     0
 62
     9
  6
CONTINUOUS
  0
LAYER
  2
TEAM-TXT
 70
     0
 62
    11
  6
CONTINUOUS
  0
LAYER
  2
TEAM-DET1
 70
     0
 62
     4
  6
CONTINUOUS
  0
LAYER
  2
TEAM-COLD
 70
     0
 62
     3
  6
CONTINUOUS
  0
LAYER
  2
TEAM-WARM
 70
     0
 62
     1
  6
CONTINUOUS
  0
LAYER
  2
TEAM-INSP
 70
     0
 62
     5
  6
CONTINUOUS
  0
LAYER
  2
07930000BE00
 70
     0
 62
     7
  6
CONTINUOUS
  0
ENDTAB
  0
TABLE
  2
STYLE
 70
     2
  0
STYLE
  2
STANDARD
 70
     0
 40
0.0
 41
1.0
 50
0.0
 71
     0
 42
200.0
  3
txt
  4

  0
STYLE
  2
TEAM
 70
     0
 40
0.0
 41
0.8
 50
15.0
 71
     0
 42
7.0
  3
ROMANS.shx
  4

  0
ENDTAB
  0
TABLE
  2
VIEW
 70
     0
  0
ENDTAB
  0
TABLE
  2
UCS
 70
     0
  0
ENDTAB
  0
TABLE
  2
APPID
 70
     1
  0
APPID
  2
ACAD
 70
     0
  0
ENDTAB
  0
TABLE
  2
DIMSTYLE
 70
     1
  0
DIMSTYLE
  2
TEAM
 70
     0
  3

  4

  5

  6

  7

 40
0.0
 41
20.0
 42
10.0
 43
1.0
 44
1.0
 45
0.0
 46
0.0
 47
0.0
 48
0.0
140
35.0
141
1.0
142
0.0
143
25.4
144
1.0
145
0.0
146
1.0
147
7.0
 71
     0
 72
     0
 73
     0
 74
     0
 75
     0
 76
     0
 77
     0
 78
     0
170
     0
171
     2
172
     0
173
     0
174
     0
175
     0
176
     9
177
     9
178
    11
  0
ENDTAB
  0
ENDSEC
  0
SECTION
  2
BLOCKS
  0
BLOCK
  8
0
  2
$MODEL_SPACE
 70
     0
 10
0.0
 20
0.0
 30
0.0
  3
$MODEL_SPACE
  1

  0
ENDBLK
  5
143
  8
0
  0
BLOCK
 67
     1
  8
0
  2
$PAPER_SPACE
 70
     0
 10
0.0
 20
0.0
 30
0.0
  3
$PAPER_SPACE
  1

  0
ENDBLK
  5
141
 67
     1
  8
0
  0
BLOCK
  8
0
  2
*D0
 70
     1
 10
0.0
 20
0.0
 30
0.0
  3
*D0
  1

  0
LINE
  5
3F
  8
0
  6
BYBLOCK
 62
     9
 10
12674.998987
 20
184009.825668
 30
0.0
 11
12674.998987
 21
184037.47623
 31
0.0
  0
LINE
  5
40
  8
0
  6
BYBLOCK
 62
     9
 10
12000.0
 20
183869.997819
 30
0.0
 11
12000.0
 21
184037.47623
 31
0.0
  0
LINE
  5
41
  8
0
  6
BYBLOCK
 62
     9
 10
12654.998987
 20
184036.47623
 30
0.0
 11
12391.16616
 21
184036.47623
 31
0.0
  0
LINE
  5
42
  8
0
  6
BYBLOCK
 62
     9
 10
12020.0
 20
184036.47623
 30
0.0
 11
12283.832827
 21
184036.47623
 31
0.0
  0
SOLID
  5
43
  8
0
  6
BYBLOCK
 62
     9
 10
12654.998987
 20
184039.809563
 30
0.0
 11
12654.998987
 21
184033.142897
 31
0.0
 12
12674.998987
 22
184036.47623
 32
0.0
 13
12674.998987
 23
184036.47623
 33
0.0
  0
SOLID
  5
44
  8
0
  6
BYBLOCK
 62
     9
 10
12020.0
 20
184039.809563
 30
0.0
 11
12020.0
 21
184033.142897
 31
0.0
 12
12000.0
 22
184036.47623
 32
0.0
 13
12000.0
 23
184036.47623
 33
0.0
  0
TEXT
  5
45
  8
0
  6
BYBLOCK
 62
    11
 10
12290.832827
 20
184018.97623
 30
0.0
 40
35.0
  1
675
  0
POINT
  5
46
  8
DEFPOINTS
  6
BYBLOCK
 62
     0
 10
12674.998987
 20
183999.825668
 30
0.0
  0
POINT
  5
47
  8
DEFPOINTS
  6
BYBLOCK
 62
     0
 10
12000.0
 20
183859.997819
 30
0.0
  0
POINT
  5
48
  8
DEFPOINTS
  6
BYBLOCK
 62
     0
 10
12000.0
 20
184036.47623
 30
0.0
  0
ENDBLK
  5
4A
  8
0
  0
BLOCK
  8
0
  2
*D1
 70
     1
 10
0.0
 20
0.0
 30
0.0
  3
*D1
  1

  0
LINE
  5
31
  8
0
  6
BYBLOCK
 62
     9
 10
12000.0
 20
183849.997819
 30
0.0
 11
12000.0
 21
183388.198291
 31
0.0
  0
LINE
  5
32
  8
0
  6
BYBLOCK
 62
     9
 10
12624.998987
 20
183569.825668
 30
0.0
 11
12624.998987
 21
183388.198291
 31
0.0
  0
LINE
  5
33
  8
0
  6
BYBLOCK
 62
     9
 10
12020.0
 20
183389.198291
 30
0.0
 11
12258.832827
 21
183389.198291
 31
0.0
  0
LINE
  5
34
  8
0
  6
BYBLOCK
 62
     9
 10
12604.998987
 20
183389.198291
 30
0.0
 11
12366.16616
 21
183389.198291
 31
0.0
  0
SOLID
  5
35
  8
0
  6
BYBLOCK
 62
     9
 10
12020.0
 20
183392.531624
 30
0.0
 11
12020.0
 21
183385.864957
 31
0.0
 12
12000.0
 22
183389.198291
 32
0.0
 13
12000.0
 23
183389.198291
 33
0.0
  0
SOLID
  5
36
  8
0
  6
BYBLOCK
 62
     9
 10
12604.998987
 20
183392.531624
 30
0.0
 11
12604.998987
 21
183385.864957
 31
0.0
 12
12624.998987
 22
183389.198291
 32
0.0
 13
12624.998987
 23
183389.198291
 33
0.0
  0
TEXT
  5
37
  8
0
  6
BYBLOCK
 62
    11
 10
12265.832827
 20
183371.698291
 30
0.0
 40
35.0
  1
625
  0
POINT
  5
38
  8
DEFPOINTS
  6
BYBLOCK
 62
     0
 10
12000.0
 20
183859.997819
 30
0.0
  0
POINT
  5
39
  8
DEFPOINTS
  6
BYBLOCK
 62
     0
 10
12624.998987
 20
183579.825668
 30
0.0
  0
POINT
  5
3A
  8
DEFPOINTS
  6
BYBLOCK
 62
     0
 10
12624.998987
 20
183389.198291
 30
0.0
  0
ENDBLK
  5
3C
  8
0
  0
BLOCK
  8
0
  2
*D2
 70
     1
 10
0.0
 20
0.0
 30
0.0
  3
*D2
  1

  0
LINE
  5
22
  8
0
  6
BYBLOCK
 62
     9
 10
11575.002687
 20
184009.531677
 30
0.0
 11
11575.002687
 21
184075.172242
 31
0.0
  0
LINE
  5
23
  8
0
  6
BYBLOCK
 62
     9
 10
12674.998987
 20
184009.825668
 30
0.0
 11
12674.998987
 21
184075.172242
 31
0.0
  0
LINE
  5
24
  8
0
  6
BYBLOCK
 62
     9
 10
11595.002687
 20
184074.172242
 30
0.0
 11
12071.33417
 21
184074.172242
 31
0.0
  0
LINE
  5
25
  8
0
  6
BYBLOCK
 62
     9
 10
12654.998987
 20
184074.172242
 30
0.0
 11
12178.667504
 21
184074.172242
 31
0.0
  0
SOLID
  5
26
  8
0
  6
BYBLOCK
 62
     9
 10
11595.002687
 20
184077.505576
 30
0.0
 11
11595.002687
 21
184070.838909
 31
0.0
 12
11575.002687
 22
184074.172242
 32
0.0
 13
11575.002687
 23
184074.172242
 33
0.0
  0
SOLID
  5
27
  8
0
  6
BYBLOCK
 62
     9
 10
12654.998987
 20
184077.505576
 30
0.0
 11
12654.998987
 21
184070.838909
 31
0.0
 12
12674.998987
 22
184074.172242
 32
0.0
 13
12674.998987
 23
184074.172242
 33
0.0
  0
TEXT
  5
28
  8
0
  6
BYBLOCK
 62
    11
 10
12078.33417
 20
184056.672242
 30
0.0
 40
35.0
  1
1100
  0
POINT
  5
29
  8
DEFPOINTS
  6
BYBLOCK
 62
     0
 10
11575.002687
 20
183999.531677
 30
0.0
  0
POINT
  5
2B
  8
DEFPOINTS
  6
BYBLOCK
 62
     0
 10
12674.998987
 20
183999.825668
 30
0.0
  0
POINT
  5
2C
  8
DEFPOINTS
  6
BYBLOCK
 62
     0
 10
12674.998987
 20
184074.172242
 30
0.0
  0
ENDBLK
  5
2E
  8
0
  0
BLOCK
  8
0
  2
*D3
 70
     1
 10
0.0
 20
0.0
 30
0.0
  3
*D3
  1

  0
LINE
  5
82
  8
0
  6
BYBLOCK
 62
     9
 10
12010.0
 20
183859.997819
 30
0.0
 11
12140.222056
 21
183859.997819
 31
0.0
  0
LINE
  5
83
  8
0
  6
BYBLOCK
 62
     9
 10
12155.914756
 20
183950.0
 30
0.0
 11
12138.222056
 21
183950.0
 31
0.0
  0
LINE
  5
84
  8
0
  6
BYBLOCK
 62
     9
 10
12139.222056
 20
183879.997819
 30
0.0
 11
12139.222056
 21
183930.0
 31
0.0
  0
TEXT
  5
85
  8
0
  6
BYBLOCK
 62
    11
 10
12156.722056
 20
183786.415281
 30
0.0
 40
35.0
  1
90
 50
90.0
  0
SOLID
  5
86
  8
0
  6
BYBLOCK
 62
     9
 10
12135.888723
 20
183879.997819
 30
0.0
 11
12142.55539
 21
183879.997819
 31
0.0
 12
12139.222056
 22
183859.997819
 32
0.0
 13
12139.222056
 23
183859.997819
 33
0.0
  0
SOLID
  5
87
  8
0
  6
BYBLOCK
 62
     9
 10
12135.888723
 20
183930.0
 30
0.0
 11
12142.55539
 21
183930.0
 31
0.0
 12
12139.222056
 22
183950.0
 32
0.0
 13
12139.222056
 23
183950.0
 33
0.0
  0
POINT
  5
88
  8
DEFPOINTS
  6
BYBLOCK
 62
     0
 10
12000.0
 20
183859.997819
 30
0.0
  0
POINT
  5
89
  8
DEFPOINTS
  6
BYBLOCK
 62
     0
 10
12165.914756
 20
183950.0
 30
0.0
  0
POINT
  5
8A
  8
DEFPOINTS
  6
BYBLOCK
 62
     0
 10
12139.222056
 20
183950.0
 30
0.0
  0
ENDBLK
  5
8C
  8
0
  0
BLOCK
  8
0
  2
*D4
 70
     1
 10
0.0
 20
0.0
 30
0.0
  3
*D4
  1

  0
LINE
  5
73
  8
0
  6
BYBLOCK
 62
     9
 10
11575.002687
 20
183439.531677
 30
0.0
 11
11575.002687
 21
183388.0043
 31
0.0
  0
LINE
  5
74
  8
0
  6
BYBLOCK
 62
     9
 10
11910.0
 20
183570.0
 30
0.0
 11
11910.0
 21
183388.0043
 31
0.0
  0
LINE
  5
75
  8
0
  6
BYBLOCK
 62
     9
 10
11595.002687
 20
183389.0043
 30
0.0
 11
11688.834677
 21
183389.0043
 31
0.0
  0
LINE
  5
76
  8
0
  6
BYBLOCK
 62
     9
 10
11890.0
 20
183389.0043
 30
0.0
 11
11796.16801
 21
183389.0043
 31
0.0
  0
SOLID
  5
77
  8
0
  6
BYBLOCK
 62
     9
 10
11595.002687
 20
183392.337633
 30
0.0
 11
11595.002687
 21
183385.670966
 31
0.0
 12
11575.002687
 22
183389.0043
 32
0.0
 13
11575.002687
 23
183389.0043
 33
0.0
  0
SOLID
  5
78
  8
0
  6
BYBLOCK
 62
     9
 10
11890.0
 20
183392.337633
 30
0.0
 11
11890.0
 21
183385.670966
 31
0.0
 12
11910.0
 22
183389.0043
 32
0.0
 13
11910.0
 23
183389.0043
 33
0.0
  0
TEXT
  5
79
  8
0
  6
BYBLOCK
 62
    11
 10
11695.834677
 20
183371.5043
 30
0.0
 40
35.0
  1
335
  0
POINT
  5
7A
  8
DEFPOINTS
  6
BYBLOCK
 62
     0
 10
11575.002687
 20
183449.531677
 30
0.0
  0
POINT
  5
7B
  8
DEFPOINTS
  6
BYBLOCK
 62
     0
 10
11910.0
 20
183580.0
 30
0.0
  0
POINT
  5
7C
  8
DEFPOINTS
  6
BYBLOCK
 62
     0
 10
11910.0
 20
183389.0043
 30
0.0
  0
ENDBLK
  5
7E
  8
0
  0
BLOCK
  8
0
  2
*D5
 70
     1
 10
0.0
 20
0.0
 30
0.0
  3
*D5
  1

  0
LINE
  5
65
  8
0
  6
BYBLOCK
 62
     9
 10
12000.0
 20
184010.0
 30
0.0
 11
12000.0
 21
184037.182239
 31
0.0
  0
LINE
  5
66
  8
0
  6
BYBLOCK
 62
     9
 10
11575.002687
 20
184009.531677
 30
0.0
 11
11575.002687
 21
184037.182239
 31
0.0
  0
LINE
  5
67
  8
0
  6
BYBLOCK
 62
     9
 10
11980.0
 20
184036.182239
 30
0.0
 11
11841.16801
 21
184036.182239
 31
0.0
  0
LINE
  5
68
  8
0
  6
BYBLOCK
 62
     9
 10
11595.002687
 20
184036.182239
 30
0.0
 11
11733.834677
 21
184036.182239
 31
0.0
  0
SOLID
  5
69
  8
0
  6
BYBLOCK
 62
     9
 10
11980.0
 20
184039.515572
 30
0.0
 11
11980.0
 21
184032.848906
 31
0.0
 12
12000.0
 22
184036.182239
 32
0.0
 13
12000.0
 23
184036.182239
 33
0.0
  0
SOLID
  5
6A
  8
0
  6
BYBLOCK
 62
     9
 10
11595.002687
 20
184039.515572
 30
0.0
 11
11595.002687
 21
184032.848906
 31
0.0
 12
11575.002687
 22
184036.182239
 32
0.0
 13
11575.002687
 23
184036.182239
 33
0.0
  0
TEXT
  5
6B
  8
0
  6
BYBLOCK
 62
    11
 10
11740.834677
 20
184018.682239
 30
0.0
 40
35.0
  1
425
  0
POINT
  5
6C
  8
DEFPOINTS
  6
BYBLOCK
 62
     0
 10
12000.0
 20
184000.0
 30
0.0
  0
POINT
  5
6D
  8
DEFPOINTS
  6
BYBLOCK
 62
     0
 10
11575.002687
 20
183999.531677
 30
0.0
  0
POINT
  5
6E
  8
DEFPOINTS
  6
BYBLOCK
 62
     0
 10
11575.002687
 20
184036.182239
 30
0.0
  0
ENDBLK
  5
70
  8
0
  0
BLOCK
  8
0
  2
*D6
 70
     1
 10
0.0
 20
0.0
 30
0.0
  3
*D6
  1

  0
LINE
  5
58
  8
0
  6
BYBLOCK
 62
     9
 10
11910.0
 20
183570.0
 30
0.0
 11
11910.0
 21
183388.472623
 31
0.0
  0
LINE
  5
59
  8
0
  6
BYBLOCK
 62
     9
 10
12000.0
 20
183849.997819
 30
0.0
 11
12000.0
 21
183388.472623
 31
0.0
  0
LINE
  5
5A
  8
0
  6
BYBLOCK
 62
     9
 10
11930.0
 20
183389.472623
 30
0.0
 11
11980.0
 21
183389.472623
 31
0.0
  0
TEXT
  5
5B
  8
0
  6
BYBLOCK
 62
    11
 10
11933.814279
 20
183401.821032
 30
0.0
 40
35.0
  1
90
  0
SOLID
  5
5C
  8
0
  6
BYBLOCK
 62
     9
 10
11930.0
 20
183392.805956
 30
0.0
 11
11930.0
 21
183386.13929
 31
0.0
 12
11910.0
 22
183389.472623
 32
0.0
 13
11910.0
 23
183389.472623
 33
0.0
  0
SOLID
  5
5D
  8
0
  6
BYBLOCK
 62
     9
 10
11980.0
 20
183392.805956
 30
0.0
 11
11980.0
 21
183386.13929
 31
0.0
 12
12000.0
 22
183389.472623
 32
0.0
 13
12000.0
 23
183389.472623
 33
0.0
  0
POINT
  5
5E
  8
DEFPOINTS
  6
BYBLOCK
 62
     0
 10
11910.0
 20
183580.0
 30
0.0
  0
POINT
  5
5F
  8
DEFPOINTS
  6
BYBLOCK
 62
     0
 10
12000.0
 20
183859.997819
 30
0.0
  0
POINT
  5
60
  8
DEFPOINTS
  6
BYBLOCK
 62
     0
 10
12000.0
 20
183389.472623
 30
0.0
  0
ENDBLK
  5
62
  8
0
  0
BLOCK
  8
0
  2
*D7
 70
     1
 10
0.0
 20
0.0
 30
0.0
  3
*D7
  1

  0
LINE
  5
F3
  8
0
  6
BYBLOCK
 62
     9
 10
12684.998987
 20
183999.825668
 30
0.0
 11
12784.340651
 21
183999.825668
 31
0.0
  0
LINE
  5
F4
  8
0
  6
BYBLOCK
 62
     9
 10
12684.998987
 20
183449.825668
 30
0.0
 11
12784.340651
 21
183449.825668
 31
0.0
  0
LINE
  5
F5
  8
0
  6
BYBLOCK
 62
     9
 10
12783.340651
 20
183979.825668
 30
0.0
 11
12783.340651
 21
183775.575668
 31
0.0
  0
LINE
  5
F6
  8
0
  6
BYBLOCK
 62
     9
 10
12783.340651
 20
183469.825668
 30
0.0
 11
12783.340651
 21
183674.075668
 31
0.0
  0
SOLID
  5
F7
  8
0
  6
BYBLOCK
 62
     9
 10
12780.007318
 20
183979.825668
 30
0.0
 11
12786.673985
 21
183979.825668
 31
0.0
 12
12783.340651
 22
183999.825668
 32
0.0
 13
12783.340651
 23
183999.825668
 33
0.0
  0
SOLID
  5
F8
  8
0
  6
BYBLOCK
 62
     9
 10
12780.007318
 20
183469.825668
 30
0.0
 11
12786.673985
 21
183469.825668
 31
0.0
 12
12783.340651
 22
183449.825668
 32
0.0
 13
12783.340651
 23
183449.825668
 33
0.0
  0
TEXT
  5
F9
  8
0
  6
BYBLOCK
 62
    11
 10
12800.840651
 20
183681.075668
 30
0.0
 40
35.0
  1
550
 50
90.0
  0
POINT
  5
FA
  8
DEFPOINTS
  6
BYBLOCK
 62
     0
 10
12674.998987
 20
183999.825668
 30
0.0
  0
POINT
  5
FB
  8
DEFPOINTS
  6
BYBLOCK
 62
     0
 10
12674.998987
 20
183449.825668
 30
0.0
  0
POINT
  5
FC
  8
DEFPOINTS
  6
BYBLOCK
 62
     0
 10
12783.340651
 20
183449.825668
 30
0.0
  0
ENDBLK
  5
FE
  8
0
  0
BLOCK
  8
0
  2
*D8
 70
     1
 10
0.0
 20
0.0
 30
0.0
  3
*D8
  1

  0
LINE
  5
E5
  8
0
  6
BYBLOCK
 62
     9
 10
12554.998987
 20
183499.825668
 30
0.0
 11
12742.560426
 21
183499.825668
 31
0.0
  0
LINE
  5
E6
  8
0
  6
BYBLOCK
 62
     9
 10
12554.998987
 20
183949.825668
 30
0.0
 11
12742.560426
 21
183949.825668
 31
0.0
  0
LINE
  5
E7
  8
0
  6
BYBLOCK
 62
     9
 10
12741.560426
 20
183519.825668
 30
0.0
 11
12741.560426
 21
183674.075668
 31
0.0
  0
LINE
  5
E8
  8
0
  6
BYBLOCK
 62
     9
 10
12741.560426
 20
183929.825668
 30
0.0
 11
12741.560426
 21
183775.575668
 31
0.0
  0
SOLID
  5
E9
  8
0
  6
BYBLOCK
 62
     9
 10
12738.227092
 20
183519.825668
 30
0.0
 11
12744.893759
 21
183519.825668
 31
0.0
 12
12741.560426
 22
183499.825668
 32
0.0
 13
12741.560426
 23
183499.825668
 33
0.0
  0
SOLID
  5
EA
  8
0
  6
BYBLOCK
 62
     9
 10
12738.227092
 20
183929.825668
 30
0.0
 11
12744.893759
 21
183929.825668
 31
0.0
 12
12741.560426
 22
183949.825668
 32
0.0
 13
12741.560426
 23
183949.825668
 33
0.0
  0
TEXT
  5
EB
  8
0
  6
BYBLOCK
 62
    11
 10
12759.060426
 20
183681.075668
 30
0.0
 40
35.0
  1
450
 50
90.0
  0
POINT
  5
EC
  8
DEFPOINTS
  6
BYBLOCK
 62
     0
 10
12544.998987
 20
183499.825668
 30
0.0
  0
POINT
  5
ED
  8
DEFPOINTS
  6
BYBLOCK
 62
     0
 10
12544.998987
 20
183949.825668
 30
0.0
  0
POINT
  5
EE
  8
DEFPOINTS
  6
BYBLOCK
 62
     0
 10
12741.560426
 20
183949.825668
 30
0.0
  0
ENDBLK
  5
F0
  8
0
  0
BLOCK
  8
0
  2
*D9
 70
     1
 10
0.0
 20
0.0
 30
0.0
  3
*D9
  1

  0
LINE
  5
D6
  8
0
  6
BYBLOCK
 62
     9
 10
12684.998987
 20
183449.825668
 30
0.0
 11
12742.460426
 21
183449.825668
 31
0.0
  0
LINE
  5
D7
  8
0
  6
BYBLOCK
 62
     9
 10
12554.998987
 20
183499.825668
 30
0.0
 11
12742.460426
 21
183499.825668
 31
0.0
  0
LINE
  5
D8
  8
0
  6
BYBLOCK
 62
     9
 10
12741.460426
 20
183429.825668
 30
0.0
 11
12741.460426
 21
183409.825668
 31
0.0
  0
LINE
  5
D9
  8
0
  6
BYBLOCK
 62
     9
 10
12741.460426
 20
183519.825668
 30
0.0
 11
12741.460426
 21
183539.825668
 31
0.0
  0
TEXT
  5
DA
  8
0
  6
BYBLOCK
 62
    11
 10
12760.916069
 20
183386.930207
 30
0.0
 40
35.0
  1
50
 50
90.0
  0
LINE
  5
DB
  8
0
  6
BYBLOCK
 62
     9
 10
12741.460426
 20
183449.825668
 30
0.0
 11
12741.460426
 21
183499.825668
 31
0.0
  0
SOLID
  5
DC
  8
0
  6
BYBLOCK
 62
     9
 10
12738.127092
 20
183429.825668
 30
0.0
 11
12744.793759
 21
183429.825668
 31
0.0
 12
12741.460426
 22
183449.825668
 32
0.0
 13
12741.460426
 23
183449.825668
 33
0.0
  0
SOLID
  5
DD
  8
0
  6
BYBLOCK
 62
     9
 10
12738.127092
 20
183519.825668
 30
0.0
 11
12744.793759
 21
183519.825668
 31
0.0
 12
12741.460426
 22
183499.825668
 32
0.0
 13
12741.460426
 23
183499.825668
 33
0.0
  0
POINT
  5
DE
  8
DEFPOINTS
  6
BYBLOCK
 62
     0
 10
12674.998987
 20
183449.825668
 30
0.0
  0
POINT
  5
DF
  8
DEFPOINTS
  6
BYBLOCK
 62
     0
 10
12544.998987
 20
183499.825668
 30
0.0
  0
POINT
  5
E0
  8
DEFPOINTS
  6
BYBLOCK
 62
     0
 10
12741.460426
 20
183499.825668
 30
0.0
  0
ENDBLK
  5
E2
  8
0
  0
BLOCK
  8
0
  2
*D10
 70
     1
 10
0.0
 20
0.0
 30
0.0
  3
*D10
  1

  0
LINE
  5
C7
  8
0
  6
BYBLOCK
 62
     9
 10
12624.998987
 20
183569.825668
 30
0.0
 11
12624.998987
 21
183388.198291
 31
0.0
  0
LINE
  5
C8
  8
0
  6
BYBLOCK
 62
     9
 10
12674.998987
 20
183439.825668
 30
0.0
 11
12674.998987
 21
183388.198291
 31
0.0
  0
LINE
  5
C9
  8
0
  6
BYBLOCK
 62
     9
 10
12604.998987
 20
183389.198291
 30
0.0
 11
12584.998987
 21
183389.198291
 31
0.0
  0
LINE
  5
CA
  8
0
  6
BYBLOCK
 62
     9
 10
12694.998987
 20
183389.198291
 30
0.0
 11
12714.998987
 21
183389.198291
 31
0.0
  0
TEXT
  5
CB
  8
0
  6
BYBLOCK
 62
    11
 10
12563.558058
 20
183399.954961
 30
0.0
 40
35.0
  1
50
  0
LINE
  5
CC
  8
0
  6
BYBLOCK
 62
     9
 10
12624.998987
 20
183389.198291
 30
0.0
 11
12674.998987
 21
183389.198291
 31
0.0
  0
SOLID
  5
CD
  8
0
  6
BYBLOCK
 62
     9
 10
12604.998987
 20
183392.531624
 30
0.0
 11
12604.998987
 21
183385.864957
 31
0.0
 12
12624.998987
 22
183389.198291
 32
0.0
 13
12624.998987
 23
183389.198291
 33
0.0
  0
SOLID
  5
CE
  8
0
  6
BYBLOCK
 62
     9
 10
12694.998987
 20
183392.531624
 30
0.0
 11
12694.998987
 21
183385.864957
 31
0.0
 12
12674.998987
 22
183389.198291
 32
0.0
 13
12674.998987
 23
183389.198291
 33
0.0
  0
POINT
  5
CF
  8
DEFPOINTS
  6
BYBLOCK
 62
     0
 10
12624.998987
 20
183579.825668
 30
0.0
  0
POINT
  5
D0
  8
DEFPOINTS
  6
BYBLOCK
 62
     0
 10
12674.998987
 20
183449.825668
 30
0.0
  0
POINT
  5
D1
  8
DEFPOINTS
  6
BYBLOCK
 62
     0
 10
12674.998987
 20
183389.198291
 30
0.0
  0
ENDBLK
  5
D3
  8
0
  0
BLOCK
  8
0
  2
*D11
 70
     1
 10
0.0
 20
0.0
 30
0.0
  3
*D11
  1

  0
LINE
  5
B8
  8
0
  6
BYBLOCK
 62
     9
 10
12554.998987
 20
183949.825668
 30
0.0
 11
12742.560426
 21
183949.825668
 31
0.0
  0
LINE
  5
B9
  8
0
  6
BYBLOCK
 62
     9
 10
12684.998987
 20
183999.825668
 30
0.0
 11
12742.560426
 21
183999.825668
 31
0.0
  0
LINE
  5
BA
  8
0
  6
BYBLOCK
 62
     9
 10
12741.560426
 20
183929.825668
 30
0.0
 11
12741.560426
 21
183909.825668
 31
0.0
  0
LINE
  5
BB
  8
0
  6
BYBLOCK
 62
     9
 10
12741.560426
 20
184019.825668
 30
0.0
 11
12741.560426
 21
184039.825668
 31
0.0
  0
TEXT
  5
BC
  8
0
  6
BYBLOCK
 62
    11
 10
12757.413363
 20
184004.867923
 30
0.0
 40
35.0
  1
50
 50
90.0
  0
LINE
  5
BD
  8
0
  6
BYBLOCK
 62
     9
 10
12741.560426
 20
183949.825668
 30
0.0
 11
12741.560426
 21
183999.825668
 31
0.0
  0
SOLID
  5
BE
  8
0
  6
BYBLOCK
 62
     9
 10
12738.227092
 20
183929.825668
 30
0.0
 11
12744.893759
 21
183929.825668
 31
0.0
 12
12741.560426
 22
183949.825668
 32
0.0
 13
12741.560426
 23
183949.825668
 33
0.0
  0
SOLID
  5
BF
  8
0
  6
BYBLOCK
 62
     9
 10
12738.227092
 20
184019.825668
 30
0.0
 11
12744.893759
 21
184019.825668
 31
0.0
 12
12741.560426
 22
183999.825668
 32
0.0
 13
12741.560426
 23
183999.825668
 33
0.0
  0
POINT
  5
C0
  8
DEFPOINTS
  6
BYBLOCK
 62
     0
 10
12544.998987
 20
183949.825668
 30
0.0
  0
POINT
  5
C1
  8
DEFPOINTS
  6
BYBLOCK
 62
     0
 10
12674.998987
 20
183999.825668
 30
0.0
  0
POINT
  5
C2
  8
DEFPOINTS
  6
BYBLOCK
 62
     0
 10
12741.560426
 20
183999.825668
 30
0.0
  0
ENDBLK
  5
C4
  8
0
  0
ENDSEC
  0
SECTION
  2
ENTITIES
  0
DIMENSION
  5
20
  8
TEAM-MAS
  2
*D2
 10
674.998987
 20
74.172242
 30
0.0
 11
125.000837
 21
74.172242
 31
0.0
 12
-12000.0
 22
-184000.0
 32
0.0
 13
-424.997313
 23
-0.468323
 33
0.0
 14
674.998987
 24
-0.174332
 34
0.0
  0
DIMENSION
  5
2F
  8
TEAM-MAS
  2
*D1
 10
624.998987
 20
-610.801709
 30
0.0
 11
312.499493
 21
-610.801709
 31
0.0
 12
-12000.0
 22
-184000.0
 32
0.0
 13
0.0
 23
-140.002181
 33
0.0
 14
624.998987
 24
-420.174332
 34
0.0
  0
DIMENSION
  5
3D
  8
TEAM-MAS
  2
*D0
 10
0.0
 20
36.47623
 30
0.0
 11
337.499493
 21
36.47623
 31
0.0
 12
-12000.0
 22
-184000.0
 32
0.0
 13
674.998987
 23
-0.174332
 33
0.0
 14
0.0
 24
-140.002181
 34
0.0
  0
TEXT
  5
4B
  8
TEAM-TXT
 10
273.095099
 20
-464.904553
 30
0.0
 40
30.0
  1
team 433301
 41
0.8
 51
15.0
  7
TEAM
  0
LINE
  5
4E
  8
TEAM-DET1
 10
634.998987
 20
-530.174332
 30
0.0
 11
-384.997313
 21
-530.468323
 31
0.0
  0
LINE
  5
50
  8
TEAM-BODY
 10
674.998987
 20
-550.174332
 30
0.0
 11
-424.997313
 21
-550.468323
 31
0.0
  0
LINE
  5
52
  8
TEAM-DET1
 10
-384.997313
 20
-20.468323
 30
0.0
 11
634.998987
 21
-20.174332
 31
0.0
  0
LINE
  5
53
  8
TEAM-BODY
 10
-424.997313
 20
-0.468323
 30
0.0
 11
674.998987
 21
-0.174332
 31
0.0
  0
LINE
  5
54
  8
TEAM-BODY
 10
544.998987
 20
-500.174332
 30
0.0
 11
-10.0
 21
-500.0
 31
0.0
  0
LINE
  5
55
  8
TEAM-BODY
 10
-10.0
 20
-50.0
 30
0.0
 11
544.998987
 21
-50.174332
 31
0.0
  0
DIMENSION
  5
56
  8
TEAM-MAS
  2
*D6
 10
0.0
 20
-610.527377
 30
0.0
 11
-39.935721
 21
-580.678968
 31
0.0
 12
-12000.0
 22
-184000.0
 32
0.0
 70
   128
 13
-90.0
 23
-420.0
 33
0.0
 14
0.0
 24
-140.002181
 34
0.0
  0
DIMENSION
  5
63
  8
TEAM-MAS
  2
*D5
 10
-424.997313
 20
36.182239
 30
0.0
 11
-212.498656
 21
36.182239
 31
0.0
 12
-12000.0
 22
-184000.0
 32
0.0
 13
0.0
 23
0.0
 33
0.0
 14
-424.997313
 24
-0.468323
 34
0.0
  0
DIMENSION
  5
71
  8
TEAM-MAS
  2
*D4
 10
-90.0
 20
-610.9957
 30
0.0
 11
-257.498656
 21
-610.9957
 31
0.0
 12
-12000.0
 22
-184000.0
 32
0.0
 13
-424.997313
 23
-550.468323
 33
0.0
 14
-90.0
 24
-420.0
 34
0.0
  0
DIMENSION
  5
7F
  8
07930000BE00
  2
*D3
 10
139.222056
 20
-50.0
 30
0.0
 11
139.222056
 21
-187.334719
 31
0.0
 12
-12000.0
 22
-184000.0
 32
0.0
 70
   128
 13
0.0
 23
-140.002181
 33
0.0
 14
165.914756
 24
-50.0
 34
0.0
 50
90.0
  0
ARC
  5
8D
  8
TEAM-BODY
 10
-10.0
 20
-130.0
 30
0.0
 40
80.0
 50
90.0
 51
180.0
  0
LINE
  5
8E
  8
TEAM-DET1
 10
9.601602
 20
-207.616162
 30
0.0
 11
-90.0
 21
-207.616162
 31
0.0
  0
ARC
  5
8F
  8
TEAM-BODY
 10
-10.0
 20
-420.0
 30
0.0
 40
80.0
 50
180.0
 51
270.0
  0
LINE
  5
90
  8
TEAM-BODY
 10
-90.0
 20
-130.0
 30
0.0
 11
-90.0
 21
-420.0
 31
0.0
  0
LINE
  5
91
  8
TEAM-DET1
 10
-120.270435
 20
-56.735207
 30
0.0
 11
-371.464137
 21
-57.203531
 31
0.0
  0
LINE
  5
92
  8
TEAM-DET1
 10
-120.270435
 20
-86.735207
 30
0.0
 11
-371.464137
 21
-87.203531
 31
0.0
  0
LINE
  5
93
  8
TEAM-DET1
 10
-120.270435
 20
-116.735207
 30
0.0
 11
-371.464137
 21
-117.203531
 31
0.0
  0
LINE
  5
94
  8
TEAM-DET1
 10
-120.270435
 20
-146.735207
 30
0.0
 11
-371.464137
 21
-147.203531
 31
0.0
  0
ARC
  5
95
  8
TEAM-DET1
 10
-384.997313
 20
-40.468323
 30
0.0
 40
20.0
 50
90.0
 51
180.0
  0
LINE
  5
96
  8
TEAM-DET1
 10
-120.270435
 20
-176.735207
 30
0.0
 11
-371.464137
 21
-177.203531
 31
0.0
  0
LINE
  5
97
  8
TEAM-DET1
 10
-120.270435
 20
-206.735207
 30
0.0
 11
-371.464137
 21
-207.203531
 31
0.0
  0
LINE
  5
98
  8
TEAM-DET1
 10
-120.270435
 20
-236.735207
 30
0.0
 11
-371.464137
 21
-237.203531
 31
0.0
  0
LINE
  5
99
  8
TEAM-DET1
 10
-120.270435
 20
-266.735207
 30
0.0
 11
-371.464137
 21
-267.203531
 31
0.0
  0
LINE
  5
9A
  8
TEAM-DET1
 10
-120.270435
 20
-296.735207
 30
0.0
 11
-371.464137
 21
-297.203531
 31
0.0
  0
LINE
  5
9B
  8
TEAM-DET1
 10
-120.270435
 20
-326.735207
 30
0.0
 11
-371.464137
 21
-327.203531
 31
0.0
  0
LINE
  5
9C
  8
TEAM-DET1
 10
-120.270435
 20
-356.735207
 30
0.0
 11
-371.464137
 21
-357.203531
 31
0.0
  0
LINE
  5
9D
  8
TEAM-DET1
 10
-120.270435
 20
-386.735207
 30
0.0
 11
-371.464137
 21
-387.203531
 31
0.0
  0
LINE
  5
9E
  8
TEAM-DET1
 10
-120.270435
 20
-416.735207
 30
0.0
 11
-371.464137
 21
-417.203531
 31
0.0
  0
LINE
  5
9F
  8
TEAM-DET1
 10
-120.270435
 20
-446.735207
 30
0.0
 11
-371.464137
 21
-447.203531
 31
0.0
  0
LINE
  5
A0
  8
TEAM-DET1
 10
-120.270435
 20
-476.735207
 30
0.0
 11
-371.464137
 21
-477.203531
 31
0.0
  0
ARC
  5
A1
  8
TEAM-DET1
 10
-384.997313
 20
-510.468323
 30
0.0
 40
20.0
 50
180.0
 51
270.0
  0
LINE
  5
A2
  8
TEAM-BODY
 10
-424.997313
 20
-550.468323
 30
0.0
 11
-424.997313
 21
-0.468323
 31
0.0
  0
LINE
  5
A3
  8
TEAM-DET1
 10
-404.997313
 20
-510.468323
 30
0.0
 11
-404.997313
 21
-40.468323
 31
0.0
  0
CIRCLE
  5
A4
  8
TEAM-COLD
 10
336.5
 20
0.0
 30
0.0
 40
15.0
  0
LINE
  5
A6
  8
TEAM-AXE
 10
316.5
 20
0.0
 30
0.0
 11
356.5
 21
0.0
 31
0.0
  0
CIRCLE
  5
A9
  8
TEAM-WARM
 10
183.5
 20
0.0
 30
0.0
 40
15.0
  0
LINE
  5
AB
  8
TEAM-AXE
 10
183.5
 20
-20.0
 30
0.0
 11
183.5
 21
20.0
 31
0.0
  0
LINE
  5
AC
  8
TEAM-AXE
 10
163.5
 20
0.0
 30
0.0
 11
203.5
 21
0.0
 31
0.0
  0
LINE
  5
AD
  8
TEAM-AXE
 10
336.5
 20
-20.0
 30
0.0
 11
336.5
 21
20.0
 31
0.0
  0
LINE
  5
AE
  8
TEAM-DET1
 10
69.601602
 20
-50.0
 30
0.0
 11
69.601602
 21
-147.616162
 31
0.0
  0
LINE
  5
AF
  8
TEAM-AXE
 10
31.0
 20
-140.002181
 30
0.0
 11
-31.0
 21
-140.002181
 31
0.0
  0
CIRCLE
  5
B0
  8
TEAM-INSP
 10
0.0
 20
0.0
 30
0.0
 40
10.0
  0
ARC
  5
B2
  8
TEAM-DET1
 10
9.601602
 20
-147.616162
 30
0.0
 40
60.0
 50
270.0
 51
0.0
  0
CIRCLE
  5
B3
  8
TEAM-DET1
 10
0.0
 20
-140.002181
 30
0.0
 40
21.0
  0
CIRCLE
  5
B4
  8
TEAM-BODY
 10
0.0
 20
-140.002181
 30
0.0
 40
26.0
  0
LINE
  5
B5
  8
TEAM-AXE
 10
0.0
 20
-171.002181
 30
0.0
 11
0.0
 21
-109.002181
 31
0.0
  0
DIMENSION
  5
B6
  8
TEAM-MAS
  2
*D11
 10
741.560426
 20
-0.174332
 30
0.0
 11
739.913363
 21
31.117923
 31
0.0
 12
-12000.0
 22
-184000.0
 32
0.0
 70
   128
 13
544.998987
 23
-50.174332
 33
0.0
 14
674.998987
 24
-0.174332
 34
0.0
 50
90.0
  0
DIMENSION
  5
C5
  8
TEAM-MAS
  2
*D10
 10
674.998987
 20
-610.801709
 30
0.0
 11
589.808058
 21
-582.545039
 31
0.0
 12
-12000.0
 22
-184000.0
 32
0.0
 70
   128
 13
624.998987
 23
-420.174332
 33
0.0
 14
674.998987
 24
-550.174332
 34
0.0
  0
DIMENSION
  5
D4
  8
TEAM-MAS
  2
*D9
 10
741.460426
 20
-500.174332
 30
0.0
 11
743.416069
 21
-586.819793
 31
0.0
 12
-12000.0
 22
-184000.0
 32
0.0
 70
   128
 13
674.998987
 23
-550.174332
 33
0.0
 14
544.998987
 24
-500.174332
 34
0.0
 50
90.0
  0
DIMENSION
  5
E3
  8
TEAM-MAS
  2
*D8
 10
741.560426
 20
-50.174332
 30
0.0
 11
741.560426
 21
-275.174332
 31
0.0
 12
-12000.0
 22
-184000.0
 32
0.0
 13
544.998987
 23
-500.174332
 33
0.0
 14
544.998987
 24
-50.174332
 34
0.0
 50
90.0
  0
DIMENSION
  5
F1
  8
TEAM-MAS
  2
*D7
 10
783.340651
 20
-550.174332
 30
0.0
 11
783.340651
 21
-275.174332
 31
0.0
 12
-12000.0
 22
-184000.0
 32
0.0
 13
674.998987
 23
-0.174332
 33
0.0
 14
674.998987
 24
-550.174332
 34
0.0
 50
90.0
  0
ARC
  5
FF
  8
TEAM-BODY
 10
544.998987
 20
-130.174332
 30
0.0
 40
80.0
 50
0.0
 51
90.0
  0
ARC
  5
100
  8
TEAM-DET1
 10
634.998987
 20
-40.174332
 30
0.0
 40
20.0
 50
0.0
 51
90.0
  0
ARC
  5
101
  8
TEAM-BODY
 10
544.998987
 20
-420.174332
 30
0.0
 40
80.0
 50
270.0
 51
0.0
  0
ARC
  5
102
  8
TEAM-DET1
 10
634.998987
 20
-510.174332
 30
0.0
 40
20.0
 50
270.0
 51
0.0
  0
LINE
  5
103
  8
TEAM-BODY
 10
674.998987
 20
-0.174332
 30
0.0
 11
674.998987
 21
-550.174332
 31
0.0
  0
LINE
  5
104
  8
TEAM-DET1
 10
654.998987
 20
-40.174332
 30
0.0
 11
654.998987
 21
-510.174332
 31
0.0
  0
LINE
  5
105
  8
TEAM-BODY
 10
624.998987
 20
-130.174332
 30
0.0
 11
624.998987
 21
-420.174332
 31
0.0
  0
ENDSEC
  0
EOF
