  0
SECTION
  2
HEADER
  9
$ACADVER
  1
AC1009
  9
$INSBASE
 10
0.0
 20
0.0
 30
0.0
  9
$EXTMIN
 10
-420.046847
 20
-10.062079
 30
0.0
  9
$EXTMAX
 10
910.628238
 20
1119.995325
 30
0.000005
  9
$LIMMIN
 10
-420.046847
 20
-10.062079
  9
$LIMMAX
 10
910.628238
 20
1119.995325
  9
$ORTHOMODE
 70
     1
  9
$REGENMODE
 70
     1
  9
$FILLMODE
 70
     1
  9
$QTEXTMODE
 70
     0
  9
$MIRRTEXT
 70
     0
  9
$DRAGMODE
 70
     2
  9
$LTSCALE
 40
50.0
  9
$OSMODE
 70
     0
  9
$ATTMODE
 70
     1
  9
$TEXTSIZE
 40
200.0
  9
$TRACEWID
 40
1.0
  9
$TEXTSTYLE
  7
STANDARD
  9
$CLAYER
  8
TEAM-MAS
  9
$CELTYPE
  6
BYLAYER
  9
$CECOLOR
 62
   256
  9
$DIMSCALE
 40
0.0
  9
$DIMASZ
 40
20.0
  9
$DIMEXO
 40
10.0
  9
$DIMDLI
 40
1.0
  9
$DIMRND
 40
0.0
  9
$DIMDLE
 40
0.0
  9
$DIMEXE
 40
1.0
  9
$DIMTP
 40
0.0
  9
$DIMTM
 40
0.0
  9
$DIMTXT
 40
35.0
  9
$DIMCEN
 40
1.0
  9
$DIMTSZ
 40
0.0
  9
$DIMTOL
 70
     0
  9
$DIMLIM
 70
     0
  9
$DIMTIH
 70
     0
  9
$DIMTOH
 70
     0
  9
$DIMSE1
 70
     0
  9
$DIMSE2
 70
     0
  9
$DIMTAD
 70
     0
  9
$DIMZIN
 70
     0
  9
$DIMBLK
  1

  9
$DIMASO
 70
     1
  9
$DIMSHO
 70
     0
  9
$DIMPOST
  1

  9
$DIMAPOST
  1

  9
$DIMALT
 70
     0
  9
$DIMALTD
 70
     2
  9
$DIMALTF
 40
25.4
  9
$DIMLFAC
 40
1.0
  9
$DIMTOFL
 70
     0
  9
$DIMTVP
 40
0.0
  9
$DIMTIX
 70
     0
  9
$DIMSOXD
 70
     0
  9
$DIMSAH
 70
     0
  9
$DIMBLK1
  1

  9
$DIMBLK2
  1

  9
$DIMSTYLE
  2
TEAM
  9
$DIMCLRD
 70
     9
  9
$DIMCLRE
 70
     9
  9
$DIMCLRT
 70
    11
  9
$DIMTFAC
 40
1.0
  9
$DIMGAP
 40
7.0
  9
$LUNITS
 70
     2
  9
$LUPREC
 70
     1
  9
$SKETCHINC
 40
1.0
  9
$FILLETRAD
 40
50.0
  9
$AUNITS
 70
     0
  9
$AUPREC
 70
     0
  9
$MENU
  1
ROPLANS
  9
$ELEVATION
 40
0.0
  9
$PELEVATION
 40
0.0
  9
$THICKNESS
 40
0.0
  9
$LIMCHECK
 70
     0
  9
$BLIPMODE
 70
     1
  9
$CHAMFERA
 40
0.0
  9
$CHAMFERB
 40
0.0
  9
$SKPOLY
 70
     0
  9
$TDCREATE
 40
2450392.957851
  9
$TDUPDATE
 40
2456272.033233
  9
$TDINDWG
 40
2.315654
  9
$TDUSRTIMER
 40
2.315654
  9
$USRTIMER
 70
     1
  9
$ANGBASE
 50
0.0
  9
$ANGDIR
 70
     0
  9
$PDMODE
 70
     0
  9
$PDSIZE
 40
0.0
  9
$PLINEWID
 40
0.0
  9
$COORDS
 70
     2
  9
$SPLFRAME
 70
     0
  9
$SPLINETYPE
 70
     6
  9
$SPLINESEGS
 70
     8
  9
$ATTDIA
 70
     0
  9
$ATTREQ
 70
     0
  9
$HANDLING
 70
     1
  9
$HANDSEED
  5
11C
  9
$SURFTAB1
 70
    24
  9
$SURFTAB2
 70
    24
  9
$SURFTYPE
 70
     6
  9
$SURFU
 70
     6
  9
$SURFV
 70
     6
  9
$UCSNAME
  2

  9
$UCSORG
 10
0.0
 20
0.0
 30
0.0
  9
$UCSXDIR
 10
1.0
 20
0.0
 30
0.0
  9
$UCSYDIR
 10
0.0
 20
1.0
 30
0.0
  9
$PUCSNAME
  2

  9
$PUCSORG
 10
0.0
 20
0.0
 30
0.0
  9
$PUCSXDIR
 10
1.0
 20
0.0
 30
0.0
  9
$PUCSYDIR
 10
0.0
 20
1.0
 30
0.0
  9
$USERI1
 70
     0
  9
$USERI2
 70
     0
  9
$USERI3
 70
     0
  9
$USERI4
 70
     0
  9
$USERI5
 70
     0
  9
$USERR1
 40
0.0
  9
$USERR2
 40
0.0
  9
$USERR3
 40
0.0
  9
$USERR4
 40
0.0
  9
$USERR5
 40
0.0
  9
$WORLDVIEW
 70
     1
  9
$SHADEDGE
 70
     0
  9
$SHADEDIF
 70
    70
  9
$TILEMODE
 70
     1
  9
$MAXACTVP
 70
    16
  9
$PLIMCHECK
 70
     0
  9
$PEXTMIN
 10
-0.805942
 20
0.005011
 30
0.0
  9
$PEXTMAX
 10
20.250094
 20
11.356329
 30
0.0
  9
$PLIMMIN
 10
0.0
 20
0.0
  9
$PLIMMAX
 10
12.0
 20
9.0
  9
$UNITMODE
 70
     0
  9
$VISRETAIN
 70
     0
  9
$PLINEGEN
 70
     0
  9
$PSLTSCALE
 70
     0
  0
ENDSEC
  0
SECTION
  2
TABLES
  0
TABLE
  2
VPORT
 70
     2
  0
VPORT
  2
*ACTIVE
 70
     0
 10
0.0
 20
0.0
 11
1.0
 21
1.0
 12
245.290696
 22
554.966623
 13
0.0
 23
0.0
 14
1.0
 24
1.0
 15
50.0
 25
50.0
 16
0.0
 26
0.0
 36
1.0
 17
0.0
 27
0.0
 37
0.0
 40
1137.172141
 41
1.911765
 42
50.0
 43
0.0
 44
0.0
 50
0.0
 51
0.0
 71
     0
 72
   100
 73
     1
 74
     1
 75
     0
 76
     0
 77
     0
 78
     0
  0
ENDTAB
  0
TABLE
  2
LTYPE
 70
     3
  0
LTYPE
  2
CONTINUOUS
 70
     0
  3
Solid Line
 72
    65
 73
     0
 40
0.0
  0
LTYPE
  2
31
 70
     0
  3

 72
    65
 73
     4
 40
2.1
 49
1.5
 49
-0.3
 49
0.0
 49
-0.3
  0
LTYPE
  2
22
 70
     0
  3

 72
    65
 73
     2
 40
1.4
 49
1.2
 49
-0.2
  0
ENDTAB
  0
TABLE
  2
LAYER
 70
    11
  0
LAYER
  2
0
 70
     0
 62
     7
  6
CONTINUOUS
  0
LAYER
  2
DEFPOINTS
 70
     0
 62
     7
  6
CONTINUOUS
  0
LAYER
  2
TEAM-BODY
 70
     0
 62
     2
  6
CONTINUOUS
  0
LAYER
  2
TEAM-AXE
 70
     0
 62
    10
  6
31
  0
LAYER
  2
TEAM-MAS
 70
     0
 62
     9
  6
CONTINUOUS
  0
LAYER
  2
TEAM-TXT
 70
     0
 62
    11
  6
CONTINUOUS
  0
LAYER
  2
TEAM-COLD
 70
     0
 62
     3
  6
CONTINUOUS
  0
LAYER
  2
TEAM-HIDE
 70
     0
 62
     8
  6
22
  0
LAYER
  2
TEAM-KAN
 70
     0
 62
     6
  6
CONTINUOUS
  0
LAYER
  2
TEAM-WARM
 70
     0
 62
     1
  6
CONTINUOUS
  0
LAYER
  2
TEAM-INSP
 70
     0
 62
     5
  6
CONTINUOUS
  0
ENDTAB
  0
TABLE
  2
STYLE
 70
     2
  0
STYLE
  2
STANDARD
 70
     0
 40
0.0
 41
1.0
 50
0.0
 71
     0
 42
200.0
  3
txt
  4

  0
STYLE
  2
TEAM
 70
     0
 40
0.0
 41
0.8
 50
15.0
 71
     0
 42
7.0
  3
ROMANS.shx
  4

  0
ENDTAB
  0
TABLE
  2
VIEW
 70
     0
  0
ENDTAB
  0
TABLE
  2
UCS
 70
     0
  0
ENDTAB
  0
TABLE
  2
APPID
 70
     1
  0
APPID
  2
ACAD
 70
     0
  0
ENDTAB
  0
TABLE
  2
DIMSTYLE
 70
     1
  0
DIMSTYLE
  2
TEAM
 70
     0
  3

  4

  5

  6

  7

 40
0.0
 41
20.0
 42
10.0
 43
1.0
 44
1.0
 45
0.0
 46
0.0
 47
0.0
 48
0.0
140
35.0
141
1.0
142
0.0
143
25.4
144
1.0
145
0.0
146
1.0
147
7.0
 71
     0
 72
     0
 73
     0
 74
     0
 75
     0
 76
     0
 77
     0
 78
     0
170
     0
171
     2
172
     0
173
     0
174
     0
175
     0
176
     9
177
     9
178
    11
  0
ENDTAB
  0
ENDSEC
  0
SECTION
  2
BLOCKS
  0
BLOCK
  8
0
  2
$MODEL_SPACE
 70
     0
 10
0.0
 20
0.0
 30
0.0
  3
$MODEL_SPACE
  1

  0
ENDBLK
  5
115
  8
0
  0
BLOCK
 67
     1
  8
0
  2
$PAPER_SPACE
 70
     0
 10
0.0
 20
0.0
 30
0.0
  3
$PAPER_SPACE
  1

  0
ENDBLK
  5
113
 67
     1
  8
0
  0
BLOCK
  8
0
  2
*D0
 70
     1
 10
0.0
 20
0.0
 30
0.0
  3
*D0
  1

  0
LINE
  5
AE
  8
0
  6
BYBLOCK
 62
     9
 10
4680.0
 20
188810.0
 30
0.0
 11
4680.0
 21
188837.541603
 31
0.0
  0
LINE
  5
AF
  8
0
  6
BYBLOCK
 62
     9
 10
3580.0
 20
188810.0
 30
0.0
 11
3580.0
 21
188837.541603
 31
0.0
  0
LINE
  5
B0
  8
0
  6
BYBLOCK
 62
     9
 10
4660.0
 20
188836.541603
 30
0.0
 11
4183.666667
 21
188836.541603
 31
0.0
  0
LINE
  5
B1
  8
0
  6
BYBLOCK
 62
     9
 10
3600.0
 20
188836.541603
 30
0.0
 11
4076.333333
 21
188836.541603
 31
0.0
  0
SOLID
  5
B2
  8
0
  6
BYBLOCK
 62
     9
 10
4660.0
 20
188839.874937
 30
0.0
 11
4660.0
 21
188833.20827
 31
0.0
 12
4680.0
 22
188836.541603
 32
0.0
 13
4680.0
 23
188836.541603
 33
0.0
  0
SOLID
  5
B3
  8
0
  6
BYBLOCK
 62
     9
 10
3600.0
 20
188839.874937
 30
0.0
 11
3600.0
 21
188833.20827
 31
0.0
 12
3580.0
 22
188836.541603
 32
0.0
 13
3580.0
 23
188836.541603
 33
0.0
  0
TEXT
  5
B4
  8
0
  6
BYBLOCK
 62
    11
 10
4083.333333
 20
188819.041603
 30
0.0
 40
35.0
  1
1100
  0
POINT
  5
B5
  8
DEFPOINTS
  6
BYBLOCK
 62
     0
 10
4680.0
 20
188800.0
 30
0.0
  0
POINT
  5
B6
  8
DEFPOINTS
  6
BYBLOCK
 62
     0
 10
3580.0
 20
188800.0
 30
0.0
  0
POINT
  5
B7
  8
DEFPOINTS
  6
BYBLOCK
 62
     0
 10
3580.0
 20
188836.541603
 30
0.0
  0
ENDBLK
  5
B9
  8
0
  0
BLOCK
  8
0
  2
*D1
 70
     1
 10
0.0
 20
0.0
 30
0.0
  3
*D1
  1

  0
LINE
  5
BF
  8
0
  6
BYBLOCK
 62
     9
 10
4356.5
 20
189090.0
 30
0.0
 11
4356.5
 21
189020.296029
 31
0.0
  0
LINE
  5
C0
  8
0
  6
BYBLOCK
 62
     9
 10
4203.5
 20
189090.0
 30
0.0
 11
4203.5
 21
189020.296029
 31
0.0
  0
LINE
  5
C1
  8
0
  6
BYBLOCK
 62
     9
 10
4336.5
 20
189021.296029
 30
0.0
 11
4327.833333
 21
189021.296029
 31
0.0
  0
LINE
  5
C2
  8
0
  6
BYBLOCK
 62
     9
 10
4223.5
 20
189021.296029
 30
0.0
 11
4232.166667
 21
189021.296029
 31
0.0
  0
TEXT
  5
C3
  8
0
  6
BYBLOCK
 62
    11
 10
4239.166667
 20
189003.796029
 30
0.0
 40
35.0
  1
153
  0
SOLID
  5
C4
  8
0
  6
BYBLOCK
 62
     9
 10
4336.5
 20
189024.629362
 30
0.0
 11
4336.5
 21
189017.962696
 31
0.0
 12
4356.5
 22
189021.296029
 32
0.0
 13
4356.5
 23
189021.296029
 33
0.0
  0
SOLID
  5
C5
  8
0
  6
BYBLOCK
 62
     9
 10
4223.5
 20
189024.629362
 30
0.0
 11
4223.5
 21
189017.962696
 31
0.0
 12
4203.5
 22
189021.296029
 32
0.0
 13
4203.5
 23
189021.296029
 33
0.0
  0
POINT
  5
C6
  8
DEFPOINTS
  6
BYBLOCK
 62
     0
 10
4356.5
 20
189100.0
 30
0.0
  0
POINT
  5
C7
  8
DEFPOINTS
  6
BYBLOCK
 62
     0
 10
4203.5
 20
189100.0
 30
0.0
  0
POINT
  5
C8
  8
DEFPOINTS
  6
BYBLOCK
 62
     0
 10
4203.5
 20
189021.296029
 30
0.0
  0
ENDBLK
  5
CA
  8
0
  0
BLOCK
  8
0
  2
*D2
 70
     1
 10
0.0
 20
0.0
 30
0.0
  3
*D2
  1

  0
LINE
  5
69
  8
0
  6
BYBLOCK
 62
     9
 10
4271.0
 20
188485.0
 30
0.0
 11
4724.239478
 21
188485.0
 31
0.0
  0
LINE
  5
6A
  8
0
  6
BYBLOCK
 62
     9
 10
4051.0
 20
188457.0
 30
0.0
 11
4724.239478
 21
188457.0
 31
0.0
  0
LINE
  5
6B
  8
0
  6
BYBLOCK
 62
     9
 10
4723.239478
 20
188505.0
 30
0.0
 11
4723.239478
 21
188525.0
 31
0.0
  0
LINE
  5
6C
  8
0
  6
BYBLOCK
 62
     9
 10
4723.239478
 20
188437.0
 30
0.0
 11
4723.239478
 21
188417.0
 31
0.0
  0
TEXT
  5
6D
  8
0
  6
BYBLOCK
 62
    11
 10
4713.08694
 20
188402.833333
 30
0.0
 40
35.0
  1
28
 50
90.0
  0
LINE
  5
6E
  8
0
  6
BYBLOCK
 62
     9
 10
4723.239478
 20
188485.0
 30
0.0
 11
4723.239478
 21
188457.0
 31
0.0
  0
SOLID
  5
6F
  8
0
  6
BYBLOCK
 62
     9
 10
4719.906145
 20
188505.0
 30
0.0
 11
4726.572811
 21
188505.0
 31
0.0
 12
4723.239478
 22
188485.0
 32
0.0
 13
4723.239478
 23
188485.0
 33
0.0
  0
SOLID
  5
70
  8
0
  6
BYBLOCK
 62
     9
 10
4719.906145
 20
188437.0
 30
0.0
 11
4726.572811
 21
188437.0
 31
0.0
 12
4723.239478
 22
188457.0
 32
0.0
 13
4723.239478
 23
188457.0
 33
0.0
  0
POINT
  5
71
  8
DEFPOINTS
  6
BYBLOCK
 62
     0
 10
4261.0
 20
188485.0
 30
0.0
  0
POINT
  5
72
  8
DEFPOINTS
  6
BYBLOCK
 62
     0
 10
4041.0
 20
188457.0
 30
0.0
  0
POINT
  5
73
  8
DEFPOINTS
  6
BYBLOCK
 62
     0
 10
4723.239478
 20
188457.0
 30
0.0
  0
ENDBLK
  5
75
  8
0
  0
BLOCK
  8
0
  2
*D3
 70
     1
 10
0.0
 20
0.0
 30
0.0
  3
*D3
  1

  0
LINE
  5
5B
  8
0
  6
BYBLOCK
 62
     9
 10
4334.718265
 20
188485.0
 30
0.0
 11
4724.239478
 21
188485.0
 31
0.0
  0
LINE
  5
5C
  8
0
  6
BYBLOCK
 62
     9
 10
4690.0
 20
188800.0
 30
0.0
 11
4724.239478
 21
188800.0
 31
0.0
  0
LINE
  5
5D
  8
0
  6
BYBLOCK
 62
     9
 10
4723.239478
 20
188505.0
 30
0.0
 11
4723.239478
 21
188594.666667
 31
0.0
  0
LINE
  5
5E
  8
0
  6
BYBLOCK
 62
     9
 10
4723.239478
 20
188780.0
 30
0.0
 11
4723.239478
 21
188690.333333
 31
0.0
  0
SOLID
  5
5F
  8
0
  6
BYBLOCK
 62
     9
 10
4719.906145
 20
188505.0
 30
0.0
 11
4726.572811
 21
188505.0
 31
0.0
 12
4723.239478
 22
188485.0
 32
0.0
 13
4723.239478
 23
188485.0
 33
0.0
  0
SOLID
  5
60
  8
0
  6
BYBLOCK
 62
     9
 10
4719.906145
 20
188780.0
 30
0.0
 11
4726.572811
 21
188780.0
 31
0.0
 12
4723.239478
 22
188800.0
 32
0.0
 13
4723.239478
 23
188800.0
 33
0.0
  0
TEXT
  5
61
  8
0
  6
BYBLOCK
 62
    11
 10
4740.739478
 20
188601.666667
 30
0.0
 40
35.0
  1
315
 50
90.0
  0
POINT
  5
62
  8
DEFPOINTS
  6
BYBLOCK
 62
     0
 10
4324.718265
 20
188485.0
 30
0.0
  0
POINT
  5
63
  8
DEFPOINTS
  6
BYBLOCK
 62
     0
 10
4680.0
 20
188800.0
 30
0.0
  0
POINT
  5
64
  8
DEFPOINTS
  6
BYBLOCK
 62
     0
 10
4723.239478
 20
188800.0
 30
0.0
  0
ENDBLK
  5
66
  8
0
  0
BLOCK
  8
0
  2
*D4
 70
     1
 10
0.0
 20
0.0
 30
0.0
  3
*D4
  1

  0
LINE
  5
91
  8
0
  6
BYBLOCK
 62
     9
 10
4270.0
 20
188000.0
 30
0.0
 11
4724.239478
 21
188000.0
 31
0.0
  0
LINE
  5
92
  8
0
  6
BYBLOCK
 62
     9
 10
4140.0
 20
188380.0
 30
0.0
 11
4724.239478
 21
188380.0
 31
0.0
  0
LINE
  5
93
  8
0
  6
BYBLOCK
 62
     9
 10
4723.239478
 20
188020.0
 30
0.0
 11
4723.239478
 21
188075.083333
 31
0.0
  0
LINE
  5
94
  8
0
  6
BYBLOCK
 62
     9
 10
4723.239478
 20
188360.0
 30
0.0
 11
4723.239478
 21
188304.916667
 31
0.0
  0
SOLID
  5
95
  8
0
  6
BYBLOCK
 62
     9
 10
4719.906145
 20
188020.0
 30
0.0
 11
4726.572811
 21
188020.0
 31
0.0
 12
4723.239478
 22
188000.0
 32
0.0
 13
4723.239478
 23
188000.0
 33
0.0
  0
SOLID
  5
96
  8
0
  6
BYBLOCK
 62
     9
 10
4719.906145
 20
188360.0
 30
0.0
 11
4726.572811
 21
188360.0
 31
0.0
 12
4723.239478
 22
188380.0
 32
0.0
 13
4723.239478
 23
188380.0
 33
0.0
  0
TEXT
  5
97
  8
0
  6
BYBLOCK
 62
    11
 10
4740.739478
 20
188082.083333
 30
0.0
 40
35.0
  1
300-450
 50
90.0
  0
POINT
  5
98
  8
DEFPOINTS
  6
BYBLOCK
 62
     0
 10
4260.0
 20
188000.0
 30
0.0
  0
POINT
  5
99
  8
DEFPOINTS
  6
BYBLOCK
 62
     0
 10
4130.0
 20
188380.0
 30
0.0
  0
POINT
  5
9A
  8
DEFPOINTS
  6
BYBLOCK
 62
     0
 10
4723.239478
 20
188380.0
 30
0.0
  0
ENDBLK
  5
9C
  8
0
  0
BLOCK
  8
0
  2
*D5
 70
     1
 10
0.0
 20
0.0
 30
0.0
  3
*D5
  1

  0
LINE
  5
83
  8
0
  6
BYBLOCK
 62
     9
 10
4270.0
 20
188000.0
 30
0.0
 11
4664.239478
 21
188000.0
 31
0.0
  0
LINE
  5
84
  8
0
  6
BYBLOCK
 62
     9
 10
4140.0
 20
188380.0
 30
0.0
 11
4664.239478
 21
188380.0
 31
0.0
  0
LINE
  5
85
  8
0
  6
BYBLOCK
 62
     9
 10
4663.239478
 20
188020.0
 30
0.0
 11
4663.239478
 21
188139.25
 31
0.0
  0
LINE
  5
86
  8
0
  6
BYBLOCK
 62
     9
 10
4663.239478
 20
188360.0
 30
0.0
 11
4663.239478
 21
188240.75
 31
0.0
  0
SOLID
  5
87
  8
0
  6
BYBLOCK
 62
     9
 10
4659.906145
 20
188020.0
 30
0.0
 11
4666.572811
 21
188020.0
 31
0.0
 12
4663.239478
 22
188000.0
 32
0.0
 13
4663.239478
 23
188000.0
 33
0.0
  0
SOLID
  5
88
  8
0
  6
BYBLOCK
 62
     9
 10
4659.906145
 20
188360.0
 30
0.0
 11
4666.572811
 21
188360.0
 31
0.0
 12
4663.239478
 22
188380.0
 32
0.0
 13
4663.239478
 23
188380.0
 33
0.0
  0
TEXT
  5
89
  8
0
  6
BYBLOCK
 62
    11
 10
4680.739478
 20
188146.25
 30
0.0
 40
35.0
  1
380
 50
90.0
  0
POINT
  5
8A
  8
DEFPOINTS
  6
BYBLOCK
 62
     0
 10
4260.0
 20
188000.0
 30
0.0
  0
POINT
  5
8B
  8
DEFPOINTS
  6
BYBLOCK
 62
     0
 10
4130.0
 20
188380.0
 30
0.0
  0
POINT
  5
8C
  8
DEFPOINTS
  6
BYBLOCK
 62
     0
 10
4663.239478
 20
188380.0
 30
0.0
  0
ENDBLK
  5
8E
  8
0
  0
BLOCK
  8
0
  2
*D6
 70
     1
 10
0.0
 20
0.0
 30
0.0
  3
*D6
  1

  0
LINE
  5
4D
  8
0
  6
BYBLOCK
 62
     9
 10
4270.0
 20
188000.0
 30
0.0
 11
4761.433623
 21
188000.0
 31
0.0
  0
LINE
  5
4E
  8
0
  6
BYBLOCK
 62
     9
 10
4690.0
 20
188800.0
 30
0.0
 11
4761.433623
 21
188800.0
 31
0.0
  0
LINE
  5
4F
  8
0
  6
BYBLOCK
 62
     9
 10
4760.433623
 20
188020.0
 30
0.0
 11
4760.433623
 21
188332.166667
 31
0.0
  0
LINE
  5
50
  8
0
  6
BYBLOCK
 62
     9
 10
4760.433623
 20
188780.0
 30
0.0
 11
4760.433623
 21
188427.833333
 31
0.0
  0
TEXT
  5
51
  8
0
  6
BYBLOCK
 62
    11
 10
4777.933623
 20
188339.166667
 30
0.0
 40
35.0
  1
800
 50
90.0
  0
SOLID
  5
52
  8
0
  6
BYBLOCK
 62
     9
 10
4757.10029
 20
188020.0
 30
0.0
 11
4763.766957
 21
188020.0
 31
0.0
 12
4760.433623
 22
188000.0
 32
0.0
 13
4760.433623
 23
188000.0
 33
0.0
  0
SOLID
  5
53
  8
0
  6
BYBLOCK
 62
     9
 10
4757.10029
 20
188780.0
 30
0.0
 11
4763.766957
 21
188780.0
 31
0.0
 12
4760.433623
 22
188800.0
 32
0.0
 13
4760.433623
 23
188800.0
 33
0.0
  0
POINT
  5
54
  8
DEFPOINTS
  6
BYBLOCK
 62
     0
 10
4260.0
 20
188000.0
 30
0.0
  0
POINT
  5
55
  8
DEFPOINTS
  6
BYBLOCK
 62
     0
 10
4680.0
 20
188800.0
 30
0.0
  0
POINT
  5
56
  8
DEFPOINTS
  6
BYBLOCK
 62
     0
 10
4760.433623
 20
188800.0
 30
0.0
  0
ENDBLK
  5
58
  8
0
  0
BLOCK
  8
0
  2
*D7
 70
     1
 10
0.0
 20
0.0
 30
0.0
  3
*D7
  1

  0
LINE
  5
3F
  8
0
  6
BYBLOCK
 62
     9
 10
4270.0
 20
188000.0
 30
0.0
 11
4805.646472
 21
188000.0
 31
0.0
  0
LINE
  5
40
  8
0
  6
BYBLOCK
 62
     9
 10
4690.0
 20
188800.0
 30
0.0
 11
4805.646472
 21
188800.0
 31
0.0
  0
LINE
  5
41
  8
0
  6
BYBLOCK
 62
     9
 10
4804.646472
 20
188020.0
 30
0.0
 11
4804.646472
 21
188265.083333
 31
0.0
  0
LINE
  5
42
  8
0
  6
BYBLOCK
 62
     9
 10
4804.646472
 20
188780.0
 30
0.0
 11
4804.646472
 21
188494.916667
 31
0.0
  0
TEXT
  5
43
  8
0
  6
BYBLOCK
 62
    11
 10
4822.146472
 20
188272.083333
 30
0.0
 40
35.0
  1
700-850
 50
90.0
  0
SOLID
  5
44
  8
0
  6
BYBLOCK
 62
     9
 10
4801.313138
 20
188020.0
 30
0.0
 11
4807.979805
 21
188020.0
 31
0.0
 12
4804.646472
 22
188000.0
 32
0.0
 13
4804.646472
 23
188000.0
 33
0.0
  0
SOLID
  5
45
  8
0
  6
BYBLOCK
 62
     9
 10
4801.313138
 20
188780.0
 30
0.0
 11
4807.979805
 21
188780.0
 31
0.0
 12
4804.646472
 22
188800.0
 32
0.0
 13
4804.646472
 23
188800.0
 33
0.0
  0
POINT
  5
46
  8
DEFPOINTS
  6
BYBLOCK
 62
     0
 10
4260.0
 20
188000.0
 30
0.0
  0
POINT
  5
47
  8
DEFPOINTS
  6
BYBLOCK
 62
     0
 10
4680.0
 20
188800.0
 30
0.0
  0
POINT
  5
48
  8
DEFPOINTS
  6
BYBLOCK
 62
     0
 10
4804.646472
 20
188800.0
 30
0.0
  0
ENDBLK
  5
4A
  8
0
  0
BLOCK
  8
0
  2
*D8
 70
     1
 10
0.0
 20
0.0
 30
0.0
  3
*D8
  1

  0
LINE
  5
31
  8
0
  6
BYBLOCK
 62
     9
 10
4270.0
 20
188000.0
 30
0.0
 11
4849.857911
 21
188000.0
 31
0.0
  0
LINE
  5
32
  8
0
  6
BYBLOCK
 62
     9
 10
4386.5
 20
189099.97844
 30
0.0
 11
4849.857911
 21
189099.97844
 31
0.0
  0
LINE
  5
33
  8
0
  6
BYBLOCK
 62
     9
 10
4848.857911
 20
188020.0
 30
0.0
 11
4848.857911
 21
188481.333333
 31
0.0
  0
LINE
  5
34
  8
0
  6
BYBLOCK
 62
     9
 10
4848.857911
 20
189079.97844
 30
0.0
 11
4848.857911
 21
188588.666667
 31
0.0
  0
TEXT
  5
35
  8
0
  6
BYBLOCK
 62
    11
 10
4866.357911
 20
188488.333333
 30
0.0
 40
35.0
  1
1100
 50
90.0
  0
SOLID
  5
36
  8
0
  6
BYBLOCK
 62
     9
 10
4845.524578
 20
188020.0
 30
0.0
 11
4852.191245
 21
188020.0
 31
0.0
 12
4848.857911
 22
188000.0
 32
0.0
 13
4848.857911
 23
188000.0
 33
0.0
  0
SOLID
  5
37
  8
0
  6
BYBLOCK
 62
     9
 10
4845.524578
 20
189079.97844
 30
0.0
 11
4852.191245
 21
189079.97844
 31
0.0
 12
4848.857911
 22
189099.97844
 32
0.0
 13
4848.857911
 23
189099.97844
 33
0.0
  0
POINT
  5
38
  8
DEFPOINTS
  6
BYBLOCK
 62
     0
 10
4260.0
 20
188000.0
 30
0.0
  0
POINT
  5
39
  8
DEFPOINTS
  6
BYBLOCK
 62
     0
 10
4376.5
 20
189099.97844
 30
0.0
  0
POINT
  5
3A
  8
DEFPOINTS
  6
BYBLOCK
 62
     0
 10
4848.857911
 20
189099.97844
 30
0.0
  0
ENDBLK
  5
3C
  8
0
  0
BLOCK
  8
0
  2
*D9
 70
     1
 10
0.0
 20
0.0
 30
0.0
  3
*D9
  1

  0
LINE
  5
22
  8
0
  6
BYBLOCK
 62
     9
 10
4270.0
 20
188000.0
 30
0.0
 11
4894.07076
 21
188000.0
 31
0.0
  0
LINE
  5
23
  8
0
  6
BYBLOCK
 62
     9
 10
4386.5
 20
189099.97844
 30
0.0
 11
4894.07076
 21
189099.97844
 31
0.0
  0
LINE
  5
24
  8
0
  6
BYBLOCK
 62
     9
 10
4893.07076
 20
188020.0
 30
0.0
 11
4893.07076
 21
188402.583333
 31
0.0
  0
LINE
  5
25
  8
0
  6
BYBLOCK
 62
     9
 10
4893.07076
 20
189079.97844
 30
0.0
 11
4893.07076
 21
188667.416667
 31
0.0
  0
TEXT
  5
26
  8
0
  6
BYBLOCK
 62
    11
 10
4910.57076
 20
188409.583333
 30
0.0
 40
35.0
  1
1100-1250
 50
90.0
  0
SOLID
  5
27
  8
0
  6
BYBLOCK
 62
     9
 10
4889.737426
 20
188020.0
 30
0.0
 11
4896.404093
 21
188020.0
 31
0.0
 12
4893.07076
 22
188000.0
 32
0.0
 13
4893.07076
 23
188000.0
 33
0.0
  0
SOLID
  5
28
  8
0
  6
BYBLOCK
 62
     9
 10
4889.737426
 20
189079.97844
 30
0.0
 11
4896.404093
 21
189079.97844
 31
0.0
 12
4893.07076
 22
189099.97844
 32
0.0
 13
4893.07076
 23
189099.97844
 33
0.0
  0
POINT
  5
29
  8
DEFPOINTS
  6
BYBLOCK
 62
     0
 10
4260.0
 20
188000.0
 30
0.0
  0
POINT
  5
2B
  8
DEFPOINTS
  6
BYBLOCK
 62
     0
 10
4376.5
 20
189099.97844
 30
0.0
  0
POINT
  5
2C
  8
DEFPOINTS
  6
BYBLOCK
 62
     0
 10
4893.07076
 20
189099.97844
 30
0.0
  0
ENDBLK
  5
2E
  8
0
  0
ENDSEC
  0
SECTION
  2
ENTITIES
  0
DIMENSION
  5
20
  8
TEAM-MAS
  2
*D9
 10
893.07076
 20
1099.97844
 30
0.0
 11
893.07076
 21
535.0
 31
0.0
 12
-4000.0
 22
-188000.0
 32
0.0
 70
   128
  1
1100-1250
 13
260.0
 23
0.0
 33
0.0
 14
376.5
 24
1099.97844
 34
0.0
 50
90.0
  0
DIMENSION
  5
2F
  8
TEAM-MAS
  2
*D8
 10
848.857911
 20
1099.97844
 30
0.0
 11
848.857911
 21
535.0
 31
0.0
 12
-4000.0
 22
-188000.0
 32
0.0
 70
   128
 13
260.0
 23
0.0
 33
0.0
 14
376.5
 24
1099.97844
 34
0.0
 50
90.0
  0
DIMENSION
  5
3D
  8
TEAM-MAS
  2
*D7
 10
804.646472
 20
800.0
 30
0.0
 11
804.646472
 21
380.0
 31
0.0
 12
-4000.0
 22
-188000.0
 32
0.0
 70
   128
  1
700-850
 13
260.0
 23
0.0
 33
0.0
 14
680.0
 24
800.0
 34
0.0
 50
90.0
  0
DIMENSION
  5
4B
  8
TEAM-MAS
  2
*D6
 10
760.433623
 20
800.0
 30
0.0
 11
760.433623
 21
380.0
 31
0.0
 12
-4000.0
 22
-188000.0
 32
0.0
 70
   128
 13
260.0
 23
0.0
 33
0.0
 14
680.0
 24
800.0
 34
0.0
 50
90.0
  0
DIMENSION
  5
59
  8
TEAM-MAS
  2
*D3
 10
723.239478
 20
800.0
 30
0.0
 11
723.239478
 21
642.5
 31
0.0
 12
-4000.0
 22
-188000.0
 32
0.0
 13
324.718265
 23
485.0
 33
0.0
 14
680.0
 24
800.0
 34
0.0
 50
90.0
  0
DIMENSION
  5
67
  8
TEAM-MAS
  2
*D2
 10
723.239478
 20
457.0
 30
0.0
 11
695.58694
 21
432.0
 31
0.0
 12
-4000.0
 22
-188000.0
 32
0.0
 70
   128
 13
261.0
 23
485.0
 33
0.0
 14
41.0
 24
457.0
 34
0.0
 50
270.0
1001
ACAD
1000
DSTYLE
1002
{
1070
    40
1040
1.0
1002
}
  0
LINE
  5
76
  8
TEAM-BODY
 10
611.004174
 20
490.0
 30
0.0
 11
-48.995826
 21
484.598033
 31
0.0
  0
LINE
  5
78
  8
TEAM-AXE
 10
20.0
 20
584.001676
 30
0.0
 11
20.0
 21
457.0
 31
0.0
  0
ARC
  5
7B
  8
TEAM-BODY
 10
-50.0
 20
504.572808
 30
0.0
 40
20.0
 50
180.0
 51
272.877956
  0
LINE
  5
7C
  8
TEAM-BODY
 10
41.0
 20
487.111428
 30
0.0
 11
41.0
 21
457.0
 31
0.0
  0
ARC
  5
7D
  8
TEAM-BODY
 10
610.0
 20
509.974775
 30
0.0
 40
20.0
 50
272.877956
 51
0.0
  0
LINE
  5
7E
  8
TEAM-AXE
 10
-30.0
 20
380.0
 30
0.0
 11
-90.0
 21
380.0
 31
0.0
  0
CIRCLE
  5
7F
  8
TEAM-KAN
 10
-60.0
 20
380.0
 30
0.0
 40
20.0
  0
DIMENSION
  5
81
  8
TEAM-MAS
  2
*D5
 10
663.239478
 20
380.0
 30
0.0
 11
663.239478
 21
190.0
 31
0.0
 12
-4000.0
 22
-188000.0
 32
0.0
 13
260.0
 23
0.0
 33
0.0
 14
130.0
 24
380.0
 34
0.0
 50
90.0
  0
DIMENSION
  5
8F
  8
TEAM-MAS
  2
*D4
 10
723.239478
 20
380.0
 30
0.0
 11
723.239478
 21
190.0
 31
0.0
 12
-4000.0
 22
-188000.0
 32
0.0
  1
300-450
 13
260.0
 23
0.0
 33
0.0
 14
130.0
 24
380.0
 34
0.0
 50
90.0
  0
CIRCLE
  5
9D
  8
TEAM-INSP
 10
0.0
 20
0.0
 30
0.0
 40
10.0
  0
LINE
  5
9F
  8
TEAM-BODY
 10
41.0
 20
457.0
 30
0.0
 11
-1.0
 21
457.0
 31
0.0
  0
ARC
  5
A0
  8
TEAM-HIDE
 10
60.0
 20
345.980383
 30
0.0
 40
40.0
 50
180.0
 51
0.0
  0
LINE
  5
A3
  8
TEAM-BODY
 10
-1.0
 20
485.0
 30
0.0
 11
-1.0
 21
457.0
 31
0.0
  0
LINE
  5
A4
  8
TEAM-KAN
 10
20.0
 20
457.0
 30
0.0
 11
20.0
 21
345.980383
 31
0.0
  0
LINE
  5
A5
  8
TEAM-KAN
 10
-60.0
 20
350.0
 30
0.0
 11
-60.0
 21
345.980383
 31
0.0
  0
LINE
  5
A6
  8
TEAM-AXE
 10
-60.0
 20
350.0
 30
0.0
 11
-60.0
 21
415.0
 31
0.0
  0
ARC
  5
A7
  8
TEAM-KAN
 10
-20.0
 20
345.980383
 30
0.0
 40
40.0
 50
180.0
 51
0.0
  0
LINE
  5
A8
  8
TEAM-AXE
 10
130.0
 20
380.0
 30
0.0
 11
70.0
 21
380.0
 31
0.0
  0
LINE
  5
A9
  8
TEAM-HIDE
 10
100.0
 20
350.0
 30
0.0
 11
100.0
 21
345.980383
 31
0.0
  0
CIRCLE
  5
AA
  8
TEAM-HIDE
 10
100.0
 20
380.0
 30
0.0
 40
20.0
  0
LINE
  5
AB
  8
TEAM-AXE
 10
100.0
 20
350.0
 30
0.0
 11
100.0
 21
415.0
 31
0.0
  0
DIMENSION
  5
AC
  8
TEAM-MAS
  2
*D0
 10
-420.0
 20
836.541603
 30
0.0
 11
130.0
 21
836.541603
 31
0.0
 12
-4000.0
 22
-188000.0
 32
0.0
 13
680.0
 23
800.0
 33
0.0
 14
-420.0
 24
800.0
 34
0.0
  0
LINE
  5
BA
  8
TEAM-BODY
 10
-420.0
 20
770.0
 30
0.0
 11
680.0
 21
770.0
 31
0.0
  0
LINE
  5
BB
  8
TEAM-BODY
 10
-420.0
 20
800.0
 30
0.0
 11
680.0
 21
800.0
 31
0.0
  0
LINE
  5
BC
  8
TEAM-BODY
 10
-420.0
 20
800.0
 30
0.0
 11
-420.0
 21
770.0
 31
0.0
  0
DIMENSION
  5
BD
  8
TEAM-MAS
  2
*D1
 10
203.5
 20
1021.296029
 30
0.0
 11
280.0
 21
1021.296029
 31
0.0
 12
-4000.0
 22
-188000.0
 32
0.0
 70
   128
 13
356.5
 23
1100.0
 33
0.0
 14
203.5
 24
1100.0
 34
0.0
  0
TEXT
  5
CB
  8
TEAM-TXT
 10
317.254353
 20
569.29514
 30
0.0
 40
30.0
  1
team 433301
 41
0.8
 51
15.0
  7
TEAM
  0
LINE
  5
CE
  8
TEAM-BODY
 10
-70.0
 20
770.0
 30
0.0
 11
-70.0
 21
504.572808
 31
0.0
  0
CIRCLE
  5
CF
  8
TEAM-COLD
 10
356.5
 20
1099.97844
 30
0.0
 40
15.0
  0
LINE
  5
D1
  8
TEAM-AXE
 10
336.5
 20
1099.97844
 30
0.0
 11
376.5
 21
1099.97844
 31
0.0
  0
LINE
  5
D2
  8
TEAM-AXE
 10
183.5
 20
1099.97844
 30
0.0
 11
223.5
 21
1099.97844
 31
0.0
  0
CIRCLE
  5
D3
  8
TEAM-WARM
 10
203.5
 20
1099.97844
 30
0.0
 40
15.0
  0
LINE
  5
D5
  8
TEAM-AXE
 10
203.5
 20
1119.97844
 30
0.0
 11
203.5
 21
1079.97844
 31
0.0
  0
LINE
  5
D6
  8
TEAM-AXE
 10
356.5
 20
1119.97844
 30
0.0
 11
356.5
 21
1079.97844
 31
0.0
  0
LINE
  5
D7
  8
TEAM-BODY
 10
680.0
 20
800.0
 30
0.0
 11
680.0
 21
770.0
 31
0.0
  0
LINE
  5
D8
  8
TEAM-BODY
 10
630.0
 20
770.0
 30
0.0
 11
630.0
 21
509.974775
 31
0.0
  0
ENDSEC
  0
EOF
