  0
SECTION
  2
HEADER
  9
$ACADVER
  1
AC1009
  9
$INSBASE
 10
0.0
 20
0.0
 30
0.0
  9
$EXTMIN
 10
-274.476123
 20
-10.062079
 30
0.0
  9
$EXTMAX
 10
500.0424
 20
1120.082052
 30
0.000005
  9
$LIMMIN
 10
-274.476123
 20
-10.062079
  9
$LIMMAX
 10
500.0424
 20
1120.082052
  9
$ORTHOMODE
 70
     1
  9
$REGENMODE
 70
     1
  9
$FILLMODE
 70
     1
  9
$QTEXTMODE
 70
     0
  9
$MIRRTEXT
 70
     0
  9
$DRAGMODE
 70
     2
  9
$LTSCALE
 40
50.0
  9
$OSMODE
 70
     0
  9
$ATTMODE
 70
     1
  9
$TEXTSIZE
 40
200.0
  9
$TRACEWID
 40
1.0
  9
$TEXTSTYLE
  7
STANDARD
  9
$CLAYER
  8
TEAM-MAS
  9
$CELTYPE
  6
BYLAYER
  9
$CECOLOR
 62
   256
  9
$DIMSCALE
 40
0.0
  9
$DIMASZ
 40
20.0
  9
$DIMEXO
 40
10.0
  9
$DIMDLI
 40
1.0
  9
$DIMRND
 40
0.0
  9
$DIMDLE
 40
0.0
  9
$DIMEXE
 40
1.0
  9
$DIMTP
 40
0.0
  9
$DIMTM
 40
0.0
  9
$DIMTXT
 40
35.0
  9
$DIMCEN
 40
1.0
  9
$DIMTSZ
 40
0.0
  9
$DIMTOL
 70
     0
  9
$DIMLIM
 70
     0
  9
$DIMTIH
 70
     0
  9
$DIMTOH
 70
     0
  9
$DIMSE1
 70
     0
  9
$DIMSE2
 70
     0
  9
$DIMTAD
 70
     0
  9
$DIMZIN
 70
     0
  9
$DIMBLK
  1

  9
$DIMASO
 70
     1
  9
$DIMSHO
 70
     0
  9
$DIMPOST
  1

  9
$DIMAPOST
  1

  9
$DIMALT
 70
     0
  9
$DIMALTD
 70
     2
  9
$DIMALTF
 40
25.4
  9
$DIMLFAC
 40
1.0
  9
$DIMTOFL
 70
     0
  9
$DIMTVP
 40
0.0
  9
$DIMTIX
 70
     0
  9
$DIMSOXD
 70
     0
  9
$DIMSAH
 70
     0
  9
$DIMBLK1
  1

  9
$DIMBLK2
  1

  9
$DIMSTYLE
  2
TEAM
  9
$DIMCLRD
 70
     9
  9
$DIMCLRE
 70
     9
  9
$DIMCLRT
 70
    11
  9
$DIMTFAC
 40
1.0
  9
$DIMGAP
 40
7.0
  9
$LUNITS
 70
     2
  9
$LUPREC
 70
     1
  9
$SKETCHINC
 40
1.0
  9
$FILLETRAD
 40
50.0
  9
$AUNITS
 70
     0
  9
$AUPREC
 70
     0
  9
$MENU
  1
ROPLANS
  9
$ELEVATION
 40
0.0
  9
$PELEVATION
 40
0.0
  9
$THICKNESS
 40
0.0
  9
$LIMCHECK
 70
     0
  9
$BLIPMODE
 70
     1
  9
$CHAMFERA
 40
0.0
  9
$CHAMFERB
 40
0.0
  9
$SKPOLY
 70
     0
  9
$TDCREATE
 40
2450392.957851
  9
$TDUPDATE
 40
2456272.033233
  9
$TDINDWG
 40
2.315654
  9
$TDUSRTIMER
 40
2.315654
  9
$USRTIMER
 70
     1
  9
$ANGBASE
 50
0.0
  9
$ANGDIR
 70
     0
  9
$PDMODE
 70
     0
  9
$PDSIZE
 40
0.0
  9
$PLINEWID
 40
0.0
  9
$COORDS
 70
     2
  9
$SPLFRAME
 70
     0
  9
$SPLINETYPE
 70
     6
  9
$SPLINESEGS
 70
     8
  9
$ATTDIA
 70
     0
  9
$ATTREQ
 70
     0
  9
$HANDLING
 70
     1
  9
$HANDSEED
  5
10A
  9
$SURFTAB1
 70
    24
  9
$SURFTAB2
 70
    24
  9
$SURFTYPE
 70
     6
  9
$SURFU
 70
     6
  9
$SURFV
 70
     6
  9
$UCSNAME
  2

  9
$UCSORG
 10
0.0
 20
0.0
 30
0.0
  9
$UCSXDIR
 10
1.0
 20
0.0
 30
0.0
  9
$UCSYDIR
 10
0.0
 20
1.0
 30
0.0
  9
$PUCSNAME
  2

  9
$PUCSORG
 10
0.0
 20
0.0
 30
0.0
  9
$PUCSXDIR
 10
1.0
 20
0.0
 30
0.0
  9
$PUCSYDIR
 10
0.0
 20
1.0
 30
0.0
  9
$USERI1
 70
     0
  9
$USERI2
 70
     0
  9
$USERI3
 70
     0
  9
$USERI4
 70
     0
  9
$USERI5
 70
     0
  9
$USERR1
 40
0.0
  9
$USERR2
 40
0.0
  9
$USERR3
 40
0.0
  9
$USERR4
 40
0.0
  9
$USERR5
 40
0.0
  9
$WORLDVIEW
 70
     1
  9
$SHADEDGE
 70
     0
  9
$SHADEDIF
 70
    70
  9
$TILEMODE
 70
     1
  9
$MAXACTVP
 70
    16
  9
$PLIMCHECK
 70
     0
  9
$PEXTMIN
 10
-0.805942
 20
0.005011
 30
0.0
  9
$PEXTMAX
 10
20.250094
 20
11.356329
 30
0.0
  9
$PLIMMIN
 10
0.0
 20
0.0
  9
$PLIMMAX
 10
12.0
 20
9.0
  9
$UNITMODE
 70
     0
  9
$VISRETAIN
 70
     0
  9
$PLINEGEN
 70
     0
  9
$PSLTSCALE
 70
     0
  0
ENDSEC
  0
SECTION
  2
TABLES
  0
TABLE
  2
VPORT
 70
     2
  0
VPORT
  2
*ACTIVE
 70
     0
 10
0.0
 20
0.0
 11
1.0
 21
1.0
 12
112.783138
 22
555.009987
 13
0.0
 23
0.0
 14
1.0
 24
1.0
 15
50.0
 25
50.0
 16
0.0
 26
0.0
 36
1.0
 17
0.0
 27
0.0
 37
0.0
 40
1137.259415
 41
1.911765
 42
50.0
 43
0.0
 44
0.0
 50
0.0
 51
0.0
 71
     0
 72
   100
 73
     1
 74
     1
 75
     0
 76
     0
 77
     0
 78
     0
  0
ENDTAB
  0
TABLE
  2
LTYPE
 70
     2
  0
LTYPE
  2
CONTINUOUS
 70
     0
  3
Solid Line
 72
    65
 73
     0
 40
0.0
  0
LTYPE
  2
31
 70
     0
  3

 72
    65
 73
     4
 40
2.1
 49
1.5
 49
-0.3
 49
0.0
 49
-0.3
  0
ENDTAB
  0
TABLE
  2
LAYER
 70
    11
  0
LAYER
  2
0
 70
     0
 62
     7
  6
CONTINUOUS
  0
LAYER
  2
DEFPOINTS
 70
     0
 62
     7
  6
CONTINUOUS
  0
LAYER
  2
TEAM-BODY
 70
     0
 62
     2
  6
CONTINUOUS
  0
LAYER
  2
TEAM-AXE
 70
     0
 62
    10
  6
31
  0
LAYER
  2
TEAM-MAS
 70
     0
 62
     9
  6
CONTINUOUS
  0
LAYER
  2
TEAM-TXT
 70
     0
 62
    11
  6
CONTINUOUS
  0
LAYER
  2
TEAM-DET1
 70
     0
 62
     4
  6
CONTINUOUS
  0
LAYER
  2
TEAM-COLD
 70
     0
 62
     3
  6
CONTINUOUS
  0
LAYER
  2
TEAM-KAN
 70
     0
 62
     6
  6
CONTINUOUS
  0
LAYER
  2
TEAM-WARM
 70
     0
 62
     1
  6
CONTINUOUS
  0
LAYER
  2
TEAM-INSP
 70
     0
 62
     5
  6
CONTINUOUS
  0
ENDTAB
  0
TABLE
  2
STYLE
 70
     2
  0
STYLE
  2
STANDARD
 70
     0
 40
0.0
 41
1.0
 50
0.0
 71
     0
 42
200.0
  3
txt
  4

  0
STYLE
  2
TEAM
 70
     0
 40
0.0
 41
0.8
 50
15.0
 71
     0
 42
7.0
  3
ROMANS.shx
  4

  0
ENDTAB
  0
TABLE
  2
VIEW
 70
     0
  0
ENDTAB
  0
TABLE
  2
UCS
 70
     0
  0
ENDTAB
  0
TABLE
  2
APPID
 70
     1
  0
APPID
  2
ACAD
 70
     0
  0
ENDTAB
  0
TABLE
  2
DIMSTYLE
 70
     1
  0
DIMSTYLE
  2
TEAM
 70
     0
  3

  4

  5

  6

  7

 40
0.0
 41
20.0
 42
10.0
 43
1.0
 44
1.0
 45
0.0
 46
0.0
 47
0.0
 48
0.0
140
35.0
141
1.0
142
0.0
143
25.4
144
1.0
145
0.0
146
1.0
147
7.0
 71
     0
 72
     0
 73
     0
 74
     0
 75
     0
 76
     0
 77
     0
 78
     0
170
     0
171
     2
172
     0
173
     0
174
     0
175
     0
176
     9
177
     9
178
    11
  0
ENDTAB
  0
ENDSEC
  0
SECTION
  2
BLOCKS
  0
BLOCK
  8
0
  2
$MODEL_SPACE
 70
     0
 10
0.0
 20
0.0
 30
0.0
  3
$MODEL_SPACE
  1

  0
ENDBLK
  5
103
  8
0
  0
BLOCK
 67
     1
  8
0
  2
$PAPER_SPACE
 70
     0
 10
0.0
 20
0.0
 30
0.0
  3
$PAPER_SPACE
  1

  0
ENDBLK
  5
101
 67
     1
  8
0
  0
BLOCK
  8
0
  2
*D0
 70
     1
 10
0.0
 20
0.0
 30
0.0
  3
*D0
  1

  0
LINE
  5
93
  8
0
  6
BYBLOCK
 62
     9
 10
0.0
 20
192812.172136
 30
0.0
 11
0.0
 21
192903.311212
 31
0.0
  0
LINE
  5
94
  8
0
  6
BYBLOCK
 62
     9
 10
500.0
 20
192810.0
 30
0.0
 11
500.0
 21
192903.311212
 31
0.0
  0
LINE
  5
95
  8
0
  6
BYBLOCK
 62
     9
 10
20.0
 20
192902.311212
 30
0.0
 11
202.166667
 21
192902.311212
 31
0.0
  0
LINE
  5
96
  8
0
  6
BYBLOCK
 62
     9
 10
480.0
 20
192902.311212
 30
0.0
 11
297.833333
 21
192902.311212
 31
0.0
  0
SOLID
  5
97
  8
0
  6
BYBLOCK
 62
     9
 10
20.0
 20
192905.644545
 30
0.0
 11
20.0
 21
192898.977878
 31
0.0
 12
0.0
 22
192902.311212
 32
0.0
 13
0.0
 23
192902.311212
 33
0.0
  0
SOLID
  5
98
  8
0
  6
BYBLOCK
 62
     9
 10
480.0
 20
192905.644545
 30
0.0
 11
480.0
 21
192898.977878
 31
0.0
 12
500.0
 22
192902.311212
 32
0.0
 13
500.0
 23
192902.311212
 33
0.0
  0
TEXT
  5
99
  8
0
  6
BYBLOCK
 62
    11
 10
209.166667
 20
192884.811212
 30
0.0
 40
35.0
  1
500
  0
POINT
  5
9A
  8
DEFPOINTS
  6
BYBLOCK
 62
     0
 10
0.0
 20
192802.172136
 30
0.0
  0
POINT
  5
9B
  8
DEFPOINTS
  6
BYBLOCK
 62
     0
 10
500.0
 20
192800.0
 30
0.0
  0
POINT
  5
9C
  8
DEFPOINTS
  6
BYBLOCK
 62
     0
 10
500.0
 20
192902.311212
 30
0.0
  0
ENDBLK
  5
9E
  8
0
  0
BLOCK
  8
0
  2
*D1
 70
     1
 10
0.0
 20
0.0
 30
0.0
  3
*D1
  1

  0
LINE
  5
85
  8
0
  6
BYBLOCK
 62
     9
 10
109.0
 20
192485.008334
 30
0.0
 11
-38.931308
 21
192485.008334
 31
0.0
  0
LINE
  5
86
  8
0
  6
BYBLOCK
 62
     9
 10
109.0
 20
192457.0083
 30
0.0
 11
-38.931308
 21
192457.0083
 31
0.0
  0
LINE
  5
87
  8
0
  6
BYBLOCK
 62
     9
 10
-37.931308
 20
192437.0083
 30
0.0
 11
-37.931308
 21
192417.0083
 31
0.0
  0
LINE
  5
88
  8
0
  6
BYBLOCK
 62
     9
 10
-37.931308
 20
192505.008334
 30
0.0
 11
-37.931308
 21
192578.799837
 31
0.0
  0
SOLID
  5
89
  8
0
  6
BYBLOCK
 62
     9
 10
-41.264641
 20
192437.0083
 30
0.0
 11
-34.597975
 21
192437.0083
 31
0.0
 12
-37.931308
 22
192457.0083
 32
0.0
 13
-37.931308
 23
192457.0083
 33
0.0
  0
SOLID
  5
8A
  8
0
  6
BYBLOCK
 62
     9
 10
-41.264641
 20
192505.008334
 30
0.0
 11
-34.597975
 21
192505.008334
 31
0.0
 12
-37.931308
 22
192485.008334
 32
0.0
 13
-37.931308
 23
192485.008334
 33
0.0
  0
TEXT
  5
8B
  8
0
  6
BYBLOCK
 62
    11
 10
-20.431308
 20
192585.799837
 30
0.0
 40
35.0
  1
28
 50
90.0
  0
POINT
  5
8C
  8
DEFPOINTS
  6
BYBLOCK
 62
     0
 10
119.0
 20
192485.008334
 30
0.0
  0
POINT
  5
8D
  8
DEFPOINTS
  6
BYBLOCK
 62
     0
 10
119.0
 20
192457.0083
 30
0.0
  0
POINT
  5
8E
  8
DEFPOINTS
  6
BYBLOCK
 62
     0
 10
-37.931308
 20
192457.0083
 30
0.0
  0
ENDBLK
  5
90
  8
0
  0
BLOCK
  8
0
  2
*D2
 70
     1
 10
0.0
 20
0.0
 30
0.0
  3
*D2
  1

  0
LINE
  5
77
  8
0
  6
BYBLOCK
 62
     9
 10
-10.0
 20
192800.0
 30
0.0
 11
-87.341138
 21
192800.0
 31
0.0
  0
LINE
  5
78
  8
0
  6
BYBLOCK
 62
     9
 10
109.0
 20
192485.0
 30
0.0
 11
-87.341138
 21
192485.0
 31
0.0
  0
LINE
  5
79
  8
0
  6
BYBLOCK
 62
     9
 10
-86.341138
 20
192780.0
 30
0.0
 11
-86.341138
 21
192690.333333
 31
0.0
  0
LINE
  5
7A
  8
0
  6
BYBLOCK
 62
     9
 10
-86.341138
 20
192505.0
 30
0.0
 11
-86.341138
 21
192594.666667
 31
0.0
  0
SOLID
  5
7B
  8
0
  6
BYBLOCK
 62
     9
 10
-89.674472
 20
192780.0
 30
0.0
 11
-83.007805
 21
192780.0
 31
0.0
 12
-86.341138
 22
192800.0
 32
0.0
 13
-86.341138
 23
192800.0
 33
0.0
  0
SOLID
  5
7C
  8
0
  6
BYBLOCK
 62
     9
 10
-89.674472
 20
192505.0
 30
0.0
 11
-83.007805
 21
192505.0
 31
0.0
 12
-86.341138
 22
192485.0
 32
0.0
 13
-86.341138
 23
192485.0
 33
0.0
  0
TEXT
  5
7D
  8
0
  6
BYBLOCK
 62
    11
 10
-68.841138
 20
192601.666667
 30
0.0
 40
35.0
  1
315
 50
90.0
  0
POINT
  5
7E
  8
DEFPOINTS
  6
BYBLOCK
 62
     0
 10
0.0
 20
192800.0
 30
0.0
  0
POINT
  5
7F
  8
DEFPOINTS
  6
BYBLOCK
 62
     0
 10
119.0
 20
192485.0
 30
0.0
  0
POINT
  5
80
  8
DEFPOINTS
  6
BYBLOCK
 62
     0
 10
-86.341138
 20
192485.0
 30
0.0
  0
ENDBLK
  5
82
  8
0
  0
BLOCK
  8
0
  2
*D3
 70
     1
 10
0.0
 20
0.0
 30
0.0
  3
*D3
  1

  0
LINE
  5
69
  8
0
  6
BYBLOCK
 62
     9
 10
-10.0
 20
192000.0
 30
0.0
 11
-87.371875
 21
192000.0
 31
0.0
  0
LINE
  5
6A
  8
0
  6
BYBLOCK
 62
     9
 10
-10.0
 20
192380.0
 30
0.0
 11
-87.371875
 21
192380.0
 31
0.0
  0
LINE
  5
6B
  8
0
  6
BYBLOCK
 62
     9
 10
-86.371875
 20
192020.0
 30
0.0
 11
-86.371875
 21
192075.083333
 31
0.0
  0
LINE
  5
6C
  8
0
  6
BYBLOCK
 62
     9
 10
-86.371875
 20
192360.0
 30
0.0
 11
-86.371875
 21
192304.916667
 31
0.0
  0
SOLID
  5
6D
  8
0
  6
BYBLOCK
 62
     9
 10
-89.705208
 20
192020.0
 30
0.0
 11
-83.038542
 21
192020.0
 31
0.0
 12
-86.371875
 22
192000.0
 32
0.0
 13
-86.371875
 23
192000.0
 33
0.0
  0
SOLID
  5
6E
  8
0
  6
BYBLOCK
 62
     9
 10
-89.705208
 20
192360.0
 30
0.0
 11
-83.038542
 21
192360.0
 31
0.0
 12
-86.371875
 22
192380.0
 32
0.0
 13
-86.371875
 23
192380.0
 33
0.0
  0
TEXT
  5
6F
  8
0
  6
BYBLOCK
 62
    11
 10
-68.871875
 20
192082.083333
 30
0.0
 40
35.0
  1
300-450
 50
90.0
  0
POINT
  5
70
  8
DEFPOINTS
  6
BYBLOCK
 62
     0
 10
0.0
 20
192000.0
 30
0.0
  0
POINT
  5
71
  8
DEFPOINTS
  6
BYBLOCK
 62
     0
 10
0.0
 20
192380.0
 30
0.0
  0
POINT
  5
72
  8
DEFPOINTS
  6
BYBLOCK
 62
     0
 10
-86.371875
 20
192380.0
 30
0.0
  0
ENDBLK
  5
74
  8
0
  0
BLOCK
  8
0
  2
*D4
 70
     1
 10
0.0
 20
0.0
 30
0.0
  3
*D4
  1

  0
LINE
  5
5B
  8
0
  6
BYBLOCK
 62
     9
 10
-10.0
 20
192000.0
 30
0.0
 11
-44.302982
 21
192000.0
 31
0.0
  0
LINE
  5
5C
  8
0
  6
BYBLOCK
 62
     9
 10
-10.0
 20
192380.0
 30
0.0
 11
-44.302982
 21
192380.0
 31
0.0
  0
LINE
  5
5D
  8
0
  6
BYBLOCK
 62
     9
 10
-43.302982
 20
192020.0
 30
0.0
 11
-43.302982
 21
192139.25
 31
0.0
  0
LINE
  5
5E
  8
0
  6
BYBLOCK
 62
     9
 10
-43.302982
 20
192360.0
 30
0.0
 11
-43.302982
 21
192240.75
 31
0.0
  0
SOLID
  5
5F
  8
0
  6
BYBLOCK
 62
     9
 10
-46.636315
 20
192020.0
 30
0.0
 11
-39.969649
 21
192020.0
 31
0.0
 12
-43.302982
 22
192000.0
 32
0.0
 13
-43.302982
 23
192000.0
 33
0.0
  0
SOLID
  5
60
  8
0
  6
BYBLOCK
 62
     9
 10
-46.636315
 20
192360.0
 30
0.0
 11
-39.969649
 21
192360.0
 31
0.0
 12
-43.302982
 22
192380.0
 32
0.0
 13
-43.302982
 23
192380.0
 33
0.0
  0
TEXT
  5
61
  8
0
  6
BYBLOCK
 62
    11
 10
-25.802982
 20
192146.25
 30
0.0
 40
35.0
  1
380
 50
90.0
  0
POINT
  5
62
  8
DEFPOINTS
  6
BYBLOCK
 62
     0
 10
0.0
 20
192000.0
 30
0.0
  0
POINT
  5
63
  8
DEFPOINTS
  6
BYBLOCK
 62
     0
 10
0.0
 20
192380.0
 30
0.0
  0
POINT
  5
64
  8
DEFPOINTS
  6
BYBLOCK
 62
     0
 10
-43.302982
 20
192380.0
 30
0.0
  0
ENDBLK
  5
66
  8
0
  0
BLOCK
  8
0
  2
*D5
 70
     1
 10
0.0
 20
0.0
 30
0.0
  3
*D5
  1

  0
LINE
  5
4D
  8
0
  6
BYBLOCK
 62
     9
 10
-10.0
 20
192000.0
 30
0.0
 11
-213.195995
 21
192000.0
 31
0.0
  0
LINE
  5
4E
  8
0
  6
BYBLOCK
 62
     9
 10
-10.0
 20
193100.0
 30
0.0
 11
-213.195995
 21
193100.0
 31
0.0
  0
LINE
  5
4F
  8
0
  6
BYBLOCK
 62
     9
 10
-212.195995
 20
192020.0
 30
0.0
 11
-212.195995
 21
192476.333333
 31
0.0
  0
LINE
  5
50
  8
0
  6
BYBLOCK
 62
     9
 10
-212.195995
 20
193080.0
 30
0.0
 11
-212.195995
 21
192583.666667
 31
0.0
  0
TEXT
  5
51
  8
0
  6
BYBLOCK
 62
    11
 10
-194.695995
 20
192483.333333
 30
0.0
 40
35.0
  1
1100
 50
90.0
  0
SOLID
  5
52
  8
0
  6
BYBLOCK
 62
     9
 10
-215.529328
 20
192020.0
 30
0.0
 11
-208.862661
 21
192020.0
 31
0.0
 12
-212.195995
 22
192000.0
 32
0.0
 13
-212.195995
 23
192000.0
 33
0.0
  0
SOLID
  5
53
  8
0
  6
BYBLOCK
 62
     9
 10
-215.529328
 20
193080.0
 30
0.0
 11
-208.862661
 21
193080.0
 31
0.0
 12
-212.195995
 22
193100.0
 32
0.0
 13
-212.195995
 23
193100.0
 33
0.0
  0
POINT
  5
54
  8
DEFPOINTS
  6
BYBLOCK
 62
     0
 10
0.0
 20
192000.0
 30
0.0
  0
POINT
  5
55
  8
DEFPOINTS
  6
BYBLOCK
 62
     0
 10
0.0
 20
193100.0
 30
0.0
  0
POINT
  5
56
  8
DEFPOINTS
  6
BYBLOCK
 62
     0
 10
-212.195995
 20
193100.0
 30
0.0
  0
ENDBLK
  5
58
  8
0
  0
BLOCK
  8
0
  2
*D6
 70
     1
 10
0.0
 20
0.0
 30
0.0
  3
*D6
  1

  0
LINE
  5
3F
  8
0
  6
BYBLOCK
 62
     9
 10
-10.0
 20
192000.0
 30
0.0
 11
-257.95828
 21
192000.0
 31
0.0
  0
LINE
  5
40
  8
0
  6
BYBLOCK
 62
     9
 10
-2.420683
 20
193100.0
 30
0.0
 11
-257.95828
 21
193100.0
 31
0.0
  0
LINE
  5
41
  8
0
  6
BYBLOCK
 62
     9
 10
-256.95828
 20
192020.0
 30
0.0
 11
-256.95828
 21
192397.583333
 31
0.0
  0
LINE
  5
42
  8
0
  6
BYBLOCK
 62
     9
 10
-256.95828
 20
193080.0
 30
0.0
 11
-256.95828
 21
192662.416667
 31
0.0
  0
TEXT
  5
43
  8
0
  6
BYBLOCK
 62
    11
 10
-239.45828
 20
192404.583333
 30
0.0
 40
35.0
  1
1100-1250
 50
90.0
  0
SOLID
  5
44
  8
0
  6
BYBLOCK
 62
     9
 10
-260.291613
 20
192020.0
 30
0.0
 11
-253.624947
 21
192020.0
 31
0.0
 12
-256.95828
 22
192000.0
 32
0.0
 13
-256.95828
 23
192000.0
 33
0.0
  0
SOLID
  5
45
  8
0
  6
BYBLOCK
 62
     9
 10
-260.291613
 20
193080.0
 30
0.0
 11
-253.624947
 21
193080.0
 31
0.0
 12
-256.95828
 22
193100.0
 32
0.0
 13
-256.95828
 23
193100.0
 33
0.0
  0
POINT
  5
46
  8
DEFPOINTS
  6
BYBLOCK
 62
     0
 10
0.0
 20
192000.0
 30
0.0
  0
POINT
  5
47
  8
DEFPOINTS
  6
BYBLOCK
 62
     0
 10
7.579317
 20
193100.0
 30
0.0
  0
POINT
  5
48
  8
DEFPOINTS
  6
BYBLOCK
 62
     0
 10
-256.95828
 20
193100.0
 30
0.0
  0
ENDBLK
  5
4A
  8
0
  0
BLOCK
  8
0
  2
*D7
 70
     1
 10
0.0
 20
0.0
 30
0.0
  3
*D7
  1

  0
LINE
  5
31
  8
0
  6
BYBLOCK
 62
     9
 10
-10.0
 20
192000.0
 30
0.0
 11
-170.125693
 21
192000.0
 31
0.0
  0
LINE
  5
32
  8
0
  6
BYBLOCK
 62
     9
 10
-10.0
 20
192800.0
 30
0.0
 11
-170.125693
 21
192800.0
 31
0.0
  0
LINE
  5
33
  8
0
  6
BYBLOCK
 62
     9
 10
-169.125693
 20
192020.0
 30
0.0
 11
-169.125693
 21
192265.083333
 31
0.0
  0
LINE
  5
34
  8
0
  6
BYBLOCK
 62
     9
 10
-169.125693
 20
192780.0
 30
0.0
 11
-169.125693
 21
192494.916667
 31
0.0
  0
TEXT
  5
35
  8
0
  6
BYBLOCK
 62
    11
 10
-151.625693
 20
192272.083333
 30
0.0
 40
35.0
  1
700-850
 50
90.0
  0
SOLID
  5
36
  8
0
  6
BYBLOCK
 62
     9
 10
-172.459026
 20
192020.0
 30
0.0
 11
-165.79236
 21
192020.0
 31
0.0
 12
-169.125693
 22
192000.0
 32
0.0
 13
-169.125693
 23
192000.0
 33
0.0
  0
SOLID
  5
37
  8
0
  6
BYBLOCK
 62
     9
 10
-172.459026
 20
192780.0
 30
0.0
 11
-165.79236
 21
192780.0
 31
0.0
 12
-169.125693
 22
192800.0
 32
0.0
 13
-169.125693
 23
192800.0
 33
0.0
  0
POINT
  5
38
  8
DEFPOINTS
  6
BYBLOCK
 62
     0
 10
0.0
 20
192000.0
 30
0.0
  0
POINT
  5
39
  8
DEFPOINTS
  6
BYBLOCK
 62
     0
 10
0.0
 20
192800.0
 30
0.0
  0
POINT
  5
3A
  8
DEFPOINTS
  6
BYBLOCK
 62
     0
 10
-169.125693
 20
192800.0
 30
0.0
  0
ENDBLK
  5
3C
  8
0
  0
BLOCK
  8
0
  2
*D8
 70
     1
 10
0.0
 20
0.0
 30
0.0
  3
*D8
  1

  0
LINE
  5
22
  8
0
  6
BYBLOCK
 62
     9
 10
-10.0
 20
192000.0
 30
0.0
 11
-127.055392
 21
192000.0
 31
0.0
  0
LINE
  5
23
  8
0
  6
BYBLOCK
 62
     9
 10
-10.0
 20
192800.0
 30
0.0
 11
-127.055392
 21
192800.0
 31
0.0
  0
LINE
  5
24
  8
0
  6
BYBLOCK
 62
     9
 10
-126.055392
 20
192020.0
 30
0.0
 11
-126.055392
 21
192332.166667
 31
0.0
  0
LINE
  5
25
  8
0
  6
BYBLOCK
 62
     9
 10
-126.055392
 20
192780.0
 30
0.0
 11
-126.055392
 21
192427.833333
 31
0.0
  0
TEXT
  5
26
  8
0
  6
BYBLOCK
 62
    11
 10
-108.555392
 20
192339.166667
 30
0.0
 40
35.0
  1
800
 50
90.0
  0
SOLID
  5
27
  8
0
  6
BYBLOCK
 62
     9
 10
-129.388725
 20
192020.0
 30
0.0
 11
-122.722058
 21
192020.0
 31
0.0
 12
-126.055392
 22
192000.0
 32
0.0
 13
-126.055392
 23
192000.0
 33
0.0
  0
SOLID
  5
28
  8
0
  6
BYBLOCK
 62
     9
 10
-129.388725
 20
192780.0
 30
0.0
 11
-122.722058
 21
192780.0
 31
0.0
 12
-126.055392
 22
192800.0
 32
0.0
 13
-126.055392
 23
192800.0
 33
0.0
  0
POINT
  5
29
  8
DEFPOINTS
  6
BYBLOCK
 62
     0
 10
0.0
 20
192000.0
 30
0.0
  0
POINT
  5
2B
  8
DEFPOINTS
  6
BYBLOCK
 62
     0
 10
0.0
 20
192800.0
 30
0.0
  0
POINT
  5
2C
  8
DEFPOINTS
  6
BYBLOCK
 62
     0
 10
-126.055392
 20
192800.0
 30
0.0
  0
ENDBLK
  5
2E
  8
0
  0
ENDSEC
  0
SECTION
  2
ENTITIES
  0
DIMENSION
  5
20
  8
TEAM-MAS
  2
*D8
 10
-126.055392
 20
800.0
 30
0.0
 11
-126.055392
 21
380.0
 31
0.0
 12
0.0
 22
-192000.0
 32
0.0
 70
   128
 13
0.0
 23
0.0
 33
0.0
 14
0.0
 24
800.0
 34
0.0
 50
90.0
  0
DIMENSION
  5
2F
  8
TEAM-MAS
  2
*D7
 10
-169.125693
 20
800.0
 30
0.0
 11
-169.125693
 21
380.0
 31
0.0
 12
0.0
 22
-192000.0
 32
0.0
 70
   128
  1
700-850
 13
0.0
 23
0.0
 33
0.0
 14
0.0
 24
800.0
 34
0.0
 50
90.0
  0
DIMENSION
  5
3D
  8
TEAM-MAS
  2
*D6
 10
-256.95828
 20
1100.0
 30
0.0
 11
-256.95828
 21
530.0
 31
0.0
 12
0.0
 22
-192000.0
 32
0.0
 70
   128
  1
1100-1250
 13
0.0
 23
0.0
 33
0.0
 14
7.579317
 24
1100.0
 34
0.0
 50
90.0
  0
DIMENSION
  5
4B
  8
TEAM-MAS
  2
*D5
 10
-212.195995
 20
1100.0
 30
0.0
 11
-212.195995
 21
530.0
 31
0.0
 12
0.0
 22
-192000.0
 32
0.0
 70
   128
 13
0.0
 23
0.0
 33
0.0
 14
0.0
 24
1100.0
 34
0.0
 50
90.0
  0
DIMENSION
  5
59
  8
TEAM-MAS
  2
*D4
 10
-43.302982
 20
380.0
 30
0.0
 11
-43.302982
 21
190.0
 31
0.0
 12
0.0
 22
-192000.0
 32
0.0
 13
0.0
 23
0.0
 33
0.0
 14
0.0
 24
380.0
 34
0.0
 50
90.0
  0
DIMENSION
  5
67
  8
TEAM-MAS
  2
*D3
 10
-86.371875
 20
380.0
 30
0.0
 11
-86.371875
 21
190.0
 31
0.0
 12
0.0
 22
-192000.0
 32
0.0
  1
300-450
 13
0.0
 23
0.0
 33
0.0
 14
0.0
 24
380.0
 34
0.0
 50
90.0
  0
DIMENSION
  5
75
  8
TEAM-MAS
  2
*D2
 10
-86.341138
 20
485.0
 30
0.0
 11
-86.341138
 21
642.5
 31
0.0
 12
0.0
 22
-192000.0
 32
0.0
 13
0.0
 23
800.0
 33
0.0
 14
119.0
 24
485.0
 34
0.0
 50
90.0
1001
ACAD
1000
DSTYLE
1002
{
1070
   284
1070
     0
1070
   272
1070
     4
1070
   287
1070
     3
1002
}
  0
DIMENSION
  5
83
  8
TEAM-MAS
  2
*D1
 10
-37.931308
 20
457.0083
 30
0.0
 11
-37.931308
 21
614.966503
 31
0.0
 12
0.0
 22
-192000.0
 32
0.0
 70
   128
 13
119.0
 23
485.008334
 33
0.0
 14
119.0
 24
457.0083
 34
0.0
 50
90.0
1001
ACAD
1000
DSTYLE
1002
{
1070
   284
1070
     0
1070
   272
1070
     4
1070
   287
1070
     3
1002
}
  0
DIMENSION
  5
91
  8
TEAM-MAS
  2
*D0
 10
500.0
 20
902.311212
 30
0.0
 11
250.0
 21
902.311212
 31
0.0
 12
0.0
 22
-192000.0
 32
0.0
 13
0.0
 23
802.172136
 33
0.0
 14
500.0
 24
800.0
 34
0.0
  0
CIRCLE
  5
9F
  8
TEAM-INSP
 10
0.0
 20
0.0
 30
0.0
 40
10.0
  0
LINE
  5
A1
  8
TEAM-DET1
 10
420.951482
 20
544.487645
 30
0.0
 11
450.0
 21
770.0
 31
0.0
  0
LINE
  5
A3
  8
TEAM-BODY
 10
430.727965
 20
542.385174
 30
0.0
 11
450.0
 21
770.0
 31
0.0
  0
LINE
  5
A5
  8
TEAM-BODY
 10
500.0
 20
770.0
 30
0.0
 11
500.0
 21
800.0
 31
0.0
  0
LINE
  5
A6
  8
TEAM-DET1
 10
60.0
 20
523.841314
 30
0.0
 11
50.0
 21
770.0
 31
0.0
  0
LINE
  5
A7
  8
TEAM-BODY
 10
50.0
 20
770.0
 30
0.0
 11
50.0
 21
523.841314
 31
0.0
  0
LINE
  5
A8
  8
TEAM-KAN
 10
30.0
 20
380.0
 30
0.0
 11
140.0
 21
380.0
 31
0.0
  0
CIRCLE
  5
AA
  8
TEAM-KAN
 10
0.0
 20
380.0
 30
0.0
 40
20.0
  0
LINE
  5
AB
  8
TEAM-AXE
 10
-30.0
 20
380.0
 30
0.0
 11
30.0
 21
380.0
 31
0.0
  0
LINE
  5
AE
  8
TEAM-AXE
 10
0.0
 20
350.0
 30
0.0
 11
0.0
 21
410.0
 31
0.0
  0
ARC
  5
AF
  8
TEAM-DET1
 10
90.0
 20
523.841314
 30
0.0
 40
30.0
 50
180.0
 51
272.271828
  0
ARC
  5
B0
  8
TEAM-BODY
 10
88.213693
 20
523.080571
 30
0.0
 40
38.221265
 50
178.859528
 51
275.061283
  0
LINE
  5
B1
  8
TEAM-BODY
 10
161.0
 20
486.403778
 30
0.0
 11
161.0
 21
457.0083
 31
0.0
  0
LINE
  5
B2
  8
TEAM-AXE
 10
140.0
 20
544.491702
 30
0.0
 11
140.0
 21
459.0083
 31
0.0
  0
LINE
  5
B3
  8
TEAM-BODY
 10
119.0
 20
485.008334
 30
0.0
 11
119.0
 21
457.0083
 31
0.0
  0
LINE
  5
B4
  8
TEAM-BODY
 10
161.0
 20
457.0083
 30
0.0
 11
119.0
 21
457.0083
 31
0.0
  0
LINE
  5
B5
  8
TEAM-KAN
 10
140.0
 20
459.0083
 30
0.0
 11
140.0
 21
305.980383
 31
0.0
  0
LINE
  5
B6
  8
TEAM-DET1
 10
371.672663
 20
504.99214
 30
0.0
 11
91.189215
 21
493.864894
 31
0.0
  0
LINE
  5
B7
  8
TEAM-BODY
 10
372.069068
 20
495.0
 30
0.0
 11
91.585619
 21
485.008334
 31
0.0
  0
CIRCLE
  5
B8
  8
TEAM-COLD
 10
7.579317
 20
1100.0
 30
0.0
 40
15.0
  0
LINE
  5
BA
  8
TEAM-AXE
 10
-12.420683
 20
1100.0
 30
0.0
 11
27.579317
 21
1100.0
 31
0.0
  0
LINE
  5
BB
  8
TEAM-AXE
 10
7.579317
 20
1080.0
 30
0.0
 11
7.579317
 21
1120.0
 31
0.0
  0
LINE
  5
BC
  8
TEAM-AXE
 10
0.0
 20
1080.0
 30
0.0
 11
0.0
 21
1120.0
 31
0.0
  0
CIRCLE
  5
BD
  8
TEAM-WARM
 10
0.0
 20
1100.0
 30
0.0
 40
15.0
  0
LINE
  5
BF
  8
TEAM-AXE
 10
-20.0
 20
1100.0
 30
0.0
 11
20.0
 21
1100.0
 31
0.0
  0
LINE
  5
C0
  8
TEAM-BODY
 10
0.0
 20
800.0
 30
0.0
 11
0.0
 21
770.0
 31
0.0
  0
TEXT
  5
C1
  8
TEAM-TXT
 10
182.287569
 20
724.551513
 30
0.0
 40
30.0
  1
team 433302
 41
0.8
 51
15.0
  7
TEAM
  0
ARC
  5
C4
  8
TEAM-DET1
 10
372.069068
 20
555.0
 30
0.0
 40
50.0
 50
270.0
 51
347.863167
  0
ARC
  5
C5
  8
TEAM-BODY
 10
372.069068
 20
555.0
 30
0.0
 40
60.0
 50
270.0
 51
347.863167
  0
LINE
  5
C6
  8
TEAM-BODY
 10
500.0
 20
800.0
 30
0.0
 11
0.0
 21
800.0
 31
0.0
  0
LINE
  5
C7
  8
TEAM-BODY
 10
500.0
 20
800.0
 30
0.0
 11
0.0
 21
800.0
 31
0.0
  0
LINE
  5
C8
  8
TEAM-BODY
 10
500.0
 20
770.0
 30
0.0
 11
0.0
 21
770.0
 31
0.0
  0
ENDSEC
  0
EOF
