  0
SECTION
  2
HEADER
  9
$ACADVER
  1
AC1009
  9
$INSBASE
 10
0.0
 20
0.0
 30
0.0
  9
$EXTMIN
 10
-680.01117
 20
-10.062079
 30
0.0
  9
$EXTMAX
 10
647.735015
 20
1119.995325
 30
0.000005
  9
$LIMMIN
 10
-680.01117
 20
-10.062079
  9
$LIMMAX
 10
647.735015
 20
1119.995325
  9
$ORTHOMODE
 70
     1
  9
$REGENMODE
 70
     1
  9
$FILLMODE
 70
     1
  9
$QTEXTMODE
 70
     0
  9
$MIRRTEXT
 70
     0
  9
$DRAGMODE
 70
     2
  9
$LTSCALE
 40
50.0
  9
$OSMODE
 70
     0
  9
$ATTMODE
 70
     1
  9
$TEXTSIZE
 40
200.0
  9
$TRACEWID
 40
1.0
  9
$TEXTSTYLE
  7
STANDARD
  9
$CLAYER
  8
TEAM-MAS
  9
$CELTYPE
  6
BYLAYER
  9
$CECOLOR
 62
   256
  9
$DIMSCALE
 40
0.0
  9
$DIMASZ
 40
20.0
  9
$DIMEXO
 40
10.0
  9
$DIMDLI
 40
1.0
  9
$DIMRND
 40
0.0
  9
$DIMDLE
 40
0.0
  9
$DIMEXE
 40
1.0
  9
$DIMTP
 40
0.0
  9
$DIMTM
 40
0.0
  9
$DIMTXT
 40
35.0
  9
$DIMCEN
 40
1.0
  9
$DIMTSZ
 40
0.0
  9
$DIMTOL
 70
     0
  9
$DIMLIM
 70
     0
  9
$DIMTIH
 70
     0
  9
$DIMTOH
 70
     0
  9
$DIMSE1
 70
     0
  9
$DIMSE2
 70
     0
  9
$DIMTAD
 70
     0
  9
$DIMZIN
 70
     0
  9
$DIMBLK
  1

  9
$DIMASO
 70
     1
  9
$DIMSHO
 70
     0
  9
$DIMPOST
  1

  9
$DIMAPOST
  1

  9
$DIMALT
 70
     0
  9
$DIMALTD
 70
     2
  9
$DIMALTF
 40
25.4
  9
$DIMLFAC
 40
1.0
  9
$DIMTOFL
 70
     0
  9
$DIMTVP
 40
0.0
  9
$DIMTIX
 70
     0
  9
$DIMSOXD
 70
     0
  9
$DIMSAH
 70
     0
  9
$DIMBLK1
  1

  9
$DIMBLK2
  1

  9
$DIMSTYLE
  2
TEAM
  9
$DIMCLRD
 70
     9
  9
$DIMCLRE
 70
     9
  9
$DIMCLRT
 70
    11
  9
$DIMTFAC
 40
1.0
  9
$DIMGAP
 40
7.0
  9
$LUNITS
 70
     2
  9
$LUPREC
 70
     1
  9
$SKETCHINC
 40
1.0
  9
$FILLETRAD
 40
50.0
  9
$AUNITS
 70
     0
  9
$AUPREC
 70
     0
  9
$MENU
  1
ROPLANS
  9
$ELEVATION
 40
0.0
  9
$PELEVATION
 40
0.0
  9
$THICKNESS
 40
0.0
  9
$LIMCHECK
 70
     0
  9
$BLIPMODE
 70
     1
  9
$CHAMFERA
 40
0.0
  9
$CHAMFERB
 40
0.0
  9
$SKPOLY
 70
     0
  9
$TDCREATE
 40
2450392.957851
  9
$TDUPDATE
 40
2456272.033233
  9
$TDINDWG
 40
2.315654
  9
$TDUSRTIMER
 40
2.315654
  9
$USRTIMER
 70
     1
  9
$ANGBASE
 50
0.0
  9
$ANGDIR
 70
     0
  9
$PDMODE
 70
     0
  9
$PDSIZE
 40
0.0
  9
$PLINEWID
 40
0.0
  9
$COORDS
 70
     2
  9
$SPLFRAME
 70
     0
  9
$SPLINETYPE
 70
     6
  9
$SPLINESEGS
 70
     8
  9
$ATTDIA
 70
     0
  9
$ATTREQ
 70
     0
  9
$HANDLING
 70
     1
  9
$HANDSEED
  5
11B
  9
$SURFTAB1
 70
    24
  9
$SURFTAB2
 70
    24
  9
$SURFTYPE
 70
     6
  9
$SURFU
 70
     6
  9
$SURFV
 70
     6
  9
$UCSNAME
  2

  9
$UCSORG
 10
0.0
 20
0.0
 30
0.0
  9
$UCSXDIR
 10
1.0
 20
0.0
 30
0.0
  9
$UCSYDIR
 10
0.0
 20
1.0
 30
0.0
  9
$PUCSNAME
  2

  9
$PUCSORG
 10
0.0
 20
0.0
 30
0.0
  9
$PUCSXDIR
 10
1.0
 20
0.0
 30
0.0
  9
$PUCSYDIR
 10
0.0
 20
1.0
 30
0.0
  9
$USERI1
 70
     0
  9
$USERI2
 70
     0
  9
$USERI3
 70
     0
  9
$USERI4
 70
     0
  9
$USERI5
 70
     0
  9
$USERR1
 40
0.0
  9
$USERR2
 40
0.0
  9
$USERR3
 40
0.0
  9
$USERR4
 40
0.0
  9
$USERR5
 40
0.0
  9
$WORLDVIEW
 70
     1
  9
$SHADEDGE
 70
     0
  9
$SHADEDIF
 70
    70
  9
$TILEMODE
 70
     1
  9
$MAXACTVP
 70
    16
  9
$PLIMCHECK
 70
     0
  9
$PEXTMIN
 10
-0.805942
 20
0.005011
 30
0.0
  9
$PEXTMAX
 10
20.250094
 20
11.356329
 30
0.0
  9
$PLIMMIN
 10
0.0
 20
0.0
  9
$PLIMMAX
 10
12.0
 20
9.0
  9
$UNITMODE
 70
     0
  9
$VISRETAIN
 70
     0
  9
$PLINEGEN
 70
     0
  9
$PSLTSCALE
 70
     0
  0
ENDSEC
  0
SECTION
  2
TABLES
  0
TABLE
  2
VPORT
 70
     2
  0
VPORT
  2
*ACTIVE
 70
     0
 10
0.0
 20
0.0
 11
1.0
 21
1.0
 12
-16.138078
 22
554.966623
 13
0.0
 23
0.0
 14
1.0
 24
1.0
 15
50.0
 25
50.0
 16
0.0
 26
0.0
 36
1.0
 17
0.0
 27
0.0
 37
0.0
 40
1137.172141
 41
1.911765
 42
50.0
 43
0.0
 44
0.0
 50
0.0
 51
0.0
 71
     0
 72
   100
 73
     1
 74
     1
 75
     0
 76
     0
 77
     0
 78
     0
  0
ENDTAB
  0
TABLE
  2
LTYPE
 70
     3
  0
LTYPE
  2
CONTINUOUS
 70
     0
  3
Solid Line
 72
    65
 73
     0
 40
0.0
  0
LTYPE
  2
31
 70
     0
  3

 72
    65
 73
     4
 40
2.1
 49
1.5
 49
-0.3
 49
0.0
 49
-0.3
  0
LTYPE
  2
22
 70
     0
  3

 72
    65
 73
     2
 40
1.4
 49
1.2
 49
-0.2
  0
ENDTAB
  0
TABLE
  2
LAYER
 70
    11
  0
LAYER
  2
0
 70
     0
 62
     7
  6
CONTINUOUS
  0
LAYER
  2
DEFPOINTS
 70
     0
 62
     7
  6
CONTINUOUS
  0
LAYER
  2
TEAM-BODY
 70
     0
 62
     2
  6
CONTINUOUS
  0
LAYER
  2
TEAM-AXE
 70
     0
 62
    10
  6
31
  0
LAYER
  2
TEAM-MAS
 70
     0
 62
     9
  6
CONTINUOUS
  0
LAYER
  2
TEAM-TXT
 70
     0
 62
    11
  6
CONTINUOUS
  0
LAYER
  2
TEAM-COLD
 70
     0
 62
     3
  6
CONTINUOUS
  0
LAYER
  2
TEAM-HIDE
 70
     0
 62
     8
  6
22
  0
LAYER
  2
TEAM-KAN
 70
     0
 62
     6
  6
CONTINUOUS
  0
LAYER
  2
TEAM-WARM
 70
     0
 62
     1
  6
CONTINUOUS
  0
LAYER
  2
TEAM-INSP
 70
     0
 62
     5
  6
CONTINUOUS
  0
ENDTAB
  0
TABLE
  2
STYLE
 70
     2
  0
STYLE
  2
STANDARD
 70
     0
 40
0.0
 41
1.0
 50
0.0
 71
     0
 42
200.0
  3
txt
  4

  0
STYLE
  2
TEAM
 70
     0
 40
0.0
 41
0.8
 50
15.0
 71
     0
 42
7.0
  3
ROMANS.shx
  4

  0
ENDTAB
  0
TABLE
  2
VIEW
 70
     0
  0
ENDTAB
  0
TABLE
  2
UCS
 70
     0
  0
ENDTAB
  0
TABLE
  2
APPID
 70
     1
  0
APPID
  2
ACAD
 70
     0
  0
ENDTAB
  0
TABLE
  2
DIMSTYLE
 70
     1
  0
DIMSTYLE
  2
TEAM
 70
     0
  3

  4

  5

  6

  7

 40
0.0
 41
20.0
 42
10.0
 43
1.0
 44
1.0
 45
0.0
 46
0.0
 47
0.0
 48
0.0
140
35.0
141
1.0
142
0.0
143
25.4
144
1.0
145
0.0
146
1.0
147
7.0
 71
     0
 72
     0
 73
     0
 74
     0
 75
     0
 76
     0
 77
     0
 78
     0
170
     0
171
     2
172
     0
173
     0
174
     0
175
     0
176
     9
177
     9
178
    11
  0
ENDTAB
  0
ENDSEC
  0
SECTION
  2
BLOCKS
  0
BLOCK
  8
0
  2
$MODEL_SPACE
 70
     0
 10
0.0
 20
0.0
 30
0.0
  3
$MODEL_SPACE
  1

  0
ENDBLK
  5
114
  8
0
  0
BLOCK
 67
     1
  8
0
  2
$PAPER_SPACE
 70
     0
 10
0.0
 20
0.0
 30
0.0
  3
$PAPER_SPACE
  1

  0
ENDBLK
  5
112
 67
     1
  8
0
  0
BLOCK
  8
0
  2
*D0
 70
     1
 10
0.0
 20
0.0
 30
0.0
  3
*D0
  1

  0
LINE
  5
BA
  8
0
  6
BYBLOCK
 62
     9
 10
7320.0
 20
188830.0
 30
0.0
 11
7320.0
 21
188835.168586
 31
0.0
  0
LINE
  5
BB
  8
0
  6
BYBLOCK
 62
     9
 10
8420.0
 20
188810.0
 30
0.0
 11
8420.0
 21
188837.168586
 31
0.0
  0
LINE
  5
BC
  8
0
  6
BYBLOCK
 62
     9
 10
7340.0
 20
188836.168586
 30
0.0
 11
7816.333333
 21
188836.168586
 31
0.0
  0
LINE
  5
BD
  8
0
  6
BYBLOCK
 62
     9
 10
8400.0
 20
188836.168586
 30
0.0
 11
7923.666667
 21
188836.168586
 31
0.0
  0
SOLID
  5
BE
  8
0
  6
BYBLOCK
 62
     9
 10
7340.0
 20
188839.50192
 30
0.0
 11
7340.0
 21
188832.835253
 31
0.0
 12
7320.0
 22
188836.168586
 32
0.0
 13
7320.0
 23
188836.168586
 33
0.0
  0
SOLID
  5
BF
  8
0
  6
BYBLOCK
 62
     9
 10
8400.0
 20
188839.50192
 30
0.0
 11
8400.0
 21
188832.835253
 31
0.0
 12
8420.0
 22
188836.168586
 32
0.0
 13
8420.0
 23
188836.168586
 33
0.0
  0
TEXT
  5
C0
  8
0
  6
BYBLOCK
 62
    11
 10
7823.333333
 20
188818.668586
 30
0.0
 40
35.0
  1
1100
  0
POINT
  5
C1
  8
DEFPOINTS
  6
BYBLOCK
 62
     0
 10
7320.0
 20
188840.0
 30
0.0
  0
POINT
  5
C2
  8
DEFPOINTS
  6
BYBLOCK
 62
     0
 10
8420.0
 20
188800.0
 30
0.0
  0
POINT
  5
C3
  8
DEFPOINTS
  6
BYBLOCK
 62
     0
 10
8420.0
 20
188836.168586
 30
0.0
  0
ENDBLK
  5
C5
  8
0
  0
BLOCK
  8
0
  2
*D1
 70
     1
 10
0.0
 20
0.0
 30
0.0
  3
*D1
  1

  0
LINE
  5
AC
  8
0
  6
BYBLOCK
 62
     9
 10
7643.5
 20
189090.0
 30
0.0
 11
7643.5
 21
189026.53431
 31
0.0
  0
LINE
  5
AD
  8
0
  6
BYBLOCK
 62
     9
 10
7796.5
 20
189090.0
 30
0.0
 11
7796.5
 21
189026.53431
 31
0.0
  0
LINE
  5
AE
  8
0
  6
BYBLOCK
 62
     9
 10
7663.5
 20
189027.53431
 30
0.0
 11
7672.166667
 21
189027.53431
 31
0.0
  0
LINE
  5
AF
  8
0
  6
BYBLOCK
 62
     9
 10
7776.5
 20
189027.53431
 30
0.0
 11
7767.833333
 21
189027.53431
 31
0.0
  0
TEXT
  5
B0
  8
0
  6
BYBLOCK
 62
    11
 10
7679.166667
 20
189010.03431
 30
0.0
 40
35.0
  1
153
  0
SOLID
  5
B1
  8
0
  6
BYBLOCK
 62
     9
 10
7663.5
 20
189030.867643
 30
0.0
 11
7663.5
 21
189024.200976
 31
0.0
 12
7643.5
 22
189027.53431
 32
0.0
 13
7643.5
 23
189027.53431
 33
0.0
  0
SOLID
  5
B2
  8
0
  6
BYBLOCK
 62
     9
 10
7776.5
 20
189030.867643
 30
0.0
 11
7776.5
 21
189024.200976
 31
0.0
 12
7796.5
 22
189027.53431
 32
0.0
 13
7796.5
 23
189027.53431
 33
0.0
  0
POINT
  5
B3
  8
DEFPOINTS
  6
BYBLOCK
 62
     0
 10
7643.5
 20
189100.0
 30
0.0
  0
POINT
  5
B4
  8
DEFPOINTS
  6
BYBLOCK
 62
     0
 10
7796.5
 20
189100.0
 30
0.0
  0
POINT
  5
B5
  8
DEFPOINTS
  6
BYBLOCK
 62
     0
 10
7796.5
 20
189027.53431
 30
0.0
  0
ENDBLK
  5
B7
  8
0
  0
BLOCK
  8
0
  2
*D2
 70
     1
 10
0.0
 20
0.0
 30
0.0
  3
*D2
  1

  0
LINE
  5
69
  8
0
  6
BYBLOCK
 62
     9
 10
8011.0
 20
188485.0
 30
0.0
 11
8417.50299
 21
188485.0
 31
0.0
  0
LINE
  5
6A
  8
0
  6
BYBLOCK
 62
     9
 10
8011.0
 20
188457.0
 30
0.0
 11
8417.50299
 21
188457.0
 31
0.0
  0
LINE
  5
6B
  8
0
  6
BYBLOCK
 62
     9
 10
8416.50299
 20
188437.0
 30
0.0
 11
8416.50299
 21
188417.0
 31
0.0
  0
LINE
  5
6C
  8
0
  6
BYBLOCK
 62
     9
 10
8416.50299
 20
188505.0
 30
0.0
 11
8416.50299
 21
188578.791503
 31
0.0
  0
SOLID
  5
6D
  8
0
  6
BYBLOCK
 62
     9
 10
8413.169656
 20
188437.0
 30
0.0
 11
8419.836323
 21
188437.0
 31
0.0
 12
8416.50299
 22
188457.0
 32
0.0
 13
8416.50299
 23
188457.0
 33
0.0
  0
SOLID
  5
6E
  8
0
  6
BYBLOCK
 62
     9
 10
8413.169656
 20
188505.0
 30
0.0
 11
8419.836323
 21
188505.0
 31
0.0
 12
8416.50299
 22
188485.0
 32
0.0
 13
8416.50299
 23
188485.0
 33
0.0
  0
TEXT
  5
6F
  8
0
  6
BYBLOCK
 62
    11
 10
8434.00299
 20
188585.791503
 30
0.0
 40
35.0
  1
28
 50
90.0
  0
POINT
  5
70
  8
DEFPOINTS
  6
BYBLOCK
 62
     0
 10
8001.0
 20
188485.0
 30
0.0
  0
POINT
  5
71
  8
DEFPOINTS
  6
BYBLOCK
 62
     0
 10
8001.0
 20
188457.0
 30
0.0
  0
POINT
  5
72
  8
DEFPOINTS
  6
BYBLOCK
 62
     0
 10
8416.50299
 20
188457.0
 30
0.0
  0
ENDBLK
  5
74
  8
0
  0
BLOCK
  8
0
  2
*D3
 70
     1
 10
0.0
 20
0.0
 30
0.0
  3
*D3
  1

  0
LINE
  5
5B
  8
0
  6
BYBLOCK
 62
     9
 10
8074.718265
 20
188485.0
 30
0.0
 11
8460.571882
 21
188485.0
 31
0.0
  0
LINE
  5
5C
  8
0
  6
BYBLOCK
 62
     9
 10
8430.0
 20
188800.0
 30
0.0
 11
8460.571882
 21
188800.0
 31
0.0
  0
LINE
  5
5D
  8
0
  6
BYBLOCK
 62
     9
 10
8459.571882
 20
188505.0
 30
0.0
 11
8459.571882
 21
188594.666667
 31
0.0
  0
LINE
  5
5E
  8
0
  6
BYBLOCK
 62
     9
 10
8459.571882
 20
188780.0
 30
0.0
 11
8459.571882
 21
188690.333333
 31
0.0
  0
SOLID
  5
5F
  8
0
  6
BYBLOCK
 62
     9
 10
8456.238549
 20
188505.0
 30
0.0
 11
8462.905216
 21
188505.0
 31
0.0
 12
8459.571882
 22
188485.0
 32
0.0
 13
8459.571882
 23
188485.0
 33
0.0
  0
SOLID
  5
60
  8
0
  6
BYBLOCK
 62
     9
 10
8456.238549
 20
188780.0
 30
0.0
 11
8462.905216
 21
188780.0
 31
0.0
 12
8459.571882
 22
188800.0
 32
0.0
 13
8459.571882
 23
188800.0
 33
0.0
  0
TEXT
  5
61
  8
0
  6
BYBLOCK
 62
    11
 10
8477.071882
 20
188601.666667
 30
0.0
 40
35.0
  1
315
 50
90.0
  0
POINT
  5
62
  8
DEFPOINTS
  6
BYBLOCK
 62
     0
 10
8064.718265
 20
188485.0
 30
0.0
  0
POINT
  5
63
  8
DEFPOINTS
  6
BYBLOCK
 62
     0
 10
8420.0
 20
188800.0
 30
0.0
  0
POINT
  5
64
  8
DEFPOINTS
  6
BYBLOCK
 62
     0
 10
8459.571882
 20
188800.0
 30
0.0
  0
ENDBLK
  5
66
  8
0
  0
BLOCK
  8
0
  2
*D4
 70
     1
 10
0.0
 20
0.0
 30
0.0
  3
*D4
  1

  0
LINE
  5
4D
  8
0
  6
BYBLOCK
 62
     9
 10
8010.0
 20
188000.0
 30
0.0
 11
8545.017684
 21
188000.0
 31
0.0
  0
LINE
  5
4E
  8
0
  6
BYBLOCK
 62
     9
 10
8430.0
 20
188800.0
 30
0.0
 11
8545.017684
 21
188800.0
 31
0.0
  0
LINE
  5
4F
  8
0
  6
BYBLOCK
 62
     9
 10
8544.017684
 20
188020.0
 30
0.0
 11
8544.017684
 21
188285.083333
 31
0.0
  0
LINE
  5
50
  8
0
  6
BYBLOCK
 62
     9
 10
8544.017684
 20
188780.0
 30
0.0
 11
8544.017684
 21
188514.916667
 31
0.0
  0
SOLID
  5
51
  8
0
  6
BYBLOCK
 62
     9
 10
8540.684351
 20
188020.0
 30
0.0
 11
8547.351018
 21
188020.0
 31
0.0
 12
8544.017684
 22
188000.0
 32
0.0
 13
8544.017684
 23
188000.0
 33
0.0
  0
SOLID
  5
52
  8
0
  6
BYBLOCK
 62
     9
 10
8540.684351
 20
188780.0
 30
0.0
 11
8547.351018
 21
188780.0
 31
0.0
 12
8544.017684
 22
188800.0
 32
0.0
 13
8544.017684
 23
188800.0
 33
0.0
  0
TEXT
  5
53
  8
0
  6
BYBLOCK
 62
    11
 10
8561.517684
 20
188292.083333
 30
0.0
 40
35.0
  1
700-850
 50
90.0
  0
POINT
  5
54
  8
DEFPOINTS
  6
BYBLOCK
 62
     0
 10
8000.0
 20
188000.0
 30
0.0
  0
POINT
  5
55
  8
DEFPOINTS
  6
BYBLOCK
 62
     0
 10
8420.0
 20
188800.0
 30
0.0
  0
POINT
  5
56
  8
DEFPOINTS
  6
BYBLOCK
 62
     0
 10
8544.017684
 20
188800.0
 30
0.0
  0
ENDBLK
  5
58
  8
0
  0
BLOCK
  8
0
  2
*D5
 70
     1
 10
0.0
 20
0.0
 30
0.0
  3
*D5
  1

  0
LINE
  5
3F
  8
0
  6
BYBLOCK
 62
     9
 10
8010.0
 20
188000.0
 30
0.0
 11
8588.086577
 21
188000.0
 31
0.0
  0
LINE
  5
40
  8
0
  6
BYBLOCK
 62
     9
 10
7806.5
 20
189100.0
 30
0.0
 11
8588.086577
 21
189100.0
 31
0.0
  0
LINE
  5
41
  8
0
  6
BYBLOCK
 62
     9
 10
8587.086577
 20
188020.0
 30
0.0
 11
8587.086577
 21
188496.333333
 31
0.0
  0
LINE
  5
42
  8
0
  6
BYBLOCK
 62
     9
 10
8587.086577
 20
189080.0
 30
0.0
 11
8587.086577
 21
188603.666667
 31
0.0
  0
SOLID
  5
43
  8
0
  6
BYBLOCK
 62
     9
 10
8583.753244
 20
188020.0
 30
0.0
 11
8590.41991
 21
188020.0
 31
0.0
 12
8587.086577
 22
188000.0
 32
0.0
 13
8587.086577
 23
188000.0
 33
0.0
  0
SOLID
  5
44
  8
0
  6
BYBLOCK
 62
     9
 10
8583.753244
 20
189080.0
 30
0.0
 11
8590.41991
 21
189080.0
 31
0.0
 12
8587.086577
 22
189100.0
 32
0.0
 13
8587.086577
 23
189100.0
 33
0.0
  0
TEXT
  5
45
  8
0
  6
BYBLOCK
 62
    11
 10
8604.586577
 20
188503.333333
 30
0.0
 40
35.0
  1
1100
 50
90.0
  0
POINT
  5
46
  8
DEFPOINTS
  6
BYBLOCK
 62
     0
 10
8000.0
 20
188000.0
 30
0.0
  0
POINT
  5
47
  8
DEFPOINTS
  6
BYBLOCK
 62
     0
 10
7796.5
 20
189100.0
 30
0.0
  0
POINT
  5
48
  8
DEFPOINTS
  6
BYBLOCK
 62
     0
 10
8587.086577
 20
189100.0
 30
0.0
  0
ENDBLK
  5
4A
  8
0
  0
BLOCK
  8
0
  2
*D6
 70
     1
 10
0.0
 20
0.0
 30
0.0
  3
*D6
  1

  0
LINE
  5
31
  8
0
  6
BYBLOCK
 62
     9
 10
8010.0
 20
188000.0
 30
0.0
 11
8631.156879
 21
188000.0
 31
0.0
  0
LINE
  5
32
  8
0
  6
BYBLOCK
 62
     9
 10
7806.5
 20
189100.0
 30
0.0
 11
8631.156879
 21
189100.0
 31
0.0
  0
LINE
  5
33
  8
0
  6
BYBLOCK
 62
     9
 10
8630.156879
 20
188020.0
 30
0.0
 11
8630.156879
 21
188417.583333
 31
0.0
  0
LINE
  5
34
  8
0
  6
BYBLOCK
 62
     9
 10
8630.156879
 20
189080.0
 30
0.0
 11
8630.156879
 21
188682.416667
 31
0.0
  0
SOLID
  5
35
  8
0
  6
BYBLOCK
 62
     9
 10
8626.823545
 20
188020.0
 30
0.0
 11
8633.490212
 21
188020.0
 31
0.0
 12
8630.156879
 22
188000.0
 32
0.0
 13
8630.156879
 23
188000.0
 33
0.0
  0
SOLID
  5
36
  8
0
  6
BYBLOCK
 62
     9
 10
8626.823545
 20
189080.0
 30
0.0
 11
8633.490212
 21
189080.0
 31
0.0
 12
8630.156879
 22
189100.0
 32
0.0
 13
8630.156879
 23
189100.0
 33
0.0
  0
TEXT
  5
37
  8
0
  6
BYBLOCK
 62
    11
 10
8647.656879
 20
188424.583333
 30
0.0
 40
35.0
  1
1100-1250
 50
90.0
  0
POINT
  5
38
  8
DEFPOINTS
  6
BYBLOCK
 62
     0
 10
8000.0
 20
188000.0
 30
0.0
  0
POINT
  5
39
  8
DEFPOINTS
  6
BYBLOCK
 62
     0
 10
7796.5
 20
189100.0
 30
0.0
  0
POINT
  5
3A
  8
DEFPOINTS
  6
BYBLOCK
 62
     0
 10
8630.156879
 20
189100.0
 30
0.0
  0
ENDBLK
  5
3C
  8
0
  0
BLOCK
  8
0
  2
*D7
 70
     1
 10
0.0
 20
0.0
 30
0.0
  3
*D7
  1

  0
LINE
  5
8C
  8
0
  6
BYBLOCK
 62
     9
 10
8010.0
 20
188000.0
 30
0.0
 11
8460.571882
 21
188000.0
 31
0.0
  0
LINE
  5
8D
  8
0
  6
BYBLOCK
 62
     9
 10
8070.0
 20
188380.0
 30
0.0
 11
8460.571882
 21
188380.0
 31
0.0
  0
LINE
  5
8E
  8
0
  6
BYBLOCK
 62
     9
 10
8459.571882
 20
188020.0
 30
0.0
 11
8459.571882
 21
188075.083333
 31
0.0
  0
LINE
  5
8F
  8
0
  6
BYBLOCK
 62
     9
 10
8459.571882
 20
188360.0
 30
0.0
 11
8459.571882
 21
188304.916667
 31
0.0
  0
SOLID
  5
90
  8
0
  6
BYBLOCK
 62
     9
 10
8456.238549
 20
188020.0
 30
0.0
 11
8462.905216
 21
188020.0
 31
0.0
 12
8459.571882
 22
188000.0
 32
0.0
 13
8459.571882
 23
188000.0
 33
0.0
  0
SOLID
  5
91
  8
0
  6
BYBLOCK
 62
     9
 10
8456.238549
 20
188360.0
 30
0.0
 11
8462.905216
 21
188360.0
 31
0.0
 12
8459.571882
 22
188380.0
 32
0.0
 13
8459.571882
 23
188380.0
 33
0.0
  0
TEXT
  5
92
  8
0
  6
BYBLOCK
 62
    11
 10
8477.071882
 20
188082.083333
 30
0.0
 40
35.0
  1
300-450
 50
90.0
  0
POINT
  5
93
  8
DEFPOINTS
  6
BYBLOCK
 62
     0
 10
8000.0
 20
188000.0
 30
0.0
  0
POINT
  5
94
  8
DEFPOINTS
  6
BYBLOCK
 62
     0
 10
8060.0
 20
188380.0
 30
0.0
  0
POINT
  5
95
  8
DEFPOINTS
  6
BYBLOCK
 62
     0
 10
8459.571882
 20
188380.0
 30
0.0
  0
ENDBLK
  5
97
  8
0
  0
BLOCK
  8
0
  2
*D8
 70
     1
 10
0.0
 20
0.0
 30
0.0
  3
*D8
  1

  0
LINE
  5
7E
  8
0
  6
BYBLOCK
 62
     9
 10
8010.0
 20
188000.0
 30
0.0
 11
8417.50299
 21
188000.0
 31
0.0
  0
LINE
  5
7F
  8
0
  6
BYBLOCK
 62
     9
 10
8070.0
 20
188380.0
 30
0.0
 11
8417.50299
 21
188380.0
 31
0.0
  0
LINE
  5
80
  8
0
  6
BYBLOCK
 62
     9
 10
8416.50299
 20
188020.0
 30
0.0
 11
8416.50299
 21
188139.25
 31
0.0
  0
LINE
  5
81
  8
0
  6
BYBLOCK
 62
     9
 10
8416.50299
 20
188360.0
 30
0.0
 11
8416.50299
 21
188240.75
 31
0.0
  0
SOLID
  5
82
  8
0
  6
BYBLOCK
 62
     9
 10
8413.169656
 20
188020.0
 30
0.0
 11
8419.836323
 21
188020.0
 31
0.0
 12
8416.50299
 22
188000.0
 32
0.0
 13
8416.50299
 23
188000.0
 33
0.0
  0
SOLID
  5
83
  8
0
  6
BYBLOCK
 62
     9
 10
8413.169656
 20
188360.0
 30
0.0
 11
8419.836323
 21
188360.0
 31
0.0
 12
8416.50299
 22
188380.0
 32
0.0
 13
8416.50299
 23
188380.0
 33
0.0
  0
TEXT
  5
84
  8
0
  6
BYBLOCK
 62
    11
 10
8434.00299
 20
188146.25
 30
0.0
 40
35.0
  1
380
 50
90.0
  0
POINT
  5
85
  8
DEFPOINTS
  6
BYBLOCK
 62
     0
 10
8000.0
 20
188000.0
 30
0.0
  0
POINT
  5
86
  8
DEFPOINTS
  6
BYBLOCK
 62
     0
 10
8060.0
 20
188380.0
 30
0.0
  0
POINT
  5
87
  8
DEFPOINTS
  6
BYBLOCK
 62
     0
 10
8416.50299
 20
188380.0
 30
0.0
  0
ENDBLK
  5
89
  8
0
  0
BLOCK
  8
0
  2
*D9
 70
     1
 10
0.0
 20
0.0
 30
0.0
  3
*D9
  1

  0
LINE
  5
22
  8
0
  6
BYBLOCK
 62
     9
 10
8010.0
 20
188000.0
 30
0.0
 11
8503.640775
 21
188000.0
 31
0.0
  0
LINE
  5
23
  8
0
  6
BYBLOCK
 62
     9
 10
8430.0
 20
188800.0
 30
0.0
 11
8503.640775
 21
188800.0
 31
0.0
  0
LINE
  5
24
  8
0
  6
BYBLOCK
 62
     9
 10
8502.640775
 20
188020.0
 30
0.0
 11
8502.640775
 21
188352.166667
 31
0.0
  0
LINE
  5
25
  8
0
  6
BYBLOCK
 62
     9
 10
8502.640775
 20
188780.0
 30
0.0
 11
8502.640775
 21
188447.833333
 31
0.0
  0
SOLID
  5
26
  8
0
  6
BYBLOCK
 62
     9
 10
8499.307442
 20
188020.0
 30
0.0
 11
8505.974109
 21
188020.0
 31
0.0
 12
8502.640775
 22
188000.0
 32
0.0
 13
8502.640775
 23
188000.0
 33
0.0
  0
SOLID
  5
27
  8
0
  6
BYBLOCK
 62
     9
 10
8499.307442
 20
188780.0
 30
0.0
 11
8505.974109
 21
188780.0
 31
0.0
 12
8502.640775
 22
188800.0
 32
0.0
 13
8502.640775
 23
188800.0
 33
0.0
  0
TEXT
  5
28
  8
0
  6
BYBLOCK
 62
    11
 10
8520.140775
 20
188359.166667
 30
0.0
 40
35.0
  1
800
 50
90.0
  0
POINT
  5
29
  8
DEFPOINTS
  6
BYBLOCK
 62
     0
 10
8000.0
 20
188000.0
 30
0.0
  0
POINT
  5
2B
  8
DEFPOINTS
  6
BYBLOCK
 62
     0
 10
8420.0
 20
188800.0
 30
0.0
  0
POINT
  5
2C
  8
DEFPOINTS
  6
BYBLOCK
 62
     0
 10
8502.640775
 20
188800.0
 30
0.0
  0
ENDBLK
  5
2E
  8
0
  0
ENDSEC
  0
SECTION
  2
ENTITIES
  0
DIMENSION
  5
20
  8
TEAM-MAS
  2
*D9
 10
502.640775
 20
800.0
 30
0.0
 11
502.640775
 21
400.0
 31
0.0
 12
-8000.0
 22
-188000.0
 32
0.0
 13
0.0
 23
0.0
 33
0.0
 14
420.0
 24
800.0
 34
0.0
 50
90.0
  0
DIMENSION
  5
2F
  8
TEAM-MAS
  2
*D6
 10
630.156879
 20
1100.0
 30
0.0
 11
630.156879
 21
550.0
 31
0.0
 12
-8000.0
 22
-188000.0
 32
0.0
  1
1100-1250
 13
0.0
 23
0.0
 33
0.0
 14
-203.5
 24
1100.0
 34
0.0
 50
90.0
  0
DIMENSION
  5
3D
  8
TEAM-MAS
  2
*D5
 10
587.086577
 20
1100.0
 30
0.0
 11
587.086577
 21
550.0
 31
0.0
 12
-8000.0
 22
-188000.0
 32
0.0
 13
0.0
 23
0.0
 33
0.0
 14
-203.5
 24
1100.0
 34
0.0
 50
90.0
  0
DIMENSION
  5
4B
  8
TEAM-MAS
  2
*D4
 10
544.017684
 20
800.0
 30
0.0
 11
544.017684
 21
400.0
 31
0.0
 12
-8000.0
 22
-188000.0
 32
0.0
  1
700-850
 13
0.0
 23
0.0
 33
0.0
 14
420.0
 24
800.0
 34
0.0
 50
90.0
  0
DIMENSION
  5
59
  8
TEAM-MAS
  2
*D3
 10
459.571882
 20
800.0
 30
0.0
 11
459.571882
 21
642.5
 31
0.0
 12
-8000.0
 22
-188000.0
 32
0.0
 13
64.718265
 23
485.0
 33
0.0
 14
420.0
 24
800.0
 34
0.0
 50
90.0
  0
DIMENSION
  5
67
  8
TEAM-MAS
  2
*D2
 10
416.50299
 20
457.0
 30
0.0
 11
416.50299
 21
614.958169
 31
0.0
 12
-8000.0
 22
-188000.0
 32
0.0
 70
   128
 13
1.0
 23
485.0
 33
0.0
 14
1.0
 24
457.0
 34
0.0
 50
90.0
1001
ACAD
1000
DSTYLE
1002
{
1070
   284
1070
     0
1070
   272
1070
     4
1070
   287
1070
     3
1002
}
  0
ARC
  5
75
  8
TEAM-BODY
 10
50.0
 20
504.572808
 30
0.0
 40
20.0
 50
267.122044
 51
0.0
  0
LINE
  5
77
  8
TEAM-AXE
 10
-20.0
 20
584.001676
 30
0.0
 11
-20.0
 21
457.0
 31
0.0
  0
LINE
  5
7A
  8
TEAM-BODY
 10
-41.0
 20
487.111428
 30
0.0
 11
-41.0
 21
457.0
 31
0.0
  0
LINE
  5
7B
  8
TEAM-BODY
 10
-611.004174
 20
495.0
 30
0.0
 11
48.995826
 21
484.598033
 31
0.0
  0
DIMENSION
  5
7C
  8
TEAM-MAS
  2
*D8
 10
416.50299
 20
380.0
 30
0.0
 11
416.50299
 21
190.0
 31
0.0
 12
-8000.0
 22
-188000.0
 32
0.0
 13
0.0
 23
0.0
 33
0.0
 14
60.0
 24
380.0
 34
0.0
 50
90.0
  0
DIMENSION
  5
8A
  8
TEAM-MAS
  2
*D7
 10
459.571882
 20
380.0
 30
0.0
 11
459.571882
 21
190.0
 31
0.0
 12
-8000.0
 22
-188000.0
 32
0.0
  1
300-450
 13
0.0
 23
0.0
 33
0.0
 14
60.0
 24
380.0
 34
0.0
 50
90.0
  0
CIRCLE
  5
98
  8
TEAM-INSP
 10
0.0
 20
0.0
 30
0.0
 40
10.0
  0
ARC
  5
9A
  8
TEAM-HIDE
 10
-60.0
 20
345.980383
 30
0.0
 40
40.0
 50
180.0
 51
0.0
  0
LINE
  5
9D
  8
TEAM-AXE
 10
-130.0
 20
380.0
 30
0.0
 11
-70.0
 21
380.0
 31
0.0
  0
LINE
  5
9E
  8
TEAM-HIDE
 10
-100.0
 20
350.0
 30
0.0
 11
-100.0
 21
345.980383
 31
0.0
  0
LINE
  5
9F
  8
TEAM-AXE
 10
-100.0
 20
350.0
 30
0.0
 11
-100.0
 21
410.0
 31
0.0
  0
CIRCLE
  5
A0
  8
TEAM-HIDE
 10
-100.0
 20
380.0
 30
0.0
 40
20.0
  0
LINE
  5
A1
  8
TEAM-KAN
 10
60.0
 20
350.0
 30
0.0
 11
60.0
 21
345.980383
 31
0.0
  0
LINE
  5
A3
  8
TEAM-AXE
 10
60.0
 20
350.0
 30
0.0
 11
60.0
 21
410.0
 31
0.0
  0
ARC
  5
A4
  8
TEAM-KAN
 10
20.0
 20
345.980383
 30
0.0
 40
40.0
 50
180.0
 51
0.0
  0
LINE
  5
A5
  8
TEAM-AXE
 10
30.0
 20
380.0
 30
0.0
 11
90.0
 21
380.0
 31
0.0
  0
CIRCLE
  5
A6
  8
TEAM-KAN
 10
60.0
 20
380.0
 30
0.0
 40
20.0
  0
LINE
  5
A7
  8
TEAM-BODY
 10
1.0
 20
485.0
 30
0.0
 11
1.0
 21
457.0
 31
0.0
  0
LINE
  5
A8
  8
TEAM-BODY
 10
-41.0
 20
457.0
 30
0.0
 11
1.0
 21
457.0
 31
0.0
  0
LINE
  5
A9
  8
TEAM-KAN
 10
-20.0
 20
457.0
 30
0.0
 11
-20.0
 21
345.980383
 31
0.0
  0
DIMENSION
  5
AA
  8
TEAM-MAS
  2
*D1
 10
-203.5
 20
1027.53431
 30
0.0
 11
-280.0
 21
1027.53431
 31
0.0
 12
-8000.0
 22
-188000.0
 32
0.0
 70
   128
 13
-356.5
 23
1100.0
 33
0.0
 14
-203.5
 24
1100.0
 34
0.0
  0
DIMENSION
  5
B8
  8
TEAM-MAS
  2
*D0
 10
420.0
 20
836.168586
 30
0.0
 11
-130.0
 21
836.168586
 31
0.0
 12
-8000.0
 22
-188000.0
 32
0.0
 13
-680.0
 23
840.0
 33
0.0
 14
420.0
 24
800.0
 34
0.0
  0
LINE
  5
C6
  8
TEAM-AXE
 10
-203.5
 20
1119.97844
 30
0.0
 11
-203.5
 21
1079.97844
 31
0.0
  0
LINE
  5
C7
  8
TEAM-AXE
 10
-183.5
 20
1099.97844
 30
0.0
 11
-223.5
 21
1099.97844
 31
0.0
  0
CIRCLE
  5
C8
  8
TEAM-COLD
 10
-203.5
 20
1099.97844
 30
0.0
 40
15.0
  0
LINE
  5
CA
  8
TEAM-BODY
 10
70.0
 20
770.0
 30
0.0
 11
70.0
 21
504.572808
 31
0.0
  0
LINE
  5
CB
  8
TEAM-AXE
 10
-356.5
 20
1119.97844
 30
0.0
 11
-356.5
 21
1079.97844
 31
0.0
  0
LINE
  5
CC
  8
TEAM-AXE
 10
-336.5
 20
1099.97844
 30
0.0
 11
-376.5
 21
1099.97844
 31
0.0
  0
CIRCLE
  5
CD
  8
TEAM-WARM
 10
-356.5
 20
1099.97844
 30
0.0
 40
15.0
  0
LINE
  5
CF
  8
TEAM-BODY
 10
420.0
 20
800.0
 30
0.0
 11
420.0
 21
770.0
 31
0.0
  0
LINE
  5
D0
  8
TEAM-BODY
 10
-680.0
 20
800.0
 30
0.0
 11
-680.0
 21
770.0
 31
0.0
  0
ARC
  5
D1
  8
TEAM-BODY
 10
-610.0
 20
514.974775
 30
0.0
 40
20.0
 50
180.0
 51
267.122044
  0
LINE
  5
D2
  8
TEAM-BODY
 10
-630.0
 20
770.0
 30
0.0
 11
-630.0
 21
514.974775
 31
0.0
  0
LINE
  5
D3
  8
TEAM-BODY
 10
420.0
 20
770.0
 30
0.0
 11
-680.0
 21
770.0
 31
0.0
  0
LINE
  5
D4
  8
TEAM-BODY
 10
420.0
 20
800.0
 30
0.0
 11
-680.0
 21
800.0
 31
0.0
  0
TEXT
  5
D5
  8
TEAM-TXT
 10
-562.968639
 20
569.29514
 30
0.0
 40
30.0
  1
team 433302
 41
0.8
 51
15.0
  7
TEAM
  0
ENDSEC
  0
EOF
