  0
SECTION
  2
HEADER
  9
$ACADVER
  1
AC1009
  9
$INSBASE
 10
0.0
 20
0.0
 30
0.0
  9
$EXTMIN
 10
-321.808169
 20
-132.887786
 30
-0.000006
  9
$EXTMAX
 10
276.439793
 20
174.145138
 30
0.000006
  9
$LIMMIN
 10
-321.808169
 20
-132.887786
  9
$LIMMAX
 10
276.439793
 20
174.145138
  9
$ORTHOMODE
 70
     1
  9
$REGENMODE
 70
     1
  9
$FILLMODE
 70
     1
  9
$QTEXTMODE
 70
     0
  9
$MIRRTEXT
 70
     0
  9
$DRAGMODE
 70
     2
  9
$LTSCALE
 40
50.0
  9
$OSMODE
 70
     0
  9
$ATTMODE
 70
     1
  9
$TEXTSIZE
 40
200.0
  9
$TRACEWID
 40
1.0
  9
$TEXTSTYLE
  7
STANDARD
  9
$CLAYER
  8
TEAM-MAS
  9
$CELTYPE
  6
BYLAYER
  9
$CECOLOR
 62
   256
  9
$DIMSCALE
 40
1.0
  9
$DIMASZ
 40
20.0
  9
$DIMEXO
 40
10.0
  9
$DIMDLI
 40
1.0
  9
$DIMRND
 40
0.0
  9
$DIMDLE
 40
0.0
  9
$DIMEXE
 40
1.0
  9
$DIMTP
 40
0.0
  9
$DIMTM
 40
0.0
  9
$DIMTXT
 40
35.0
  9
$DIMCEN
 40
1.0
  9
$DIMTSZ
 40
0.0
  9
$DIMTOL
 70
     0
  9
$DIMLIM
 70
     0
  9
$DIMTIH
 70
     0
  9
$DIMTOH
 70
     0
  9
$DIMSE1
 70
     0
  9
$DIMSE2
 70
     0
  9
$DIMTAD
 70
     0
  9
$DIMZIN
 70
     0
  9
$DIMBLK
  1

  9
$DIMASO
 70
     1
  9
$DIMSHO
 70
     0
  9
$DIMPOST
  1

  9
$DIMAPOST
  1

  9
$DIMALT
 70
     0
  9
$DIMALTD
 70
     2
  9
$DIMALTF
 40
25.4
  9
$DIMLFAC
 40
1.0
  9
$DIMTOFL
 70
     0
  9
$DIMTVP
 40
0.0
  9
$DIMTIX
 70
     0
  9
$DIMSOXD
 70
     0
  9
$DIMSAH
 70
     0
  9
$DIMBLK1
  1

  9
$DIMBLK2
  1

  9
$DIMSTYLE
  2
TEAM
  9
$DIMCLRD
 70
     9
  9
$DIMCLRE
 70
     9
  9
$DIMCLRT
 70
    11
  9
$DIMTFAC
 40
1.0
  9
$DIMGAP
 40
7.0
  9
$LUNITS
 70
     2
  9
$LUPREC
 70
     1
  9
$SKETCHINC
 40
1.0
  9
$FILLETRAD
 40
50.0
  9
$AUNITS
 70
     0
  9
$AUPREC
 70
     0
  9
$MENU
  1
ROPLANS
  9
$ELEVATION
 40
0.0
  9
$PELEVATION
 40
0.0
  9
$THICKNESS
 40
0.0
  9
$LIMCHECK
 70
     0
  9
$BLIPMODE
 70
     1
  9
$CHAMFERA
 40
0.0
  9
$CHAMFERB
 40
0.0
  9
$SKPOLY
 70
     0
  9
$TDCREATE
 40
2450392.957851
  9
$TDUPDATE
 40
2456118.662559
  9
$TDINDWG
 40
5.307301
  9
$TDUSRTIMER
 40
5.307301
  9
$USRTIMER
 70
     1
  9
$ANGBASE
 50
0.0
  9
$ANGDIR
 70
     0
  9
$PDMODE
 70
     0
  9
$PDSIZE
 40
0.0
  9
$PLINEWID
 40
0.0
  9
$COORDS
 70
     2
  9
$SPLFRAME
 70
     0
  9
$SPLINETYPE
 70
     6
  9
$SPLINESEGS
 70
     8
  9
$ATTDIA
 70
     0
  9
$ATTREQ
 70
     0
  9
$HANDLING
 70
     1
  9
$HANDSEED
  5
E7
  9
$SURFTAB1
 70
    24
  9
$SURFTAB2
 70
    24
  9
$SURFTYPE
 70
     6
  9
$SURFU
 70
     6
  9
$SURFV
 70
     6
  9
$UCSNAME
  2

  9
$UCSORG
 10
0.0
 20
0.0
 30
0.0
  9
$UCSXDIR
 10
1.0
 20
0.0
 30
0.0
  9
$UCSYDIR
 10
0.0
 20
1.0
 30
0.0
  9
$PUCSNAME
  2

  9
$PUCSORG
 10
0.0
 20
0.0
 30
0.0
  9
$PUCSXDIR
 10
1.0
 20
0.0
 30
0.0
  9
$PUCSYDIR
 10
0.0
 20
1.0
 30
0.0
  9
$USERI1
 70
     0
  9
$USERI2
 70
     0
  9
$USERI3
 70
     0
  9
$USERI4
 70
     0
  9
$USERI5
 70
     0
  9
$USERR1
 40
0.0
  9
$USERR2
 40
0.0
  9
$USERR3
 40
0.0
  9
$USERR4
 40
0.0
  9
$USERR5
 40
0.0
  9
$WORLDVIEW
 70
     1
  9
$SHADEDGE
 70
     0
  9
$SHADEDIF
 70
    70
  9
$TILEMODE
 70
     1
  9
$MAXACTVP
 70
    16
  9
$PLIMCHECK
 70
     0
  9
$PEXTMIN
 10
-0.805942
 20
0.005011
 30
0.0
  9
$PEXTMAX
 10
20.250094
 20
11.356329
 30
0.0
  9
$PLIMMIN
 10
0.0
 20
0.0
  9
$PLIMMAX
 10
12.0
 20
9.0
  9
$UNITMODE
 70
     0
  9
$VISRETAIN
 70
     0
  9
$PLINEGEN
 70
     0
  9
$PSLTSCALE
 70
     0
  0
ENDSEC
  0
SECTION
  2
TABLES
  0
TABLE
  2
VPORT
 70
     2
  0
VPORT
  2
*ACTIVE
 70
     0
 10
0.0
 20
0.0
 11
1.0
 21
1.0
 12
-22.684188
 22
20.628676
 13
0.0
 23
0.0
 14
1.0
 24
1.0
 15
50.0
 25
50.0
 16
0.0
 26
0.0
 36
1.0
 17
0.0
 27
0.0
 37
0.0
 40
313.960257
 41
1.911765
 42
50.0
 43
0.0
 44
0.0
 50
0.0
 51
0.0
 71
     0
 72
   100
 73
     1
 74
     1
 75
     0
 76
     0
 77
     0
 78
     0
  0
ENDTAB
  0
TABLE
  2
LTYPE
 70
     3
  0
LTYPE
  2
CONTINUOUS
 70
     0
  3
Solid Line
 72
    65
 73
     0
 40
0.0
  0
LTYPE
  2
31
 70
     0
  3

 72
    65
 73
     4
 40
2.1
 49
1.5
 49
-0.3
 49
0.0
 49
-0.3
  0
LTYPE
  2
22
 70
     0
  3

 72
    65
 73
     2
 40
1.4
 49
1.2
 49
-0.2
  0
ENDTAB
  0
TABLE
  2
LAYER
 70
     9
  0
LAYER
  2
0
 70
     0
 62
     7
  6
CONTINUOUS
  0
LAYER
  2
DEFPOINTS
 70
     0
 62
     7
  6
CONTINUOUS
  0
LAYER
  2
TEAM-AXE
 70
     0
 62
    10
  6
31
  0
LAYER
  2
TEAM-MAS
 70
     0
 62
     9
  6
CONTINUOUS
  0
LAYER
  2
TEAM-TXT
 70
     0
 62
    11
  6
CONTINUOUS
  0
LAYER
  2
TEAM-DET2
 70
     0
 62
    11
  6
CONTINUOUS
  0
LAYER
  2
TEAM-HIDE
 70
     0
 62
     8
  6
22
  0
LAYER
  2
TEAM-DET3
 70
     0
 62
    14
  6
CONTINUOUS
  0
LAYER
  2
TEAM-INSP
 70
     0
 62
     5
  6
CONTINUOUS
  0
ENDTAB
  0
TABLE
  2
STYLE
 70
     2
  0
STYLE
  2
STANDARD
 70
     0
 40
0.0
 41
1.0
 50
0.0
 71
     0
 42
200.0
  3
txt
  4

  0
STYLE
  2
TEAM
 70
     0
 40
0.0
 41
0.8
 50
15.0
 71
     0
 42
7.0
  3
ROMANS.shx
  4

  0
ENDTAB
  0
TABLE
  2
VIEW
 70
     0
  0
ENDTAB
  0
TABLE
  2
UCS
 70
     0
  0
ENDTAB
  0
TABLE
  2
APPID
 70
     1
  0
APPID
  2
ACAD
 70
     0
  0
ENDTAB
  0
TABLE
  2
DIMSTYLE
 70
     1
  0
DIMSTYLE
  2
TEAM
 70
     0
  3

  4

  5

  6

  7

 40
1.0
 41
20.0
 42
10.0
 43
1.0
 44
1.0
 45
0.0
 46
0.0
 47
0.0
 48
0.0
140
35.0
141
1.0
142
0.0
143
25.4
144
1.0
145
0.0
146
1.0
147
7.0
 71
     0
 72
     0
 73
     0
 74
     0
 75
     0
 76
     0
 77
     0
 78
     0
170
     0
171
     2
172
     0
173
     0
174
     0
175
     0
176
     9
177
     9
178
    11
  0
ENDTAB
  0
ENDSEC
  0
SECTION
  2
BLOCKS
  0
BLOCK
  8
0
  2
$MODEL_SPACE
 70
     0
 10
0.0
 20
0.0
 30
0.0
  3
$MODEL_SPACE
  1

  0
ENDBLK
  5
E0
  8
0
  0
BLOCK
 67
     1
  8
0
  2
$PAPER_SPACE
 70
     0
 10
0.0
 20
0.0
 30
0.0
  3
$PAPER_SPACE
  1

  0
ENDBLK
  5
DE
 67
     1
  8
0
  0
BLOCK
  8
0
  2
*D0
 70
     1
 10
0.0
 20
0.0
 30
0.0
  3
*D0
  1

  0
LINE
  5
31
  8
0
  6
BYBLOCK
 62
     9
 10
3787.5
 20
51990.0
 30
0.0
 11
3787.5
 21
51883.612633
 31
0.0
  0
LINE
  5
32
  8
0
  6
BYBLOCK
 62
     9
 10
4212.5
 20
51990.0
 30
0.0
 11
4212.5
 21
51883.612633
 31
0.0
  0
LINE
  5
33
  8
0
  6
BYBLOCK
 62
     9
 10
3807.5
 20
51884.612633
 30
0.0
 11
3946.333333
 21
51884.612633
 31
0.0
  0
LINE
  5
34
  8
0
  6
BYBLOCK
 62
     9
 10
4192.5
 20
51884.612633
 30
0.0
 11
4053.666667
 21
51884.612633
 31
0.0
  0
SOLID
  5
35
  8
0
  6
BYBLOCK
 62
     9
 10
3807.5
 20
51887.945967
 30
0.0
 11
3807.5
 21
51881.2793
 31
0.0
 12
3787.5
 22
51884.612633
 32
0.0
 13
3787.5
 23
51884.612633
 33
0.0
  0
SOLID
  5
36
  8
0
  6
BYBLOCK
 62
     9
 10
4192.5
 20
51887.945967
 30
0.0
 11
4192.5
 21
51881.2793
 31
0.0
 12
4212.5
 22
51884.612633
 32
0.0
 13
4212.5
 23
51884.612633
 33
0.0
  0
TEXT
  5
37
  8
0
  6
BYBLOCK
 62
    11
 10
3953.333333
 20
51867.112633
 30
0.0
 40
35.0
  1
425
  0
POINT
  5
38
  8
DEFPOINTS
  6
BYBLOCK
 62
     0
 10
3787.5
 20
52000.0
 30
0.0
  0
POINT
  5
39
  8
DEFPOINTS
  6
BYBLOCK
 62
     0
 10
4212.5
 20
52000.0
 30
0.0
  0
POINT
  5
3A
  8
DEFPOINTS
  6
BYBLOCK
 62
     0
 10
4212.5
 20
51884.612633
 30
0.0
  0
ENDBLK
  5
3C
  8
0
  0
BLOCK
  8
0
  2
*D1
 70
     1
 10
0.0
 20
0.0
 30
0.0
  3
*D1
  1

  0
LINE
  5
22
  8
0
  6
BYBLOCK
 62
     9
 10
4000.0
 20
51990.0
 30
0.0
 11
4000.0
 21
51926.659861
 31
0.0
  0
LINE
  5
23
  8
0
  6
BYBLOCK
 62
     9
 10
3700.0
 20
51990.0
 30
0.0
 11
3700.0
 21
51926.659861
 31
0.0
  0
LINE
  5
24
  8
0
  6
BYBLOCK
 62
     9
 10
3980.0
 20
51927.659861
 30
0.0
 11
3897.833333
 21
51927.659861
 31
0.0
  0
LINE
  5
25
  8
0
  6
BYBLOCK
 62
     9
 10
3720.0
 20
51927.659861
 30
0.0
 11
3802.166667
 21
51927.659861
 31
0.0
  0
SOLID
  5
26
  8
0
  6
BYBLOCK
 62
     9
 10
3980.0
 20
51930.993194
 30
0.0
 11
3980.0
 21
51924.326528
 31
0.0
 12
4000.0
 22
51927.659861
 32
0.0
 13
4000.0
 23
51927.659861
 33
0.0
  0
SOLID
  5
27
  8
0
  6
BYBLOCK
 62
     9
 10
3720.0
 20
51930.993194
 30
0.0
 11
3720.0
 21
51924.326528
 31
0.0
 12
3700.0
 22
51927.659861
 32
0.0
 13
3700.0
 23
51927.659861
 33
0.0
  0
TEXT
  5
28
  8
0
  6
BYBLOCK
 62
    11
 10
3809.166667
 20
51910.159861
 30
0.0
 40
35.0
  1
300
  0
POINT
  5
29
  8
DEFPOINTS
  6
BYBLOCK
 62
     0
 10
4000.0
 20
52000.0
 30
0.0
  0
POINT
  5
2B
  8
DEFPOINTS
  6
BYBLOCK
 62
     0
 10
3700.0
 20
52000.0
 30
0.0
  0
POINT
  5
2C
  8
DEFPOINTS
  6
BYBLOCK
 62
     0
 10
3700.0
 20
51927.659861
 30
0.0
  0
ENDBLK
  5
2E
  8
0
  0
BLOCK
  8
0
  2
*D2
 70
     1
 10
0.0
 20
0.0
 30
0.0
  3
*D2
  1

  0
LINE
  5
71
  8
0
  6
BYBLOCK
 62
     9
 10
4222.5
 20
52000.0
 30
0.0
 11
4259.899978
 21
52000.0
 31
0.0
  0
LINE
  5
72
  8
0
  6
BYBLOCK
 62
     9
 10
4190.0
 20
52170.0
 30
0.0
 11
4259.899978
 21
52170.0
 31
0.0
  0
LINE
  5
73
  8
0
  6
BYBLOCK
 62
     9
 10
4258.899978
 20
52020.0
 30
0.0
 11
4258.899978
 21
52040.083333
 31
0.0
  0
LINE
  5
74
  8
0
  6
BYBLOCK
 62
     9
 10
4258.899978
 20
52150.0
 30
0.0
 11
4258.899978
 21
52129.916667
 31
0.0
  0
SOLID
  5
75
  8
0
  6
BYBLOCK
 62
     9
 10
4255.566645
 20
52020.0
 30
0.0
 11
4262.233312
 21
52020.0
 31
0.0
 12
4258.899978
 22
52000.0
 32
0.0
 13
4258.899978
 23
52000.0
 33
0.0
  0
SOLID
  5
76
  8
0
  6
BYBLOCK
 62
     9
 10
4255.566645
 20
52150.0
 30
0.0
 11
4262.233312
 21
52150.0
 31
0.0
 12
4258.899978
 22
52170.0
 32
0.0
 13
4258.899978
 23
52170.0
 33
0.0
  0
TEXT
  5
77
  8
0
  6
BYBLOCK
 62
    11
 10
4276.399978
 20
52047.083333
 30
0.0
 40
35.0
  1
170
 50
90.0
  0
POINT
  5
78
  8
DEFPOINTS
  6
BYBLOCK
 62
     0
 10
4212.5
 20
52000.0
 30
0.0
  0
POINT
  5
79
  8
DEFPOINTS
  6
BYBLOCK
 62
     0
 10
4180.0
 20
52170.0
 30
0.0
  0
POINT
  5
7A
  8
DEFPOINTS
  6
BYBLOCK
 62
     0
 10
4258.899978
 20
52170.0
 30
0.0
  0
ENDBLK
  5
7C
  8
0
  0
ENDSEC
  0
SECTION
  2
ENTITIES
  0
DIMENSION
  5
20
  8
TEAM-MAS
  2
*D1
 10
-300.0
 20
-72.340139
 30
0.0
 11
-150.0
 21
-72.340139
 31
0.0
 12
-4000.0
 22
-52000.0
 32
0.0
 13
0.0
 23
0.0
 33
0.0
 14
-300.0
 24
0.0
 34
0.0
1001
ACAD
1000
DSTYLE
1002
{
1070
    40
1040
1.0
1002
}
  0
DIMENSION
  5
2F
  8
TEAM-MAS
  2
*D0
 10
212.5
 20
-115.387367
 30
0.0
 11
0.0
 21
-115.387367
 31
0.0
 12
-4000.0
 22
-52000.0
 32
0.0
 13
-212.5
 23
0.0
 33
0.0
 14
212.5
 24
0.0
 34
0.0
1001
ACAD
1000
DSTYLE
1002
{
1070
    40
1040
1.0
1002
}
  0
LINE
  5
3D
  8
TEAM-DET3
 10
185.0
 20
121.5
 30
0.0
 11
-185.0
 21
121.5
 31
0.0
  0
LINE
  5
3F
  8
TEAM-DET3
 10
180.0
 20
170.0
 30
0.0
 11
-180.0
 21
170.0
 31
0.0
  0
LINE
  5
40
  8
TEAM-AXE
 10
-122.26763
 20
110.0
 30
0.0
 11
125.51713
 21
110.0
 31
0.0
  0
LINE
  5
43
  8
TEAM-DET2
 10
-212.5
 20
40.0
 30
0.0
 11
212.5
 21
40.0
 31
0.0
  0
LINE
  5
45
  8
TEAM-HIDE
 10
-104.0
 20
33.0
 30
0.0
 11
104.0
 21
33.0
 31
0.0
  0
LINE
  5
48
  8
TEAM-DET2
 10
-212.5
 20
0.0
 30
0.0
 11
212.5
 21
0.0
 31
0.0
  0
LINE
  5
49
  8
TEAM-DET3
 10
-104.0
 20
-12.0
 30
0.0
 11
104.0
 21
-12.0
 31
0.0
  0
LINE
  5
4A
  8
TEAM-HIDE
 10
-104.0
 20
3.0
 30
0.0
 11
104.0
 21
3.0
 31
0.0
  0
LINE
  5
4B
  8
TEAM-HIDE
 10
-104.0
 20
18.0
 30
0.0
 11
104.0
 21
18.0
 31
0.0
  0
LINE
  5
4C
  8
TEAM-DET3
 10
111.5
 20
-37.0
 30
0.0
 11
-111.5
 21
-37.0
 31
0.0
  0
LINE
  5
4D
  8
TEAM-DET3
 10
111.5
 20
-45.0
 30
0.0
 11
-111.5
 21
-45.0
 31
0.0
  0
LINE
  5
4E
  8
TEAM-DET3
 10
-104.0
 20
-27.0
 30
0.0
 11
104.0
 21
-27.0
 31
0.0
  0
LINE
  5
4F
  8
TEAM-DET2
 10
-280.5
 20
28.0
 30
0.0
 11
-280.5
 21
25.0
 31
0.0
  0
LINE
  5
50
  8
TEAM-DET3
 10
-212.5
 20
145.5
 30
0.0
 11
-212.5
 21
40.0
 31
0.0
  0
LINE
  5
51
  8
TEAM-DET3
 10
-210.5
 20
145.5
 30
0.0
 11
-212.5
 21
145.5
 31
0.0
  0
LINE
  5
52
  8
TEAM-DET3
 10
-210.5
 20
40.0
 30
0.0
 11
-210.5
 21
145.5
 31
0.0
  0
CIRCLE
  5
53
  8
TEAM-HIDE
 10
-188.98541
 20
62.51459
 30
0.0
 40
11.01459
  0
ARC
  5
54
  8
TEAM-AXE
 10
-259.0
 20
21.51459
 30
0.0
 40
41.0
 50
90.0
 51
180.0
  0
LINE
  5
55
  8
TEAM-AXE
 10
-188.98541
 20
62.51459
 30
0.0
 11
-259.0
 21
62.51459
 31
0.0
  0
LINE
  5
56
  8
TEAM-DET3
 10
-258.997571
 20
51.51216
 30
0.0
 11
-200.0
 21
51.51216
 31
0.0
  0
LINE
  5
57
  8
TEAM-DET3
 10
-259.002429
 20
73.517019
 30
0.0
 11
-200.0
 21
73.517019
 31
0.0
  0
LINE
  5
58
  8
TEAM-DET3
 10
-314.002429
 20
0.0
 30
0.0
 11
-285.997571
 21
0.0
 31
0.0
  0
LINE
  5
59
  8
TEAM-DET3
 10
-314.002429
 20
10.0
 30
0.0
 11
-285.997571
 21
10.0
 31
0.0
  0
LINE
  5
5A
  8
TEAM-AXE
 10
-300.0
 20
21.51459
 30
0.0
 11
-300.0
 21
0.0
 31
0.0
  0
LINE
  5
5B
  8
TEAM-DET2
 10
-319.5
 20
25.0
 30
0.0
 11
-280.5
 21
25.0
 31
0.0
  0
LINE
  5
5C
  8
TEAM-DET2
 10
-319.5
 20
28.0
 30
0.0
 11
-319.5
 21
25.0
 31
0.0
  0
LINE
  5
5D
  8
TEAM-DET2
 10
-280.5
 20
28.0
 30
0.0
 11
-319.5
 21
28.0
 31
0.0
  0
LINE
  5
5E
  8
TEAM-HIDE
 10
-159.5
 20
0.0
 30
0.0
 11
-159.5
 21
40.0
 31
0.0
  0
LINE
  5
5F
  8
TEAM-HIDE
 10
-162.5
 20
0.0
 30
0.0
 11
-162.5
 21
40.0
 31
0.0
  0
LINE
  5
60
  8
TEAM-DET3
 10
-285.997571
 20
0.0
 30
0.0
 11
-285.997571
 21
10.0
 31
0.0
  0
ARC
  5
61
  8
TEAM-DET3
 10
-258.997571
 20
21.51216
 30
0.0
 40
30.0
 50
90.0
 51
180.0
  0
LINE
  5
62
  8
TEAM-DET3
 10
-288.997571
 20
10.517431
 30
0.0
 11
-288.997571
 21
21.51216
 31
0.0
  0
LINE
  5
63
  8
TEAM-DET3
 10
-314.002429
 20
0.0
 30
0.0
 11
-314.002429
 21
10.0
 31
0.0
  0
ARC
  5
64
  8
TEAM-DET3
 10
-259.002429
 20
21.517019
 30
0.0
 40
52.0
 50
90.0
 51
180.0
  0
LINE
  5
65
  8
TEAM-DET3
 10
-311.002429
 20
10.0
 30
0.0
 11
-311.002429
 21
21.517019
 31
0.0
  0
ARC
  5
66
  8
TEAM-DET3
 10
-185.0
 20
106.5
 30
0.0
 40
15.0
 50
90.0
 51
180.0
  0
LINE
  5
67
  8
TEAM-DET3
 10
-118.494437
 20
51.5
 30
0.0
 11
-118.494437
 21
40.0
 31
0.0
  0
LINE
  5
68
  8
TEAM-DET3
 10
-200.0
 20
51.5
 30
0.0
 11
-119.400447
 21
51.5
 31
0.0
  0
LINE
  5
69
  8
TEAM-HIDE
 10
-108.0
 20
0.0
 30
0.0
 11
-108.0
 21
40.0
 31
0.0
  0
LINE
  5
6A
  8
TEAM-DET2
 10
-212.5
 20
0.0
 30
0.0
 11
-212.5
 21
40.0
 31
0.0
  0
LINE
  5
6B
  8
TEAM-DET3
 10
-200.0
 20
150.0
 30
0.0
 11
-200.0
 21
51.5
 31
0.0
  0
LINE
  5
6C
  8
TEAM-DET3
 10
-111.5
 20
-37.0
 30
0.0
 11
-111.5
 21
-45.0
 31
0.0
  0
LINE
  5
6D
  8
TEAM-DET3
 10
-108.0
 20
0.0
 30
0.0
 11
-108.0
 21
-37.0
 31
0.0
  0
ARC
  5
6E
  8
TEAM-DET3
 10
-180.0
 20
150.0
 30
0.0
 40
20.0
 50
90.0
 51
180.0
  0
DIMENSION
  5
6F
  8
TEAM-MAS
  2
*D2
 10
258.899978
 20
170.0
 30
0.0
 11
258.899978
 21
85.0
 31
0.0
 12
-4000.0
 22
-52000.0
 32
0.0
 13
212.5
 23
0.0
 33
0.0
 14
180.0
 24
170.0
 34
0.0
 50
90.0
1001
ACAD
1000
DSTYLE
1002
{
1070
    40
1040
1.0
1002
}
  0
CIRCLE
  5
7D
  8
TEAM-HIDE
 10
0.0
 20
110.0
 30
0.0
 40
56.997555
  0
LINE
  5
7E
  8
TEAM-DET3
 10
210.5
 20
145.5
 30
0.0
 11
210.5
 21
40.0
 31
0.0
  0
LINE
  5
7F
  8
TEAM-DET3
 10
212.5
 20
145.5
 30
0.0
 11
210.5
 21
145.5
 31
0.0
  0
LINE
  5
80
  8
TEAM-DET3
 10
212.5
 20
40.0
 30
0.0
 11
212.5
 21
145.5
 31
0.0
  0
CIRCLE
  5
81
  8
TEAM-HIDE
 10
0.0
 20
110.0
 30
0.0
 40
45.1875
  0
LINE
  5
82
  8
TEAM-HIDE
 10
49.100006
 20
20.506441
 30
0.0
 11
-49.100006
 21
20.506441
 31
0.0
  0
LINE
  5
83
  8
TEAM-HIDE
 10
49.100006
 20
23.993559
 30
0.0
 11
-49.100006
 21
23.993559
 31
0.0
  0
LINE
  5
84
  8
TEAM-HIDE
 10
49.100006
 20
39.506441
 30
0.0
 11
-49.100006
 21
39.506441
 31
0.0
  0
LINE
  5
85
  8
TEAM-HIDE
 10
49.100006
 20
42.993559
 30
0.0
 11
-49.100006
 21
42.993559
 31
0.0
  0
LINE
  5
86
  8
TEAM-HIDE
 10
49.100006
 20
58.506441
 30
0.0
 11
-49.100006
 21
58.506441
 31
0.0
  0
ARC
  5
87
  8
TEAM-HIDE
 10
49.080806
 20
7.419659
 30
0.0
 40
6.420874
 50
268.885399
 51
358.693521
  0
LINE
  5
88
  8
TEAM-HIDE
 10
55.5
 20
15.0
 30
0.0
 11
55.5
 21
7.273262
 31
0.0
  0
ARC
  5
89
  8
TEAM-HIDE
 10
52.5
 20
15.0
 30
0.0
 40
2.999999
 50
359.999991
 51
90.000002
  0
LINE
  5
8A
  8
TEAM-HIDE
 10
49.100006
 20
20.506441
 30
0.0
 11
49.100006
 21
18.0
 31
0.0
  0
ARC
  5
8B
  8
TEAM-HIDE
 10
49.25
 20
22.25
 30
0.0
 40
1.749999
 50
265.083094
 51
94.916906
  0
LINE
  5
8C
  8
TEAM-HIDE
 10
49.100006
 20
39.506441
 30
0.0
 11
49.100006
 21
23.993559
 31
0.0
  0
ARC
  5
8D
  8
TEAM-HIDE
 10
49.25
 20
41.25
 30
0.0
 40
1.749999
 50
265.083094
 51
94.916906
  0
LINE
  5
8E
  8
TEAM-HIDE
 10
49.100006
 20
58.506441
 30
0.0
 11
49.100006
 21
42.993559
 31
0.0
  0
ARC
  5
8F
  8
TEAM-HIDE
 10
49.25
 20
60.25
 30
0.0
 40
1.749999
 50
265.083094
 51
90.00001
  0
ARC
  5
90
  8
TEAM-HIDE
 10
-49.080806
 20
7.419659
 30
0.0
 40
6.420874
 50
181.306479
 51
271.114601
  0
LINE
  5
91
  8
TEAM-HIDE
 10
-55.5
 20
15.0
 30
0.0
 11
-55.5
 21
7.273262
 31
0.0
  0
ARC
  5
92
  8
TEAM-HIDE
 10
-52.5
 20
15.0
 30
0.0
 40
2.999999
 50
89.999998
 51
180.000009
  0
LINE
  5
93
  8
TEAM-HIDE
 10
52.5
 20
17.999999
 30
0.0
 11
-52.5
 21
18.0
 31
0.0
  0
LINE
  5
94
  8
TEAM-HIDE
 10
48.955905
 20
1.0
 30
0.0
 11
-49.205706
 21
1.0
 31
0.0
  0
LINE
  5
95
  8
TEAM-HIDE
 10
-49.100006
 20
20.506441
 30
0.0
 11
-49.100006
 21
18.0
 31
0.0
  0
ARC
  5
96
  8
TEAM-HIDE
 10
-49.25
 20
22.25
 30
0.0
 40
1.749999
 50
85.083094
 51
274.916906
  0
LINE
  5
97
  8
TEAM-HIDE
 10
-49.100006
 20
39.506441
 30
0.0
 11
-49.100006
 21
23.993559
 31
0.0
  0
ARC
  5
98
  8
TEAM-HIDE
 10
-49.25
 20
41.25
 30
0.0
 40
1.749999
 50
85.083094
 51
274.916906
  0
LINE
  5
99
  8
TEAM-HIDE
 10
-49.100006
 20
58.506441
 30
0.0
 11
-49.100006
 21
42.993559
 31
0.0
  0
ARC
  5
9A
  8
TEAM-HIDE
 10
-49.25
 20
60.25
 30
0.0
 40
1.749999
 50
89.99999
 51
274.916906
  0
LINE
  5
9B
  8
TEAM-HIDE
 10
49.25
 20
61.999999
 30
0.0
 11
-49.25
 21
62.0
 31
0.0
  0
LINE
  5
9C
  8
TEAM-HIDE
 10
45.1875
 20
62.0
 30
0.0
 11
45.1875
 21
110.0
 31
0.0
  0
LINE
  5
9D
  8
TEAM-HIDE
 10
-45.1875
 20
62.0
 30
0.0
 11
-45.1875
 21
110.0
 31
0.0
  0
ARC
  5
9E
  8
TEAM-DET3
 10
185.0
 20
106.5
 30
0.0
 40
15.0
 50
0.0
 51
90.0
  0
LINE
  5
9F
  8
TEAM-DET3
 10
119.400447
 20
51.5
 30
0.0
 11
119.400447
 21
40.0
 31
0.0
  0
LINE
  5
A0
  8
TEAM-DET3
 10
200.0
 20
51.5
 30
0.0
 11
119.400447
 21
51.5
 31
0.0
  0
LINE
  5
A1
  8
TEAM-DET2
 10
212.5
 20
0.0
 30
0.0
 11
212.5
 21
40.0
 31
0.0
  0
LINE
  5
A2
  8
TEAM-HIDE
 10
108.0
 20
0.0
 30
0.0
 11
108.0
 21
40.0
 31
0.0
  0
LINE
  5
A3
  8
TEAM-AXE
 10
0.0
 20
55.0
 30
0.0
 11
0.0
 21
150.5
 31
0.0
  0
LINE
  5
A4
  8
TEAM-DET3
 10
200.0
 20
150.0
 30
0.0
 11
200.0
 21
51.5
 31
0.0
  0
LINE
  5
A5
  8
TEAM-DET3
 10
111.5
 20
-37.0
 30
0.0
 11
111.5
 21
-45.0
 31
0.0
  0
LINE
  5
A6
  8
TEAM-DET3
 10
108.0
 20
-37.0
 30
0.0
 11
108.0
 21
0.0
 31
0.0
  0
ARC
  5
A7
  8
TEAM-DET3
 10
180.0
 20
150.0
 30
0.0
 40
20.0
 50
0.0
 51
90.0
  0
TEXT
  5
A8
  8
TEAM-TXT
 10
-71.14907
 20
129.723413
 30
0.0
 40
30.0
  1
team 871038
 41
0.8
 51
15.0
  7
TEAM
  0
CIRCLE
  5
AB
  8
TEAM-INSP
 10
0.0
 20
0.0
 30
0.0
 40
10.0
  0
ENDSEC
  0
EOF
