  0
SECTION
  2
HEADER
  9
$ACADVER
  1
AC1009
  9
$INSBASE
 10
0.0
 20
0.0
 30
0.0
  9
$EXTMIN
 10
-394.746351
 20
-81.214588
 30
-0.000006
  9
$EXTMAX
 10
210.065833
 20
1166.709104
 30
0.000006
  9
$LIMMIN
 10
-394.746351
 20
-81.214588
  9
$LIMMAX
 10
210.065833
 20
1166.709104
  9
$ORTHOMODE
 70
     1
  9
$REGENMODE
 70
     1
  9
$FILLMODE
 70
     1
  9
$QTEXTMODE
 70
     0
  9
$MIRRTEXT
 70
     0
  9
$DRAGMODE
 70
     2
  9
$LTSCALE
 40
50.0
  9
$OSMODE
 70
     0
  9
$ATTMODE
 70
     1
  9
$TEXTSIZE
 40
200.0
  9
$TRACEWID
 40
1.0
  9
$TEXTSTYLE
  7
STANDARD
  9
$CLAYER
  8
TEAM-MAS
  9
$CELTYPE
  6
BYLAYER
  9
$CECOLOR
 62
   256
  9
$DIMSCALE
 40
1.0
  9
$DIMASZ
 40
20.0
  9
$DIMEXO
 40
10.0
  9
$DIMDLI
 40
1.0
  9
$DIMRND
 40
0.0
  9
$DIMDLE
 40
0.0
  9
$DIMEXE
 40
1.0
  9
$DIMTP
 40
0.0
  9
$DIMTM
 40
0.0
  9
$DIMTXT
 40
35.0
  9
$DIMCEN
 40
1.0
  9
$DIMTSZ
 40
0.0
  9
$DIMTOL
 70
     0
  9
$DIMLIM
 70
     0
  9
$DIMTIH
 70
     0
  9
$DIMTOH
 70
     0
  9
$DIMSE1
 70
     0
  9
$DIMSE2
 70
     0
  9
$DIMTAD
 70
     0
  9
$DIMZIN
 70
     0
  9
$DIMBLK
  1

  9
$DIMASO
 70
     1
  9
$DIMSHO
 70
     0
  9
$DIMPOST
  1

  9
$DIMAPOST
  1

  9
$DIMALT
 70
     0
  9
$DIMALTD
 70
     2
  9
$DIMALTF
 40
25.4
  9
$DIMLFAC
 40
1.0
  9
$DIMTOFL
 70
     0
  9
$DIMTVP
 40
0.0
  9
$DIMTIX
 70
     0
  9
$DIMSOXD
 70
     0
  9
$DIMSAH
 70
     0
  9
$DIMBLK1
  1

  9
$DIMBLK2
  1

  9
$DIMSTYLE
  2
TEAM
  9
$DIMCLRD
 70
     9
  9
$DIMCLRE
 70
     9
  9
$DIMCLRT
 70
    11
  9
$DIMTFAC
 40
1.0
  9
$DIMGAP
 40
7.0
  9
$LUNITS
 70
     2
  9
$LUPREC
 70
     1
  9
$SKETCHINC
 40
1.0
  9
$FILLETRAD
 40
50.0
  9
$AUNITS
 70
     0
  9
$AUPREC
 70
     0
  9
$MENU
  1
ROPLANS
  9
$ELEVATION
 40
0.0
  9
$PELEVATION
 40
0.0
  9
$THICKNESS
 40
0.0
  9
$LIMCHECK
 70
     0
  9
$BLIPMODE
 70
     1
  9
$CHAMFERA
 40
0.0
  9
$CHAMFERB
 40
0.0
  9
$SKPOLY
 70
     0
  9
$TDCREATE
 40
2450392.957851
  9
$TDUPDATE
 40
2456118.662559
  9
$TDINDWG
 40
5.307301
  9
$TDUSRTIMER
 40
5.307301
  9
$USRTIMER
 70
     1
  9
$ANGBASE
 50
0.0
  9
$ANGDIR
 70
     0
  9
$PDMODE
 70
     0
  9
$PDSIZE
 40
0.0
  9
$PLINEWID
 40
0.0
  9
$COORDS
 70
     2
  9
$SPLFRAME
 70
     0
  9
$SPLINETYPE
 70
     6
  9
$SPLINESEGS
 70
     8
  9
$ATTDIA
 70
     0
  9
$ATTREQ
 70
     0
  9
$HANDLING
 70
     1
  9
$HANDSEED
  5
393
  9
$SURFTAB1
 70
    24
  9
$SURFTAB2
 70
    24
  9
$SURFTYPE
 70
     6
  9
$SURFU
 70
     6
  9
$SURFV
 70
     6
  9
$UCSNAME
  2

  9
$UCSORG
 10
0.0
 20
0.0
 30
0.0
  9
$UCSXDIR
 10
1.0
 20
0.0
 30
0.0
  9
$UCSYDIR
 10
0.0
 20
1.0
 30
0.0
  9
$PUCSNAME
  2

  9
$PUCSORG
 10
0.0
 20
0.0
 30
0.0
  9
$PUCSXDIR
 10
1.0
 20
0.0
 30
0.0
  9
$PUCSYDIR
 10
0.0
 20
1.0
 30
0.0
  9
$USERI1
 70
     0
  9
$USERI2
 70
     0
  9
$USERI3
 70
     0
  9
$USERI4
 70
     0
  9
$USERI5
 70
     0
  9
$USERR1
 40
0.0
  9
$USERR2
 40
0.0
  9
$USERR3
 40
0.0
  9
$USERR4
 40
0.0
  9
$USERR5
 40
0.0
  9
$WORLDVIEW
 70
     1
  9
$SHADEDGE
 70
     0
  9
$SHADEDIF
 70
    70
  9
$TILEMODE
 70
     1
  9
$MAXACTVP
 70
    16
  9
$PLIMCHECK
 70
     0
  9
$PEXTMIN
 10
-0.805942
 20
0.005011
 30
0.0
  9
$PEXTMAX
 10
20.250094
 20
11.356329
 30
0.0
  9
$PLIMMIN
 10
0.0
 20
0.0
  9
$PLIMMAX
 10
12.0
 20
9.0
  9
$UNITMODE
 70
     0
  9
$VISRETAIN
 70
     0
  9
$PLINEGEN
 70
     0
  9
$PSLTSCALE
 70
     0
  0
ENDSEC
  0
SECTION
  2
TABLES
  0
TABLE
  2
VPORT
 70
     2
  0
VPORT
  2
*ACTIVE
 70
     0
 10
0.0
 20
0.0
 11
1.0
 21
1.0
 12
-92.340259
 22
542.747258
 13
0.0
 23
0.0
 14
1.0
 24
1.0
 15
50.0
 25
50.0
 16
0.0
 26
0.0
 36
1.0
 17
0.0
 27
0.0
 37
0.0
 40
1255.780505
 41
1.911765
 42
50.0
 43
0.0
 44
0.0
 50
0.0
 51
0.0
 71
     0
 72
   100
 73
     1
 74
     1
 75
     0
 76
     0
 77
     0
 78
     0
  0
ENDTAB
  0
TABLE
  2
LTYPE
 70
     3
  0
LTYPE
  2
CONTINUOUS
 70
     0
  3
Solid Line
 72
    65
 73
     0
 40
0.0
  0
LTYPE
  2
31
 70
     0
  3

 72
    65
 73
     4
 40
2.1
 49
1.5
 49
-0.3
 49
0.0
 49
-0.3
  0
LTYPE
  2
22
 70
     0
  3

 72
    65
 73
     2
 40
1.4
 49
1.2
 49
-0.2
  0
ENDTAB
  0
TABLE
  2
LAYER
 70
     9
  0
LAYER
  2
0
 70
     0
 62
     7
  6
CONTINUOUS
  0
LAYER
  2
DEFPOINTS
 70
     0
 62
     7
  6
CONTINUOUS
  0
LAYER
  2
TEAM-AXE
 70
     0
 62
    10
  6
31
  0
LAYER
  2
TEAM-MAS
 70
     0
 62
     9
  6
CONTINUOUS
  0
LAYER
  2
TEAM-TXT
 70
     0
 62
    11
  6
CONTINUOUS
  0
LAYER
  2
TEAM-DET2
 70
     0
 62
    11
  6
CONTINUOUS
  0
LAYER
  2
TEAM-HIDE
 70
     0
 62
     8
  6
22
  0
LAYER
  2
TEAM-DET3
 70
     0
 62
    14
  6
CONTINUOUS
  0
LAYER
  2
TEAM-INSP
 70
     0
 62
     5
  6
CONTINUOUS
  0
ENDTAB
  0
TABLE
  2
STYLE
 70
     2
  0
STYLE
  2
STANDARD
 70
     0
 40
0.0
 41
1.0
 50
0.0
 71
     0
 42
200.0
  3
txt
  4

  0
STYLE
  2
TEAM
 70
     0
 40
0.0
 41
0.8
 50
15.0
 71
     0
 42
7.0
  3
ROMANS.shx
  4

  0
ENDTAB
  0
TABLE
  2
VIEW
 70
     0
  0
ENDTAB
  0
TABLE
  2
UCS
 70
     0
  0
ENDTAB
  0
TABLE
  2
APPID
 70
     1
  0
APPID
  2
ACAD
 70
     0
  0
ENDTAB
  0
TABLE
  2
DIMSTYLE
 70
     1
  0
DIMSTYLE
  2
TEAM
 70
     0
  3

  4

  5

  6

  7

 40
1.0
 41
20.0
 42
10.0
 43
1.0
 44
1.0
 45
0.0
 46
0.0
 47
0.0
 48
0.0
140
35.0
141
1.0
142
0.0
143
25.4
144
1.0
145
0.0
146
1.0
147
7.0
 71
     0
 72
     0
 73
     0
 74
     0
 75
     0
 76
     0
 77
     0
 78
     0
170
     0
171
     2
172
     0
173
     0
174
     0
175
     0
176
     9
177
     9
178
    11
  0
ENDTAB
  0
ENDSEC
  0
SECTION
  2
BLOCKS
  0
BLOCK
  8
0
  2
$MODEL_SPACE
 70
     0
 10
0.0
 20
0.0
 30
0.0
  3
$MODEL_SPACE
  1

  0
ENDBLK
  5
350
  8
0
  0
BLOCK
 67
     1
  8
0
  2
$PAPER_SPACE
 70
     0
 10
0.0
 20
0.0
 30
0.0
  3
$PAPER_SPACE
  1

  0
ENDBLK
  5
34E
 67
     1
  8
0
  0
BLOCK
  8
0
  2
*D0
 70
     1
 10
0.0
 20
0.0
 30
0.0
  3
*D0
  1

  0
LINE
  5
59
  8
0
  6
BYBLOCK
 62
     9
 10
7999.5
 20
51990.0
 30
0.0
 11
7999.5
 21
51935.353957
 31
0.0
  0
LINE
  5
5A
  8
0
  6
BYBLOCK
 62
     9
 10
7889.5
 20
51962.456537
 30
0.0
 11
7889.5
 21
51935.353957
 31
0.0
  0
LINE
  5
5B
  8
0
  6
BYBLOCK
 62
     9
 10
8019.5
 20
51936.353957
 30
0.0
 11
8039.5
 21
51936.353957
 31
0.0
  0
LINE
  5
5C
  8
0
  6
BYBLOCK
 62
     9
 10
7869.5
 20
51936.353957
 30
0.0
 11
7849.5
 21
51936.353957
 31
0.0
  0
SOLID
  5
5D
  8
0
  6
BYBLOCK
 62
     9
 10
8019.5
 20
51939.687291
 30
0.0
 11
8019.5
 21
51933.020624
 31
0.0
 12
7999.5
 22
51936.353957
 32
0.0
 13
7999.5
 23
51936.353957
 33
0.0
  0
SOLID
  5
5E
  8
0
  6
BYBLOCK
 62
     9
 10
7869.5
 20
51939.687291
 30
0.0
 11
7869.5
 21
51933.020624
 31
0.0
 12
7889.5
 22
51936.353957
 32
0.0
 13
7889.5
 23
51936.353957
 33
0.0
  0
TEXT
  5
5F
  8
0
  6
BYBLOCK
 62
    11
 10
7912.416667
 20
51918.853957
 30
0.0
 40
35.0
  1
110
  0
POINT
  5
60
  8
DEFPOINTS
  6
BYBLOCK
 62
     0
 10
7999.5
 20
52000.0
 30
0.0
  0
POINT
  5
61
  8
DEFPOINTS
  6
BYBLOCK
 62
     0
 10
7889.5
 20
51972.456537
 30
0.0
  0
POINT
  5
62
  8
DEFPOINTS
  6
BYBLOCK
 62
     0
 10
7889.5
 20
51936.353957
 30
0.0
  0
ENDBLK
  5
64
  8
0
  0
BLOCK
  8
0
  2
*D1
 70
     1
 10
0.0
 20
0.0
 30
0.0
  3
*D1
  1

  0
LINE
  5
4A
  8
0
  6
BYBLOCK
 62
     9
 10
7951.50002
 20
51997.999984
 30
0.0
 11
7951.50002
 21
52023.721199
 31
0.0
  0
LINE
  5
4B
  8
0
  6
BYBLOCK
 62
     9
 10
7999.50002
 20
51998.0
 30
0.0
 11
7999.50002
 21
52023.721199
 31
0.0
  0
LINE
  5
4C
  8
0
  6
BYBLOCK
 62
     9
 10
7931.50002
 20
52022.721199
 30
0.0
 11
7911.50002
 21
52022.721199
 31
0.0
  0
LINE
  5
4D
  8
0
  6
BYBLOCK
 62
     9
 10
8019.50002
 20
52022.721199
 30
0.0
 11
8039.50002
 21
52022.721199
 31
0.0
  0
TEXT
  5
4E
  8
0
  6
BYBLOCK
 62
    11
 10
8038.656134
 20
52007.363604
 30
0.0
 40
35.0
  1
48
  0
LINE
  5
4F
  8
0
  6
BYBLOCK
 62
     9
 10
7951.50002
 20
52022.721199
 30
0.0
 11
7999.50002
 21
52022.721199
 31
0.0
  0
SOLID
  5
50
  8
0
  6
BYBLOCK
 62
     9
 10
7931.50002
 20
52026.054533
 30
0.0
 11
7931.50002
 21
52019.387866
 31
0.0
 12
7951.50002
 22
52022.721199
 32
0.0
 13
7951.50002
 23
52022.721199
 33
0.0
  0
SOLID
  5
51
  8
0
  6
BYBLOCK
 62
     9
 10
8019.50002
 20
52026.054533
 30
0.0
 11
8019.50002
 21
52019.387866
 31
0.0
 12
7999.50002
 22
52022.721199
 32
0.0
 13
7999.50002
 23
52022.721199
 33
0.0
  0
POINT
  5
52
  8
DEFPOINTS
  6
BYBLOCK
 62
     0
 10
7951.50002
 20
51987.999984
 30
0.0
  0
POINT
  5
53
  8
DEFPOINTS
  6
BYBLOCK
 62
     0
 10
7999.50002
 20
51988.0
 30
0.0
  0
POINT
  5
54
  8
DEFPOINTS
  6
BYBLOCK
 62
     0
 10
7999.50002
 20
52022.721199
 30
0.0
  0
ENDBLK
  5
56
  8
0
  0
BLOCK
  8
0
  2
*D2
 70
     1
 10
0.0
 20
0.0
 30
0.0
  3
*D2
  1

  0
LINE
  5
DF
  8
0
  6
BYBLOCK
 62
     9
 10
7999.999657
 20
53129.996197
 30
0.0
 11
7999.999657
 21
53150.138901
 31
0.0
  0
LINE
  5
E0
  8
0
  6
BYBLOCK
 62
     9
 10
7829.999782
 20
52879.495758
 30
0.0
 11
7829.999782
 21
53150.138901
 31
0.0
  0
LINE
  5
E1
  8
0
  6
BYBLOCK
 62
     9
 10
7979.999657
 20
53149.138901
 30
0.0
 11
7959.916386
 21
53149.138901
 31
0.0
  0
LINE
  5
E2
  8
0
  6
BYBLOCK
 62
     9
 10
7849.999782
 20
53149.138901
 30
0.0
 11
7870.083053
 21
53149.138901
 31
0.0
  0
SOLID
  5
E3
  8
0
  6
BYBLOCK
 62
     9
 10
7979.999657
 20
53152.472235
 30
0.0
 11
7979.999657
 21
53145.805568
 31
0.0
 12
7999.999657
 22
53149.138901
 32
0.0
 13
7999.999657
 23
53149.138901
 33
0.0
  0
SOLID
  5
E4
  8
0
  6
BYBLOCK
 62
     9
 10
7849.999782
 20
53152.472235
 30
0.0
 11
7849.999782
 21
53145.805568
 31
0.0
 12
7829.999782
 22
53149.138901
 32
0.0
 13
7829.999782
 23
53149.138901
 33
0.0
  0
TEXT
  5
E5
  8
0
  6
BYBLOCK
 62
    11
 10
7877.083053
 20
53131.638901
 30
0.0
 40
35.0
  1
170
  0
POINT
  5
E6
  8
DEFPOINTS
  6
BYBLOCK
 62
     0
 10
7999.999657
 20
53119.996197
 30
0.0
  0
POINT
  5
E7
  8
DEFPOINTS
  6
BYBLOCK
 62
     0
 10
7829.999782
 20
52869.495758
 30
0.0
  0
POINT
  5
E8
  8
DEFPOINTS
  6
BYBLOCK
 62
     0
 10
7829.999782
 20
53149.138901
 30
0.0
  0
ENDBLK
  5
EA
  8
0
  0
BLOCK
  8
0
  2
*D3
 70
     1
 10
0.0
 20
0.0
 30
0.0
  3
*D3
  1

  0
LINE
  5
D0
  8
0
  6
BYBLOCK
 62
     9
 10
7999.999657
 20
53129.996197
 30
0.0
 11
7999.999657
 21
53150.138901
 31
0.0
  0
LINE
  5
D1
  8
0
  6
BYBLOCK
 62
     9
 10
8044.999675
 20
53080.495885
 30
0.0
 11
8044.999675
 21
53150.138901
 31
0.0
  0
LINE
  5
D2
  8
0
  6
BYBLOCK
 62
     9
 10
7979.999657
 20
53149.138901
 30
0.0
 11
7959.999657
 21
53149.138901
 31
0.0
  0
LINE
  5
D3
  8
0
  6
BYBLOCK
 62
     9
 10
8064.999675
 20
53149.138901
 30
0.0
 11
8084.999675
 21
53149.138901
 31
0.0
  0
TEXT
  5
D4
  8
0
  6
BYBLOCK
 62
    11
 10
8093.744996
 20
53131.638901
 30
0.0
 40
35.0
  1
45
  0
LINE
  5
D5
  8
0
  6
BYBLOCK
 62
     9
 10
7999.999657
 20
53149.138901
 30
0.0
 11
8044.999675
 21
53149.138901
 31
0.0
  0
SOLID
  5
D6
  8
0
  6
BYBLOCK
 62
     9
 10
7979.999657
 20
53152.472235
 30
0.0
 11
7979.999657
 21
53145.805568
 31
0.0
 12
7999.999657
 22
53149.138901
 32
0.0
 13
7999.999657
 23
53149.138901
 33
0.0
  0
SOLID
  5
D7
  8
0
  6
BYBLOCK
 62
     9
 10
8064.999675
 20
53152.472235
 30
0.0
 11
8064.999675
 21
53145.805568
 31
0.0
 12
8044.999675
 22
53149.138901
 32
0.0
 13
8044.999675
 23
53149.138901
 33
0.0
  0
POINT
  5
D8
  8
DEFPOINTS
  6
BYBLOCK
 62
     0
 10
7999.999657
 20
53119.996197
 30
0.0
  0
POINT
  5
D9
  8
DEFPOINTS
  6
BYBLOCK
 62
     0
 10
8044.999675
 20
53070.495885
 30
0.0
  0
POINT
  5
DA
  8
DEFPOINTS
  6
BYBLOCK
 62
     0
 10
8044.999675
 20
53149.138901
 30
0.0
  0
ENDBLK
  5
DC
  8
0
  0
BLOCK
  8
0
  2
*D4
 70
     1
 10
0.0
 20
0.0
 30
0.0
  3
*D4
  1

  0
LINE
  5
31
  8
0
  6
BYBLOCK
 62
     9
 10
8009.5
 20
52000.0
 30
0.0
 11
8143.868433
 21
52000.0
 31
0.0
  0
LINE
  5
32
  8
0
  6
BYBLOCK
 62
     9
 10
8054.999675
 20
52999.995885
 30
0.0
 11
8143.868433
 21
52999.995885
 31
0.0
  0
LINE
  5
33
  8
0
  6
BYBLOCK
 62
     9
 10
8142.868433
 20
52020.0
 30
0.0
 11
8142.868433
 21
52443.414609
 31
0.0
  0
LINE
  5
34
  8
0
  6
BYBLOCK
 62
     9
 10
8142.868433
 20
52979.995885
 30
0.0
 11
8142.868433
 21
52556.581276
 31
0.0
  0
SOLID
  5
35
  8
0
  6
BYBLOCK
 62
     9
 10
8139.5351
 20
52020.0
 30
0.0
 11
8146.201766
 21
52020.0
 31
0.0
 12
8142.868433
 22
52000.0
 32
0.0
 13
8142.868433
 23
52000.0
 33
0.0
  0
SOLID
  5
36
  8
0
  6
BYBLOCK
 62
     9
 10
8139.5351
 20
52979.995885
 30
0.0
 11
8146.201766
 21
52979.995885
 31
0.0
 12
8142.868433
 22
52999.995885
 32
0.0
 13
8142.868433
 23
52999.995885
 33
0.0
  0
TEXT
  5
37
  8
0
  6
BYBLOCK
 62
    11
 10
8160.368433
 20
52450.414609
 30
0.0
 40
35.0
  1
1000
 50
90.0
  0
POINT
  5
38
  8
DEFPOINTS
  6
BYBLOCK
 62
     0
 10
7999.5
 20
52000.0
 30
0.0
  0
POINT
  5
39
  8
DEFPOINTS
  6
BYBLOCK
 62
     0
 10
8044.999675
 20
52999.995885
 30
0.0
  0
POINT
  5
3A
  8
DEFPOINTS
  6
BYBLOCK
 62
     0
 10
8142.868433
 20
52999.995885
 30
0.0
  0
ENDBLK
  5
3C
  8
0
  0
BLOCK
  8
0
  2
*D5
 70
     1
 10
0.0
 20
0.0
 30
0.0
  3
*D5
  1

  0
LINE
  5
22
  8
0
  6
BYBLOCK
 62
     9
 10
8009.5
 20
52000.0
 30
0.0
 11
8193.553246
 21
52000.0
 31
0.0
  0
LINE
  5
23
  8
0
  6
BYBLOCK
 62
     9
 10
8009.999657
 20
53119.996197
 30
0.0
 11
8193.553246
 21
53119.996197
 31
0.0
  0
LINE
  5
24
  8
0
  6
BYBLOCK
 62
     9
 10
8192.553246
 20
52020.0
 30
0.0
 11
8192.553246
 21
52503.414765
 31
0.0
  0
LINE
  5
25
  8
0
  6
BYBLOCK
 62
     9
 10
8192.553246
 20
53099.996197
 30
0.0
 11
8192.553246
 21
52616.581432
 31
0.0
  0
SOLID
  5
26
  8
0
  6
BYBLOCK
 62
     9
 10
8189.219912
 20
52020.0
 30
0.0
 11
8195.886579
 21
52020.0
 31
0.0
 12
8192.553246
 22
52000.0
 32
0.0
 13
8192.553246
 23
52000.0
 33
0.0
  0
SOLID
  5
27
  8
0
  6
BYBLOCK
 62
     9
 10
8189.219912
 20
53099.996197
 30
0.0
 11
8195.886579
 21
53099.996197
 31
0.0
 12
8192.553246
 22
53119.996197
 32
0.0
 13
8192.553246
 23
53119.996197
 33
0.0
  0
TEXT
  5
28
  8
0
  6
BYBLOCK
 62
    11
 10
8210.053246
 20
52510.414765
 30
0.0
 40
35.0
  1
1120
 50
90.0
  0
POINT
  5
29
  8
DEFPOINTS
  6
BYBLOCK
 62
     0
 10
7999.5
 20
52000.0
 30
0.0
  0
POINT
  5
2B
  8
DEFPOINTS
  6
BYBLOCK
 62
     0
 10
7999.999657
 20
53119.996197
 30
0.0
  0
POINT
  5
2C
  8
DEFPOINTS
  6
BYBLOCK
 62
     0
 10
8192.553246
 20
53119.996197
 30
0.0
  0
ENDBLK
  5
2E
  8
0
  0
ENDSEC
  0
SECTION
  2
ENTITIES
  0
DIMENSION
  5
20
  8
TEAM-MAS
  2
*D5
 10
192.553246
 20
1119.996197
 30
0.0
 11
192.553246
 21
559.998098
 31
0.0
 12
-8000.0
 22
-52000.0
 32
0.0
 13
-0.5
 23
0.0
 33
0.0
 14
-0.000343
 24
1119.996197
 34
0.0
 50
90.0
1001
ACAD
1000
DSTYLE
1002
{
1070
    40
1040
1.0
1002
}
  0
DIMENSION
  5
2F
  8
TEAM-MAS
  2
*D4
 10
142.868433
 20
999.995885
 30
0.0
 11
142.868433
 21
499.997943
 31
0.0
 12
-8000.0
 22
-52000.0
 32
0.0
 13
-0.5
 23
0.0
 33
0.0
 14
44.999675
 24
999.995885
 34
0.0
 50
90.0
1001
ACAD
1000
DSTYLE
1002
{
1070
    40
1040
1.0
1002
}
  0
ARC
  5
3D
  8
TEAM-DET3
 10
-74.832327
 20
306.94421
 30
0.0
 40
128.8326
 50
174.851817
 51
217.243562
  0
ARC
  5
3F
  8
TEAM-DET3
 10
-75.598115
 20
306.76656
 30
0.0
 40
105.033717
 50
176.459463
 51
220.00929
  0
LINE
  5
40
  8
TEAM-DET3
 10
-139.998231
 20
272.499473
 30
0.0
 11
-139.998231
 21
552.498919
 31
0.0
  0
LINE
  5
41
  8
TEAM-DET2
 10
-40.000385
 20
1119.996185
 30
0.0
 11
-40.000042
 21
71.35617
 31
0.0
  0
LINE
  5
43
  8
TEAM-DET2
 10
-0.000343
 20
1119.996197
 30
0.0
 11
0.0
 21
71.356183
 31
0.0
  0
LINE
  5
44
  8
TEAM-HIDE
 10
-37.50014
 20
501.356171
 30
0.0
 11
-37.5
 21
71.356171
 31
0.0
  0
LINE
  5
47
  8
TEAM-HIDE
 10
-2.50014
 20
501.356183
 30
0.0
 11
-2.5
 21
71.356183
 31
0.0
  0
DIMENSION
  5
48
  8
TEAM-MAS
  2
*D1
 10
-0.49998
 20
22.721199
 30
0.0
 11
67.8228
 21
24.863604
 31
0.0
 12
-8000.0
 22
-52000.0
 32
0.0
 70
   128
 13
-48.49998
 23
-12.000016
 33
0.0
 14
-0.49998
 24
-12.0
 34
0.0
1001
ACAD
1000
DSTYLE
1002
{
1070
    40
1040
1.0
1002
}
  0
DIMENSION
  5
57
  8
TEAM-MAS
  2
*D0
 10
-110.5
 20
-63.646043
 30
0.0
 11
-55.5
 21
-63.646043
 31
0.0
 12
-8000.0
 22
-52000.0
 32
0.0
 13
-0.5
 23
0.0
 33
0.0
 14
-110.5
 24
-27.543463
 34
0.0
1001
ACAD
1000
DSTYLE
1002
{
1070
    40
1040
1.0
1002
}
  0
LINE
  5
65
  8
TEAM-DET3
 10
-65.498785
 20
186.311438
 30
0.0
 11
-65.498785
 21
24.956537
 31
0.0
  0
LINE
  5
66
  8
TEAM-DET3
 10
-155.5
 20
189.811438
 30
0.0
 11
-155.499493
 21
24.956537
 31
0.0
  0
LINE
  5
67
  8
TEAM-DET3
 10
-65.498785
 20
-27.543463
 30
0.0
 11
-155.499493
 21
-27.543463
 31
0.0
  0
LINE
  5
68
  8
TEAM-DET3
 10
-155.499493
 20
24.956537
 30
0.0
 11
-155.499493
 21
-27.543463
 31
0.0
  0
LINE
  5
69
  8
TEAM-DET3
 10
-65.498785
 20
24.956537
 30
0.0
 11
-65.498785
 21
-27.543463
 31
0.0
  0
LINE
  5
6A
  8
TEAM-DET3
 10
6.998663
 20
186.267011
 30
0.0
 11
-0.000049
 21
186.267011
 31
0.0
  0
ARC
  5
6B
  8
TEAM-DET3
 10
-100.489727
 20
286.012989
 30
0.0
 40
95.746567
 50
216.564503
 51
269.994073
  0
ARC
  5
6C
  8
TEAM-DET3
 10
-100.790451
 20
285.037391
 30
0.0
 40
71.769346
 50
219.652598
 51
270.23217
  0
LINE
  5
6D
  8
TEAM-DET3
 10
-40.000077
 20
190.266423
 30
0.0
 11
-100.499632
 21
190.266423
 31
0.0
  0
LINE
  5
6E
  8
TEAM-DET3
 10
-40.000085
 20
213.268635
 30
0.0
 11
-100.499632
 21
213.268635
 31
0.0
  0
LINE
  5
6F
  8
TEAM-AXE
 10
-68.602182
 20
201.767529
 30
0.0
 11
6.998663
 21
201.767529
 31
0.0
  0
LINE
  5
72
  8
TEAM-HIDE
 10
-40.000077
 20
190.767683
 30
0.0
 11
-0.000035
 21
190.767683
 31
0.0
  0
LINE
  5
73
  8
TEAM-DET3
 10
6.998663
 20
217.268047
 30
0.0
 11
-0.000049
 21
217.268047
 31
0.0
  0
LINE
  5
74
  8
TEAM-DET3
 10
6.998663
 20
186.267011
 30
0.0
 11
6.998663
 21
217.268047
 31
0.0
  0
LINE
  5
75
  8
TEAM-HIDE
 10
-0.000049
 20
212.767374
 30
0.0
 11
-40.000084
 21
212.767374
 31
0.0
  0
LINE
  5
76
  8
TEAM-DET3
 10
-135.002843
 20
267.497883
 30
0.0
 11
-40.000201
 21
267.497883
 31
0.0
  0
LINE
  5
77
  8
TEAM-DET3
 10
-139.998231
 20
272.499473
 30
0.0
 11
-135.002843
 21
267.497883
 31
0.0
  0
LINE
  5
78
  8
TEAM-HIDE
 10
-20.506441
 20
280.411347
 30
0.0
 11
-20.506441
 21
182.211335
 31
0.0
  0
LINE
  5
79
  8
TEAM-HIDE
 10
-23.993559
 20
280.411347
 30
0.0
 11
-23.993559
 21
182.211335
 31
0.0
  0
LINE
  5
7A
  8
TEAM-HIDE
 10
-39.506441
 20
280.411347
 30
0.0
 11
-39.506441
 21
182.211335
 31
0.0
  0
LINE
  5
7B
  8
TEAM-DET3
 10
-42.993559
 20
190.266423
 30
0.0
 11
-42.993559
 21
182.211335
 31
0.0
  0
LINE
  5
7C
  8
TEAM-DET3
 10
-42.993559
 20
267.497883
 30
0.0
 11
-42.993559
 21
213.268635
 31
0.0
  0
LINE
  5
7D
  8
TEAM-HIDE
 10
-42.993559
 20
280.411347
 30
0.0
 11
-42.993559
 21
267.497883
 31
0.0
  0
ARC
  5
7E
  8
TEAM-HIDE
 10
-7.419659
 20
280.392147
 30
0.0
 40
6.420874
 50
358.885399
 51
88.693521
  0
LINE
  5
7F
  8
TEAM-HIDE
 10
-15.0
 20
286.811341
 30
0.0
 11
-7.273262
 21
286.811341
 31
0.0
  0
ARC
  5
80
  8
TEAM-HIDE
 10
-15.0
 20
283.811341
 30
0.0
 40
2.999999
 50
89.999991
 51
180.000002
  0
LINE
  5
81
  8
TEAM-HIDE
 10
-20.506441
 20
280.411347
 30
0.0
 11
-18.0
 21
280.411347
 31
0.0
  0
ARC
  5
82
  8
TEAM-HIDE
 10
-22.25
 20
280.561341
 30
0.0
 40
1.749999
 50
355.083094
 51
184.916906
  0
LINE
  5
83
  8
TEAM-HIDE
 10
-39.506441
 20
280.411347
 30
0.0
 11
-23.993559
 21
280.411347
 31
0.0
  0
ARC
  5
84
  8
TEAM-HIDE
 10
-41.25
 20
280.561341
 30
0.0
 40
1.749999
 50
355.083094
 51
184.916906
  0
LINE
  5
85
  8
TEAM-HIDE
 10
-58.506441
 20
280.411347
 30
0.0
 11
-42.993559
 21
280.411347
 31
0.0
  0
ARC
  5
86
  8
TEAM-HIDE
 10
-7.419659
 20
182.230536
 30
0.0
 40
6.420874
 50
271.306479
 51
1.114601
  0
LINE
  5
87
  8
TEAM-HIDE
 10
-15.0
 20
175.811341
 30
0.0
 11
-7.273262
 21
175.811341
 31
0.0
  0
ARC
  5
88
  8
TEAM-HIDE
 10
-15.0
 20
178.811341
 30
0.0
 40
2.999999
 50
179.999998
 51
270.000009
  0
LINE
  5
89
  8
TEAM-HIDE
 10
-17.999999
 20
283.811341
 30
0.0
 11
-18.0
 21
178.811341
 31
0.0
  0
LINE
  5
8A
  8
TEAM-HIDE
 10
-1.0
 20
280.267247
 30
0.0
 11
-1.0
 21
182.105635
 31
0.0
  0
LINE
  5
8B
  8
TEAM-HIDE
 10
-20.506441
 20
182.211335
 30
0.0
 11
-18.0
 21
182.211335
 31
0.0
  0
ARC
  5
8C
  8
TEAM-HIDE
 10
-22.25
 20
182.061341
 30
0.0
 40
1.749999
 50
175.083094
 51
4.916906
  0
LINE
  5
8D
  8
TEAM-HIDE
 10
-39.506441
 20
182.211335
 30
0.0
 11
-23.993559
 21
182.211335
 31
0.0
  0
ARC
  5
8E
  8
TEAM-DET3
 10
-41.25
 20
182.061341
 30
0.0
 40
1.749999
 50
175.083094
 51
4.916906
  0
LINE
  5
8F
  8
TEAM-DET3
 10
-58.506441
 20
182.211335
 30
0.0
 11
-42.993559
 21
182.211335
 31
0.0
  0
LINE
  5
90
  8
TEAM-HIDE
 10
-13.022513
 20
173.433737
 30
0.0
 11
-23.874564
 21
173.433737
 31
0.0
  0
LINE
  5
91
  8
TEAM-HIDE
 10
-26.851126
 20
173.433737
 30
0.0
 11
-35.28472
 21
173.433737
 31
0.0
  0
LINE
  5
92
  8
TEAM-HIDE
 10
-16.812118
 20
169.740595
 30
0.0
 11
-13.070744
 21
169.775046
 31
0.0
  0
LINE
  5
93
  8
TEAM-HIDE
 10
-37.517142
 20
169.740595
 30
0.0
 11
-33.713757
 21
169.775046
 31
0.0
  0
LINE
  5
94
  8
TEAM-HIDE
 10
-26.554848
 20
286.653355
 30
0.0
 11
-24.880532
 21
286.653355
 31
0.0
  0
LINE
  5
95
  8
TEAM-HIDE
 10
-37.234644
 20
286.653355
 30
0.0
 11
-26.554848
 21
286.653355
 31
0.0
  0
LINE
  5
96
  8
TEAM-HIDE
 10
-14.497014
 20
180.323928
 30
0.0
 11
-13.966469
 21
180.323928
 31
0.0
  0
LINE
  5
97
  8
TEAM-HIDE
 10
-17.769855
 20
182.673483
 30
0.0
 11
-16.722546
 21
181.378127
 31
0.0
  0
LINE
  5
98
  8
TEAM-HIDE
 10
-23.943466
 20
190.300925
 30
0.0
 11
-17.769855
 21
182.673483
 31
0.0
  0
LINE
  5
99
  8
TEAM-HIDE
 10
-13.022513
 20
179.373082
 30
0.0
 11
-13.022513
 21
169.334074
 31
0.0
  0
LINE
  5
9A
  8
TEAM-HIDE
 10
-28.449651
 20
279.542678
 30
0.0
 11
-26.775334
 21
279.542678
 31
0.0
  0
LINE
  5
9B
  8
TEAM-HIDE
 10
-35.339842
 20
279.542678
 30
0.0
 11
-28.449651
 21
279.542678
 31
0.0
  0
LINE
  5
9C
  8
TEAM-HIDE
 10
-28.449651
 20
284.29002
 30
0.0
 11
-26.775334
 21
284.29002
 31
0.0
  0
LINE
  5
9D
  8
TEAM-HIDE
 10
-35.339842
 20
284.29002
 30
0.0
 11
-28.449651
 21
284.29002
 31
0.0
  0
LINE
  5
9E
  8
TEAM-HIDE
 10
-35.339842
 20
285.709399
 30
0.0
 11
-35.339842
 21
170.126446
 31
0.0
  0
LINE
  5
9F
  8
TEAM-HIDE
 10
-26.775334
 20
285.709399
 30
0.0
 11
-26.775334
 21
170.126446
 31
0.0
  0
LINE
  5
A0
  8
TEAM-HIDE
 10
-38.17171
 20
174.873787
 30
0.0
 11
-38.17171
 21
173.213251
 31
0.0
  0
LINE
  5
A1
  8
TEAM-HIDE
 10
-38.17171
 20
285.709399
 30
0.0
 11
-38.17171
 21
174.873787
 31
0.0
  0
LINE
  5
A2
  8
TEAM-HIDE
 10
-23.943466
 20
285.709399
 30
0.0
 11
-23.943466
 21
170.126446
 31
0.0
  0
LINE
  5
A3
  8
TEAM-DET3
 10
-0.000052
 20
246.81186
 30
0.0
 11
-0.000052
 21
220.311496
 31
0.0
  0
LINE
  5
A4
  8
TEAM-HIDE
 10
-40.000022
 20
140.356088
 30
0.0
 11
-5.000022
 21
140.3561
 31
0.0
  0
LINE
  5
A5
  8
TEAM-HIDE
 10
-40.00003
 20
164.356088
 30
0.0
 11
-5.00003
 21
164.3561
 31
0.0
  0
LINE
  5
A6
  8
TEAM-HIDE
 10
-40.000032
 20
167.356088
 30
0.0
 11
-5.000032
 21
167.3561
 31
0.0
  0
LINE
  5
A7
  8
TEAM-HIDE
 10
-40.000022
 20
137.356088
 30
0.0
 11
-5.000022
 21
137.3561
 31
0.0
  0
LINE
  5
A8
  8
TEAM-HIDE
 10
-40.000022
 20
140.356088
 30
0.0
 11
-40.000022
 21
137.356088
 31
0.0
  0
LINE
  5
A9
  8
TEAM-HIDE
 10
-40.000032
 20
167.356088
 30
0.0
 11
-40.00003
 21
164.356088
 31
0.0
  0
ARC
  5
AA
  8
TEAM-HIDE
 10
-5.00003
 20
162.3561
 30
0.0
 40
5.0
 50
0.000019
 51
90.000019
  0
ARC
  5
AB
  8
TEAM-HIDE
 10
-5.000024
 20
142.3561
 30
0.0
 40
5.0
 50
270.000019
 51
0.000019
  0
ARC
  5
AC
  8
TEAM-HIDE
 10
-5.00003
 20
162.3561
 30
0.0
 40
2.0
 50
0.000019
 51
90.000019
  0
ARC
  5
AD
  8
TEAM-HIDE
 10
-5.000024
 20
142.3561
 30
0.0
 40
2.0
 50
270.000019
 51
0.000019
  0
LINE
  5
AE
  8
TEAM-HIDE
 10
-3.00003
 20
162.3561
 30
0.0
 11
-3.000024
 21
142.3561
 31
0.0
  0
LINE
  5
AF
  8
TEAM-HIDE
 10
-0.00003
 20
162.356102
 30
0.0
 11
-0.000024
 21
142.356102
 31
0.0
  0
ARC
  5
B0
  8
TEAM-HIDE
 10
-69.0
 20
189.811438
 30
0.0
 40
86.5
 50
116.08937
 51
117.823076
  0
ARC
  5
B1
  8
TEAM-HIDE
 10
-69.0
 20
189.811438
 30
0.0
 40
86.5
 50
89.337606
 51
116.08937
  0
LINE
  5
B2
  8
TEAM-HIDE
 10
-69.5
 20
276.311438
 30
0.0
 11
-62.0
 21
276.311438
 31
0.0
  0
LINE
  5
B3
  8
TEAM-HIDE
 10
-62.0
 20
282.311438
 30
0.0
 11
-58.5
 21
282.311438
 31
0.0
  0
LINE
  5
B4
  8
TEAM-AXE
 10
-59.000038
 20
231.311438
 30
0.0
 11
8.999962
 21
231.311438
 31
0.0
  0
LINE
  5
B5
  8
TEAM-DET3
 10
-65.498785
 20
186.311438
 30
0.0
 11
-62.0
 21
186.311438
 31
0.0
  0
LINE
  5
B6
  8
TEAM-DET3
 10
-62.0
 20
180.311438
 30
0.0
 11
-58.5
 21
180.311438
 31
0.0
  0
ARC
  5
B7
  8
TEAM-AXE
 10
-67.5
 20
188.311438
 30
0.0
 40
43.0
 50
90.0
 51
180.0
  0
ARC
  5
B8
  8
TEAM-DET3
 10
-69.0
 20
189.811438
 30
0.0
 40
86.5
 50
168.857784
 51
180.0
  0
ARC
  5
B9
  8
TEAM-DET3
 10
-69.0
 20
189.811438
 30
0.0
 40
86.5
 50
117.823076
 51
152.855729
  0
LINE
  5
BA
  8
TEAM-DET3
 10
-62.0
 20
190.266423
 30
0.0
 11
-62.0
 21
180.311438
 31
0.0
  0
LINE
  5
BB
  8
TEAM-DET3
 10
-62.0
 20
267.497883
 30
0.0
 11
-62.0
 21
213.268635
 31
0.0
  0
LINE
  5
BC
  8
TEAM-HIDE
 10
-62.0
 20
282.311438
 30
0.0
 11
-62.0
 21
267.497883
 31
0.0
  0
LINE
  5
BD
  8
TEAM-DET3
 10
-58.5
 20
190.266423
 30
0.0
 11
-58.5
 21
180.311438
 31
0.0
  0
LINE
  5
BE
  8
TEAM-DET3
 10
-58.5
 20
267.497883
 30
0.0
 11
-58.5
 21
213.268635
 31
0.0
  0
LINE
  5
BF
  8
TEAM-HIDE
 10
-58.5
 20
282.311438
 30
0.0
 11
-58.5
 21
267.497883
 31
0.0
  0
LINE
  5
C0
  8
TEAM-DET2
 10
-40.000042
 20
71.35617
 30
0.0
 11
0.0
 21
71.356183
 31
0.0
  0
CIRCLE
  5
C1
  8
TEAM-HIDE
 10
-20.000002
 20
82.356177
 30
0.0
 40
10.0
  0
LINE
  5
C2
  8
TEAM-DET3
 10
-48.499976
 20
-20.000016
 30
0.0
 11
-0.499976
 21
-20.0
 31
0.0
  0
LINE
  5
C3
  8
TEAM-DET3
 10
-48.49998
 20
-12.000016
 30
0.0
 11
-0.49998
 21
-12.0
 31
0.0
  0
LINE
  5
C4
  8
TEAM-DET3
 10
-48.49998
 20
-12.000016
 30
0.0
 11
-48.499976
 21
-20.000016
 31
0.0
  0
LINE
  5
C5
  8
TEAM-HIDE
 10
-36.49998
 20
-12.000012
 30
0.0
 11
-36.499976
 21
-20.000012
 31
0.0
  0
LINE
  5
C6
  8
TEAM-HIDE
 10
-12.49998
 20
-12.000004
 30
0.0
 11
-12.499976
 21
-20.000004
 31
0.0
  0
LINE
  5
C7
  8
TEAM-DET3
 10
-0.49998
 20
-12.0
 30
0.0
 11
-0.499976
 21
-20.0
 31
0.0
  0
LINE
  5
C8
  8
TEAM-AXE
 10
-24.499982
 20
-5.90698
 30
0.0
 11
-24.499974
 21
-25.334542
 31
0.0
  0
LINE
  5
C9
  8
TEAM-DET3
 10
-37.5
 20
71.356171
 30
0.0
 11
-37.49998
 21
-12.000012
 31
0.0
  0
LINE
  5
CA
  8
TEAM-DET3
 10
-2.5
 20
71.356183
 30
0.0
 11
-2.49998
 21
-12.0
 31
0.0
  0
LINE
  5
CB
  8
TEAM-AXE
 10
-110.5
 20
-27.543463
 30
0.0
 11
-110.5
 21
188.311438
 31
0.0
  0
CIRCLE
  5
CC
  8
TEAM-INSP
 10
-0.5
 20
0.0
 30
0.0
 40
10.0
  0
DIMENSION
  5
CE
  8
TEAM-MAS
  2
*D3
 10
44.999675
 20
1149.138901
 30
0.0
 11
122.911663
 21
1149.138901
 31
0.0
 12
-8000.0
 22
-52000.0
 32
0.0
 70
   128
 13
-0.000343
 23
1119.996197
 33
0.0
 14
44.999675
 24
1070.495885
 34
0.0
1001
ACAD
1000
DSTYLE
1002
{
1070
    40
1040
1.0
1002
}
  0
DIMENSION
  5
DD
  8
TEAM-MAS
  2
*D2
 10
-170.000218
 20
1149.138901
 30
0.0
 11
-85.00028
 21
1149.138901
 31
0.0
 12
-8000.0
 22
-52000.0
 32
0.0
 13
-0.000343
 23
1119.996197
 33
0.0
 14
-170.000218
 24
869.495758
 34
0.0
1001
ACAD
1000
DSTYLE
1002
{
1070
    40
1040
1.0
1002
}
  0
LINE
  5
EB
  8
TEAM-DET3
 10
-58.00369
 20
584.770507
 30
0.0
 11
-58.00369
 21
596.342927
 31
0.0
  0
LINE
  5
EC
  8
TEAM-DET3
 10
-164.500171
 20
596.342927
 30
0.0
 11
-47.000171
 21
596.342927
 31
0.0
  0
ARC
  5
ED
  8
TEAM-DET3
 10
31.037002
 20
287.16719
 30
0.0
 40
213.071189
 50
143.39006
 51
172.967799
  0
ARC
  5
EE
  8
TEAM-HIDE
 10
31.037002
 20
287.16719
 30
0.0
 40
213.071189
 50
142.018165
 51
143.39006
  0
ARC
  5
EF
  8
TEAM-DET3
 10
19.553885
 20
289.568488
 30
0.0
 40
224.571115
 50
145.916827
 51
172.652303
  0
ARC
  5
F0
  8
TEAM-HIDE
 10
-950.51064
 20
1029.211617
 30
0.0
 40
1017.433865
 50
323.088602
 51
328.716197
  0
ARC
  5
F1
  8
TEAM-HIDE
 10
-1477.634651
 20
1383.102338
 30
0.0
 40
1629.614057
 50
325.167986
 51
327.144045
  0
ARC
  5
F2
  8
TEAM-DET3
 10
-1477.634651
 20
1383.102338
 30
0.0
 40
1629.614057
 50
323.571978
 51
325.167986
  0
ARC
  5
F3
  8
TEAM-DET3
 10
-208.686746
 20
580.989017
 30
0.0
 40
150.730498
 50
351.035262
 51
1.437573
  0
ARC
  5
F4
  8
TEAM-HIDE
 10
-208.686746
 20
580.989017
 30
0.0
 40
150.730498
 50
327.895517
 51
351.035262
  0
ARC
  5
F5
  8
TEAM-DET3
 10
-234.97329
 20
587.393784
 30
0.0
 40
154.144942
 50
348.818058
 51
2.750318
  0
ARC
  5
F6
  8
TEAM-HIDE
 10
-234.97329
 20
587.393784
 30
0.0
 40
154.144942
 50
325.004456
 51
348.818058
  0
LINE
  5
F7
  8
TEAM-DET3
 10
-59.075804
 20
938.995803
 30
0.0
 11
-79.934135
 21
938.995803
 31
0.0
  0
LINE
  5
F8
  8
TEAM-DET3
 10
-58.00369
 20
934.996391
 30
0.0
 11
-81.005904
 21
934.996391
 31
0.0
  0
LINE
  5
F9
  8
TEAM-DET3
 10
-58.00369
 20
872.495794
 30
0.0
 11
-58.00369
 21
934.996391
 31
0.0
  0
LINE
  5
FA
  8
TEAM-DET3
 10
-79.934135
 20
938.995803
 30
0.0
 11
-81.005904
 21
934.996391
 31
0.0
  0
LINE
  5
FB
  8
TEAM-DET3
 10
-59.075804
 20
938.995803
 30
0.0
 11
-58.00369
 21
934.996391
 31
0.0
  0
LINE
  5
FC
  8
TEAM-DET3
 10
-81.005904
 20
872.495787
 30
0.0
 11
-81.005904
 21
934.996391
 31
0.0
  0
LINE
  5
FD
  8
TEAM-DET3
 10
-40.000183
 20
471.501969
 30
0.0
 11
-46.004295
 21
471.501969
 31
0.0
  0
LINE
  5
FE
  8
TEAM-DET3
 10
-46.004295
 20
481.499291
 30
0.0
 11
-46.004295
 21
471.501969
 31
0.0
  0
LINE
  5
FF
  8
TEAM-DET3
 10
-40.000183
 20
481.499291
 30
0.0
 11
-46.004295
 21
481.499291
 31
0.0
  0
LINE
  5
100
  8
TEAM-DET3
 10
-46.004295
 20
513.503195
 30
0.0
 11
-46.004295
 21
503.497259
 31
0.0
  0
LINE
  5
101
  8
TEAM-DET3
 10
-40.000183
 20
513.503195
 30
0.0
 11
-46.004295
 21
513.503195
 31
0.0
  0
LINE
  5
102
  8
TEAM-DET3
 10
-40.000183
 20
503.497259
 30
0.0
 11
-46.004295
 21
503.497259
 31
0.0
  0
LINE
  5
103
  8
TEAM-DET3
 10
-135.002843
 20
557.501199
 30
0.0
 11
-40.000201
 21
557.501199
 31
0.0
  0
LINE
  5
104
  8
TEAM-DET3
 10
-139.998231
 20
552.498919
 30
0.0
 11
-135.002843
 21
557.501199
 31
0.0
  0
ARC
  5
105
  8
TEAM-DET3
 10
-106.500328
 20
1073.995802
 30
0.0
 40
5.0
 50
90.000019
 51
150.175191
  0
ARC
  5
106
  8
TEAM-DET3
 10
-109.500328
 20
1074.9958
 30
0.0
 40
2.0
 50
90.000019
 51
180.000019
  0
ARC
  5
107
  8
TEAM-DET3
 10
-49.500326
 20
1073.163158
 30
0.0
 40
2.0
 50
0.000019
 51
85.000019
  0
ARC
  5
108
  8
TEAM-DET3
 10
-59.500328
 20
1073.995816
 30
0.0
 40
5.0
 50
0.000019
 51
90.000019
  0
ARC
  5
109
  8
TEAM-DET3
 10
-59.500326
 20
1071.995816
 30
0.0
 40
5.0
 50
0.000019
 51
90.000019
  0
LINE
  5
10A
  8
TEAM-DET3
 10
-54.77573
 20
1075.632334
 30
0.0
 11
-49.326016
 21
1075.155548
 31
0.0
  0
LINE
  5
10B
  8
TEAM-DET3
 10
-109.500328
 20
1076.9958
 30
0.0
 11
-59.50927
 21
1076.995808
 31
0.0
  0
LINE
  5
10C
  8
TEAM-DET3
 10
-106.500328
 20
1078.995802
 30
0.0
 11
-59.500329
 21
1078.995816
 31
0.0
  0
LINE
  5
10D
  8
TEAM-DET3
 10
-40.000367
 20
1066.995885
 30
0.0
 11
-47.500324
 21
1066.995885
 31
0.0
  0
LINE
  5
10E
  8
TEAM-DET3
 10
-143.500312
 20
1024.99579
 30
0.0
 11
-121.500312
 21
1024.995796
 31
0.0
  0
LINE
  5
10F
  8
TEAM-DET3
 10
-143.500308
 20
1016.99579
 30
0.0
 11
-121.500308
 21
1016.995796
 31
0.0
  0
LINE
  5
110
  8
TEAM-DET3
 10
-143.500308
 20
1016.99579
 30
0.0
 11
-125.500308
 21
1016.995796
 31
0.0
  0
ARC
  5
111
  8
TEAM-DET3
 10
-121.500314
 20
1034.995796
 30
0.0
 40
10.0
 50
270.000019
 51
0.000019
  0
LINE
  5
112
  8
TEAM-DET3
 10
-111.500328
 20
1074.9958
 30
0.0
 11
-111.500312
 21
1026.9958
 31
0.0
  0
LINE
  5
113
  8
TEAM-DET3
 10
-47.500326
 20
1072.781022
 30
0.0
 11
-47.500322
 21
1059.304284
 31
0.0
  0
ARC
  5
114
  8
TEAM-DET3
 10
-162.000308
 20
1013.495784
 30
0.0
 40
1.5
 50
90.000019
 51
180.000019
  0
LINE
  5
115
  8
TEAM-DET3
 10
-163.500308
 20
1013.113646
 30
0.0
 11
-163.500298
 21
986.113646
 31
0.0
  0
LINE
  5
116
  8
TEAM-DET3
 10
-163.500308
 20
1013.495784
 30
0.0
 11
-163.500298
 21
986.495784
 31
0.0
  0
LINE
  5
117
  8
TEAM-DET3
 10
-158.500306
 20
1009.995784
 30
0.0
 11
-158.500298
 21
985.745784
 31
0.0
  0
LINE
  5
118
  8
TEAM-DET3
 10
-162.000298
 20
984.613646
 30
0.0
 11
-160.000298
 21
984.613648
 31
0.0
  0
ARC
  5
119
  8
TEAM-DET3
 10
-162.000298
 20
986.113646
 30
0.0
 40
1.5
 50
180.000019
 51
270.000019
  0
ARC
  5
11A
  8
TEAM-DET3
 10
-160.000298
 20
983.113648
 30
0.0
 40
1.5
 50
0.000019
 51
90.000019
  0
LINE
  5
11B
  8
TEAM-DET3
 10
-158.500298
 20
983.113648
 30
0.0
 11
-158.500296
 21
977.763648
 31
0.0
  0
LINE
  5
11C
  8
TEAM-DET3
 10
-158.500298
 20
985.745784
 30
0.0
 11
-158.500296
 21
975.745784
 31
0.0
  0
LINE
  5
11D
  8
TEAM-DET3
 10
-162.000308
 20
1014.995784
 30
0.0
 11
-158.666058
 21
1014.995784
 31
0.0
  0
ARC
  5
11E
  8
TEAM-DET3
 10
-143.500304
 20
1001.99579
 30
0.0
 40
15.0
 50
165.522507
 51
180.000019
  0
ARC
  5
11F
  8
TEAM-DET3
 10
-53.500306
 20
1009.995818
 30
0.0
 40
4.0
 50
0.000019
 51
90.000019
  0
LINE
  5
120
  8
TEAM-DET3
 10
-152.500308
 20
1013.995786
 30
0.0
 11
-54.500308
 21
1013.995808
 31
0.0
  0
ARC
  5
121
  8
TEAM-DET3
 10
-154.500284
 20
942.995786
 30
0.0
 40
4.0
 50
180.000019
 51
270.000019
  0
LINE
  5
122
  8
TEAM-DET3
 10
-47.500282
 20
932.995885
 30
0.0
 11
-40.000324
 21
932.995885
 31
0.0
  0
ARC
  5
123
  8
TEAM-DET3
 10
-49.500278
 20
926.446346
 30
0.0
 40
2.0
 50
275.000019
 51
0.000019
  0
LINE
  5
124
  8
TEAM-DET3
 10
-49.325966
 20
924.453956
 30
0.0
 11
-52.67459
 21
924.160988
 31
0.0
  0
ARC
  5
125
  8
TEAM-DET3
 10
-53.500284
 20
942.995818
 30
0.0
 40
4.0
 50
270.000019
 51
0.000019
  0
LINE
  5
126
  8
TEAM-DET3
 10
-47.500284
 20
940.923086
 30
0.0
 11
-47.500278
 21
926.446346
 31
0.0
  0
ARC
  5
127
  8
TEAM-DET3
 10
-52.500278
 20
922.1686
 30
0.0
 40
2.0
 50
95.000019
 51
119.999796
  0
LINE
  5
128
  8
TEAM-DET3
 10
-154.500284
 20
938.995786
 30
0.0
 11
-53.500283
 21
938.995808
 31
0.0
  0
LINE
  5
129
  8
TEAM-DET3
 10
-49.500306
 20
1009.99582
 30
0.0
 11
-49.500284
 21
942.99582
 31
0.0
  0
LINE
  5
12A
  8
TEAM-DET3
 10
-158.500296
 20
975.745784
 30
0.0
 11
-158.500286
 21
946.495784
 31
0.0
  0
LINE
  5
12B
  8
TEAM-DET3
 10
-47.5003
 20
993.113684
 30
0.0
 11
-47.500284
 21
944.613684
 31
0.0
  0
LINE
  5
12C
  8
TEAM-DET3
 10
-47.500326
 20
1073.163158
 30
0.0
 11
-47.50028
 21
926.828484
 31
0.0
  0
LINE
  5
12D
  8
TEAM-DET3
 10
-47.500318
 20
1046.41042
 30
0.0
 11
-47.500296
 21
977.574696
 31
0.0
  0
ARC
  5
12E
  8
TEAM-DET3
 10
-143.500306
 20
1009.99579
 30
0.0
 40
15.0
 50
90.000019
 51
180.000019
  0
ARC
  5
12F
  8
TEAM-DET3
 10
-158.66606
 20
1016.495784
 30
0.0
 40
1.5
 50
270.000019
 51
336.800176
  0
ARC
  5
130
  8
TEAM-DET3
 10
-143.500304
 20
1001.99579
 30
0.0
 40
15.0
 50
90.000019
 51
165.522507
  0
ARC
  5
131
  8
TEAM-DET3
 10
-121.500312
 20
1026.995796
 30
0.0
 40
10.0
 50
270.000019
 51
0.000019
  0
LINE
  5
132
  8
TEAM-DET3
 10
-54.500328
 20
1073.995818
 30
0.0
 11
-54.500308
 21
1013.995818
 31
0.0
  0
LINE
  5
133
  8
TEAM-DET3
 10
-164.500276
 20
915.5859
 30
0.0
 11
-159.500276
 21
915.585902
 31
0.0
  0
LINE
  5
134
  8
TEAM-DET3
 10
-53.500276
 20
915.585938
 30
0.0
 11
-47.000276
 21
915.58594
 31
0.0
  0
ARC
  5
135
  8
TEAM-DET3
 10
-59.500258
 20
884.374981
 30
0.0
 40
6.0
 50
359.997976
 51
75.000019
  0
ARC
  5
136
  8
TEAM-DET3
 10
-59.500194
 20
917.616391
 30
0.0
 40
6.0
 50
284.999475
 51
359.71516
  0
LINE
  5
137
  8
TEAM-DET3
 10
-165.00022
 20
872.49576
 30
0.0
 11
-41.00022
 21
872.4958
 31
0.0
  0
LINE
  5
138
  8
TEAM-DET3
 10
-150.705216
 20
846.495768
 30
0.0
 11
-149.500212
 21
846.495768
 31
0.0
  0
LINE
  5
139
  8
TEAM-DET3
 10
-150.705216
 20
843.495768
 30
0.0
 11
-149.50021
 21
843.495768
 31
0.0
  0
LINE
  5
13A
  8
TEAM-DET3
 10
-156.500212
 20
848.095766
 30
0.0
 11
-138.500212
 21
848.095772
 31
0.0
  0
LINE
  5
13B
  8
TEAM-DET3
 10
-156.50021
 20
841.895766
 30
0.0
 11
-138.50021
 21
841.895772
 31
0.0
  0
LINE
  5
13C
  8
TEAM-DET3
 10
-153.000216
 20
859.995766
 30
0.0
 11
-139.000216
 21
859.995772
 31
0.0
  0
LINE
  5
13D
  8
TEAM-DET3
 10
-153.000206
 20
829.995766
 30
0.0
 11
-139.000206
 21
829.995772
 31
0.0
  0
LINE
  5
13E
  8
TEAM-DET3
 10
-156.00021
 20
839.995766
 30
0.0
 11
-139.00021
 21
839.995772
 31
0.0
  0
LINE
  5
13F
  8
TEAM-DET3
 10
-156.000212
 20
849.995766
 30
0.0
 11
-139.000212
 21
849.995772
 31
0.0
  0
LINE
  5
140
  8
TEAM-DET3
 10
-152.000208
 20
834.995768
 30
0.0
 11
-140.000208
 21
834.99577
 31
0.0
  0
LINE
  5
141
  8
TEAM-DET3
 10
-152.000206
 20
831.995768
 30
0.0
 11
-140.000206
 21
831.99577
 31
0.0
  0
LINE
  5
142
  8
TEAM-DET3
 10
-152.000206
 20
830.995768
 30
0.0
 11
-140.000206
 21
830.99577
 31
0.0
  0
LINE
  5
143
  8
TEAM-DET3
 10
-152.000214
 20
854.995768
 30
0.0
 11
-140.000214
 21
854.99577
 31
0.0
  0
LINE
  5
144
  8
TEAM-DET3
 10
-152.000216
 20
858.995768
 30
0.0
 11
-140.000216
 21
858.99577
 31
0.0
  0
LINE
  5
145
  8
TEAM-DET3
 10
-152.000216
 20
857.995768
 30
0.0
 11
-140.000216
 21
857.99577
 31
0.0
  0
LINE
  5
146
  8
TEAM-DET3
 10
-164.000218
 20
864.995764
 30
0.0
 11
-127.000218
 21
864.995776
 31
0.0
  0
LINE
  5
147
  8
TEAM-DET3
 10
-157.000214
 20
851.995766
 30
0.0
 11
-157.000212
 21
850.995766
 31
0.0
  0
LINE
  5
148
  8
TEAM-DET3
 10
-167.000216
 20
861.995762
 30
0.0
 11
-167.00021
 21
844.995762
 31
0.0
  0
LINE
  5
149
  8
TEAM-DET3
 10
-167.00021
 20
844.995762
 30
0.0
 11
-167.000206
 21
827.995762
 31
0.0
  0
LINE
  5
14A
  8
TEAM-DET3
 10
-153.90021
 20
842.095766
 30
0.0
 11
-153.90021
 21
841.895766
 31
0.0
  0
LINE
  5
14B
  8
TEAM-DET3
 10
-155.90021
 20
842.095766
 30
0.0
 11
-155.90021
 21
841.895766
 31
0.0
  0
LINE
  5
14C
  8
TEAM-DET3
 10
-155.900212
 20
848.095766
 30
0.0
 11
-155.900212
 21
847.895766
 31
0.0
  0
LINE
  5
14D
  8
TEAM-DET3
 10
-153.900212
 20
848.095766
 30
0.0
 11
-153.900212
 21
847.895766
 31
0.0
  0
LINE
  5
14E
  8
TEAM-DET3
 10
-156.800212
 20
847.395766
 30
0.0
 11
-156.80021
 21
842.595766
 31
0.0
  0
LINE
  5
14F
  8
TEAM-DET3
 10
-156.30021
 20
842.095766
 30
0.0
 11
-153.130086
 21
842.095766
 31
0.0
  0
LINE
  5
150
  8
TEAM-DET3
 10
-156.300212
 20
847.895766
 30
0.0
 11
-153.130088
 21
847.895766
 31
0.0
  0
ARC
  5
151
  8
TEAM-DET3
 10
-153.130088
 20
847.595766
 30
0.0
 40
0.3
 50
30.000019
 51
90.000019
  0
ARC
  5
152
  8
TEAM-DET3
 10
-153.130086
 20
842.395766
 30
0.0
 40
0.3
 50
270.000019
 51
330.000019
  0
ARC
  5
153
  8
TEAM-DET3
 10
-150.705216
 20
840.995768
 30
0.0
 40
2.5
 50
90.000019
 51
150.000019
  0
ARC
  5
154
  8
TEAM-DET3
 10
-150.705218
 20
848.995768
 30
0.0
 40
2.5
 50
210.000019
 51
270.000019
  0
ARC
  5
155
  8
TEAM-DET3
 10
-156.30021
 20
842.595766
 30
0.0
 40
0.5
 50
180.000019
 51
270.000019
  0
ARC
  5
156
  8
TEAM-DET3
 10
-156.300212
 20
847.395766
 30
0.0
 40
0.5
 50
90.000019
 51
180.000019
  0
ARC
  5
157
  8
TEAM-DET3
 10
-156.50021
 20
842.395766
 30
0.0
 40
0.5
 50
180.000019
 51
270.000019
  0
ARC
  5
158
  8
TEAM-DET3
 10
-156.500212
 20
847.595766
 30
0.0
 40
0.5
 50
90.000019
 51
180.000019
  0
ARC
  5
159
  8
TEAM-DET3
 10
-156.000212
 20
850.995766
 30
0.0
 40
1.0
 50
180.000019
 51
270.000019
  0
ARC
  5
15A
  8
TEAM-DET3
 10
-156.000208
 20
838.995766
 30
0.0
 40
1.0
 50
90.000019
 51
180.000019
  0
LINE
  5
15B
  8
TEAM-DET3
 10
-157.000208
 20
838.995766
 30
0.0
 11
-157.000208
 21
837.995766
 31
0.0
  0
LINE
  5
15C
  8
TEAM-DET3
 10
-157.000212
 20
847.595766
 30
0.0
 11
-157.00021
 21
842.395766
 31
0.0
  0
ARC
  5
15D
  8
TEAM-DET3
 10
-154.000208
 20
837.995766
 30
0.0
 40
3.0
 50
180.000019
 51
270.000019
  0
LINE
  5
15E
  8
TEAM-DET3
 10
-154.000208
 20
836.495766
 30
0.0
 11
-154.000206
 21
830.995766
 31
0.0
  0
ARC
  5
15F
  8
TEAM-DET3
 10
-153.000208
 20
836.495766
 30
0.0
 40
1.0
 50
90.000019
 51
180.000019
  0
ARC
  5
160
  8
TEAM-DET3
 10
-153.000208
 20
836.495766
 30
0.0
 40
1.0
 50
0.000019
 51
90.000019
  0
LINE
  5
161
  8
TEAM-DET3
 10
-152.000208
 20
836.495768
 30
0.0
 11
-152.000206
 21
830.995768
 31
0.0
  0
ARC
  5
162
  8
TEAM-DET3
 10
-153.000206
 20
830.995766
 30
0.0
 40
1.0
 50
180.000019
 51
270.000019
  0
ARC
  5
163
  8
TEAM-DET3
 10
-165.237742
 20
867.224968
 30
0.0
 40
5.276142
 50
87.419769
 51
154.507771
  0
ARC
  5
164
  8
TEAM-DET3
 10
-164.000216
 20
861.995764
 30
0.0
 40
3.0
 50
90.000019
 51
180.000019
  0
ARC
  5
165
  8
TEAM-DET3
 10
-153.000216
 20
858.995766
 30
0.0
 40
1.0
 50
90.000019
 51
180.000019
  0
ARC
  5
166
  8
TEAM-DET3
 10
-153.000214
 20
853.495766
 30
0.0
 40
1.0
 50
270.000019
 51
0.000019
  0
ARC
  5
167
  8
TEAM-DET3
 10
-153.000214
 20
853.495766
 30
0.0
 40
1.0
 50
180.000019
 51
270.000019
  0
LINE
  5
168
  8
TEAM-DET3
 10
-152.000216
 20
858.995768
 30
0.0
 11
-152.000214
 21
853.495768
 31
0.0
  0
LINE
  5
169
  8
TEAM-DET3
 10
-154.000216
 20
858.995766
 30
0.0
 11
-154.000214
 21
853.495766
 31
0.0
  0
ARC
  5
16A
  8
TEAM-DET3
 10
-154.000214
 20
851.995766
 30
0.0
 40
3.0
 50
90.000019
 51
180.000019
  0
LINE
  5
16B
  8
TEAM-DET3
 10
-97.000214
 20
851.995786
 30
0.0
 11
-97.000212
 21
850.995786
 31
0.0
  0
LINE
  5
16C
  8
TEAM-DET3
 10
-136.000214
 20
853.995772
 30
0.0
 11
-136.000208
 21
835.995772
 31
0.0
  0
LINE
  5
16D
  8
TEAM-DET3
 10
-87.000216
 20
861.995788
 30
0.0
 11
-87.00021
 21
844.995788
 31
0.0
  0
LINE
  5
16E
  8
TEAM-DET3
 10
-118.000214
 20
853.995778
 30
0.0
 11
-118.000208
 21
835.995778
 31
0.0
  0
LINE
  5
16F
  8
TEAM-DET3
 10
-138.000214
 20
853.495772
 30
0.0
 11
-138.000212
 21
850.995772
 31
0.0
  0
LINE
  5
170
  8
TEAM-DET3
 10
-116.000214
 20
853.495778
 30
0.0
 11
-116.000212
 21
850.995778
 31
0.0
  0
LINE
  5
171
  8
TEAM-DET3
 10
-115.30021
 20
842.09578
 30
0.0
 11
-112.130086
 21
842.09578
 31
0.0
  0
LINE
  5
172
  8
TEAM-DET3
 10
-115.300212
 20
847.89578
 30
0.0
 11
-112.130088
 21
847.89578
 31
0.0
  0
LINE
  5
173
  8
TEAM-DET3
 10
-115.500212
 20
848.095778
 30
0.0
 11
-97.500212
 21
848.095784
 31
0.0
  0
LINE
  5
174
  8
TEAM-DET3
 10
-115.50021
 20
841.895778
 30
0.0
 11
-97.50021
 21
841.895784
 31
0.0
  0
LINE
  5
175
  8
TEAM-DET3
 10
-115.00021
 20
839.99578
 30
0.0
 11
-98.00021
 21
839.995784
 31
0.0
  0
LINE
  5
176
  8
TEAM-DET3
 10
-115.000212
 20
849.99578
 30
0.0
 11
-98.000212
 21
849.995784
 31
0.0
  0
LINE
  5
177
  8
TEAM-DET3
 10
-114.000208
 20
834.99578
 30
0.0
 11
-102.000208
 21
834.995784
 31
0.0
  0
LINE
  5
178
  8
TEAM-DET3
 10
-114.000206
 20
831.99578
 30
0.0
 11
-102.000206
 21
831.995784
 31
0.0
  0
LINE
  5
179
  8
TEAM-DET3
 10
-114.000206
 20
830.99578
 30
0.0
 11
-102.000206
 21
830.995784
 31
0.0
  0
LINE
  5
17A
  8
TEAM-DET3
 10
-115.000206
 20
829.99578
 30
0.0
 11
-101.000206
 21
829.995784
 31
0.0
  0
LINE
  5
17B
  8
TEAM-DET3
 10
-135.000208
 20
834.995772
 30
0.0
 11
-127.000208
 21
834.995776
 31
0.0
  0
LINE
  5
17C
  8
TEAM-DET3
 10
-138.000206
 20
831.995772
 30
0.0
 11
-127.000206
 21
831.995776
 31
0.0
  0
LINE
  5
17D
  8
TEAM-DET3
 10
-141.870336
 20
847.89577
 30
0.0
 11
-138.700212
 21
847.895772
 31
0.0
  0
LINE
  5
17E
  8
TEAM-DET3
 10
-141.870334
 20
842.09577
 30
0.0
 11
-138.70021
 21
842.095772
 31
0.0
  0
LINE
  5
17F
  8
TEAM-DET3
 10
-141.100212
 20
848.09577
 30
0.0
 11
-141.100212
 21
847.89577
 31
0.0
  0
LINE
  5
180
  8
TEAM-DET3
 10
-141.10021
 20
842.09577
 30
0.0
 11
-141.10021
 21
841.89577
 31
0.0
  0
ARC
  5
181
  8
TEAM-DET3
 10
-149.500212
 20
846.995768
 30
0.0
 40
0.5
 50
270.000019
 51
0.000019
  0
LINE
  5
182
  8
TEAM-DET3
 10
-149.000212
 20
847.595768
 30
0.0
 11
-149.000212
 21
846.995768
 31
0.0
  0
ARC
  5
183
  8
TEAM-DET3
 10
-148.700212
 20
847.595768
 30
0.0
 40
0.3
 50
90.000019
 51
180.000019
  0
ARC
  5
184
  8
TEAM-DET3
 10
-149.50021
 20
842.995768
 30
0.0
 40
0.5
 50
0.000019
 51
90.000019
  0
LINE
  5
185
  8
TEAM-DET3
 10
-149.00021
 20
842.995768
 30
0.0
 11
-149.00021
 21
842.395768
 31
0.0
  0
ARC
  5
186
  8
TEAM-DET3
 10
-148.70021
 20
842.395768
 30
0.0
 40
0.3
 50
180.000019
 51
270.000019
  0
LINE
  5
187
  8
TEAM-DET3
 10
-148.70021
 20
842.095768
 30
0.0
 11
-146.30021
 21
842.095768
 31
0.0
  0
ARC
  5
188
  8
TEAM-DET3
 10
-146.30021
 20
842.395768
 30
0.0
 40
0.3
 50
270.000019
 51
0.000019
  0
LINE
  5
189
  8
TEAM-DET3
 10
-146.00021
 20
842.995768
 30
0.0
 11
-146.00021
 21
842.395768
 31
0.0
  0
ARC
  5
18A
  8
TEAM-DET3
 10
-145.50021
 20
842.99577
 30
0.0
 40
0.5
 50
90.000019
 51
180.000019
  0
LINE
  5
18B
  8
TEAM-DET3
 10
-148.700212
 20
847.895768
 30
0.0
 11
-146.300212
 21
847.895768
 31
0.0
  0
ARC
  5
18C
  8
TEAM-DET3
 10
-146.300212
 20
847.595768
 30
0.0
 40
0.3
 50
0.000019
 51
90.000019
  0
LINE
  5
18D
  8
TEAM-DET3
 10
-146.000212
 20
847.595768
 30
0.0
 11
-146.000212
 21
846.995768
 31
0.0
  0
ARC
  5
18E
  8
TEAM-DET3
 10
-145.500212
 20
846.99577
 30
0.0
 40
0.5
 50
180.000019
 51
270.000019
  0
ARC
  5
18F
  8
TEAM-DET3
 10
-145.50021
 20
842.99577
 30
0.0
 40
0.5
 50
90.000019
 51
180.000019
  0
LINE
  5
190
  8
TEAM-DET3
 10
-145.50021
 20
843.49577
 30
0.0
 11
-144.295204
 21
843.49577
 31
0.0
  0
LINE
  5
191
  8
TEAM-DET3
 10
-145.500212
 20
846.49577
 30
0.0
 11
-144.295206
 21
846.49577
 31
0.0
  0
ARC
  5
192
  8
TEAM-DET3
 10
-144.295206
 20
848.99577
 30
0.0
 40
2.5
 50
270.000019
 51
330.000019
  0
ARC
  5
193
  8
TEAM-DET3
 10
-144.295204
 20
840.99577
 30
0.0
 40
2.5
 50
30.000019
 51
90.000019
  0
ARC
  5
194
  8
TEAM-DET3
 10
-141.870334
 20
842.39577
 30
0.0
 40
0.3
 50
210.000019
 51
270.000019
  0
ARC
  5
195
  8
TEAM-DET3
 10
-141.870336
 20
847.59577
 30
0.0
 40
0.3
 50
90.000019
 51
150.000019
  0
LINE
  5
196
  8
TEAM-DET3
 10
-147.500212
 20
848.536866
 30
0.0
 11
-147.50021
 21
841.560844
 31
0.0
  0
LINE
  5
197
  8
TEAM-DET3
 10
-138.000208
 20
838.995772
 30
0.0
 11
-138.000208
 21
836.495772
 31
0.0
  0
LINE
  5
198
  8
TEAM-DET3
 10
-139.100212
 20
848.095772
 30
0.0
 11
-139.100212
 21
847.895772
 31
0.0
  0
LINE
  5
199
  8
TEAM-DET3
 10
-139.10021
 20
842.095772
 30
0.0
 11
-139.10021
 21
841.895772
 31
0.0
  0
LINE
  5
19A
  8
TEAM-DET3
 10
-138.200212
 20
847.395772
 30
0.0
 11
-138.20021
 21
842.595772
 31
0.0
  0
ARC
  5
19B
  8
TEAM-DET3
 10
-138.70021
 20
842.595772
 30
0.0
 40
0.5
 50
270.000019
 51
0.000019
  0
ARC
  5
19C
  8
TEAM-DET3
 10
-138.700212
 20
847.395772
 30
0.0
 40
0.5
 50
0.000019
 51
90.000019
  0
ARC
  5
19D
  8
TEAM-DET3
 10
-138.500212
 20
847.595772
 30
0.0
 40
0.5
 50
0.000019
 51
90.000019
  0
ARC
  5
19E
  8
TEAM-DET3
 10
-138.50021
 20
842.395772
 30
0.0
 40
0.5
 50
270.000019
 51
0.000019
  0
ARC
  5
19F
  8
TEAM-DET3
 10
-139.000208
 20
838.995772
 30
0.0
 40
1.0
 50
0.000019
 51
90.000019
  0
ARC
  5
1A0
  8
TEAM-DET3
 10
-139.000212
 20
850.995772
 30
0.0
 40
1.0
 50
270.000019
 51
0.000019
  0
LINE
  5
1A1
  8
TEAM-DET3
 10
-138.000212
 20
847.595772
 30
0.0
 11
-138.00021
 21
842.395772
 31
0.0
  0
ARC
  5
1A2
  8
TEAM-DET3
 10
-135.000208
 20
835.995772
 30
0.0
 40
1.0
 50
180.000019
 51
270.000019
  0
ARC
  5
1A3
  8
TEAM-DET3
 10
-139.000206
 20
830.995772
 30
0.0
 40
1.0
 50
270.000019
 51
0.000019
  0
ARC
  5
1A4
  8
TEAM-DET3
 10
-139.000208
 20
836.495772
 30
0.0
 40
1.0
 50
90.000019
 51
180.000019
  0
ARC
  5
1A5
  8
TEAM-DET3
 10
-139.000208
 20
836.495772
 30
0.0
 40
1.0
 50
0.000019
 51
90.000019
  0
LINE
  5
1A6
  8
TEAM-DET3
 10
-138.000208
 20
836.495772
 30
0.0
 11
-138.000206
 21
830.995772
 31
0.0
  0
LINE
  5
1A7
  8
TEAM-DET3
 10
-140.000208
 20
836.49577
 30
0.0
 11
-140.000206
 21
830.99577
 31
0.0
  0
LINE
  5
1A8
  8
TEAM-DET3
 10
-127.000208
 20
834.995776
 30
0.0
 11
-119.000208
 21
834.995778
 31
0.0
  0
LINE
  5
1A9
  8
TEAM-DET3
 10
-127.000206
 20
831.995776
 30
0.0
 11
-116.000206
 21
831.995778
 31
0.0
  0
LINE
  5
1AA
  8
TEAM-DET3
 10
-116.000208
 20
838.995778
 30
0.0
 11
-116.000208
 21
836.495778
 31
0.0
  0
LINE
  5
1AB
  8
TEAM-DET3
 10
-112.900212
 20
848.09578
 30
0.0
 11
-112.900212
 21
847.89578
 31
0.0
  0
LINE
  5
1AC
  8
TEAM-DET3
 10
-114.900212
 20
848.09578
 30
0.0
 11
-114.900212
 21
847.89578
 31
0.0
  0
LINE
  5
1AD
  8
TEAM-DET3
 10
-114.90021
 20
842.09578
 30
0.0
 11
-114.90021
 21
841.89578
 31
0.0
  0
LINE
  5
1AE
  8
TEAM-DET3
 10
-112.90021
 20
842.09578
 30
0.0
 11
-112.90021
 21
841.89578
 31
0.0
  0
LINE
  5
1AF
  8
TEAM-DET3
 10
-115.800212
 20
847.395778
 30
0.0
 11
-115.80021
 21
842.595778
 31
0.0
  0
ARC
  5
1B0
  8
TEAM-DET3
 10
-115.30021
 20
842.59578
 30
0.0
 40
0.5
 50
180.000019
 51
270.000019
  0
ARC
  5
1B1
  8
TEAM-DET3
 10
-115.300212
 20
847.39578
 30
0.0
 40
0.5
 50
90.000019
 51
180.000019
  0
ARC
  5
1B2
  8
TEAM-DET3
 10
-115.50021
 20
842.395778
 30
0.0
 40
0.5
 50
180.000019
 51
270.000019
  0
ARC
  5
1B3
  8
TEAM-DET3
 10
-115.500212
 20
847.595778
 30
0.0
 40
0.5
 50
90.000019
 51
180.000019
  0
ARC
  5
1B4
  8
TEAM-DET3
 10
-115.000212
 20
850.99578
 30
0.0
 40
1.0
 50
180.000019
 51
270.000019
  0
ARC
  5
1B5
  8
TEAM-DET3
 10
-115.000208
 20
838.99578
 30
0.0
 40
1.0
 50
90.000019
 51
180.000019
  0
LINE
  5
1B6
  8
TEAM-DET3
 10
-116.000212
 20
847.595778
 30
0.0
 11
-116.00021
 21
842.395778
 31
0.0
  0
ARC
  5
1B7
  8
TEAM-DET3
 10
-119.000208
 20
835.995778
 30
0.0
 40
1.0
 50
270.000019
 51
0.000019
  0
ARC
  5
1B8
  8
TEAM-DET3
 10
-115.000206
 20
830.99578
 30
0.0
 40
1.0
 50
180.000019
 51
270.000019
  0
ARC
  5
1B9
  8
TEAM-DET3
 10
-115.000208
 20
836.49578
 30
0.0
 40
1.0
 50
0.000019
 51
90.000019
  0
ARC
  5
1BA
  8
TEAM-DET3
 10
-115.000208
 20
836.49578
 30
0.0
 40
1.0
 50
90.000019
 51
180.000019
  0
LINE
  5
1BB
  8
TEAM-DET3
 10
-114.000208
 20
836.49578
 30
0.0
 11
-114.000206
 21
830.99578
 31
0.0
  0
LINE
  5
1BC
  8
TEAM-DET3
 10
-116.000208
 20
836.495778
 30
0.0
 11
-116.000206
 21
830.995778
 31
0.0
  0
LINE
  5
1BD
  8
TEAM-DET3
 10
-104.50021
 20
843.495782
 30
0.0
 11
-103.295204
 21
843.495782
 31
0.0
  0
LINE
  5
1BE
  8
TEAM-DET3
 10
-104.500212
 20
846.495782
 30
0.0
 11
-103.295206
 21
846.495782
 31
0.0
  0
ARC
  5
1BF
  8
TEAM-DET3
 10
-104.50021
 20
842.995782
 30
0.0
 40
0.5
 50
90.000019
 51
180.000019
  0
ARC
  5
1C0
  8
TEAM-DET3
 10
-108.50021
 20
842.995782
 30
0.0
 40
0.5
 50
0.000019
 51
90.000019
  0
ARC
  5
1C1
  8
TEAM-DET3
 10
-108.500212
 20
846.995782
 30
0.0
 40
0.5
 50
270.000019
 51
0.000019
  0
ARC
  5
1C2
  8
TEAM-DET3
 10
-104.500212
 20
846.995782
 30
0.0
 40
0.5
 50
180.000019
 51
270.000019
  0
LINE
  5
1C3
  8
TEAM-DET3
 10
-108.00021
 20
842.995782
 30
0.0
 11
-108.00021
 21
842.395782
 31
0.0
  0
LINE
  5
1C4
  8
TEAM-DET3
 10
-105.00021
 20
842.995782
 30
0.0
 11
-105.00021
 21
842.395782
 31
0.0
  0
ARC
  5
1C5
  8
TEAM-DET3
 10
-107.70021
 20
842.395782
 30
0.0
 40
0.3
 50
180.000019
 51
270.000019
  0
ARC
  5
1C6
  8
TEAM-DET3
 10
-105.30021
 20
842.395782
 30
0.0
 40
0.3
 50
270.000019
 51
0.000019
  0
ARC
  5
1C7
  8
TEAM-DET3
 10
-105.300212
 20
847.595782
 30
0.0
 40
0.3
 50
0.000019
 51
90.000019
  0
ARC
  5
1C8
  8
TEAM-DET3
 10
-107.700212
 20
847.595782
 30
0.0
 40
0.3
 50
90.000019
 51
180.000019
  0
LINE
  5
1C9
  8
TEAM-DET3
 10
-107.70021
 20
842.095782
 30
0.0
 11
-105.30021
 21
842.095782
 31
0.0
  0
LINE
  5
1CA
  8
TEAM-DET3
 10
-107.700212
 20
847.895782
 30
0.0
 11
-105.300212
 21
847.895782
 31
0.0
  0
ARC
  5
1CB
  8
TEAM-DET3
 10
-112.130088
 20
847.59578
 30
0.0
 40
0.3
 50
30.000019
 51
90.000019
  0
ARC
  5
1CC
  8
TEAM-DET3
 10
-112.130086
 20
842.39578
 30
0.0
 40
0.3
 50
270.000019
 51
330.000019
  0
ARC
  5
1CD
  8
TEAM-DET3
 10
-109.705216
 20
840.99578
 30
0.0
 40
2.5
 50
90.000019
 51
150.000019
  0
ARC
  5
1CE
  8
TEAM-DET3
 10
-109.705218
 20
848.99578
 30
0.0
 40
2.5
 50
210.000019
 51
270.000019
  0
LINE
  5
1CF
  8
TEAM-DET3
 10
-109.705216
 20
843.49578
 30
0.0
 11
-108.50021
 21
843.495782
 31
0.0
  0
LINE
  5
1D0
  8
TEAM-DET3
 10
-109.705216
 20
846.49578
 30
0.0
 11
-108.500212
 21
846.495782
 31
0.0
  0
LINE
  5
1D1
  8
TEAM-DET3
 10
-108.000212
 20
847.595782
 30
0.0
 11
-108.000212
 21
846.995782
 31
0.0
  0
LINE
  5
1D2
  8
TEAM-DET3
 10
-105.000212
 20
847.595782
 30
0.0
 11
-105.000212
 21
846.995782
 31
0.0
  0
LINE
  5
1D3
  8
TEAM-DET3
 10
-106.500212
 20
848.53688
 30
0.0
 11
-106.50021
 21
841.560858
 31
0.0
  0
LINE
  5
1D4
  8
TEAM-DET3
 10
-98.100212
 20
848.095784
 30
0.0
 11
-98.100212
 21
847.895784
 31
0.0
  0
LINE
  5
1D5
  8
TEAM-DET3
 10
-100.100212
 20
848.095784
 30
0.0
 11
-100.100212
 21
847.895784
 31
0.0
  0
LINE
  5
1D6
  8
TEAM-DET3
 10
-98.10021
 20
842.095784
 30
0.0
 11
-98.10021
 21
841.895784
 31
0.0
  0
LINE
  5
1D7
  8
TEAM-DET3
 10
-100.10021
 20
842.095784
 30
0.0
 11
-100.10021
 21
841.895784
 31
0.0
  0
ARC
  5
1D8
  8
TEAM-DET3
 10
-100.870334
 20
842.395784
 30
0.0
 40
0.3
 50
210.000019
 51
270.000019
  0
ARC
  5
1D9
  8
TEAM-DET3
 10
-103.295204
 20
840.995782
 30
0.0
 40
2.5
 50
30.000019
 51
90.000019
  0
ARC
  5
1DA
  8
TEAM-DET3
 10
-100.870336
 20
847.595784
 30
0.0
 40
0.3
 50
90.000019
 51
150.000019
  0
ARC
  5
1DB
  8
TEAM-DET3
 10
-103.295206
 20
848.995782
 30
0.0
 40
2.5
 50
270.000019
 51
330.000019
  0
LINE
  5
1DC
  8
TEAM-DET3
 10
-97.200212
 20
847.395784
 30
0.0
 11
-97.20021
 21
842.595784
 31
0.0
  0
LINE
  5
1DD
  8
TEAM-DET3
 10
-100.870334
 20
842.095784
 30
0.0
 11
-97.70021
 21
842.095784
 31
0.0
  0
LINE
  5
1DE
  8
TEAM-DET3
 10
-100.870336
 20
847.895784
 30
0.0
 11
-97.700212
 21
847.895784
 31
0.0
  0
ARC
  5
1DF
  8
TEAM-DET3
 10
-97.700212
 20
847.395784
 30
0.0
 40
0.5
 50
0.000019
 51
90.000019
  0
ARC
  5
1E0
  8
TEAM-DET3
 10
-97.70021
 20
842.595784
 30
0.0
 40
0.5
 50
270.000019
 51
0.000019
  0
ARC
  5
1E1
  8
TEAM-DET3
 10
-97.500212
 20
847.595784
 30
0.0
 40
0.5
 50
0.000019
 51
90.000019
  0
ARC
  5
1E2
  8
TEAM-DET3
 10
-97.50021
 20
842.395784
 30
0.0
 40
0.5
 50
270.000019
 51
0.000019
  0
ARC
  5
1E3
  8
TEAM-DET3
 10
-98.000208
 20
838.995784
 30
0.0
 40
1.0
 50
0.000019
 51
90.000019
  0
ARC
  5
1E4
  8
TEAM-DET3
 10
-98.000212
 20
850.995784
 30
0.0
 40
1.0
 50
270.000019
 51
0.000019
  0
LINE
  5
1E5
  8
TEAM-DET3
 10
-97.000208
 20
838.995786
 30
0.0
 11
-97.000208
 21
837.995786
 31
0.0
  0
ARC
  5
1E6
  8
TEAM-DET3
 10
-100.000208
 20
837.995784
 30
0.0
 40
3.0
 50
270.000019
 51
0.000019
  0
LINE
  5
1E7
  8
TEAM-DET3
 10
-97.000212
 20
847.595786
 30
0.0
 11
-97.00021
 21
842.395786
 31
0.0
  0
LINE
  5
1E8
  8
TEAM-DET3
 10
-100.000208
 20
836.495784
 30
0.0
 11
-100.000206
 21
830.995784
 31
0.0
  0
ARC
  5
1E9
  8
TEAM-DET3
 10
-101.000208
 20
836.495784
 30
0.0
 40
1.0
 50
0.000019
 51
90.000019
  0
ARC
  5
1EA
  8
TEAM-DET3
 10
-101.000208
 20
836.495784
 30
0.0
 40
1.0
 50
90.000019
 51
180.000019
  0
LINE
  5
1EB
  8
TEAM-DET3
 10
-102.000208
 20
836.495784
 30
0.0
 11
-102.000206
 21
830.995784
 31
0.0
  0
ARC
  5
1EC
  8
TEAM-DET3
 10
-101.000206
 20
830.995784
 30
0.0
 40
1.0
 50
270.000019
 51
0.000019
  0
LINE
  5
1ED
  8
TEAM-DET3
 10
-87.00021
 20
844.995788
 30
0.0
 11
-87.000206
 21
827.995788
 31
0.0
  0
LINE
  5
1EE
  8
TEAM-DET3
 10
-114.000214
 20
854.99578
 30
0.0
 11
-102.000214
 21
854.995784
 31
0.0
  0
LINE
  5
1EF
  8
TEAM-DET3
 10
-114.000216
 20
858.99578
 30
0.0
 11
-102.000216
 21
858.995784
 31
0.0
  0
LINE
  5
1F0
  8
TEAM-DET3
 10
-115.000216
 20
859.99578
 30
0.0
 11
-101.000216
 21
859.995784
 31
0.0
  0
LINE
  5
1F1
  8
TEAM-DET3
 10
-114.000216
 20
857.99578
 30
0.0
 11
-102.000216
 21
857.995784
 31
0.0
  0
LINE
  5
1F2
  8
TEAM-DET3
 10
-127.000218
 20
864.995776
 30
0.0
 11
-90.000218
 21
864.995788
 31
0.0
  0
LINE
  5
1F3
  8
TEAM-DET3
 10
-135.000214
 20
854.995772
 30
0.0
 11
-127.000214
 21
854.995776
 31
0.0
  0
LINE
  5
1F4
  8
TEAM-DET3
 10
-138.000216
 20
857.995772
 30
0.0
 11
-127.000216
 21
857.995776
 31
0.0
  0
LINE
  5
1F5
  8
TEAM-DET3
 10
-138.000216
 20
858.995772
 30
0.0
 11
-138.000214
 21
853.495772
 31
0.0
  0
ARC
  5
1F6
  8
TEAM-DET3
 10
-135.000214
 20
853.995772
 30
0.0
 40
1.0
 50
90.000019
 51
180.000019
  0
ARC
  5
1F7
  8
TEAM-DET3
 10
-139.000214
 20
853.495772
 30
0.0
 40
1.0
 50
180.000019
 51
270.000019
  0
ARC
  5
1F8
  8
TEAM-DET3
 10
-139.000214
 20
853.495772
 30
0.0
 40
1.0
 50
270.000019
 51
0.000019
  0
LINE
  5
1F9
  8
TEAM-DET3
 10
-140.000216
 20
858.99577
 30
0.0
 11
-140.000214
 21
853.49577
 31
0.0
  0
ARC
  5
1FA
  8
TEAM-DET3
 10
-139.000216
 20
858.995772
 30
0.0
 40
1.0
 50
0.000019
 51
90.000019
  0
LINE
  5
1FB
  8
TEAM-DET3
 10
-127.000214
 20
854.995776
 30
0.0
 11
-119.000214
 21
854.995778
 31
0.0
  0
LINE
  5
1FC
  8
TEAM-DET3
 10
-127.000216
 20
857.995776
 30
0.0
 11
-116.000216
 21
857.995778
 31
0.0
  0
LINE
  5
1FD
  8
TEAM-DET3
 10
-116.000216
 20
858.995778
 30
0.0
 11
-116.000214
 21
853.495778
 31
0.0
  0
ARC
  5
1FE
  8
TEAM-DET3
 10
-119.000214
 20
853.995778
 30
0.0
 40
1.0
 50
0.000019
 51
90.000019
  0
ARC
  5
1FF
  8
TEAM-DET3
 10
-115.000214
 20
853.49578
 30
0.0
 40
1.0
 50
270.000019
 51
0.000019
  0
ARC
  5
200
  8
TEAM-DET3
 10
-115.000214
 20
853.49578
 30
0.0
 40
1.0
 50
180.000019
 51
270.000019
  0
ARC
  5
201
  8
TEAM-DET3
 10
-115.000216
 20
858.99578
 30
0.0
 40
1.0
 50
90.000019
 51
180.000019
  0
LINE
  5
202
  8
TEAM-DET3
 10
-114.000216
 20
858.99578
 30
0.0
 11
-114.000214
 21
853.49578
 31
0.0
  0
ARC
  5
203
  8
TEAM-DET3
 10
-100.000214
 20
851.995784
 30
0.0
 40
3.0
 50
0.000019
 51
90.000019
  0
ARC
  5
204
  8
TEAM-DET3
 10
-101.000216
 20
858.995784
 30
0.0
 40
1.0
 50
0.000019
 51
90.000019
  0
ARC
  5
205
  8
TEAM-DET3
 10
-101.000214
 20
853.495784
 30
0.0
 40
1.0
 50
180.000019
 51
270.000019
  0
ARC
  5
206
  8
TEAM-DET3
 10
-101.000214
 20
853.495784
 30
0.0
 40
1.0
 50
270.000019
 51
0.000019
  0
LINE
  5
207
  8
TEAM-DET3
 10
-102.000216
 20
858.995784
 30
0.0
 11
-102.000214
 21
853.495784
 31
0.0
  0
LINE
  5
208
  8
TEAM-DET3
 10
-100.000216
 20
858.995784
 30
0.0
 11
-100.000214
 21
853.495784
 31
0.0
  0
ARC
  5
209
  8
TEAM-DET3
 10
-90.000216
 20
861.995788
 30
0.0
 40
3.0
 50
0.000019
 51
90.000019
  0
LINE
  5
20A
  8
TEAM-DET3
 10
-164.500276
 20
915.585884
 30
0.0
 11
-164.500262
 21
872.49579
 31
0.0
  0
LINE
  5
20B
  8
TEAM-DET3
 10
-47.000276
 20
915.585924
 30
0.0
 11
-47.000262
 21
872.49579
 31
0.0
  0
LINE
  5
20C
  8
TEAM-DET3
 10
-159.500276
 20
915.585902
 30
0.0
 11
-159.500261
 21
872.49579
 31
0.0
  0
LINE
  5
20D
  8
TEAM-DET3
 10
-159.500242
 20
815.585902
 30
0.0
 11
-53.500242
 21
815.585938
 31
0.0
  0
LINE
  5
20E
  8
TEAM-DET3
 10
-165.000202
 20
817.49576
 30
0.0
 11
-41.000202
 21
817.4958
 31
0.0
  0
LINE
  5
20F
  8
TEAM-DET3
 10
-164.000204
 20
824.995764
 30
0.0
 11
-127.000204
 21
824.995776
 31
0.0
  0
ARC
  5
210
  8
TEAM-DET3
 10
-165.237726
 20
822.766554
 30
0.0
 40
5.276143
 50
205.492259
 51
272.580255
  0
LINE
  5
211
  8
TEAM-DET3
 10
-127.000204
 20
824.995776
 30
0.0
 11
-90.000204
 21
824.995788
 31
0.0
  0
LINE
  5
212
  8
TEAM-DET3
 10
-158.500245
 20
817.495788
 30
0.0
 11
-158.500244
 21
815.585903
 31
0.0
  0
LINE
  5
213
  8
TEAM-DET3
 10
-159.500243
 20
817.495788
 30
0.0
 11
-159.500242
 21
815.585902
 31
0.0
  0
LINE
  5
214
  8
TEAM-DET3
 10
-53.500242
 20
817.495788
 30
0.0
 11
-53.500242
 21
815.585938
 31
0.0
  0
LINE
  5
215
  8
TEAM-DET3
 10
-170.000218
 20
869.495758
 30
0.0
 11
-170.000202
 21
820.495758
 31
0.0
  0
ARC
  5
216
  8
TEAM-DET3
 10
-164.000206
 20
827.995764
 30
0.0
 40
3.0
 50
180.000019
 51
270.000019
  0
ARC
  5
217
  8
TEAM-DET3
 10
-90.000206
 20
827.995788
 30
0.0
 40
3.0
 50
270.000019
 51
0.000019
  0
LINE
  5
218
  8
TEAM-DET3
 10
-42.00022
 20
872.4958
 30
0.0
 11
-42.000202
 21
817.4958
 31
0.0
  0
LINE
  5
219
  8
TEAM-DET3
 10
-41.00022
 20
872.4958
 30
0.0
 11
-41.000202
 21
817.4958
 31
0.0
  0
LINE
  5
21A
  8
TEAM-DET3
 10
-58.231987
 20
571.875919
 30
0.0
 11
-49.000162
 21
571.875922
 31
0.0
  0
LINE
  5
21B
  8
TEAM-DET3
 10
-162.500162
 20
571.875886
 30
0.0
 11
-81.611434
 21
571.875912
 31
0.0
  0
ARC
  5
21C
  8
TEAM-DET3
 10
-162.500164
 20
573.875886
 30
0.0
 40
2.0
 50
180.000019
 51
270.000019
  0
ARC
  5
21D
  8
TEAM-DET3
 10
-49.000164
 20
573.875922
 30
0.0
 40
2.0
 50
270.000019
 51
0.000019
  0
LINE
  5
21E
  8
TEAM-AXE
 10
-106.000276
 20
918.256222
 30
0.0
 11
-106.000162
 21
571.875904
 31
0.0
  0
LINE
  5
21F
  8
TEAM-DET3
 10
-164.500244
 20
817.495788
 30
0.0
 11
-164.500164
 21
573.875884
 31
0.0
  0
LINE
  5
220
  8
TEAM-DET3
 10
-47.000244
 20
817.495788
 30
0.0
 11
-47.000164
 21
573.875924
 31
0.0
  0
LINE
  5
221
  8
TEAM-DET3
 10
-158.500306
 20
1009.613648
 30
0.0
 11
-158.500262
 21
872.49579
 31
0.0
  0
LINE
  5
222
  8
TEAM-DET3
 10
-53.500276
 20
938.995808
 30
0.0
 11
-53.500258
 21
872.49579
 31
0.0
  0
LINE
  5
223
  8
TEAM-DET3
 10
-131.004154
 20
557.501199
 30
0.0
 11
-131.004154
 21
571.875912
 31
0.0
  0
LINE
  5
224
  8
TEAM-HIDE
 10
-131.004154
 20
511.128911
 30
0.0
 11
-131.004154
 21
557.501199
 31
0.0
  0
LINE
  5
225
  8
TEAM-HIDE
 10
-140.000676
 20
454.776796
 30
0.0
 11
-71.999648
 21
454.776796
 31
0.0
  0
LINE
  5
226
  8
TEAM-HIDE
 10
-140.000676
 20
484.775998
 30
0.0
 11
-71.999648
 21
484.775998
 31
0.0
  0
LINE
  5
227
  8
TEAM-DET3
 10
-140.000676
 20
454.776796
 30
0.0
 11
-140.000676
 21
484.775998
 31
0.0
  0
LINE
  5
228
  8
TEAM-HIDE
 10
-137.002065
 20
454.776796
 30
0.0
 11
-137.002065
 21
484.775998
 31
0.0
  0
LINE
  5
229
  8
TEAM-DET3
 10
-80.99617
 20
557.501199
 30
0.0
 11
-80.99617
 21
571.875912
 31
0.0
  0
LINE
  5
22A
  8
TEAM-HIDE
 10
-80.99617
 20
511.128911
 30
0.0
 11
-80.99617
 21
557.501199
 31
0.0
  0
LINE
  5
22B
  8
TEAM-HIDE
 10
-80.99617
 20
527.278486
 30
0.0
 11
-131.004154
 21
527.278486
 31
0.0
  0
LINE
  5
22C
  8
TEAM-HIDE
 10
-78.000142
 20
511.128911
 30
0.0
 11
-134.000142
 21
511.128911
 31
0.0
  0
LINE
  5
22D
  8
TEAM-HIDE
 10
-71.999648
 20
454.776796
 30
0.0
 11
-71.999648
 21
484.775998
 31
0.0
  0
LINE
  5
22E
  8
TEAM-HIDE
 10
-74.998259
 20
454.776796
 30
0.0
 11
-74.998259
 21
484.775998
 31
0.0
  0
LINE
  5
22F
  8
TEAM-DET2
 10
-40.000385
 20
1119.996185
 30
0.0
 11
-0.000343
 21
1119.996197
 31
0.0
  0
LINE
  5
230
  8
TEAM-AXE
 10
-45.828089
 20
1100.066184
 30
0.0
 11
2.241682
 21
1100.066199
 31
0.0
  0
LINE
  5
231
  8
TEAM-DET3
 10
36.999675
 20
1070.495885
 30
0.0
 11
44.999675
 21
1070.495885
 31
0.0
  0
LINE
  5
232
  8
TEAM-DET3
 10
36.999675
 20
1066.995885
 30
0.0
 11
-0.000325
 21
1066.995885
 31
0.0
  0
LINE
  5
233
  8
TEAM-HIDE
 10
-40.000367
 20
1066.995885
 30
0.0
 11
-0.000325
 21
1066.995885
 31
0.0
  0
LINE
  5
234
  8
TEAM-AXE
 10
-53.433611
 20
999.995885
 30
0.0
 11
31.035737
 21
999.995885
 31
0.0
  0
LINE
  5
235
  8
TEAM-DET3
 10
36.999675
 20
929.495885
 30
0.0
 11
44.999675
 21
929.495885
 31
0.0
  0
LINE
  5
236
  8
TEAM-DET3
 10
-0.000282
 20
932.995885
 30
0.0
 11
36.999675
 21
932.995885
 31
0.0
  0
LINE
  5
237
  8
TEAM-HIDE
 10
-40.000324
 20
932.995885
 30
0.0
 11
-0.000282
 21
932.995885
 31
0.0
  0
LINE
  5
238
  8
TEAM-DET3
 10
11.999675
 20
936.995885
 30
0.0
 11
11.999675
 21
1062.995885
 31
0.0
  0
LINE
  5
239
  8
TEAM-HIDE
 10
-3.000325
 20
936.995885
 30
0.0
 11
-3.000325
 21
1062.995885
 31
0.0
  0
LINE
  5
23A
  8
TEAM-DET3
 10
26.999675
 20
936.995885
 30
0.0
 11
26.999675
 21
1062.995885
 31
0.0
  0
LINE
  5
23B
  8
TEAM-DET3
 10
36.999675
 20
1070.495885
 30
0.0
 11
36.999675
 21
929.495885
 31
0.0
  0
LINE
  5
23C
  8
TEAM-DET3
 10
44.999675
 20
1070.495885
 30
0.0
 11
44.999675
 21
929.495885
 31
0.0
  0
LINE
  5
23D
  8
TEAM-HIDE
 10
-18.000325
 20
936.995885
 30
0.0
 11
-18.000325
 21
1062.995885
 31
0.0
  0
LINE
  5
23E
  8
TEAM-HIDE
 10
-33.000325
 20
936.995885
 30
0.0
 11
-33.000325
 21
1062.995885
 31
0.0
  0
LINE
  5
23F
  8
TEAM-HIDE
 10
-4.000196
 20
859.4958
 30
0.0
 11
-4.000192
 21
849.995812
 31
0.0
  0
LINE
  5
240
  8
TEAM-HIDE
 10
-21.00021
 20
839.995806
 30
0.0
 11
-4.00019
 21
839.995812
 31
0.0
  0
LINE
  5
241
  8
TEAM-HIDE
 10
-21.000212
 20
849.995806
 30
0.0
 11
-4.000192
 21
849.995812
 31
0.0
  0
LINE
  5
242
  8
TEAM-HIDE
 10
-27.500206
 20
827.495792
 30
0.0
 11
-7.000186
 21
827.4958
 31
0.0
  0
ARC
  5
243
  8
TEAM-HIDE
 10
-21.00021
 20
844.995806
 30
0.0
 40
5.0
 50
90.000019
 51
270.000019
  0
LINE
  5
244
  8
TEAM-HIDE
 10
-4.00019
 20
839.995812
 30
0.0
 11
-4.000186
 21
830.4958
 31
0.0
  0
LINE
  5
245
  8
TEAM-HIDE
 10
-27.500216
 20
862.495792
 30
0.0
 11
-7.000196
 21
862.4958
 31
0.0
  0
LINE
  5
246
  8
TEAM-HIDE
 10
-27.500218
 20
864.495816
 30
0.0
 11
-27.500216
 21
862.495792
 31
0.0
  0
LINE
  5
247
  8
TEAM-HIDE
 10
-26.50022
 20
872.495804
 30
0.0
 11
-26.500218
 21
864.495816
 31
0.0
  0
LINE
  5
248
  8
TEAM-HIDE
 10
-25.50022
 20
872.495804
 30
0.0
 11
-25.500218
 21
864.495816
 31
0.0
  0
LINE
  5
249
  8
TEAM-HIDE
 10
-27.500218
 20
864.495816
 30
0.0
 11
-25.500218
 21
864.495816
 31
0.0
  0
ARC
  5
24A
  8
TEAM-HIDE
 10
-7.000196
 20
859.4958
 30
0.0
 40
3.0
 50
0.000019
 51
90.000019
  0
LINE
  5
24B
  8
TEAM-HIDE
 10
-40.000304
 20
872.4958
 30
0.0
 11
-25.50022
 21
872.495804
 31
0.0
  0
LINE
  5
24C
  8
TEAM-HIDE
 10
-25.500204
 20
825.495794
 30
0.0
 11
-25.500202
 21
817.495804
 31
0.0
  0
LINE
  5
24D
  8
TEAM-HIDE
 10
-26.500204
 20
825.495792
 30
0.0
 11
-26.500202
 21
817.495804
 31
0.0
  0
LINE
  5
24E
  8
TEAM-HIDE
 10
-27.500204
 20
825.495792
 30
0.0
 11
-25.500204
 21
825.495794
 31
0.0
  0
LINE
  5
24F
  8
TEAM-HIDE
 10
-40.000286
 20
817.4958
 30
0.0
 11
-25.500202
 21
817.495804
 31
0.0
  0
LINE
  5
250
  8
TEAM-HIDE
 10
-27.500206
 20
827.495816
 30
0.0
 11
-27.500204
 21
825.495792
 31
0.0
  0
ARC
  5
251
  8
TEAM-HIDE
 10
-7.000186
 20
830.4958
 30
0.0
 40
3.0
 50
270.000019
 51
0.000019
  0
LINE
  5
252
  8
TEAM-DET3
 10
-23.800174
 20
604.356191
 30
0.0
 11
-13.500174
 21
604.356193
 31
0.0
  0
LINE
  5
253
  8
TEAM-DET3
 10
-23.800172
 20
600.856191
 30
0.0
 11
-23.400172
 21
600.456191
 31
0.0
  0
LINE
  5
254
  8
TEAM-DET3
 10
-23.800174
 20
604.356191
 30
0.0
 11
-23.800172
 21
600.856191
 31
0.0
  0
LINE
  5
255
  8
TEAM-DET3
 10
-13.500174
 20
604.356193
 30
0.0
 11
-8.200174
 21
604.356195
 31
0.0
  0
LINE
  5
256
  8
TEAM-DET3
 10
-8.200172
 20
600.856195
 30
0.0
 11
-8.600172
 21
600.456195
 31
0.0
  0
LINE
  5
257
  8
TEAM-DET3
 10
-8.200174
 20
604.356195
 30
0.0
 11
-8.200172
 21
600.856195
 31
0.0
  0
LINE
  5
258
  8
TEAM-DET3
 10
-23.800162
 20
571.356191
 30
0.0
 11
-13.500162
 21
571.356193
 31
0.0
  0
LINE
  5
259
  8
TEAM-DET3
 10
-23.400164
 20
575.256191
 30
0.0
 11
-23.800164
 21
574.856191
 31
0.0
  0
LINE
  5
25A
  8
TEAM-DET3
 10
-23.800164
 20
574.856191
 30
0.0
 11
-23.800162
 21
571.356191
 31
0.0
  0
LINE
  5
25B
  8
TEAM-DET3
 10
-13.500162
 20
571.356193
 30
0.0
 11
-8.200162
 21
571.356195
 31
0.0
  0
LINE
  5
25C
  8
TEAM-DET3
 10
-8.600164
 20
575.256195
 30
0.0
 11
-8.200164
 21
574.856195
 31
0.0
  0
LINE
  5
25D
  8
TEAM-DET3
 10
-8.200164
 20
574.856195
 30
0.0
 11
-8.200162
 21
571.356195
 31
0.0
  0
LINE
  5
25E
  8
TEAM-DET3
 10
-23.400172
 20
600.456191
 30
0.0
 11
-23.400164
 21
575.256191
 31
0.0
  0
LINE
  5
25F
  8
TEAM-DET3
 10
-8.600172
 20
600.456195
 30
0.0
 11
-8.600164
 21
575.256195
 31
0.0
  0
LINE
  5
260
  8
TEAM-HIDE
 10
-37.50014
 20
501.356171
 30
0.0
 11
-2.50014
 21
501.356183
 31
0.0
  0
LINE
  5
261
  8
TEAM-HIDE
 10
-40.000116
 20
426.356185
 30
0.0
 11
-5.000116
 21
426.356197
 31
0.0
  0
LINE
  5
262
  8
TEAM-HIDE
 10
-40.000114
 20
423.356185
 30
0.0
 11
-5.000114
 21
423.356197
 31
0.0
  0
ARC
  5
263
  8
TEAM-HIDE
 10
-5.000114
 20
421.356197
 30
0.0
 40
5.0
 50
0.000019
 51
90.000019
  0
ARC
  5
264
  8
TEAM-HIDE
 10
-5.000114
 20
421.356197
 30
0.0
 40
2.0
 50
0.000019
 51
90.000019
  0
LINE
  5
265
  8
TEAM-AXE
 10
-30.710568
 20
366.285812
 30
0.0
 11
31.692515
 21
366.285815
 31
0.0
  0
ARC
  5
266
  8
TEAM-HIDE
 10
-76.000104
 20
394.135796
 30
0.0
 40
2.0
 50
180.000019
 51
270.000019
  0
LINE
  5
267
  8
TEAM-AXE
 10
-81.000097
 20
368.635794
 30
0.0
 11
-26.161032
 21
368.635814
 31
0.0
  0
POLYLINE
  5
268
  8
TEAM-AXE
 66
     1
 10
0.0
 20
0.0
 30
0.0
 70
   128
  0
VERTEX
  5
356
  8
TEAM-AXE
 10
-105.999984
 20
399.82548
 30
0.0
  0
VERTEX
  5
357
  8
TEAM-AXE
 10
-105.980854
 20
398.772032
 30
0.0
  0
VERTEX
  5
358
  8
TEAM-AXE
 10
-105.929726
 20
397.721214
 30
0.0
  0
VERTEX
  5
359
  8
TEAM-AXE
 10
-105.846648
 20
396.673136
 30
0.0
  0
VERTEX
  5
35A
  8
TEAM-AXE
 10
-105.731736
 20
395.6281
 30
0.0
  0
VERTEX
  5
35B
  8
TEAM-AXE
 10
-105.594796
 20
394.648418
 30
0.0
  0
VERTEX
  5
35C
  8
TEAM-AXE
 10
-105.430176
 20
393.672624
 30
0.0
  0
VERTEX
  5
35D
  8
TEAM-AXE
 10
-105.238236
 20
392.701588
 30
0.0
  0
VERTEX
  5
35E
  8
TEAM-AXE
 10
-105.019388
 20
391.73622
 30
0.0
  0
VERTEX
  5
35F
  8
TEAM-AXE
 10
-104.709904
 20
390.543326
 30
0.0
  0
VERTEX
  5
360
  8
TEAM-AXE
 10
-104.360142
 20
389.361816
 30
0.0
  0
VERTEX
  5
361
  8
TEAM-AXE
 10
-103.970846
 20
388.192782
 30
0.0
  0
VERTEX
  5
362
  8
TEAM-AXE
 10
-103.56921
 20
387.105552
 30
0.0
  0
VERTEX
  5
363
  8
TEAM-AXE
 10
-103.133736
 20
386.03138
 30
0.0
  0
VERTEX
  5
364
  8
TEAM-AXE
 10
-102.664898
 20
384.971394
 30
0.0
  0
VERTEX
  5
365
  8
TEAM-AXE
 10
-102.192118
 20
383.98489
 30
0.0
  0
VERTEX
  5
366
  8
TEAM-AXE
 10
-101.690254
 20
383.012866
 30
0.0
  0
VERTEX
  5
367
  8
TEAM-AXE
 10
-101.159574
 20
382.056146
 30
0.0
  0
VERTEX
  5
368
  8
TEAM-AXE
 10
-100.600364
 20
381.115604
 30
0.0
  0
SEQEND
  5
369
  8
TEAM-AXE
  0
POLYLINE
  5
269
  8
TEAM-AXE
 66
     1
 10
0.0
 20
0.0
 30
0.0
 70
   128
  0
VERTEX
  5
36A
  8
TEAM-AXE
 10
-100.603396
 20
381.120532
 30
0.0
  0
VERTEX
  5
36B
  8
TEAM-AXE
 10
-100.600364
 20
381.115604
 30
0.0
  0
VERTEX
  5
36C
  8
TEAM-AXE
 10
-100.03998
 20
380.233356
 30
0.0
  0
VERTEX
  5
36D
  8
TEAM-AXE
 10
-99.454288
 20
379.367784
 30
0.0
  0
VERTEX
  5
36E
  8
TEAM-AXE
 10
-98.84371
 20
378.519944
 30
0.0
  0
VERTEX
  5
36F
  8
TEAM-AXE
 10
-98.208652
 20
377.690812
 30
0.0
  0
VERTEX
  5
370
  8
TEAM-AXE
 10
-97.34491
 20
376.639706
 30
0.0
  0
VERTEX
  5
371
  8
TEAM-AXE
 10
-96.440568
 20
375.622672
 30
0.0
  0
VERTEX
  5
372
  8
TEAM-AXE
 10
-95.495788
 20
374.6401
 30
0.0
  0
SEQEND
  5
373
  8
TEAM-AXE
  0
ARC
  5
26A
  8
TEAM-AXE
 10
-81.000104
 20
389.135794
 30
0.0
 40
20.5
 50
225.000019
 51
270.000019
  0
ARC
  5
26B
  8
TEAM-HIDE
 10
-3.500104
 20
390.78582
 30
0.0
 40
5.0
 50
90.000019
 51
160.344537
  0
LINE
  5
26C
  8
TEAM-HIDE
 10
-40.000147
 20
392.135809
 30
0.0
 11
-14.002312
 21
392.135818
 31
0.0
  0
LINE
  5
26D
  8
TEAM-HIDE
 10
-25.500104
 20
392.135814
 30
0.0
 11
-25.500104
 21
392.135542
 31
0.0
  0
POINT
  5
26E
  8
TEAM-HIDE
 10
-8.314406
 20
392.135818
 30
0.0
  0
ARC
  5
26F
  8
TEAM-HIDE
 10
-8.679632
 20
392.635818
 30
0.0
 40
0.5
 50
270.000019
 51
340.344537
  0
ARC
  5
270
  8
TEAM-HIDE
 10
-14.0001
 20
392.635812
 30
0.0
 40
0.5
 50
269.746418
 51
359.746424
  0
ARC
  5
271
  8
TEAM-HIDE
 10
-10.000104
 20
392.635818
 30
0.0
 40
0.5
 50
180.000019
 51
270.000019
  0
LINE
  5
272
  8
TEAM-HIDE
 10
-10.000104
 20
392.135818
 30
0.0
 11
-8.679632
 21
392.135818
 31
0.0
  0
LINE
  5
273
  8
TEAM-HIDE
 10
-13.500106
 20
395.285818
 30
0.0
 11
-10.500106
 21
395.285818
 31
0.0
  0
LINE
  5
274
  8
TEAM-DET3
 10
1.882002
 20
394.321356
 30
0.0
 11
3.774644
 21
392.428716
 31
0.0
  0
POINT
  5
275
  8
TEAM-DET3
 10
4.067536
 20
392.135822
 30
0.0
  0
ARC
  5
276
  8
TEAM-DET3
 10
4.48175
 20
393.135824
 30
0.0
 40
1.0
 50
225.000019
 51
270.000019
  0
LINE
  5
277
  8
TEAM-DET3
 10
4.48175
 20
392.135824
 30
0.0
 11
5.499896
 21
392.135824
 31
0.0
  0
ARC
  5
278
  8
TEAM-DET3
 10
-1.65353
 20
390.785822
 30
0.0
 40
5.0
 50
45.000019
 51
90.000019
  0
LINE
  5
279
  8
TEAM-DET3
 10
-3.500106
 20
395.78582
 30
0.0
 11
-1.653532
 21
395.785822
 31
0.0
  0
LINE
  5
27A
  8
TEAM-HIDE
 10
-76.000103
 20
392.135796
 30
0.0
 11
-40.000147
 21
392.135796
 31
0.0
  0
POLYLINE
  5
27B
  8
TEAM-HIDE
 66
     1
 10
0.0
 20
0.0
 30
0.0
  0
VERTEX
  5
374
  8
TEAM-HIDE
 10
-134.000038
 20
410.605782
 30
0.0
  0
VERTEX
  5
375
  8
TEAM-HIDE
 10
-133.966474
 20
408.503622
 30
0.0
  0
VERTEX
  5
376
  8
TEAM-HIDE
 10
-133.87138
 20
406.40328
 30
0.0
  0
VERTEX
  5
377
  8
TEAM-HIDE
 10
-133.71489
 20
404.306634
 30
0.0
  0
VERTEX
  5
378
  8
TEAM-HIDE
 10
-133.49731
 20
402.215492
 30
0.0
  0
VERTEX
  5
379
  8
TEAM-HIDE
 10
-133.219128
 20
400.131582
 30
0.0
  0
VERTEX
  5
37A
  8
TEAM-HIDE
 10
-132.881004
 20
398.056558
 30
0.0
  0
VERTEX
  5
37B
  8
TEAM-HIDE
 10
-132.483776
 20
395.991998
 30
0.0
  0
VERTEX
  5
37C
  8
TEAM-HIDE
 10
-131.99954
 20
393.819208
 30
0.0
  0
VERTEX
  5
37D
  8
TEAM-HIDE
 10
-131.450974
 20
391.661888
 30
0.0
  0
VERTEX
  5
37E
  8
TEAM-HIDE
 10
-130.839032
 20
389.521708
 30
0.0
  0
VERTEX
  5
37F
  8
TEAM-HIDE
 10
-130.16466
 20
387.40034
 30
0.0
  0
VERTEX
  5
380
  8
TEAM-HIDE
 10
-129.428812
 20
385.299452
 30
0.0
  0
VERTEX
  5
381
  8
TEAM-HIDE
 10
-128.63244
 20
383.220716
 30
0.0
  0
VERTEX
  5
382
  8
TEAM-HIDE
 10
-127.776494
 20
381.1658
 30
0.0
  0
VERTEX
  5
383
  8
TEAM-HIDE
 10
-126.985706
 20
379.403616
 30
0.0
  0
VERTEX
  5
384
  8
TEAM-HIDE
 10
-126.15106
 20
377.661778
 30
0.0
  0
VERTEX
  5
385
  8
TEAM-HIDE
 10
-125.272944
 20
375.941466
 30
0.0
  0
VERTEX
  5
386
  8
TEAM-HIDE
 10
-124.351748
 20
374.243858
 30
0.0
  0
VERTEX
  5
387
  8
TEAM-HIDE
 10
-123.38786
 20
372.570134
 30
0.0
  0
VERTEX
  5
388
  8
TEAM-HIDE
 10
-122.381666
 20
370.921472
 30
0.0
  0
VERTEX
  5
389
  8
TEAM-HIDE
 10
-121.333558
 20
369.29905
 30
0.0
  0
VERTEX
  5
38A
  8
TEAM-HIDE
 10
-120.155856
 20
367.57946
 30
0.0
  0
VERTEX
  5
38B
  8
TEAM-HIDE
 10
-118.93037
 20
365.893518
 30
0.0
  0
VERTEX
  5
38C
  8
TEAM-HIDE
 10
-117.657746
 20
364.242882
 30
0.0
  0
VERTEX
  5
38D
  8
TEAM-HIDE
 10
-116.338748
 20
362.629114
 30
0.0
  0
VERTEX
  5
38E
  8
TEAM-HIDE
 10
-114.974246
 20
361.05367
 30
0.0
  0
VERTEX
  5
38F
  8
TEAM-HIDE
 10
-113.565228
 20
359.517908
 30
0.0
  0
VERTEX
  5
390
  8
TEAM-HIDE
 10
-112.112792
 20
358.023086
 30
0.0
  0
SEQEND
  5
391
  8
TEAM-HIDE
  0
LINE
  5
27C
  8
TEAM-HIDE
 10
-78.00011
 20
410.605794
 30
0.0
 11
-78.000104
 21
394.135794
 31
0.0
  0
LINE
  5
27D
  8
TEAM-HIDE
 10
-42.519856
 20
316.356184
 30
0.0
 11
-7.519856
 21
316.356196
 31
0.0
  0
LINE
  5
27E
  8
TEAM-HIDE
 10
-42.519856
 20
319.356184
 30
0.0
 11
-7.519856
 21
319.356196
 31
0.0
  0
ARC
  5
27F
  8
TEAM-HIDE
 10
-5.000082
 20
321.356197
 30
0.0
 40
5.0
 50
270.000019
 51
0.000019
  0
ARC
  5
280
  8
TEAM-HIDE
 10
-5.000082
 20
321.356197
 30
0.0
 40
2.0
 50
270.000019
 51
0.000019
  0
LINE
  5
281
  8
TEAM-AXE
 10
-12.08725
 20
331.356195
 30
0.0
 11
5.27294
 21
331.356199
 31
0.0
  0
LINE
  5
282
  8
TEAM-HIDE
 10
-81.000088
 20
345.135794
 30
0.0
 11
-40.000131
 21
345.135805
 31
0.0
  0
ARC
  5
283
  8
TEAM-HIDE
 10
-3.500088
 20
341.78582
 30
0.0
 40
5.0
 50
201.323705
 51
270.000019
  0
LINE
  5
284
  8
TEAM-HIDE
 10
-25.500088
 20
340.435814
 30
0.0
 11
-14.000088
 21
340.435818
 31
0.0
  0
ARC
  5
285
  8
TEAM-HIDE
 10
-25.500088
 20
343.435814
 30
0.0
 40
3.0
 50
180.000019
 51
270.000019
  0
ARC
  5
286
  8
TEAM-HIDE
 10
-29.000088
 20
344.635812
 30
0.0
 40
0.5
 50
0.000019
 51
90.000019
  0
LINE
  5
287
  8
TEAM-HIDE
 10
-13.500082
 20
322.017868
 30
0.0
 11
-12.50008
 21
320.285818
 31
0.0
  0
LINE
  5
288
  8
TEAM-HIDE
 10
-10.500082
 20
322.017868
 30
0.0
 11
-11.50008
 21
320.285818
 31
0.0
  0
LINE
  5
289
  8
TEAM-HIDE
 10
-12.50008
 20
320.285818
 30
0.0
 11
-11.50008
 21
320.285818
 31
0.0
  0
ARC
  5
28A
  8
TEAM-HIDE
 10
-14.000088
 20
339.935818
 30
0.0
 40
0.5
 50
0.000019
 51
90.000019
  0
ARC
  5
28B
  8
TEAM-HIDE
 10
-8.623562
 20
339.785818
 30
0.0
 40
0.5
 50
21.323705
 51
90.000019
  0
ARC
  5
28C
  8
TEAM-HIDE
 10
-10.000088
 20
339.785818
 30
0.0
 40
0.5
 50
90.000019
 51
180.000019
  0
LINE
  5
28D
  8
TEAM-HIDE
 10
-10.000088
 20
340.285818
 30
0.0
 11
-8.623562
 21
340.285818
 31
0.0
  0
ARC
  5
28E
  8
TEAM-DET3
 10
-1.653514
 20
341.785822
 30
0.0
 40
5.0
 50
270.000019
 51
315.000019
  0
LINE
  5
28F
  8
TEAM-DET3
 10
-3.500086
 20
336.78582
 30
0.0
 11
-1.653514
 21
336.785822
 31
0.0
  0
POINT
  5
290
  8
TEAM-DET3
 10
0.417554
 20
336.785822
 30
0.0
  0
ARC
  5
291
  8
TEAM-DET3
 10
4.481768
 20
339.435824
 30
0.0
 40
1.0
 50
90.000019
 51
135.000019
  0
LINE
  5
292
  8
TEAM-DET3
 10
4.481766
 20
340.435824
 30
0.0
 11
5.499912
 21
340.435824
 31
0.0
  0
LINE
  5
293
  8
TEAM-DET3
 10
3.77466
 20
340.14293
 30
0.0
 11
1.88202
 21
338.250288
 31
0.0
  0
LINE
  5
294
  8
TEAM-HIDE
 10
-29.000088
 20
344.635812
 30
0.0
 11
-40.000131
 21
344.635812
 31
0.0
  0
ARC
  5
295
  8
TEAM-HIDE
 10
-81.000104
 20
389.135794
 30
0.0
 40
44.0
 50
224.989857
 51
270.000019
  0
LINE
  5
296
  8
TEAM-HIDE
 10
-28.500104
 20
392.135812
 30
0.0
 11
-28.500088
 21
343.435812
 31
0.0
  0
LINE
  5
297
  8
TEAM-HIDE
 10
-10.500106
 20
395.285818
 30
0.0
 11
-10.500082
 21
322.017868
 31
0.0
  0
LINE
  5
298
  8
TEAM-HIDE
 10
-13.500106
 20
395.285818
 30
0.0
 11
-13.500082
 21
322.017868
 31
0.0
  0
LINE
  5
299
  8
TEAM-DET3
 10
5.499896
 20
392.135824
 30
0.0
 11
5.499912
 21
340.435824
 31
0.0
  0
LINE
  5
29A
  8
TEAM-HIDE
 10
-78.000124
 20
454.776796
 30
0.0
 11
-78.00011
 21
410.605794
 31
0.0
  0
LINE
  5
29B
  8
TEAM-HIDE
 10
-78.000142
 20
511.128911
 30
0.0
 11
-78.000134
 21
484.775998
 31
0.0
  0
LINE
  5
29C
  8
TEAM-HIDE
 10
-134.000124
 20
454.776796
 30
0.0
 11
-134.00011
 21
410.605776
 31
0.0
  0
LINE
  5
29D
  8
TEAM-HIDE
 10
-134.000142
 20
511.128911
 30
0.0
 11
-134.000134
 21
484.775998
 31
0.0
  0
LINE
  5
29E
  8
TEAM-AXE
 10
-106.000162
 20
571.875904
 30
0.0
 11
-106.000106
 21
399.82548
 31
0.0
  0
TEXT
  5
29F
  8
TEAM-TXT
 10
-401.950513
 20
460.128343
 30
0.0
 40
30.0
  1
team 871038
 41
0.8
 51
15.0
  7
TEAM
  0
ENDSEC
  0
EOF
