  0
SECTION
  2
HEADER
  9
$ACADVER
  1
AC1009
  9
$INSBASE
 10
0.0
 20
0.0
 30
0.0
  9
$EXTMIN
 10
-367.85894
 20
-104.206413
 30
-0.000006
  9
$EXTMAX
 10
524.255947
 20
1171.825418
 30
0.000006
  9
$LIMMIN
 10
-367.85894
 20
-104.206413
  9
$LIMMAX
 10
524.255947
 20
1171.825418
  9
$ORTHOMODE
 70
     1
  9
$REGENMODE
 70
     1
  9
$FILLMODE
 70
     1
  9
$QTEXTMODE
 70
     0
  9
$MIRRTEXT
 70
     0
  9
$DRAGMODE
 70
     2
  9
$LTSCALE
 40
50.0
  9
$OSMODE
 70
     0
  9
$ATTMODE
 70
     1
  9
$TEXTSIZE
 40
200.0
  9
$TRACEWID
 40
1.0
  9
$TEXTSTYLE
  7
STANDARD
  9
$CLAYER
  8
TEAM-MAS
  9
$CELTYPE
  6
BYLAYER
  9
$CECOLOR
 62
   256
  9
$DIMSCALE
 40
1.0
  9
$DIMASZ
 40
20.0
  9
$DIMEXO
 40
10.0
  9
$DIMDLI
 40
1.0
  9
$DIMRND
 40
0.0
  9
$DIMDLE
 40
0.0
  9
$DIMEXE
 40
1.0
  9
$DIMTP
 40
0.0
  9
$DIMTM
 40
0.0
  9
$DIMTXT
 40
35.0
  9
$DIMCEN
 40
1.0
  9
$DIMTSZ
 40
0.0
  9
$DIMTOL
 70
     0
  9
$DIMLIM
 70
     0
  9
$DIMTIH
 70
     0
  9
$DIMTOH
 70
     0
  9
$DIMSE1
 70
     0
  9
$DIMSE2
 70
     0
  9
$DIMTAD
 70
     0
  9
$DIMZIN
 70
     0
  9
$DIMBLK
  1

  9
$DIMASO
 70
     1
  9
$DIMSHO
 70
     0
  9
$DIMPOST
  1

  9
$DIMAPOST
  1

  9
$DIMALT
 70
     0
  9
$DIMALTD
 70
     2
  9
$DIMALTF
 40
25.4
  9
$DIMLFAC
 40
1.0
  9
$DIMTOFL
 70
     0
  9
$DIMTVP
 40
0.0
  9
$DIMTIX
 70
     0
  9
$DIMSOXD
 70
     0
  9
$DIMSAH
 70
     0
  9
$DIMBLK1
  1

  9
$DIMBLK2
  1

  9
$DIMSTYLE
  2
TEAM
  9
$DIMCLRD
 70
     9
  9
$DIMCLRE
 70
     9
  9
$DIMCLRT
 70
    11
  9
$DIMTFAC
 40
1.0
  9
$DIMGAP
 40
7.0
  9
$LUNITS
 70
     2
  9
$LUPREC
 70
     1
  9
$SKETCHINC
 40
1.0
  9
$FILLETRAD
 40
50.0
  9
$AUNITS
 70
     0
  9
$AUPREC
 70
     0
  9
$MENU
  1
ROPLANS
  9
$ELEVATION
 40
0.0
  9
$PELEVATION
 40
0.0
  9
$THICKNESS
 40
0.0
  9
$LIMCHECK
 70
     0
  9
$BLIPMODE
 70
     1
  9
$CHAMFERA
 40
0.0
  9
$CHAMFERB
 40
0.0
  9
$SKPOLY
 70
     0
  9
$TDCREATE
 40
2450392.957851
  9
$TDUPDATE
 40
2456118.662559
  9
$TDINDWG
 40
5.307301
  9
$TDUSRTIMER
 40
5.307301
  9
$USRTIMER
 70
     1
  9
$ANGBASE
 50
0.0
  9
$ANGDIR
 70
     0
  9
$PDMODE
 70
     0
  9
$PDSIZE
 40
0.0
  9
$PLINEWID
 40
0.0
  9
$COORDS
 70
     2
  9
$SPLFRAME
 70
     0
  9
$SPLINETYPE
 70
     6
  9
$SPLINESEGS
 70
     8
  9
$ATTDIA
 70
     0
  9
$ATTREQ
 70
     0
  9
$HANDLING
 70
     1
  9
$HANDSEED
  5
44E
  9
$SURFTAB1
 70
    24
  9
$SURFTAB2
 70
    24
  9
$SURFTYPE
 70
     6
  9
$SURFU
 70
     6
  9
$SURFV
 70
     6
  9
$UCSNAME
  2

  9
$UCSORG
 10
0.0
 20
0.0
 30
0.0
  9
$UCSXDIR
 10
1.0
 20
0.0
 30
0.0
  9
$UCSYDIR
 10
0.0
 20
1.0
 30
0.0
  9
$PUCSNAME
  2

  9
$PUCSORG
 10
0.0
 20
0.0
 30
0.0
  9
$PUCSXDIR
 10
1.0
 20
0.0
 30
0.0
  9
$PUCSYDIR
 10
0.0
 20
1.0
 30
0.0
  9
$USERI1
 70
     0
  9
$USERI2
 70
     0
  9
$USERI3
 70
     0
  9
$USERI4
 70
     0
  9
$USERI5
 70
     0
  9
$USERR1
 40
0.0
  9
$USERR2
 40
0.0
  9
$USERR3
 40
0.0
  9
$USERR4
 40
0.0
  9
$USERR5
 40
0.0
  9
$WORLDVIEW
 70
     1
  9
$SHADEDGE
 70
     0
  9
$SHADEDIF
 70
    70
  9
$TILEMODE
 70
     1
  9
$MAXACTVP
 70
    16
  9
$PLIMCHECK
 70
     0
  9
$PEXTMIN
 10
-0.805942
 20
0.005011
 30
0.0
  9
$PEXTMAX
 10
20.250094
 20
11.356329
 30
0.0
  9
$PLIMMIN
 10
0.0
 20
0.0
  9
$PLIMMAX
 10
12.0
 20
9.0
  9
$UNITMODE
 70
     0
  9
$VISRETAIN
 70
     0
  9
$PLINEGEN
 70
     0
  9
$PSLTSCALE
 70
     0
  0
ENDSEC
  0
SECTION
  2
TABLES
  0
TABLE
  2
VPORT
 70
     2
  0
VPORT
  2
*ACTIVE
 70
     0
 10
0.0
 20
0.0
 11
1.0
 21
1.0
 12
78.198504
 22
533.809503
 13
0.0
 23
0.0
 14
1.0
 24
1.0
 15
50.0
 25
50.0
 16
0.0
 26
0.0
 36
1.0
 17
0.0
 27
0.0
 37
0.0
 40
1284.065609
 41
1.911765
 42
50.0
 43
0.0
 44
0.0
 50
0.0
 51
0.0
 71
     0
 72
   100
 73
     1
 74
     1
 75
     0
 76
     0
 77
     0
 78
     0
  0
ENDTAB
  0
TABLE
  2
LTYPE
 70
     3
  0
LTYPE
  2
CONTINUOUS
 70
     0
  3
Solid Line
 72
    65
 73
     0
 40
0.0
  0
LTYPE
  2
31
 70
     0
  3

 72
    65
 73
     4
 40
2.1
 49
1.5
 49
-0.3
 49
0.0
 49
-0.3
  0
LTYPE
  2
22
 70
     0
  3

 72
    65
 73
     2
 40
1.4
 49
1.2
 49
-0.2
  0
ENDTAB
  0
TABLE
  2
LAYER
 70
    11
  0
LAYER
  2
0
 70
     0
 62
     7
  6
CONTINUOUS
  0
LAYER
  2
DEFPOINTS
 70
     0
 62
     7
  6
CONTINUOUS
  0
LAYER
  2
TEAM-AXE
 70
     0
 62
    10
  6
31
  0
LAYER
  2
TEAM-MAS
 70
     0
 62
     9
  6
CONTINUOUS
  0
LAYER
  2
TEAM-TXT
 70
     0
 62
    11
  6
CONTINUOUS
  0
LAYER
  2
TEAM-DET1
 70
     0
 62
     4
  6
CONTINUOUS
  0
LAYER
  2
TEAM-DET2
 70
     0
 62
    11
  6
CONTINUOUS
  0
LAYER
  2
TEAM-HIDE
 70
     0
 62
     8
  6
22
  0
LAYER
  2
TEAM-DET3
 70
     0
 62
    14
  6
CONTINUOUS
  0
LAYER
  2
TEAM-ELEKTR
 70
     0
 62
    15
  6
22
  0
LAYER
  2
TEAM-INSP
 70
     0
 62
     5
  6
CONTINUOUS
  0
ENDTAB
  0
TABLE
  2
STYLE
 70
     2
  0
STYLE
  2
STANDARD
 70
     0
 40
0.0
 41
1.0
 50
0.0
 71
     0
 42
200.0
  3
txt
  4

  0
STYLE
  2
TEAM
 70
     0
 40
0.0
 41
0.8
 50
15.0
 71
     0
 42
7.0
  3
ROMANS.shx
  4

  0
ENDTAB
  0
TABLE
  2
VIEW
 70
     0
  0
ENDTAB
  0
TABLE
  2
UCS
 70
     0
  0
ENDTAB
  0
TABLE
  2
APPID
 70
     1
  0
APPID
  2
ACAD
 70
     0
  0
ENDTAB
  0
TABLE
  2
DIMSTYLE
 70
     1
  0
DIMSTYLE
  2
TEAM
 70
     0
  3

  4

  5

  6

  7

 40
1.0
 41
20.0
 42
10.0
 43
1.0
 44
1.0
 45
0.0
 46
0.0
 47
0.0
 48
0.0
140
35.0
141
1.0
142
0.0
143
25.4
144
1.0
145
0.0
146
1.0
147
7.0
 71
     0
 72
     0
 73
     0
 74
     0
 75
     0
 76
     0
 77
     0
 78
     0
170
     0
171
     2
172
     0
173
     0
174
     0
175
     0
176
     9
177
     9
178
    11
  0
ENDTAB
  0
ENDSEC
  0
SECTION
  2
BLOCKS
  0
BLOCK
  8
0
  2
$MODEL_SPACE
 70
     0
 10
0.0
 20
0.0
 30
0.0
  3
$MODEL_SPACE
  1

  0
ENDBLK
  5
3C1
  8
0
  0
BLOCK
 67
     1
  8
0
  2
$PAPER_SPACE
 70
     0
 10
0.0
 20
0.0
 30
0.0
  3
$PAPER_SPACE
  1

  0
ENDBLK
  5
3BF
 67
     1
  8
0
  0
BLOCK
  8
0
  2
*D0
 70
     1
 10
0.0
 20
0.0
 30
0.0
  3
*D0
  1

  0
LINE
  5
6F
  8
0
  6
BYBLOCK
 62
     9
 10
12000.0
 20
51990.0
 30
0.0
 11
12000.0
 21
51912.365663
 31
0.0
  0
LINE
  5
70
  8
0
  6
BYBLOCK
 62
     9
 10
12300.0
 20
52219.96456
 30
0.0
 11
12300.0
 21
51912.365663
 31
0.0
  0
LINE
  5
71
  8
0
  6
BYBLOCK
 62
     9
 10
12020.0
 20
51913.365663
 30
0.0
 11
12070.039683
 21
51913.365663
 31
0.0
  0
LINE
  5
72
  8
0
  6
BYBLOCK
 62
     9
 10
12280.0
 20
51913.365663
 30
0.0
 11
12229.873017
 21
51913.365663
 31
0.0
  0
TEXT
  5
73
  8
0
  6
BYBLOCK
 62
    11
 10
12077.039683
 20
51895.865663
 30
0.0
 40
35.0
  1
>=300
  0
SOLID
  5
74
  8
0
  6
BYBLOCK
 62
     9
 10
12020.0
 20
51916.698996
 30
0.0
 11
12020.0
 21
51910.03233
 31
0.0
 12
12000.0
 22
51913.365663
 32
0.0
 13
12000.0
 23
51913.365663
 33
0.0
  0
SOLID
  5
75
  8
0
  6
BYBLOCK
 62
     9
 10
12280.0
 20
51916.698996
 30
0.0
 11
12280.0
 21
51910.03233
 31
0.0
 12
12300.0
 22
51913.365663
 32
0.0
 13
12300.0
 23
51913.365663
 33
0.0
  0
POINT
  5
76
  8
DEFPOINTS
  6
BYBLOCK
 62
     0
 10
12000.0
 20
52000.0
 30
0.0
  0
POINT
  5
77
  8
DEFPOINTS
  6
BYBLOCK
 62
     0
 10
12300.0
 20
52229.96456
 30
0.0
  0
POINT
  5
78
  8
DEFPOINTS
  6
BYBLOCK
 62
     0
 10
12300.0
 20
51913.365663
 30
0.0
  0
ENDBLK
  5
7A
  8
0
  0
BLOCK
  8
0
  2
*D1
 70
     1
 10
0.0
 20
0.0
 30
0.0
  3
*D1
  1

  0
LINE
  5
9A
  8
0
  6
BYBLOCK
 62
     9
 10
12010.0
 20
52000.0
 30
0.0
 11
12367.16795
 21
52000.0
 31
0.0
  0
LINE
  5
9B
  8
0
  6
BYBLOCK
 62
     9
 10
12334.975457
 20
52230.004481
 30
0.0
 11
12367.16795
 21
52230.004481
 31
0.0
  0
LINE
  5
9C
  8
0
  6
BYBLOCK
 62
     9
 10
12366.16795
 20
52020.0
 30
0.0
 11
12366.16795
 21
52064.25224
 31
0.0
  0
LINE
  5
9D
  8
0
  6
BYBLOCK
 62
     9
 10
12366.16795
 20
52210.004481
 30
0.0
 11
12366.16795
 21
52165.75224
 31
0.0
  0
SOLID
  5
9E
  8
0
  6
BYBLOCK
 62
     9
 10
12362.834617
 20
52020.0
 30
0.0
 11
12369.501284
 21
52020.0
 31
0.0
 12
12366.16795
 22
52000.0
 32
0.0
 13
12366.16795
 23
52000.0
 33
0.0
  0
SOLID
  5
9F
  8
0
  6
BYBLOCK
 62
     9
 10
12362.834617
 20
52210.004481
 30
0.0
 11
12369.501284
 21
52210.004481
 31
0.0
 12
12366.16795
 22
52230.004481
 32
0.0
 13
12366.16795
 23
52230.004481
 33
0.0
  0
TEXT
  5
A0
  8
0
  6
BYBLOCK
 62
    11
 10
12383.66795
 20
52071.25224
 30
0.0
 40
35.0
  1
230
 50
90.0
  0
POINT
  5
A1
  8
DEFPOINTS
  6
BYBLOCK
 62
     0
 10
12000.0
 20
52000.0
 30
0.0
  0
POINT
  5
A2
  8
DEFPOINTS
  6
BYBLOCK
 62
     0
 10
12324.975457
 20
52230.004481
 30
0.0
  0
POINT
  5
A3
  8
DEFPOINTS
  6
BYBLOCK
 62
     0
 10
12366.16795
 20
52230.004481
 30
0.0
  0
ENDBLK
  5
A5
  8
0
  0
BLOCK
  8
0
  2
*D2
 70
     1
 10
0.0
 20
0.0
 30
0.0
  3
*D2
  1

  0
LINE
  5
3F
  8
0
  6
BYBLOCK
 62
     9
 10
12010.0
 20
52000.0
 30
0.0
 11
12410.671297
 21
52000.0
 31
0.0
  0
LINE
  5
40
  8
0
  6
BYBLOCK
 62
     9
 10
12215.0
 20
53000.000016
 30
0.0
 11
12410.671297
 21
53000.000016
 31
0.0
  0
LINE
  5
41
  8
0
  6
BYBLOCK
 62
     9
 10
12409.671297
 20
52020.0
 30
0.0
 11
12409.671297
 21
52443.416675
 31
0.0
  0
LINE
  5
42
  8
0
  6
BYBLOCK
 62
     9
 10
12409.671297
 20
52980.000016
 30
0.0
 11
12409.671297
 21
52556.583341
 31
0.0
  0
SOLID
  5
43
  8
0
  6
BYBLOCK
 62
     9
 10
12406.337964
 20
52020.0
 30
0.0
 11
12413.00463
 21
52020.0
 31
0.0
 12
12409.671297
 22
52000.0
 32
0.0
 13
12409.671297
 23
52000.0
 33
0.0
  0
SOLID
  5
44
  8
0
  6
BYBLOCK
 62
     9
 10
12406.337964
 20
52980.000016
 30
0.0
 11
12413.00463
 21
52980.000016
 31
0.0
 12
12409.671297
 22
53000.000016
 32
0.0
 13
12409.671297
 23
53000.000016
 33
0.0
  0
TEXT
  5
45
  8
0
  6
BYBLOCK
 62
    11
 10
12427.171297
 20
52450.416675
 30
0.0
 40
35.0
  1
1000
 50
90.0
  0
POINT
  5
46
  8
DEFPOINTS
  6
BYBLOCK
 62
     0
 10
12000.0
 20
52000.0
 30
0.0
  0
POINT
  5
47
  8
DEFPOINTS
  6
BYBLOCK
 62
     0
 10
12205.0
 20
53000.000016
 30
0.0
  0
POINT
  5
48
  8
DEFPOINTS
  6
BYBLOCK
 62
     0
 10
12409.671297
 20
53000.000016
 30
0.0
  0
ENDBLK
  5
4A
  8
0
  0
BLOCK
  8
0
  2
*D3
 70
     1
 10
0.0
 20
0.0
 30
0.0
  3
*D3
  1

  0
LINE
  5
31
  8
0
  6
BYBLOCK
 62
     9
 10
12010.0
 20
52000.0
 30
0.0
 11
12458.422479
 21
52000.0
 31
0.0
  0
LINE
  5
32
  8
0
  6
BYBLOCK
 62
     9
 10
12031.453005
 20
53045.000016
 30
0.0
 11
12458.422479
 21
53045.000016
 31
0.0
  0
LINE
  5
33
  8
0
  6
BYBLOCK
 62
     9
 10
12457.422479
 20
52020.0
 30
0.0
 11
12457.422479
 21
52460.083341
 31
0.0
  0
LINE
  5
34
  8
0
  6
BYBLOCK
 62
     9
 10
12457.422479
 20
53025.000016
 30
0.0
 11
12457.422479
 21
52584.916675
 31
0.0
  0
SOLID
  5
35
  8
0
  6
BYBLOCK
 62
     9
 10
12454.089146
 20
52020.0
 30
0.0
 11
12460.755812
 21
52020.0
 31
0.0
 12
12457.422479
 22
52000.0
 32
0.0
 13
12457.422479
 23
52000.0
 33
0.0
  0
SOLID
  5
36
  8
0
  6
BYBLOCK
 62
     9
 10
12454.089146
 20
53025.000016
 30
0.0
 11
12460.755812
 21
53025.000016
 31
0.0
 12
12457.422479
 22
53045.000016
 32
0.0
 13
12457.422479
 23
53045.000016
 33
0.0
  0
TEXT
  5
37
  8
0
  6
BYBLOCK
 62
    11
 10
12474.922479
 20
52467.083341
 30
0.0
 40
35.0
  1
1045
 50
90.0
  0
POINT
  5
38
  8
DEFPOINTS
  6
BYBLOCK
 62
     0
 10
12000.0
 20
52000.0
 30
0.0
  0
POINT
  5
39
  8
DEFPOINTS
  6
BYBLOCK
 62
     0
 10
12021.453005
 20
53045.000016
 30
0.0
  0
POINT
  5
3A
  8
DEFPOINTS
  6
BYBLOCK
 62
     0
 10
12457.422479
 20
53045.000016
 30
0.0
  0
ENDBLK
  5
3C
  8
0
  0
BLOCK
  8
0
  2
*D4
 70
     1
 10
0.0
 20
0.0
 30
0.0
  3
*D4
  1

  0
LINE
  5
22
  8
0
  6
BYBLOCK
 62
     9
 10
12010.0
 20
52000.0
 30
0.0
 11
12507.714623
 21
52000.0
 31
0.0
  0
LINE
  5
23
  8
0
  6
BYBLOCK
 62
     9
 10
12204.789522
 20
53120.0
 30
0.0
 11
12507.714623
 21
53120.0
 31
0.0
  0
LINE
  5
24
  8
0
  6
BYBLOCK
 62
     9
 10
12506.714623
 20
52020.0
 30
0.0
 11
12506.714623
 21
52503.416667
 31
0.0
  0
LINE
  5
25
  8
0
  6
BYBLOCK
 62
     9
 10
12506.714623
 20
53100.0
 30
0.0
 11
12506.714623
 21
52616.583333
 31
0.0
  0
SOLID
  5
26
  8
0
  6
BYBLOCK
 62
     9
 10
12503.38129
 20
52020.0
 30
0.0
 11
12510.047956
 21
52020.0
 31
0.0
 12
12506.714623
 22
52000.0
 32
0.0
 13
12506.714623
 23
52000.0
 33
0.0
  0
SOLID
  5
27
  8
0
  6
BYBLOCK
 62
     9
 10
12503.38129
 20
53100.0
 30
0.0
 11
12510.047956
 21
53100.0
 31
0.0
 12
12506.714623
 22
53120.0
 32
0.0
 13
12506.714623
 23
53120.0
 33
0.0
  0
TEXT
  5
28
  8
0
  6
BYBLOCK
 62
    11
 10
12524.214623
 20
52510.416667
 30
0.0
 40
35.0
  1
1120
 50
90.0
  0
POINT
  5
29
  8
DEFPOINTS
  6
BYBLOCK
 62
     0
 10
12000.0
 20
52000.0
 30
0.0
  0
POINT
  5
2B
  8
DEFPOINTS
  6
BYBLOCK
 62
     0
 10
12194.789522
 20
53120.0
 30
0.0
  0
POINT
  5
2C
  8
DEFPOINTS
  6
BYBLOCK
 62
     0
 10
12506.714623
 20
53120.0
 30
0.0
  0
ENDBLK
  5
2E
  8
0
  0
BLOCK
  8
0
  2
*D5
 70
     1
 10
0.0
 20
0.0
 30
0.0
  3
*D5
  1

  0
LINE
  5
8C
  8
0
  6
BYBLOCK
 62
     9
 10
12000.0
 20
51990.0
 30
0.0
 11
12000.0
 21
51912.365663
 31
0.0
  0
LINE
  5
8D
  8
0
  6
BYBLOCK
 62
     9
 10
11700.0
 20
52274.391294
 30
0.0
 11
11700.0
 21
51912.365663
 31
0.0
  0
LINE
  5
8E
  8
0
  6
BYBLOCK
 62
     9
 10
11980.0
 20
51913.365663
 30
0.0
 11
11897.833333
 21
51913.365663
 31
0.0
  0
LINE
  5
8F
  8
0
  6
BYBLOCK
 62
     9
 10
11720.0
 20
51913.365663
 30
0.0
 11
11802.166667
 21
51913.365663
 31
0.0
  0
SOLID
  5
90
  8
0
  6
BYBLOCK
 62
     9
 10
11980.0
 20
51916.698996
 30
0.0
 11
11980.0
 21
51910.03233
 31
0.0
 12
12000.0
 22
51913.365663
 32
0.0
 13
12000.0
 23
51913.365663
 33
0.0
  0
SOLID
  5
91
  8
0
  6
BYBLOCK
 62
     9
 10
11720.0
 20
51916.698996
 30
0.0
 11
11720.0
 21
51910.03233
 31
0.0
 12
11700.0
 22
51913.365663
 32
0.0
 13
11700.0
 23
51913.365663
 33
0.0
  0
TEXT
  5
92
  8
0
  6
BYBLOCK
 62
    11
 10
11809.166667
 20
51895.865663
 30
0.0
 40
35.0
  1
300
  0
POINT
  5
93
  8
DEFPOINTS
  6
BYBLOCK
 62
     0
 10
12000.0
 20
52000.0
 30
0.0
  0
POINT
  5
94
  8
DEFPOINTS
  6
BYBLOCK
 62
     0
 10
11700.0
 20
52284.391294
 30
0.0
  0
POINT
  5
95
  8
DEFPOINTS
  6
BYBLOCK
 62
     0
 10
11700.0
 20
51913.365663
 30
0.0
  0
ENDBLK
  5
97
  8
0
  0
BLOCK
  8
0
  2
*D6
 70
     1
 10
0.0
 20
0.0
 30
0.0
  3
*D6
  1

  0
LINE
  5
1A1
  8
0
  6
BYBLOCK
 62
     9
 10
11910.0
 20
52350.000016
 30
0.0
 11
11910.0
 21
52510.894473
 31
0.0
  0
LINE
  5
1A2
  8
0
  6
BYBLOCK
 62
     9
 10
12090.0
 20
52348.000016
 30
0.0
 11
12090.0
 21
52510.894473
 31
0.0
  0
LINE
  5
1A3
  8
0
  6
BYBLOCK
 62
     9
 10
11930.0
 20
52509.894473
 30
0.0
 11
11955.083333
 21
52509.894473
 31
0.0
  0
LINE
  5
1A4
  8
0
  6
BYBLOCK
 62
     9
 10
12070.0
 20
52509.894473
 30
0.0
 11
12044.916667
 21
52509.894473
 31
0.0
  0
SOLID
  5
1A5
  8
0
  6
BYBLOCK
 62
     9
 10
11930.0
 20
52513.227807
 30
0.0
 11
11930.0
 21
52506.56114
 31
0.0
 12
11910.0
 22
52509.894473
 32
0.0
 13
11910.0
 23
52509.894473
 33
0.0
  0
SOLID
  5
1A6
  8
0
  6
BYBLOCK
 62
     9
 10
12070.0
 20
52513.227807
 30
0.0
 11
12070.0
 21
52506.56114
 31
0.0
 12
12090.0
 22
52509.894473
 32
0.0
 13
12090.0
 23
52509.894473
 33
0.0
  0
TEXT
  5
1A7
  8
0
  6
BYBLOCK
 62
    11
 10
11962.083333
 20
52492.394473
 30
0.0
 40
35.0
  1
180
  0
POINT
  5
1A8
  8
DEFPOINTS
  6
BYBLOCK
 62
     0
 10
11910.0
 20
52340.000016
 30
0.0
  0
POINT
  5
1A9
  8
DEFPOINTS
  6
BYBLOCK
 62
     0
 10
12090.0
 20
52338.000016
 30
0.0
  0
POINT
  5
1AA
  8
DEFPOINTS
  6
BYBLOCK
 62
     0
 10
12090.0
 20
52509.894473
 30
0.0
  0
ENDBLK
  5
1AC
  8
0
  0
BLOCK
  8
0
  2
*D7
 70
     1
 10
0.0
 20
0.0
 30
0.0
  3
*D7
  1

  0
LINE
  5
193
  8
0
  6
BYBLOCK
 62
     9
 10
11885.0
 20
52353.89107
 30
0.0
 11
11885.0
 21
52551.777185
 31
0.0
  0
LINE
  5
194
  8
0
  6
BYBLOCK
 62
     9
 10
12115.0
 20
52350.000016
 30
0.0
 11
12115.0
 21
52551.777185
 31
0.0
  0
LINE
  5
195
  8
0
  6
BYBLOCK
 62
     9
 10
11905.0
 20
52550.777185
 30
0.0
 11
11949.25
 21
52550.777185
 31
0.0
  0
LINE
  5
196
  8
0
  6
BYBLOCK
 62
     9
 10
12095.0
 20
52550.777185
 30
0.0
 11
12050.75
 21
52550.777185
 31
0.0
  0
SOLID
  5
197
  8
0
  6
BYBLOCK
 62
     9
 10
11905.0
 20
52554.110518
 30
0.0
 11
11905.0
 21
52547.443852
 31
0.0
 12
11885.0
 22
52550.777185
 32
0.0
 13
11885.0
 23
52550.777185
 33
0.0
  0
SOLID
  5
198
  8
0
  6
BYBLOCK
 62
     9
 10
12095.0
 20
52554.110518
 30
0.0
 11
12095.0
 21
52547.443852
 31
0.0
 12
12115.0
 22
52550.777185
 32
0.0
 13
12115.0
 23
52550.777185
 33
0.0
  0
TEXT
  5
199
  8
0
  6
BYBLOCK
 62
    11
 10
11956.25
 20
52533.277185
 30
0.0
 40
35.0
  1
230
  0
POINT
  5
19A
  8
DEFPOINTS
  6
BYBLOCK
 62
     0
 10
11885.0
 20
52343.89107
 30
0.0
  0
POINT
  5
19B
  8
DEFPOINTS
  6
BYBLOCK
 62
     0
 10
12115.0
 20
52340.000016
 30
0.0
  0
POINT
  5
19C
  8
DEFPOINTS
  6
BYBLOCK
 62
     0
 10
12115.0
 20
52550.777185
 30
0.0
  0
ENDBLK
  5
19E
  8
0
  0
BLOCK
  8
0
  2
*D8
 70
     1
 10
0.0
 20
0.0
 30
0.0
  3
*D8
  1

  0
LINE
  5
185
  8
0
  6
BYBLOCK
 62
     9
 10
11785.0
 20
53000.000016
 30
0.0
 11
11648.663548
 21
53000.000016
 31
0.0
  0
LINE
  5
186
  8
0
  6
BYBLOCK
 62
     9
 10
11663.894355
 20
52330.000016
 30
0.0
 11
11648.663548
 21
52330.000016
 31
0.0
  0
LINE
  5
187
  8
0
  6
BYBLOCK
 62
     9
 10
11649.663548
 20
52980.000016
 30
0.0
 11
11649.663548
 21
52715.750016
 31
0.0
  0
LINE
  5
188
  8
0
  6
BYBLOCK
 62
     9
 10
11649.663548
 20
52350.000016
 30
0.0
 11
11649.663548
 21
52614.250016
 31
0.0
  0
SOLID
  5
189
  8
0
  6
BYBLOCK
 62
     9
 10
11646.330215
 20
52980.000016
 30
0.0
 11
11652.996881
 21
52980.000016
 31
0.0
 12
11649.663548
 22
53000.000016
 32
0.0
 13
11649.663548
 23
53000.000016
 33
0.0
  0
SOLID
  5
18A
  8
0
  6
BYBLOCK
 62
     9
 10
11646.330215
 20
52350.000016
 30
0.0
 11
11652.996881
 21
52350.000016
 31
0.0
 12
11649.663548
 22
52330.000016
 32
0.0
 13
11649.663548
 23
52330.000016
 33
0.0
  0
TEXT
  5
18B
  8
0
  6
BYBLOCK
 62
    11
 10
11667.163548
 20
52621.250016
 30
0.0
 40
35.0
  1
670
 50
90.0
  0
POINT
  5
18C
  8
DEFPOINTS
  6
BYBLOCK
 62
     0
 10
11795.0
 20
53000.000016
 30
0.0
  0
POINT
  5
18D
  8
DEFPOINTS
  6
BYBLOCK
 62
     0
 10
11673.894355
 20
52330.000016
 30
0.0
  0
POINT
  5
18E
  8
DEFPOINTS
  6
BYBLOCK
 62
     0
 10
11649.663548
 20
52330.000016
 30
0.0
  0
ENDBLK
  5
190
  8
0
  0
BLOCK
  8
0
  2
*D9
 70
     1
 10
0.0
 20
0.0
 30
0.0
  3
*D9
  1

  0
LINE
  5
177
  8
0
  6
BYBLOCK
 62
     9
 10
11787.5
 20
53127.779221
 30
0.0
 11
11787.5
 21
53155.237199
 31
0.0
  0
LINE
  5
178
  8
0
  6
BYBLOCK
 62
     9
 10
12212.5
 20
53127.779221
 30
0.0
 11
12212.5
 21
53155.237199
 31
0.0
  0
LINE
  5
179
  8
0
  6
BYBLOCK
 62
     9
 10
11807.5
 20
53154.237199
 30
0.0
 11
11946.333333
 21
53154.237199
 31
0.0
  0
LINE
  5
17A
  8
0
  6
BYBLOCK
 62
     9
 10
12192.5
 20
53154.237199
 30
0.0
 11
12053.666667
 21
53154.237199
 31
0.0
  0
SOLID
  5
17B
  8
0
  6
BYBLOCK
 62
     9
 10
11807.5
 20
53157.570532
 30
0.0
 11
11807.5
 21
53150.903866
 31
0.0
 12
11787.5
 22
53154.237199
 32
0.0
 13
11787.5
 23
53154.237199
 33
0.0
  0
SOLID
  5
17C
  8
0
  6
BYBLOCK
 62
     9
 10
12192.5
 20
53157.570532
 30
0.0
 11
12192.5
 21
53150.903866
 31
0.0
 12
12212.5
 22
53154.237199
 32
0.0
 13
12212.5
 23
53154.237199
 33
0.0
  0
TEXT
  5
17D
  8
0
  6
BYBLOCK
 62
    11
 10
11953.333333
 20
53136.737199
 30
0.0
 40
35.0
  1
425
  0
POINT
  5
17E
  8
DEFPOINTS
  6
BYBLOCK
 62
     0
 10
11787.5
 20
53117.779221
 30
0.0
  0
POINT
  5
17F
  8
DEFPOINTS
  6
BYBLOCK
 62
     0
 10
12212.5
 20
53117.779221
 30
0.0
  0
POINT
  5
180
  8
DEFPOINTS
  6
BYBLOCK
 62
     0
 10
12212.5
 20
53154.237199
 30
0.0
  0
ENDBLK
  5
182
  8
0
  0
BLOCK
  8
0
  2
*D10
 70
     1
 10
0.0
 20
0.0
 30
0.0
  3
*D10
  1

  0
LINE
  5
60
  8
0
  6
BYBLOCK
 62
     9
 10
12010.0
 20
52000.0
 30
0.0
 11
12259.857312
 21
52000.0
 31
0.0
  0
LINE
  5
61
  8
0
  6
BYBLOCK
 62
     9
 10
12222.0
 20
51980.0
 30
0.0
 11
12259.857312
 21
51980.0
 31
0.0
  0
LINE
  5
62
  8
0
  6
BYBLOCK
 62
     9
 10
12258.857312
 20
52020.0
 30
0.0
 11
12258.857312
 21
52040.0
 31
0.0
  0
LINE
  5
63
  8
0
  6
BYBLOCK
 62
     9
 10
12258.857312
 20
51960.0
 30
0.0
 11
12258.857312
 21
51940.0
 31
0.0
  0
TEXT
  5
64
  8
0
  6
BYBLOCK
 62
    11
 10
12276.357312
 20
52044.177759
 30
0.0
 40
35.0
  1
0-200
 50
90.0
  0
LINE
  5
65
  8
0
  6
BYBLOCK
 62
     9
 10
12258.857312
 20
52000.0
 30
0.0
 11
12258.857312
 21
51980.0
 31
0.0
  0
SOLID
  5
66
  8
0
  6
BYBLOCK
 62
     9
 10
12255.523978
 20
52020.0
 30
0.0
 11
12262.190645
 21
52020.0
 31
0.0
 12
12258.857312
 22
52000.0
 32
0.0
 13
12258.857312
 23
52000.0
 33
0.0
  0
SOLID
  5
67
  8
0
  6
BYBLOCK
 62
     9
 10
12255.523978
 20
51960.0
 30
0.0
 11
12262.190645
 21
51960.0
 31
0.0
 12
12258.857312
 22
51980.0
 32
0.0
 13
12258.857312
 23
51980.0
 33
0.0
  0
POINT
  5
68
  8
DEFPOINTS
  6
BYBLOCK
 62
     0
 10
12000.0
 20
52000.0
 30
0.0
  0
POINT
  5
69
  8
DEFPOINTS
  6
BYBLOCK
 62
     0
 10
12212.0
 20
51980.0
 30
0.0
  0
POINT
  5
6A
  8
DEFPOINTS
  6
BYBLOCK
 62
     0
 10
12258.857312
 20
51980.0
 30
0.0
  0
ENDBLK
  5
6C
  8
0
  0
BLOCK
  8
0
  2
*D11
 70
     1
 10
0.0
 20
0.0
 30
0.0
  3
*D11
  1

  0
LINE
  5
7F
  8
0
  6
BYBLOCK
 62
     9
 10
11861.0
 20
51998.0
 30
0.0
 11
11861.0
 21
52016.404134
 31
0.0
  0
LINE
  5
80
  8
0
  6
BYBLOCK
 62
     9
 10
11788.0
 20
51998.0
 30
0.0
 11
11788.0
 21
52016.404134
 31
0.0
  0
LINE
  5
81
  8
0
  6
BYBLOCK
 62
     9
 10
11841.0
 20
52015.404134
 30
0.0
 11
11808.0
 21
52015.404134
 31
0.0
  0
TEXT
  5
82
  8
0
  6
BYBLOCK
 62
    11
 10
11724.271503
 20
51997.904134
 30
0.0
 40
35.0
  1
73
  0
SOLID
  5
83
  8
0
  6
BYBLOCK
 62
     9
 10
11841.0
 20
52018.737467
 30
0.0
 11
11841.0
 21
52012.070801
 31
0.0
 12
11861.0
 22
52015.404134
 32
0.0
 13
11861.0
 23
52015.404134
 33
0.0
  0
SOLID
  5
84
  8
0
  6
BYBLOCK
 62
     9
 10
11808.0
 20
52018.737467
 30
0.0
 11
11808.0
 21
52012.070801
 31
0.0
 12
11788.0
 22
52015.404134
 32
0.0
 13
11788.0
 23
52015.404134
 33
0.0
  0
POINT
  5
85
  8
DEFPOINTS
  6
BYBLOCK
 62
     0
 10
11861.0
 20
51988.0
 30
0.0
  0
POINT
  5
86
  8
DEFPOINTS
  6
BYBLOCK
 62
     0
 10
11788.0
 20
51988.0
 30
0.0
  0
POINT
  5
87
  8
DEFPOINTS
  6
BYBLOCK
 62
     0
 10
11788.0
 20
52015.404134
 30
0.0
  0
ENDBLK
  5
89
  8
0
  0
BLOCK
  8
0
  2
*U14
 70
     1
 10
0.0
 20
0.0
 30
0.0
  3
*U14
  1

  0
SOLID
  5
3C8
  8
0
  6
CONTINUOUS
 10
143.42199
 20
273.732452
 30
0.0
 11
126.615436
 21
273.732452
 31
0.0
 12
143.42199
 22
273.732452
 32
0.0
 13
143.42199
 23
273.732452
 33
0.0
  0
SOLID
  5
3C9
  8
0
  6
CONTINUOUS
 10
127.569039
 20
257.703112
 30
0.0
 11
143.42199
 21
273.732452
 31
0.0
 12
126.615436
 22
273.732452
 32
0.0
 13
126.615436
 23
273.732452
 33
0.0
  0
ENDBLK
  5
3CB
  8
0
  0
BLOCK
  8
0
  2
*U15
 70
     1
 10
0.0
 20
0.0
 30
0.0
  3
*U15
  1

  0
SOLID
  5
3EB
  8
0
  6
CONTINUOUS
 10
309.038814
 20
258.538235
 30
0.0
 11
292.23226
 21
258.538235
 31
0.0
 12
309.038814
 22
258.538235
 32
0.0
 13
309.038814
 23
258.538235
 33
0.0
  0
SOLID
  5
3EC
  8
0
  6
CONTINUOUS
 10
293.185863
 20
242.508895
 30
0.0
 11
309.038814
 21
258.538235
 31
0.0
 12
292.23226
 22
258.538235
 32
0.0
 13
292.23226
 23
258.538235
 33
0.0
  0
ENDBLK
  5
3EE
  8
0
  0
ENDSEC
  0
SECTION
  2
ENTITIES
  0
DIMENSION
  5
20
  8
TEAM-MAS
  2
*D4
 10
506.714623
 20
1120.0
 30
0.0
 11
506.714623
 21
560.0
 31
0.0
 12
-12000.0
 22
-52000.0
 32
0.0
 13
0.0
 23
0.0
 33
0.0
 14
194.789522
 24
1120.0
 34
0.0
 50
90.0
1001
ACAD
1000
DSTYLE
1002
{
1070
    40
1040
1.0
1002
}
  0
DIMENSION
  5
2F
  8
TEAM-MAS
  2
*D3
 10
457.422479
 20
1045.000016
 30
0.0
 11
457.422479
 21
522.500008
 31
0.0
 12
-12000.0
 22
-52000.0
 32
0.0
 13
0.0
 23
0.0
 33
0.0
 14
21.453005
 24
1045.000016
 34
0.0
 50
90.0
1001
ACAD
1000
DSTYLE
1002
{
1070
    40
1040
1.0
1002
}
  0
DIMENSION
  5
3D
  8
TEAM-MAS
  2
*D2
 10
409.671297
 20
1000.000016
 30
0.0
 11
409.671297
 21
500.000008
 31
0.0
 12
-12000.0
 22
-52000.0
 32
0.0
 13
0.0
 23
0.0
 33
0.0
 14
205.0
 24
1000.000016
 34
0.0
 50
90.0
1001
ACAD
1000
DSTYLE
1002
{
1070
    40
1040
1.0
1002
}
  0
LINE
  5
4B
  8
TEAM-ELEKTR
 10
124.702719
 20
285.278562
 30
0.0
 11
139.794994
 21
314.384579
 31
0.0
  0
LINE
  5
4E
  8
TEAM-AXE
 10
-300.0
 20
375.591294
 30
0.0
 11
-300.0
 21
284.391294
 31
0.0
  0
LINE
  5
51
  8
TEAM-DET3
 10
-168.500309
 20
641.776578
 30
0.0
 11
-168.500309
 21
91.775352
 31
0.0
  0
LINE
  5
53
  8
TEAM-DET3
 10
168.500309
 20
641.776578
 30
0.0
 11
168.500309
 21
91.775352
 31
0.0
  0
LINE
  5
54
  8
TEAM-DET2
 10
-172.5
 20
70.000016
 30
0.0
 11
-172.5
 21
1117.779221
 31
0.0
  0
LINE
  5
56
  8
TEAM-DET2
 10
-212.5
 20
70.000016
 30
0.0
 11
-212.5
 21
1117.779221
 31
0.0
  0
LINE
  5
57
  8
TEAM-HIDE
 10
-175.0
 20
70.000016
 30
0.0
 11
-175.0
 21
500.000016
 31
0.0
  0
LINE
  5
59
  8
TEAM-HIDE
 10
-210.0
 20
70.000016
 30
0.0
 11
-210.0
 21
500.000016
 31
0.0
  0
LINE
  5
5A
  8
TEAM-DET2
 10
212.5
 20
70.000016
 30
0.0
 11
212.5
 21
1117.779221
 31
0.0
  0
LINE
  5
5B
  8
TEAM-HIDE
 10
175.0
 20
70.000016
 30
0.0
 11
175.0
 21
500.000016
 31
0.0
  0
LINE
  5
5C
  8
TEAM-HIDE
 10
210.0
 20
70.000016
 30
0.0
 11
210.0
 21
500.000016
 31
0.0
  0
LINE
  5
5D
  8
TEAM-DET2
 10
172.5
 20
70.000016
 30
0.0
 11
172.5
 21
1117.779221
 31
0.0
  0
DIMENSION
  5
5E
  8
TEAM-MAS
  2
*D10
 10
258.857312
 20
-20.0
 30
0.0
 11
258.857312
 21
117.094426
 31
0.0
 12
-12000.0
 22
-52000.0
 32
0.0
 70
   128
  1
0-200
 13
0.0
 23
0.0
 33
0.0
 14
212.0
 24
-20.0
 34
0.0
 50
90.0
1001
ACAD
1000
DSTYLE
1002
{
1070
    40
1040
1.0
1002
}
  0
DIMENSION
  5
6D
  8
TEAM-MAS
  2
*D0
 10
300.0
 20
-86.634337
 30
0.0
 11
149.95635
 21
-86.634337
 31
0.0
 12
-12000.0
 22
-52000.0
 32
0.0
 70
   128
  1
>=<>
 13
0.0
 23
0.0
 33
0.0
 14
300.0
 24
229.96456
 34
0.0
1001
ACAD
1000
DSTYLE
1002
{
1070
    40
1040
1.0
1002
}
  0
LINE
  5
7B
  8
TEAM-DET3
 10
45.001215
 20
166.000016
 30
0.0
 11
45.001215
 21
24.956537
 31
0.0
  0
LINE
  5
7C
  8
TEAM-DET3
 10
-44.999493
 20
166.000016
 30
0.0
 11
-44.999493
 21
24.956537
 31
0.0
  0
DIMENSION
  5
7D
  8
TEAM-MAS
  2
*D11
 10
-212.0
 20
15.404134
 30
0.0
 11
-246.561831
 21
15.404134
 31
0.0
 12
-12000.0
 22
-52000.0
 32
0.0
 70
   128
 13
-139.0
 23
-12.0
 33
0.0
 14
-212.0
 24
-12.0
 34
0.0
1001
ACAD
1000
DSTYLE
1002
{
1070
    40
1040
1.0
1002
}
  0
DIMENSION
  5
8A
  8
TEAM-MAS
  2
*D5
 10
-300.0
 20
-86.634337
 30
0.0
 11
-150.0
 21
-86.634337
 31
0.0
 12
-12000.0
 22
-52000.0
 32
0.0
 13
0.0
 23
0.0
 33
0.0
 14
-300.0
 24
284.391294
 34
0.0
1001
ACAD
1000
DSTYLE
1002
{
1070
    40
1040
1.0
1002
}
  0
DIMENSION
  5
98
  8
TEAM-MAS
  2
*D1
 10
366.16795
 20
230.004481
 30
0.0
 11
366.16795
 21
115.00224
 31
0.0
 12
-12000.0
 22
-52000.0
 32
0.0
 13
0.0
 23
0.0
 33
0.0
 14
324.975457
 24
230.004481
 34
0.0
 50
90.0
1001
ACAD
1000
DSTYLE
1002
{
1070
    40
1040
1.0
1002
}
  0
CIRCLE
  5
A6
  8
TEAM-ELEKTR
 10
134.383176
 20
245.158777
 30
0.0
 40
17.491225
  0
LINE
  5
A7
  8
TEAM-ELEKTR
 10
134.360011
 20
273.208798
 30
0.0
 11
144.381105
 21
290.142131
 31
0.0
  0
INSERT
  5
A8
  8
TEAM-ELEKTR
  6
CONTINUOUS
  2
*U14
 10
0.0
 20
0.0
 30
0.0
1001
ACAD
1002
{
1000
R14_HATCH_DATA
1000
A8
1011
1.0
1021
0.0
1031
0.0
1021
0.0
1031
0.0
1011
0.0
1021
0.0
1031
0.0
1021
1.0
1031
0.0
1011
0.0
1021
0.0
1031
0.0
1021
0.0
1031
1.0
1040
0.0
1010
0.0
1020
0.0
1030
1.0
1000
SOLID
1070
     1
1070
     0
1071
        1
1071
        3
1070
     0
1070
     1
1071
        4
1040
143.42199
1040
273.732452
1040
126.615436
1040
273.732452
1040
127.569039
1040
257.703112
1040
143.42199
1040
273.732452
1071
        0
1070
     2
1070
     1
1071
        1
1040
-22.080397
1040
258.921298
1040
0.0
1002
}
  0
LINE
  5
A9
  8
TEAM-ELEKTR
 10
144.381105
 20
290.142131
 30
0.0
 11
124.702719
 21
285.278562
 31
0.0
  0
CIRCLE
  5
AA
  8
TEAM-ELEKTR
 10
134.360011
 20
241.184805
 30
0.0
 40
2.0
  0
CIRCLE
  5
AB
  8
TEAM-ELEKTR
 10
125.358665
 20
245.178698
 30
0.0
 40
2.0
  0
CIRCLE
  5
AC
  8
TEAM-ELEKTR
 10
143.3586
 20
245.178698
 30
0.0
 40
2.0
  0
POLYLINE
  5
AD
  8
TEAM-ELEKTR
 66
     1
 10
0.0
 20
0.0
 30
0.0
  0
VERTEX
  5
3CC
  8
TEAM-ELEKTR
 10
123.762374
 20
238.281739
 30
0.0
  0
VERTEX
  5
3CD
  8
TEAM-ELEKTR
 10
144.842479
 20
238.281739
 30
0.0
  0
VERTEX
  5
3CE
  8
TEAM-ELEKTR
 10
151.874397
 20
245.170298
 30
0.0
  0
VERTEX
  5
3CF
  8
TEAM-ELEKTR
 10
145.003978
 20
252.035816
 30
0.0
  0
SEQEND
  5
3D0
  8
TEAM-ELEKTR
  0
POLYLINE
  5
AE
  8
TEAM-ELEKTR
 66
     1
 10
0.0
 20
0.0
 30
0.0
  0
VERTEX
  5
3D1
  8
TEAM-ELEKTR
 10
145.003978
 20
252.035816
 30
0.0
  0
VERTEX
  5
3D2
  8
TEAM-ELEKTR
 10
123.923873
 20
252.035816
 30
0.0
  0
VERTEX
  5
3D3
  8
TEAM-ELEKTR
 10
116.891954
 20
245.147257
 30
0.0
  0
VERTEX
  5
3D4
  8
TEAM-ELEKTR
 10
123.762374
 20
238.281739
 30
0.0
  0
SEQEND
  5
3D5
  8
TEAM-ELEKTR
  0
POLYLINE
  5
AF
  8
TEAM-ELEKTR
 66
     1
 10
0.0
 20
0.0
 30
0.0
 70
     1
  0
VERTEX
  5
3D6
  8
TEAM-ELEKTR
 10
109.358633
 20
220.178698
 30
0.0
  0
VERTEX
  5
3D7
  8
TEAM-ELEKTR
 10
159.358633
 20
220.178698
 30
0.0
  0
VERTEX
  5
3D8
  8
TEAM-ELEKTR
 10
159.358633
 20
270.178698
 30
0.0
  0
VERTEX
  5
3D9
  8
TEAM-ELEKTR
 10
109.358633
 20
270.178698
 30
0.0
  0
SEQEND
  5
3DA
  8
TEAM-ELEKTR
  0
POLYLINE
  5
B0
  8
TEAM-ELEKTR
 66
     1
 10
0.0
 20
0.0
 30
0.0
 70
     1
  0
VERTEX
  5
3DB
  8
TEAM-ELEKTR
 10
274.975457
 20
204.984481
 30
0.0
  0
VERTEX
  5
3DC
  8
TEAM-ELEKTR
 10
324.975457
 20
204.984481
 30
0.0
  0
VERTEX
  5
3DD
  8
TEAM-ELEKTR
 10
324.975457
 20
254.984481
 30
0.0
  0
VERTEX
  5
3DE
  8
TEAM-ELEKTR
 10
274.975457
 20
254.984481
 30
0.0
  0
SEQEND
  5
3DF
  8
TEAM-ELEKTR
  0
POLYLINE
  5
B1
  8
TEAM-ELEKTR
 66
     1
 10
0.0
 20
0.0
 30
0.0
  0
VERTEX
  5
3E0
  8
TEAM-ELEKTR
 10
310.620802
 20
236.841599
 30
0.0
  0
VERTEX
  5
3E1
  8
TEAM-ELEKTR
 10
289.540697
 20
236.841599
 30
0.0
  0
VERTEX
  5
3E2
  8
TEAM-ELEKTR
 10
282.508779
 20
229.953039
 30
0.0
  0
VERTEX
  5
3E3
  8
TEAM-ELEKTR
 10
289.379198
 20
223.087521
 30
0.0
  0
SEQEND
  5
3E4
  8
TEAM-ELEKTR
  0
POLYLINE
  5
B2
  8
TEAM-ELEKTR
 66
     1
 10
0.0
 20
0.0
 30
0.0
  0
VERTEX
  5
3E5
  8
TEAM-ELEKTR
 10
289.379198
 20
223.087521
 30
0.0
  0
VERTEX
  5
3E6
  8
TEAM-ELEKTR
 10
310.459303
 20
223.087521
 30
0.0
  0
VERTEX
  5
3E7
  8
TEAM-ELEKTR
 10
317.491221
 20
229.976081
 30
0.0
  0
VERTEX
  5
3E8
  8
TEAM-ELEKTR
 10
310.620802
 20
236.841599
 30
0.0
  0
SEQEND
  5
3E9
  8
TEAM-ELEKTR
  0
CIRCLE
  5
B3
  8
TEAM-ELEKTR
 10
308.975424
 20
229.984481
 30
0.0
 40
2.0
  0
CIRCLE
  5
B4
  8
TEAM-ELEKTR
 10
290.97549
 20
229.984481
 30
0.0
 40
2.0
  0
CIRCLE
  5
B5
  8
TEAM-ELEKTR
 10
299.976835
 20
225.990588
 30
0.0
 40
2.0
  0
LINE
  5
B6
  8
TEAM-ELEKTR
 10
290.319543
 20
270.084344
 30
0.0
 11
305.411818
 21
299.190362
 31
0.0
  0
LINE
  5
B7
  8
TEAM-ELEKTR
 10
309.997929
 20
274.947914
 30
0.0
 11
290.319543
 21
270.084344
 31
0.0
  0
INSERT
  5
B8
  8
TEAM-ELEKTR
  6
CONTINUOUS
  2
*U15
 10
0.0
 20
0.0
 30
0.0
1001
ACAD
1002
{
1000
R14_HATCH_DATA
1000
B8
1011
1.0
1021
0.0
1031
0.0
1021
0.0
1031
0.0
1011
0.0
1021
0.0
1031
0.0
1021
1.0
1031
0.0
1011
0.0
1021
0.0
1031
0.0
1021
0.0
1031
1.0
1040
0.0
1010
0.0
1020
0.0
1030
1.0
1000
SOLID
1070
     1
1070
     0
1071
        1
1071
        3
1070
     0
1070
     1
1071
        4
1040
309.038814
1040
258.538235
1040
292.23226
1040
258.538235
1040
293.185863
1040
242.508895
1040
309.038814
1040
258.538235
1071
        0
1070
     2
1070
     1
1071
        1
1040
143.536427
1040
243.72708
1040
0.0
1002
}
  0
LINE
  5
B9
  8
TEAM-ELEKTR
 10
299.976835
 20
258.01458
 30
0.0
 11
309.997929
 21
274.947914
 31
0.0
  0
CIRCLE
  5
BA
  8
TEAM-ELEKTR
 10
300.0
 20
229.96456
 30
0.0
 40
17.491225
  0
ARC
  5
BB
  8
TEAM-HIDE
 10
-0.091268
 20
229.937104
 30
0.0
 40
50.018654
 50
42.650289
 51
87.932995
  0
ARC
  5
BC
  8
TEAM-HIDE
 10
45.523144
 20
271.953727
 30
0.0
 40
11.998046
 50
222.643519
 51
270.388283
  0
ARC
  5
BD
  8
TEAM-DET3
 10
51.998787
 20
254.955638
 30
0.0
 40
5.000318
 50
359.975555
 51
90.022472
  0
LINE
  5
BE
  8
TEAM-DET3
 10
45.604452
 20
259.955956
 30
0.0
 11
51.996826
 21
259.955956
 31
0.0
  0
LINE
  5
BF
  8
TEAM-DET3
 10
56.999105
 20
254.957772
 30
0.0
 11
56.999105
 21
217.950769
 31
0.0
  0
ARC
  5
C0
  8
TEAM-HIDE
 10
0.091268
 20
229.937104
 30
0.0
 40
50.018654
 50
92.067005
 51
137.349711
  0
ARC
  5
C1
  8
TEAM-HIDE
 10
-45.523144
 20
271.953727
 30
0.0
 40
11.998046
 50
269.611717
 51
317.356481
  0
LINE
  5
C2
  8
TEAM-DET3
 10
63.999539
 20
254.94765
 30
0.0
 11
63.999539
 21
202.82703
 31
0.0
  0
LINE
  5
C3
  8
TEAM-DET3
 10
-63.999539
 20
254.94765
 30
0.0
 11
-63.999539
 21
202.82703
 31
0.0
  0
ARC
  5
C4
  8
TEAM-DET3
 10
-51.998787
 20
254.955638
 30
0.0
 40
5.000318
 50
89.977528
 51
180.024445
  0
ARC
  5
C5
  8
TEAM-DET3
 10
45.71498
 20
271.927917
 30
0.0
 40
4.977561
 50
222.538387
 51
270.095857
  0
ARC
  5
C6
  8
TEAM-DET3
 10
-45.597846
 20
271.927917
 30
0.0
 40
4.977561
 50
269.904143
 51
317.461613
  0
ARC
  5
C7
  8
TEAM-DET3
 10
0.0
 20
229.95572
 30
0.0
 40
56.996867
 50
42.637071
 51
137.362929
  0
ARC
  5
C8
  8
TEAM-DET3
 10
45.597735
 20
271.927663
 30
0.0
 40
4.977308
 50
222.537101
 51
270.097143
  0
LINE
  5
C9
  8
TEAM-DET3
 10
-45.604451
 20
259.955956
 30
0.0
 11
-51.996826
 21
259.955956
 31
0.0
  0
LINE
  5
CA
  8
TEAM-DET3
 10
-56.999105
 20
254.957772
 30
0.0
 11
-56.999105
 21
217.950769
 31
0.0
  0
LINE
  5
CB
  8
TEAM-HIDE
 10
1.878524
 20
279.923213
 30
0.0
 11
-1.712815
 21
279.923213
 31
0.0
  0
ARC
  5
CC
  8
TEAM-HIDE
 10
53.105824
 20
217.456341
 30
0.0
 40
0.494543
 50
88.765056
 51
210.327042
  0
ARC
  5
CD
  8
TEAM-DET3
 10
63.754937
 20
200.451407
 30
0.0
 40
1.499449
 50
209.981639
 51
29.981639
  0
ARC
  5
CE
  8
TEAM-HIDE
 10
-52.98869
 20
217.456341
 30
0.0
 40
0.494543
 50
329.672958
 51
91.234944
  0
ARC
  5
CF
  8
TEAM-DET3
 10
-63.637804
 20
200.451407
 30
0.0
 40
1.499449
 50
150.018361
 51
330.018361
  0
LINE
  5
D0
  8
TEAM-HIDE
 10
-54.0
 20
223.95572
 30
0.0
 11
-54.0
 21
223.45572
 31
0.0
  0
LINE
  5
D1
  8
TEAM-HIDE
 10
-53.0
 20
224.95572
 30
0.0
 11
-52.031243
 21
224.95572
 31
0.0
  0
LINE
  5
D2
  8
TEAM-HIDE
 10
38.0
 20
162.505724
 30
0.0
 11
50.0
 21
162.505724
 31
0.0
  0
LINE
  5
D3
  8
TEAM-HIDE
 10
50.0
 20
154.95572
 30
0.0
 11
38.0
 21
154.95572
 31
0.0
  0
LINE
  5
D4
  8
TEAM-HIDE
 10
50.0
 20
166.000016
 30
0.0
 11
50.0
 21
154.95572
 31
0.0
  0
LINE
  5
D5
  8
TEAM-HIDE
 10
38.0
 20
166.000016
 30
0.0
 11
38.0
 21
154.95572
 31
0.0
  0
LINE
  5
D6
  8
TEAM-DET3
 10
50.0
 20
188.422609
 30
0.0
 11
50.0
 21
166.000016
 31
0.0
  0
LINE
  5
D7
  8
TEAM-DET3
 10
38.0
 20
166.000016
 30
0.0
 11
38.0
 21
176.95572
 31
0.0
  0
LINE
  5
D8
  8
TEAM-HIDE
 10
34.5
 20
162.846544
 30
0.0
 11
18.5
 21
162.846544
 31
0.0
  0
LINE
  5
D9
  8
TEAM-HIDE
 10
34.5
 20
159.304643
 30
0.0
 11
18.5
 21
159.304643
 31
0.0
  0
LINE
  5
DA
  8
TEAM-HIDE
 10
-18.5
 20
162.846544
 30
0.0
 11
-34.5
 21
162.846544
 31
0.0
  0
LINE
  5
DB
  8
TEAM-HIDE
 10
-18.5
 20
159.304643
 30
0.0
 11
-34.5
 21
159.304643
 31
0.0
  0
ARC
  5
DC
  8
TEAM-HIDE
 10
-48.189316
 20
212.95572
 30
0.0
 40
2.0
 50
19.431582
 51
90.000003
  0
LINE
  5
DD
  8
TEAM-DET3
 10
34.5
 20
173.95572
 30
0.0
 11
-34.5
 21
173.95572
 31
0.0
  0
ARC
  5
DE
  8
TEAM-HIDE
 10
0.0
 20
229.95572
 30
0.0
 40
49.099998
 50
199.431579
 51
340.568424
  0
ARC
  5
DF
  8
TEAM-HIDE
 10
48.189315
 20
212.95572
 30
0.0
 40
2.0
 50
90.000003
 51
160.568418
  0
LINE
  5
E0
  8
TEAM-HIDE
 10
-38.0
 20
162.505724
 30
0.0
 11
-50.0
 21
162.505724
 31
0.0
  0
LINE
  5
E1
  8
TEAM-HIDE
 10
-50.0
 20
154.95572
 30
0.0
 11
-38.0
 21
154.95572
 31
0.0
  0
ARC
  5
E2
  8
TEAM-HIDE
 10
52.031234
 20
222.95572
 30
0.0
 40
2.0
 50
90.000003
 51
172.337748
  0
ARC
  5
E3
  8
TEAM-HIDE
 10
53.0
 20
223.95572
 30
0.0
 40
1.0
 50
0.0
 51
90.000003
  0
ARC
  5
E4
  8
TEAM-HIDE
 10
55.0
 20
223.45572
 30
0.0
 40
1.0
 50
180.000005
 51
270.000001
  0
ARC
  5
E5
  8
TEAM-DET3
 10
56.0
 20
221.45572
 30
0.0
 40
1.0
 50
0.0
 51
90.000003
  0
ARC
  5
E6
  8
TEAM-HIDE
 10
0.0
 20
229.95572
 30
0.0
 40
50.5
 50
342.720724
 51
352.33774
  0
LINE
  5
E7
  8
TEAM-HIDE
 10
52.031234
 20
224.95572
 30
0.0
 11
53.0
 21
224.95572
 31
0.0
  0
LINE
  5
E8
  8
TEAM-HIDE
 10
54.0
 20
223.45572
 30
0.0
 11
54.0
 21
223.95572
 31
0.0
  0
LINE
  5
E9
  8
TEAM-DET3
 10
55.0
 20
222.45572
 30
0.0
 11
56.0
 21
222.45572
 31
0.0
  0
ARC
  5
EA
  8
TEAM-DET3
 10
61.524383
 20
218.95572
 30
0.0
 40
2.5
 50
349.863135
 51
89.999992
  0
LINE
  5
EB
  8
TEAM-DET3
 10
57.0
 20
221.45572
 30
0.0
 11
61.524383
 21
221.45572
 31
0.0
  0
LINE
  5
EC
  8
TEAM-HIDE
 10
-50.0
 20
166.000016
 30
0.0
 11
-50.0
 21
154.95572
 31
0.0
  0
LINE
  5
ED
  8
TEAM-HIDE
 10
-38.0
 20
166.000016
 30
0.0
 11
-38.0
 21
154.95572
 31
0.0
  0
ARC
  5
EE
  8
TEAM-DET3
 10
0.0
 20
229.95572
 30
0.0
 40
65.0
 50
304.352711
 51
349.863135
  0
ARC
  5
EF
  8
TEAM-DET3
 10
39.5
 20
172.165163
 30
0.0
 40
5.0
 50
124.352704
 51
179.90359
  0
LINE
  5
F0
  8
TEAM-HIDE
 10
18.5
 20
159.304643
 30
0.0
 11
18.5
 21
166.000016
 31
0.0
  0
LINE
  5
F1
  8
TEAM-HIDE
 10
34.5
 20
166.000016
 30
0.0
 11
34.5
 21
159.304643
 31
0.0
  0
LINE
  5
F2
  8
TEAM-DET3
 10
34.5
 20
173.95572
 30
0.0
 11
34.5
 21
166.000016
 31
0.0
  0
ARC
  5
F3
  8
TEAM-HIDE
 10
-52.031243
 20
222.95572
 30
0.0
 40
2.0
 50
7.662255
 51
90.000003
  0
ARC
  5
F4
  8
TEAM-HIDE
 10
-53.0
 20
223.95572
 30
0.0
 40
1.0
 50
90.000003
 51
180.000005
  0
ARC
  5
F5
  8
TEAM-HIDE
 10
-55.0
 20
223.45572
 30
0.0
 40
1.0
 50
270.000001
 51
0.00001
  0
ARC
  5
F6
  8
TEAM-DET3
 10
-56.0
 20
221.45572
 30
0.0
 40
1.0
 50
90.000003
 51
180.000005
  0
ARC
  5
F7
  8
TEAM-HIDE
 10
0.0
 20
229.95572
 30
0.0
 40
50.5
 50
187.662261
 51
197.279291
  0
LINE
  5
F8
  8
TEAM-DET3
 10
-56.0
 20
222.45572
 30
0.0
 11
-55.0
 21
222.45572
 31
0.0
  0
ARC
  5
F9
  8
TEAM-DET3
 10
-61.524384
 20
218.95572
 30
0.0
 40
2.5
 50
90.000003
 51
190.136853
  0
LINE
  5
FA
  8
TEAM-DET3
 10
-61.524384
 20
221.45572
 30
0.0
 11
-57.0
 21
221.45572
 31
0.0
  0
ARC
  5
FB
  8
TEAM-DET3
 10
0.0
 20
229.95572
 30
0.0
 40
65.0
 50
190.136853
 51
235.647292
  0
ARC
  5
FC
  8
TEAM-DET3
 10
-39.5
 20
172.165163
 30
0.0
 40
5.0
 50
0.0
 51
55.647296
  0
LINE
  5
FD
  8
TEAM-DET3
 10
-50.0
 20
188.422609
 30
0.0
 11
-50.0
 21
166.000016
 31
0.0
  0
LINE
  5
FE
  8
TEAM-DET3
 10
-38.0
 20
166.000016
 30
0.0
 11
-38.0
 21
176.95572
 31
0.0
  0
LINE
  5
FF
  8
TEAM-HIDE
 10
-18.5
 20
159.304643
 30
0.0
 11
-18.5
 21
166.000016
 31
0.0
  0
LINE
  5
100
  8
TEAM-HIDE
 10
-34.5
 20
166.000016
 30
0.0
 11
-34.5
 21
159.304643
 31
0.0
  0
LINE
  5
101
  8
TEAM-DET3
 10
-34.5
 20
173.95572
 30
0.0
 11
-34.5
 21
166.000016
 31
0.0
  0
CIRCLE
  5
102
  8
TEAM-DET3
 10
0.0
 20
229.95572
 30
0.0
 40
41.512501
  0
CIRCLE
  5
103
  8
TEAM-DET3
 10
0.0
 20
229.95572
 30
0.0
 40
46.099998
  0
CIRCLE
  5
104
  8
TEAM-DET3
 10
0.0
 20
229.95572
 30
0.0
 40
55.5
  0
LINE
  5
105
  8
TEAM-DET3
 10
-56.0
 20
24.956537
 30
0.0
 11
56.0
 21
24.956537
 31
0.0
  0
LINE
  5
106
  8
TEAM-DET3
 10
-56.0
 20
-51.043463
 30
0.0
 11
56.0
 21
-51.043463
 31
0.0
  0
LINE
  5
107
  8
TEAM-DET3
 10
-56.0
 20
24.956537
 30
0.0
 11
-56.0
 21
-51.043463
 31
0.0
  0
LINE
  5
108
  8
TEAM-DET3
 10
56.0
 20
24.956537
 30
0.0
 11
56.0
 21
-51.043463
 31
0.0
  0
LINE
  5
109
  8
TEAM-HIDE
 10
45.001215
 20
-27.543463
 30
0.0
 11
-44.999493
 21
-27.543463
 31
0.0
  0
LINE
  5
10A
  8
TEAM-HIDE
 10
-44.999493
 20
24.956537
 30
0.0
 11
-44.999493
 21
-27.543463
 31
0.0
  0
LINE
  5
10B
  8
TEAM-HIDE
 10
45.001215
 20
24.956537
 30
0.0
 11
45.001215
 21
-27.543463
 31
0.0
  0
LINE
  5
10C
  8
TEAM-AXE
 10
0.0
 20
-27.543463
 30
0.0
 11
0.0
 21
178.457227
 31
0.0
  0
LINE
  5
10D
  8
TEAM-DET2
 10
-168.495142
 20
166.000016
 30
0.0
 11
167.999048
 21
166.000016
 31
0.0
  0
LINE
  5
10E
  8
TEAM-DET2
 10
-168.495142
 20
99.880973
 30
0.0
 11
167.999048
 21
99.880973
 31
0.0
  0
LINE
  5
10F
  8
TEAM-DET2
 10
-168.500309
 20
91.775352
 30
0.0
 11
168.500309
 21
91.775352
 31
0.0
  0
LINE
  5
110
  8
TEAM-DET3
 10
-168.500309
 20
69.775662
 30
0.0
 11
-172.500065
 21
69.775662
 31
0.0
  0
CIRCLE
  5
111
  8
TEAM-DET3
 10
-108.500526
 20
66.776361
 30
0.0
 40
2.348866
  0
LINE
  5
112
  8
TEAM-AXE
 10
-110.849392
 20
66.776361
 30
0.0
 11
-106.15166
 21
66.776361
 31
0.0
  0
LINE
  5
113
  8
TEAM-AXE
 10
-108.500526
 20
69.125228
 30
0.0
 11
-108.500526
 21
64.427495
 31
0.0
  0
CIRCLE
  5
114
  8
TEAM-DET3
 10
-108.500526
 20
81.777685
 30
0.0
 40
2.348866
  0
LINE
  5
115
  8
TEAM-DET3
 10
-171.004894
 20
46.781716
 30
0.0
 11
-174.504766
 21
46.781716
 31
0.0
  0
LINE
  5
116
  8
TEAM-DET3
 10
-174.504766
 20
44.277132
 30
0.0
 11
-171.004894
 21
44.277132
 31
0.0
  0
LINE
  5
117
  8
TEAM-DET3
 10
-168.500309
 20
91.775352
 30
0.0
 11
-168.507199
 21
49.279411
 31
0.0
  0
LINE
  5
118
  8
TEAM-DET3
 10
-166.002615
 20
91.775352
 30
0.0
 11
-166.002615
 21
49.279411
 31
0.0
  0
LINE
  5
119
  8
TEAM-DET3
 10
-164.006182
 20
87.280881
 30
0.0
 11
-158.502642
 21
87.280881
 31
0.0
  0
LINE
  5
11A
  8
TEAM-DET3
 10
-164.006182
 20
80.775162
 30
0.0
 11
-158.502642
 21
80.775162
 31
0.0
  0
LINE
  5
11B
  8
TEAM-DET3
 10
-158.502642
 20
74.276334
 30
0.0
 11
-158.502642
 21
87.280881
 31
0.0
  0
LINE
  5
11C
  8
TEAM-DET3
 10
-164.006182
 20
90.77972
 30
0.0
 11
-164.006182
 21
70.777495
 31
0.0
  0
LINE
  5
11D
  8
TEAM-DET3
 10
-164.006182
 20
74.276334
 30
0.0
 11
-158.502642
 21
74.276334
 31
0.0
  0
LINE
  5
11E
  8
TEAM-DET3
 10
-166.002615
 20
90.77972
 30
0.0
 11
-164.006182
 21
90.77972
 31
0.0
  0
LINE
  5
11F
  8
TEAM-DET3
 10
-166.002615
 20
70.777495
 30
0.0
 11
-164.006182
 21
70.777495
 31
0.0
  0
LINE
  5
120
  8
TEAM-AXE
 10
-110.849392
 20
81.777685
 30
0.0
 11
-106.15166
 21
81.777685
 31
0.0
  0
LINE
  5
121
  8
TEAM-AXE
 10
-108.500526
 20
84.126551
 30
0.0
 11
-108.500526
 21
79.428819
 31
0.0
  0
CIRCLE
  5
122
  8
TEAM-DET3
 10
108.500526
 20
66.776361
 30
0.0
 40
2.348866
  0
LINE
  5
123
  8
TEAM-AXE
 10
110.849392
 20
66.776361
 30
0.0
 11
106.15166
 21
66.776361
 31
0.0
  0
LINE
  5
124
  8
TEAM-AXE
 10
108.500526
 20
69.125228
 30
0.0
 11
108.500526
 21
64.427495
 31
0.0
  0
CIRCLE
  5
125
  8
TEAM-DET3
 10
108.500526
 20
81.777685
 30
0.0
 40
2.348866
  0
CIRCLE
  5
126
  8
TEAM-DET3
 10
0.0
 20
46.781716
 30
0.0
 40
5.503196
  0
LINE
  5
127
  8
TEAM-DET3
 10
168.500309
 20
69.775662
 30
0.0
 11
172.500065
 21
69.775662
 31
0.0
  0
LINE
  5
128
  8
TEAM-DET2
 10
168.506794
 20
51.777105
 30
0.0
 11
103.505138
 21
51.777105
 31
0.0
  0
LINE
  5
129
  8
TEAM-DET2
 10
-103.498248
 20
51.777105
 30
0.0
 11
-168.506794
 21
51.777105
 31
0.0
  0
LINE
  5
12A
  8
TEAM-DET2
 10
-103.498248
 20
31.280854
 30
0.0
 11
-103.498248
 21
51.777105
 31
0.0
  0
LINE
  5
12B
  8
TEAM-DET2
 10
103.505138
 20
31.280854
 30
0.0
 11
103.505138
 21
51.777105
 31
0.0
  0
LINE
  5
12C
  8
TEAM-DET3
 10
171.004894
 20
46.781716
 30
0.0
 11
174.504766
 21
46.781716
 31
0.0
  0
LINE
  5
12D
  8
TEAM-DET3
 10
174.504766
 20
44.277132
 30
0.0
 11
171.004894
 21
44.277132
 31
0.0
  0
LINE
  5
12E
  8
TEAM-DET3
 10
168.500309
 20
91.775352
 30
0.0
 11
168.507199
 21
49.279411
 31
0.0
  0
LINE
  5
12F
  8
TEAM-DET3
 10
166.002615
 20
91.775352
 30
0.0
 11
166.002615
 21
49.279411
 31
0.0
  0
LINE
  5
130
  8
TEAM-DET3
 10
-103.498248
 20
33.778548
 30
0.0
 11
103.505138
 21
33.778548
 31
0.0
  0
LINE
  5
131
  8
TEAM-DET2
 10
-103.498248
 20
31.280854
 30
0.0
 11
103.505138
 21
31.280854
 31
0.0
  0
LINE
  5
132
  8
TEAM-DET3
 10
164.006182
 20
87.280881
 30
0.0
 11
158.502642
 21
87.280881
 31
0.0
  0
LINE
  5
133
  8
TEAM-DET3
 10
164.006182
 20
80.775162
 30
0.0
 11
158.502642
 21
80.775162
 31
0.0
  0
LINE
  5
134
  8
TEAM-DET3
 10
158.502642
 20
74.276334
 30
0.0
 11
158.502642
 21
87.280881
 31
0.0
  0
LINE
  5
135
  8
TEAM-DET3
 10
164.006182
 20
90.77972
 30
0.0
 11
164.006182
 21
70.777495
 31
0.0
  0
LINE
  5
136
  8
TEAM-DET3
 10
164.006182
 20
74.276334
 30
0.0
 11
158.502642
 21
74.276334
 31
0.0
  0
LINE
  5
137
  8
TEAM-DET3
 10
166.002615
 20
90.77972
 30
0.0
 11
164.006182
 21
90.77972
 31
0.0
  0
LINE
  5
138
  8
TEAM-DET3
 10
166.002615
 20
70.777495
 30
0.0
 11
164.006182
 21
70.777495
 31
0.0
  0
LINE
  5
139
  8
TEAM-AXE
 10
110.849392
 20
81.777685
 30
0.0
 11
106.15166
 21
81.777685
 31
0.0
  0
LINE
  5
13A
  8
TEAM-AXE
 10
108.500526
 20
84.126551
 30
0.0
 11
108.500526
 21
79.428819
 31
0.0
  0
LINE
  5
13B
  8
TEAM-AXE
 10
-5.503196
 20
46.781716
 30
0.0
 11
5.503196
 21
46.781716
 31
0.0
  0
LINE
  5
13C
  8
TEAM-AXE
 10
0.0
 20
41.278521
 30
0.0
 11
0.0
 21
52.284912
 31
0.0
  0
LINE
  5
13D
  8
TEAM-AXE
 10
322.85
 20
229.96456
 30
0.0
 11
-41.512501
 21
229.959631
 31
0.0
  0
LINE
  5
13E
  8
TEAM-AXE
 10
299.9127
 20
252.81439
 30
0.0
 11
299.9127
 21
207.11456
 31
0.0
  0
LINE
  5
13F
  8
TEAM-DET2
 10
-212.5
 20
70.000016
 30
0.0
 11
-172.5
 21
70.000016
 31
0.0
  0
LINE
  5
140
  8
TEAM-DET2
 10
172.5
 20
70.000016
 30
0.0
 11
212.5
 21
70.000016
 31
0.0
  0
LINE
  5
141
  8
TEAM-DET3
 10
-212.0
 20
-20.0
 30
0.0
 11
-139.0
 21
-20.0
 31
0.0
  0
LINE
  5
142
  8
TEAM-DET3
 10
-212.0
 20
-20.0
 30
0.0
 11
-212.0
 21
-12.0
 31
0.0
  0
LINE
  5
143
  8
TEAM-DET3
 10
-212.0
 20
-12.0
 30
0.0
 11
-139.0
 21
-12.0
 31
0.0
  0
LINE
  5
144
  8
TEAM-HIDE
 10
-155.5
 20
-20.0
 30
0.0
 11
-155.5
 21
-12.0
 31
0.0
  0
LINE
  5
145
  8
TEAM-AXE
 10
-150.0
 20
-23.160154
 30
0.0
 11
-150.0
 21
-8.705836
 31
0.0
  0
LINE
  5
146
  8
TEAM-HIDE
 10
-144.5
 20
-20.0
 30
0.0
 11
-144.5
 21
-12.0
 31
0.0
  0
LINE
  5
147
  8
TEAM-DET3
 10
-139.0
 20
-20.0
 30
0.0
 11
-139.0
 21
-12.0
 31
0.0
  0
LINE
  5
148
  8
TEAM-DET3
 10
139.0
 20
-12.0
 30
0.0
 11
212.0
 21
-12.0
 31
0.0
  0
LINE
  5
149
  8
TEAM-DET3
 10
139.0
 20
-20.0
 30
0.0
 11
212.0
 21
-20.0
 31
0.0
  0
LINE
  5
14A
  8
TEAM-DET3
 10
139.0
 20
-20.0
 30
0.0
 11
139.0
 21
-12.0
 31
0.0
  0
LINE
  5
14B
  8
TEAM-HIDE
 10
144.5
 20
-20.0
 30
0.0
 11
144.5
 21
-12.0
 31
0.0
  0
LINE
  5
14C
  8
TEAM-AXE
 10
150.0
 20
-23.160154
 30
0.0
 11
150.0
 21
-8.705836
 31
0.0
  0
LINE
  5
14D
  8
TEAM-HIDE
 10
155.5
 20
-20.0
 30
0.0
 11
155.5
 21
-12.0
 31
0.0
  0
LINE
  5
14E
  8
TEAM-DET3
 10
212.0
 20
-20.0
 30
0.0
 11
212.0
 21
-12.0
 31
0.0
  0
LINE
  5
14F
  8
TEAM-DET3
 10
-210.0
 20
-12.0
 30
0.0
 11
-210.0
 21
70.000016
 31
0.0
  0
LINE
  5
150
  8
TEAM-DET3
 10
-175.0
 20
-12.0
 30
0.0
 11
-175.0
 21
70.000016
 31
0.0
  0
LINE
  5
151
  8
TEAM-DET3
 10
175.0
 20
-12.0
 30
0.0
 11
175.0
 21
70.000016
 31
0.0
  0
LINE
  5
152
  8
TEAM-DET3
 10
210.0
 20
-12.0
 30
0.0
 11
210.0
 21
70.000016
 31
0.0
  0
CIRCLE
  5
153
  8
TEAM-INSP
 10
0.0
 20
0.0
 30
0.0
 40
10.0
  0
LINE
  5
155
  8
TEAM-HIDE
 10
146.988016
 20
910.662756
 30
0.0
 11
105.694609
 21
910.662756
 31
0.0
  0
LINE
  5
156
  8
TEAM-HIDE
 10
105.694609
 20
914.856163
 30
0.0
 11
105.694609
 21
910.662756
 31
0.0
  0
LINE
  5
157
  8
TEAM-HIDE
 10
-106.072097
 20
915.518339
 30
0.0
 11
-106.072097
 21
910.43053
 31
0.0
  0
LINE
  5
158
  8
TEAM-HIDE
 10
-142.948946
 20
910.421455
 30
0.0
 11
-106.072097
 21
910.43053
 31
0.0
  0
CIRCLE
  5
159
  8
TEAM-HIDE
 10
116.293949
 20
958.777516
 30
0.0
 40
2.249647
  0
CIRCLE
  5
15A
  8
TEAM-HIDE
 10
116.073222
 20
1042.494781
 30
0.0
 40
2.249647
  0
CIRCLE
  5
15B
  8
TEAM-HIDE
 10
-115.964606
 20
959.218779
 30
0.0
 40
2.249647
  0
CIRCLE
  5
15C
  8
TEAM-HIDE
 10
-115.964606
 20
1042.494781
 30
0.0
 40
2.249647
  0
CIRCLE
  5
15D
  8
TEAM-HIDE
 10
0.031574
 20
1044.245811
 30
0.0
 40
18.000624
  0
POLYLINE
  5
15E
  8
TEAM-HIDE
 66
     1
 10
0.0
 20
0.0
 30
0.0
 70
     1
  0
VERTEX
  5
3EF
  8
TEAM-HIDE
 10
-103.863875
 20
937.705311
 30
0.0
  0
VERTEX
  5
3F0
  8
TEAM-HIDE
 10
104.076933
 20
937.705311
 30
0.0
  0
VERTEX
  5
3F1
  8
TEAM-HIDE
 10
104.076933
 20
1063.614576
 30
0.0
  0
VERTEX
  5
3F2
  8
TEAM-HIDE
 10
-103.863875
 20
1063.614576
 30
0.0
  0
SEQEND
  5
3F3
  8
TEAM-HIDE
  0
LINE
  5
15F
  8
TEAM-DET3
 10
-149.464869
 20
927.748985
 30
0.0
 11
-149.464869
 21
1077.000016
 31
0.0
  0
LINE
  5
160
  8
TEAM-DET3
 10
68.780693
 20
1071.995133
 30
0.0
 11
73.110535
 21
1069.996978
 31
0.0
  0
LINE
  5
161
  8
TEAM-DET3
 10
-73.386897
 20
1069.996978
 30
0.0
 11
-68.575832
 21
1071.995133
 31
0.0
  0
ARC
  5
162
  8
TEAM-DET3
 10
108.361255
 20
1067.843259
 30
0.0
 40
3.969082
 50
9.16155
 51
147.13756
  0
ARC
  5
163
  8
TEAM-DET3
 10
-108.762302
 20
1068.550399
 30
0.0
 40
3.45814
 50
24.728017
 51
177.26318
  0
ARC
  5
164
  8
TEAM-DET3
 10
108.690908
 20
933.624554
 30
0.0
 40
3.588946
 50
182.062257
 51
359.478002
  0
ARC
  5
165
  8
TEAM-DET3
 10
-108.980457
 20
933.296955
 30
0.0
 40
3.236494
 50
179.039636
 51
3.515365
  0
LINE
  5
166
  8
TEAM-DET3
 10
112.279705
 20
1068.475211
 30
0.0
 11
112.279705
 21
933.591857
 31
0.0
  0
LINE
  5
167
  8
TEAM-DET3
 10
73.110535
 20
1069.996978
 30
0.0
 11
105.027322
 21
1069.996978
 31
0.0
  0
LINE
  5
168
  8
TEAM-DET3
 10
-68.575832
 20
1071.995133
 30
0.0
 11
68.780693
 21
1071.995133
 31
0.0
  0
LINE
  5
169
  8
TEAM-DET3
 10
-105.62126
 20
1069.996978
 30
0.0
 11
-73.386897
 21
1069.996978
 31
0.0
  0
LINE
  5
16A
  8
TEAM-DET3
 10
-112.216497
 20
933.351201
 30
0.0
 11
-112.216497
 21
1068.715519
 31
0.0
  0
LINE
  5
16B
  8
TEAM-DET3
 10
-105.750053
 20
933.495404
 30
0.0
 11
105.104287
 21
933.495404
 31
0.0
  0
POLYLINE
  5
16C
  8
TEAM-DET3
 66
     1
 10
0.0
 20
0.0
 30
0.0
 70
     1
  0
VERTEX
  5
3F4
  8
TEAM-DET3
 10
109.034425
 20
964.749311
 30
0.0
  0
VERTEX
  5
3F5
  8
TEAM-DET3
 10
123.035293
 20
964.749311
 30
0.0
  0
VERTEX
  5
3F6
  8
TEAM-DET3
 10
123.035293
 20
976.745133
 30
0.0
  0
VERTEX
  5
3F7
  8
TEAM-DET3
 10
109.034425
 20
976.745133
 30
0.0
  0
SEQEND
  5
3F8
  8
TEAM-DET3
  0
ARC
  5
16D
  8
TEAM-DET3
 10
129.957899
 20
928.322412
 30
0.0
 40
4.612903
 50
277.190196
 51
352.859133
  0
ARC
  5
16E
  8
TEAM-DET3
 10
-129.975217
 20
928.235071
 30
0.0
 40
4.515944
 50
186.179157
 51
263.771514
  0
ARC
  5
16F
  8
TEAM-DET3
 10
-139.070731
 20
927.005849
 30
0.0
 40
10.42067
 50
175.910555
 51
262.710526
  0
ARC
  5
170
  8
TEAM-DET3
 10
138.383788
 20
926.900883
 30
0.0
 40
7.201537
 50
263.236878
 51
6.763237
  0
ARC
  5
171
  8
TEAM-DET3
 10
-137.834807
 20
927.379764
 30
0.0
 40
7.639234
 50
177.229691
 51
272.770195
  0
LINE
  5
172
  8
TEAM-DET3
 10
-140.39293
 20
916.669401
 30
0.0
 11
139.900626
 21
916.364389
 31
0.0
  0
ARC
  5
173
  8
TEAM-DET3
 10
139.204269
 20
926.722572
 30
0.0
 40
10.381564
 50
273.846077
 51
5.674036
  0
ARC
  5
174
  8
TEAM-DET3
 10
-139.070731
 20
927.005849
 30
0.0
 40
10.42067
 50
175.910555
 51
262.710526
  0
DIMENSION
  5
175
  8
TEAM-MAS
  2
*D9
 10
212.5
 20
1154.237199
 30
0.0
 11
0.0
 21
1154.237199
 31
0.0
 12
-12000.0
 22
-52000.0
 32
0.0
 13
-212.5
 23
1117.779221
 33
0.0
 14
212.5
 24
1117.779221
 34
0.0
1001
ACAD
1000
DSTYLE
1002
{
1070
    40
1040
1.0
1002
}
  0
DIMENSION
  5
183
  8
TEAM-MAS
  2
*D8
 10
-350.336452
 20
330.000016
 30
0.0
 11
-350.336452
 21
665.000016
 31
0.0
 12
-12000.0
 22
-52000.0
 32
0.0
 13
-205.0
 23
1000.000016
 33
0.0
 14
-326.105645
 24
330.000016
 34
0.0
 50
90.0
1001
ACAD
1000
DSTYLE
1002
{
1070
    40
1040
1.0
1002
}
  0
DIMENSION
  5
191
  8
TEAM-MAS
  2
*D7
 10
115.0
 20
550.777185
 30
0.0
 11
0.0
 21
550.777185
 31
0.0
 12
-12000.0
 22
-52000.0
 32
0.0
 13
-115.0
 23
343.89107
 33
0.0
 14
115.0
 24
340.000016
 34
0.0
1001
ACAD
1000
DSTYLE
1002
{
1070
    40
1040
1.0
1002
}
  0
DIMENSION
  5
19F
  8
TEAM-MAS
  2
*D6
 10
90.0
 20
509.894473
 30
0.0
 11
0.0
 21
509.894473
 31
0.0
 12
-12000.0
 22
-52000.0
 32
0.0
 13
-90.0
 23
340.000016
 33
0.0
 14
90.0
 24
338.000016
 34
0.0
1001
ACAD
1000
DSTYLE
1002
{
1070
    40
1040
1.0
1002
}
  0
LINE
  5
1AD
  8
TEAM-AXE
 10
-326.105645
 20
330.000016
 30
0.0
 11
-275.601794
 21
330.000016
 31
0.0
  0
LINE
  5
1AE
  8
TEAM-DET3
 10
-34.964872
 20
568.415191
 30
0.0
 11
-34.964872
 21
561.676952
 31
0.0
  0
ARC
  5
1AF
  8
TEAM-DET3
 10
1.275391
 20
1212.608339
 30
0.0
 40
651.939436
 50
254.54084
 51
266.813377
  0
ARC
  5
1B0
  8
TEAM-HIDE
 10
1.275391
 20
1212.608339
 30
0.0
 40
651.939436
 50
251.234283
 51
254.54084
  0
LINE
  5
1B1
  8
TEAM-DET3
 10
34.964872
 20
568.415191
 30
0.0
 11
34.964872
 21
561.676952
 31
0.0
  0
ARC
  5
1B2
  8
TEAM-HIDE
 10
-1.275391
 20
1212.608339
 30
0.0
 40
651.939436
 50
285.45916
 51
288.681642
  0
ARC
  5
1B3
  8
TEAM-DET3
 10
-1.275391
 20
1212.608339
 30
0.0
 40
651.939436
 50
273.186623
 51
285.45916
  0
LINE
  5
1B4
  8
TEAM-DET3
 10
29.535402
 20
579.742665
 30
0.0
 11
29.535402
 21
581.561675
 31
0.0
  0
LINE
  5
1B5
  8
TEAM-DET3
 10
-29.465303
 20
579.742665
 30
0.0
 11
29.535402
 21
579.742665
 31
0.0
  0
LINE
  5
1B6
  8
TEAM-DET3
 10
-29.465303
 20
581.561675
 30
0.0
 11
-29.465303
 21
579.742665
 31
0.0
  0
LINE
  5
1B7
  8
TEAM-DET3
 10
-26.967609
 20
582.257584
 30
0.0
 11
27.034263
 21
582.257584
 31
0.0
  0
LINE
  5
1B8
  8
TEAM-DET3
 10
-145.465113
 20
1077.000016
 30
0.0
 11
-145.465113
 21
927.748985
 31
0.0
  0
LINE
  5
1B9
  8
TEAM-DET3
 10
145.535212
 20
927.748985
 30
0.0
 11
145.535212
 21
1077.000016
 31
0.0
  0
LINE
  5
1BA
  8
TEAM-DET3
 10
137.5357
 20
919.749457
 30
0.0
 11
-137.465602
 21
919.749457
 31
0.0
  0
LINE
  5
1BB
  8
TEAM-DET3
 10
134.535022
 20
927.748985
 30
0.0
 11
134.535022
 21
1077.000016
 31
0.0
  0
LINE
  5
1BC
  8
TEAM-DET3
 10
130.535266
 20
923.745784
 30
0.0
 11
-130.465168
 21
923.745784
 31
0.0
  0
LINE
  5
1BD
  8
TEAM-DET3
 10
-134.464924
 20
1077.000016
 30
0.0
 11
-134.464924
 21
927.748985
 31
0.0
  0
LINE
  5
1BE
  8
TEAM-DET3
 10
149.534968
 20
927.748985
 30
0.0
 11
149.534968
 21
1077.000016
 31
0.0
  0
LINE
  5
1BF
  8
TEAM-HIDE
 10
-20.966253
 20
1020.746815
 30
0.0
 11
-20.966253
 21
1061.68144
 31
0.0
  0
LINE
  5
1C0
  8
TEAM-HIDE
 10
21.032906
 20
1020.746815
 30
0.0
 11
21.032906
 21
1052.917117
 31
0.0
  0
LINE
  5
1C1
  8
TEAM-HIDE
 10
11.369413
 20
1063.204172
 30
0.0
 11
20.595379
 21
1053.978206
 31
0.0
  0
LINE
  5
1C2
  8
TEAM-HIDE
 10
21.032906
 20
1020.746815
 30
0.0
 11
-20.966253
 21
1020.746815
 31
0.0
  0
POLYLINE
  5
1C3
  8
TEAM-DET3
 66
     1
 10
0.0
 20
0.0
 30
0.0
 70
     1
  0
VERTEX
  5
3F9
  8
TEAM-DET3
 10
131.034805
 20
1074.248226
 30
0.0
  0
VERTEX
  5
3FA
  8
TEAM-DET3
 10
131.034805
 20
927.246001
 30
0.0
  0
VERTEX
  5
3FB
  8
TEAM-DET3
 10
-130.964707
 20
927.246001
 30
0.0
  0
VERTEX
  5
3FC
  8
TEAM-DET3
 10
-130.964707
 20
1074.248226
 30
0.0
  0
SEQEND
  5
3FD
  8
TEAM-DET3
  0
POLYLINE
  5
1C9
  8
TEAM-DET1
 66
     1
 10
0.0
 20
0.0
 30
0.0
 70
     1
  0
VERTEX
  5
3FE
  8
TEAM-DET1
 10
-104.678628
 20
631.019466
 30
0.0
  0
VERTEX
  5
3FF
  8
TEAM-DET1
 10
104.293974
 20
631.019466
 30
0.0
  0
VERTEX
  5
400
  8
TEAM-DET1
 10
104.293974
 20
692.111344
 30
0.0
  0
VERTEX
  5
401
  8
TEAM-DET1
 10
-104.678628
 20
692.111344
 30
0.0
  0
SEQEND
  5
402
  8
TEAM-DET1
  0
POLYLINE
  5
1D0
  8
TEAM-DET1
 66
     1
 10
0.0
 20
0.0
 30
0.0
 70
     1
  0
VERTEX
  5
403
  8
TEAM-DET1
 10
-104.678628
 20
705.023562
 30
0.0
  0
VERTEX
  5
404
  8
TEAM-DET1
 10
104.293974
 20
705.023562
 30
0.0
  0
VERTEX
  5
405
  8
TEAM-DET1
 10
104.293974
 20
766.111995
 30
0.0
  0
VERTEX
  5
406
  8
TEAM-DET1
 10
-104.678628
 20
766.111995
 30
0.0
  0
SEQEND
  5
407
  8
TEAM-DET1
  0
POLYLINE
  5
1D6
  8
TEAM-DET1
 66
     1
 10
0.0
 20
0.0
 30
0.0
 70
     1
  0
VERTEX
  5
408
  8
TEAM-DET1
 10
-104.678628
 20
778.931195
 30
0.0
  0
VERTEX
  5
409
  8
TEAM-DET1
 10
104.293974
 20
778.931195
 30
0.0
  0
VERTEX
  5
40A
  8
TEAM-DET1
 10
104.293974
 20
840.023074
 30
0.0
  0
VERTEX
  5
40B
  8
TEAM-DET1
 10
-104.678628
 20
840.023074
 30
0.0
  0
SEQEND
  5
40C
  8
TEAM-DET1
  0
POLYLINE
  5
1DC
  8
TEAM-DET1
 66
     1
 10
0.0
 20
0.0
 30
0.0
 70
     1
  0
VERTEX
  5
40D
  8
TEAM-DET1
 10
-104.709634
 20
852.931847
 30
0.0
  0
VERTEX
  5
40E
  8
TEAM-DET1
 10
104.262968
 20
852.931847
 30
0.0
  0
VERTEX
  5
40F
  8
TEAM-DET1
 10
104.262968
 20
914.023725
 30
0.0
  0
VERTEX
  5
410
  8
TEAM-DET1
 10
-104.709634
 20
914.023725
 30
0.0
  0
SEQEND
  5
411
  8
TEAM-DET1
  0
LINE
  5
1E2
  8
TEAM-HIDE
 10
172.5
 20
600.191192
 30
0.0
 11
182.0
 21
600.195277
 31
0.0
  0
LINE
  5
1E3
  8
TEAM-DET3
 10
-172.5
 20
600.042813
 30
0.0
 11
172.5
 21
600.191192
 31
0.0
  0
LINE
  5
1E4
  8
TEAM-HIDE
 10
-181.5
 20
600.038942
 30
0.0
 11
-172.5
 21
600.042813
 31
0.0
  0
LINE
  5
1E5
  8
TEAM-AXE
 10
-20.964951
 20
1044.000016
 30
0.0
 11
21.035049
 21
1044.000016
 31
0.0
  0
ARC
  5
1E6
  8
TEAM-DET3
 10
0.285049
 20
1076.000016
 30
0.0
 40
0.5
 50
270.0
 51
0.0
  0
LINE
  5
1E7
  8
TEAM-DET3
 10
-0.214951
 20
1075.500016
 30
0.0
 11
0.285049
 21
1075.500016
 31
0.0
  0
LINE
  5
1E8
  8
TEAM-DET3
 10
-0.214951
 20
1075.500016
 30
0.0
 11
0.285049
 21
1075.500016
 31
0.0
  0
ARC
  5
1E9
  8
TEAM-DET3
 10
-0.214951
 20
1076.000016
 30
0.0
 40
0.5
 50
180.0
 51
270.0
  0
LINE
  5
1EA
  8
TEAM-DET3
 10
-0.714951
 20
1076.000016
 30
0.0
 11
-0.714951
 21
1077.000016
 31
0.0
  0
LINE
  5
1EB
  8
TEAM-DET3
 10
0.785049
 20
1076.000016
 30
0.0
 11
0.785049
 21
1077.000016
 31
0.0
  0
LINE
  5
1EC
  8
TEAM-AXE
 10
0.080668
 20
944.032973
 30
0.0
 11
-0.011945
 21
1058.655126
 31
0.0
  0
LINE
  5
1ED
  8
TEAM-DET3
 10
-44.964937
 20
1071.706672
 30
0.0
 11
-44.964937
 21
1082.677384
 31
0.0
  0
LINE
  5
1EE
  8
TEAM-DET3
 10
-44.964937
 20
1077.000016
 30
0.0
 11
-0.714951
 21
1077.000016
 31
0.0
  0
LINE
  5
1EF
  8
TEAM-AXE
 10
-56.385018
 20
1000.000016
 30
0.0
 11
55.549106
 21
1000.000016
 31
0.0
  0
LINE
  5
1F0
  8
TEAM-DET3
 10
163.203006
 20
999.999999
 30
0.0
 11
170.131209
 21
1012.0
 31
0.0
  0
LINE
  5
1F1
  8
TEAM-DET3
 10
156.274804
 20
1012.0
 30
0.0
 11
170.131209
 21
1012.0
 31
0.0
  0
LINE
  5
1F2
  8
TEAM-DET3
 10
156.274804
 20
1012.0
 30
0.0
 11
163.203006
 21
999.999999
 31
0.0
  0
LINE
  5
1F3
  8
TEAM-DET3
 10
156.453007
 20
1000.0
 30
0.0
 11
195.703007
 21
1000.0
 31
0.0
  0
LINE
  5
1F4
  8
TEAM-DET3
 10
159.453005
 20
915.590134
 30
0.0
 11
172.5
 21
913.988165
 31
0.0
  0
LINE
  5
1F5
  8
TEAM-AXE
 10
0.045619
 20
944.032973
 30
0.0
 11
-0.046995
 21
1058.655126
 31
0.0
  0
LINE
  5
1F6
  8
TEAM-AXE
 10
-55.967062
 20
1000.000016
 30
0.0
 11
55.967062
 21
1000.000016
 31
0.0
  0
LINE
  5
1F7
  8
TEAM-AXE
 10
-20.546995
 20
1044.000016
 30
0.0
 11
21.453005
 21
1044.000016
 31
0.0
  0
LINE
  5
1F8
  8
TEAM-DET3
 10
-162.296995
 20
1000.0
 30
0.0
 11
-155.368791
 21
1012.000001
 31
0.0
  0
LINE
  5
1F9
  8
TEAM-DET3
 10
-169.225196
 20
1012.000001
 30
0.0
 11
-155.368791
 21
1012.000001
 31
0.0
  0
LINE
  5
1FA
  8
TEAM-DET3
 10
-169.225196
 20
1012.000001
 30
0.0
 11
-162.296995
 21
1000.0
 31
0.0
  0
LINE
  5
1FB
  8
TEAM-DET3
 10
-199.796994
 20
1000.000001
 30
0.0
 11
-155.546994
 21
1000.000001
 31
0.0
  0
LINE
  5
1FC
  8
TEAM-DET3
 10
-172.5
 20
913.876921
 30
0.0
 11
-158.546995
 21
915.590134
 31
0.0
  0
LINE
  5
1FD
  8
TEAM-DET3
 10
-158.546995
 20
915.590134
 30
0.0
 11
159.453005
 21
915.590134
 31
0.0
  0
CIRCLE
  5
1FE
  8
TEAM-DET3
 10
-300.0
 20
330.000016
 30
0.0
 40
10.324933
  0
CIRCLE
  5
1FF
  8
TEAM-DET3
 10
-300.0
 20
330.000016
 30
0.0
 40
13.250182
  0
LINE
  5
200
  8
TEAM-DET3
 10
-287.212606
 20
333.471307
 30
0.0
 11
-212.5
 21
434.473404
 31
0.0
  0
LINE
  5
201
  8
TEAM-DET3
 10
-308.06738
 20
340.511186
 30
0.0
 11
-212.5
 21
474.847918
 31
0.0
  0
LINE
  5
202
  8
TEAM-DET3
 10
0.75
 20
1077.000016
 30
0.0
 11
172.5
 21
1077.000016
 31
0.0
  0
LINE
  5
203
  8
TEAM-DET3
 10
0.75
 20
1077.000016
 30
0.0
 11
172.5
 21
1077.000016
 31
0.0
  0
LINE
  5
204
  8
TEAM-HIDE
 10
-187.0
 20
1077.000016
 30
0.0
 11
-174.5
 21
1077.000016
 31
0.0
  0
LINE
  5
205
  8
TEAM-DET3
 10
-172.5
 20
1077.000016
 30
0.0
 11
-44.999986
 21
1077.000016
 31
0.0
  0
LINE
  5
206
  8
TEAM-HIDE
 10
174.5
 20
1077.000016
 30
0.0
 11
187.0
 21
1077.000016
 31
0.0
  0
LINE
  5
207
  8
TEAM-HIDE
 10
174.5
 20
1077.000016
 30
0.0
 11
187.0
 21
1077.000016
 31
0.0
  0
ARC
  5
208
  8
TEAM-HIDE
 10
-187.0
 20
1062.000016
 30
0.0
 40
15.0
 50
90.0
 51
180.0
  0
ARC
  5
209
  8
TEAM-HIDE
 10
187.0
 20
1062.000016
 30
0.0
 40
15.0
 50
0.0
 51
90.0
  0
ARC
  5
20A
  8
TEAM-HIDE
 10
-206.0
 20
1017.916096
 30
0.0
 40
4.0
 50
279.594068
 51
0.0
  0
LINE
  5
20B
  8
TEAM-DET3
 10
-180.0
 20
990.000016
 30
0.0
 11
-180.0
 21
1015.000016
 31
0.0
  0
LINE
  5
20C
  8
TEAM-DET3
 10
-205.0
 20
1015.000016
 30
0.0
 11
-180.0
 21
1015.000016
 31
0.0
  0
LINE
  5
20D
  8
TEAM-DET3
 10
-205.0
 20
990.000016
 30
0.0
 11
-205.0
 21
1015.000016
 31
0.0
  0
LINE
  5
20E
  8
TEAM-DET3
 10
-205.0
 20
1000.000016
 30
0.0
 11
-180.0
 21
1000.000016
 31
0.0
  0
LINE
  5
20F
  8
TEAM-DET3
 10
-192.5
 20
1000.000016
 30
0.0
 11
-189.5
 21
1005.196168
 31
0.0
  0
LINE
  5
210
  8
TEAM-DET3
 10
-195.5
 20
1005.196168
 30
0.0
 11
-192.5
 21
1000.000016
 31
0.0
  0
LINE
  5
211
  8
TEAM-DET3
 10
-195.5
 20
1005.196168
 30
0.0
 11
-189.5
 21
1005.196168
 31
0.0
  0
LINE
  5
212
  8
TEAM-DET3
 10
-205.0
 20
990.000016
 30
0.0
 11
-180.0
 21
990.000016
 31
0.0
  0
LINE
  5
213
  8
TEAM-DET3
 10
205.0
 20
990.000016
 30
0.0
 11
205.0
 21
1015.000016
 31
0.0
  0
LINE
  5
214
  8
TEAM-DET3
 10
180.0
 20
1015.000016
 30
0.0
 11
205.0
 21
1015.000016
 31
0.0
  0
LINE
  5
215
  8
TEAM-DET3
 10
180.0
 20
990.000016
 30
0.0
 11
180.0
 21
1015.000016
 31
0.0
  0
LINE
  5
216
  8
TEAM-DET3
 10
180.0
 20
990.000016
 30
0.0
 11
205.0
 21
990.000016
 31
0.0
  0
LINE
  5
217
  8
TEAM-DET3
 10
180.0
 20
1000.000016
 30
0.0
 11
205.0
 21
1000.000016
 31
0.0
  0
LINE
  5
218
  8
TEAM-DET3
 10
192.5
 20
1000.000016
 30
0.0
 11
195.5
 21
1005.196168
 31
0.0
  0
LINE
  5
219
  8
TEAM-DET3
 10
189.5
 20
1005.196168
 30
0.0
 11
192.5
 21
1000.000016
 31
0.0
  0
LINE
  5
21A
  8
TEAM-DET3
 10
189.5
 20
1005.196168
 30
0.0
 11
195.5
 21
1005.196168
 31
0.0
  0
ARC
  5
21B
  8
TEAM-HIDE
 10
-205.0
 20
1012.000016
 30
0.0
 40
2.0
 50
90.0
 51
180.0
  0
LINE
  5
21C
  8
TEAM-AXE
 10
-55.967062
 20
1000.000016
 30
0.0
 11
55.967062
 21
1000.000016
 31
0.0
  0
LINE
  5
21D
  8
TEAM-HIDE
 10
-205.0
 20
938.000016
 30
0.0
 11
-182.0
 21
938.000016
 31
0.0
  0
ARC
  5
21E
  8
TEAM-HIDE
 10
-205.0
 20
940.000016
 30
0.0
 40
2.0
 50
180.0
 51
270.0
  0
ARC
  5
21F
  8
TEAM-HIDE
 10
-206.0
 20
934.083936
 30
0.0
 40
4.0
 50
27.532512
 51
80.405932
  0
ARC
  5
220
  8
TEAM-HIDE
 10
-182.0
 20
934.000016
 30
0.0
 40
4.0
 50
0.0
 51
90.0
  0
LINE
  5
221
  8
TEAM-HIDE
 10
-207.0
 20
940.000016
 30
0.0
 11
-207.0
 21
1012.000016
 31
0.0
  0
LINE
  5
222
  8
TEAM-HIDE
 10
-202.0
 20
1017.916096
 30
0.0
 11
-202.0
 21
1062.000016
 31
0.0
  0
LINE
  5
223
  8
TEAM-HIDE
 10
-192.953005
 20
911.42123
 30
0.0
 11
-174.5
 21
913.686974
 31
0.0
  0
LINE
  5
224
  8
TEAM-HIDE
 10
174.5
 20
913.686974
 30
0.0
 11
192.046995
 21
911.532474
 31
0.0
  0
LINE
  5
225
  8
TEAM-HIDE
 10
-199.953005
 20
837.931532
 30
0.0
 11
-199.953005
 21
845.000016
 31
0.0
  0
LINE
  5
226
  8
TEAM-HIDE
 10
-195.453005
 20
836.500016
 30
0.0
 11
-195.453005
 21
853.500016
 31
0.0
  0
ARC
  5
227
  8
TEAM-HIDE
 10
-201.453005
 20
837.750016
 30
0.0
 40
1.0
 50
48.590378
 51
180.0
  0
ARC
  5
228
  8
TEAM-HIDE
 10
-196.453005
 20
839.023246
 30
0.0
 40
1.0
 50
304.351634
 51
0.0
  0
ARC
  5
229
  8
TEAM-HIDE
 10
-198.145815
 20
841.500016
 30
0.0
 40
4.0
 50
228.590378
 51
304.351634
  0
ARC
  5
22A
  8
TEAM-HIDE
 10
-201.453005
 20
852.250016
 30
0.0
 40
1.0
 50
180.0
 51
311.409622
  0
LINE
  5
22B
  8
TEAM-HIDE
 10
-199.953005
 20
845.000016
 30
0.0
 11
-199.953005
 21
852.068498
 31
0.0
  0
ARC
  5
22C
  8
TEAM-HIDE
 10
-196.453005
 20
850.976786
 30
0.0
 40
1.0
 50
0.0
 51
55.648366
  0
ARC
  5
22D
  8
TEAM-HIDE
 10
-198.145815
 20
848.500016
 30
0.0
 40
4.0
 50
55.648366
 51
131.409622
  0
LINE
  5
22E
  8
TEAM-HIDE
 10
192.046995
 20
872.476726
 30
0.0
 11
202.0
 21
872.476726
 31
0.0
  0
ARC
  5
22F
  8
TEAM-HIDE
 10
197.239805
 20
848.500016
 30
0.0
 40
4.0
 50
48.590378
 51
124.351634
  0
ARC
  5
230
  8
TEAM-HIDE
 10
195.546995
 20
850.976786
 30
0.0
 40
1.0
 50
124.351634
 51
180.0
  0
LINE
  5
231
  8
TEAM-HIDE
 10
199.046995
 20
845.000016
 30
0.0
 11
199.046995
 21
852.068498
 31
0.0
  0
ARC
  5
232
  8
TEAM-HIDE
 10
200.546995
 20
852.250016
 30
0.0
 40
1.0
 50
228.590378
 51
0.0
  0
ARC
  5
233
  8
TEAM-HIDE
 10
197.239805
 20
841.500016
 30
0.0
 40
4.0
 50
235.648366
 51
311.409622
  0
ARC
  5
234
  8
TEAM-HIDE
 10
195.546995
 20
839.023246
 30
0.0
 40
1.0
 50
180.0
 51
235.648366
  0
ARC
  5
235
  8
TEAM-HIDE
 10
200.546995
 20
837.750016
 30
0.0
 40
1.0
 50
0.0
 51
131.409622
  0
LINE
  5
236
  8
TEAM-HIDE
 10
194.546995
 20
836.500016
 30
0.0
 11
194.546995
 21
853.500016
 31
0.0
  0
LINE
  5
237
  8
TEAM-HIDE
 10
199.046995
 20
837.931532
 30
0.0
 11
199.046995
 21
845.000016
 31
0.0
  0
LINE
  5
238
  8
TEAM-HIDE
 10
-202.453005
 20
872.476726
 30
0.0
 11
-192.953005
 21
872.476726
 31
0.0
  0
LINE
  5
239
  8
TEAM-HIDE
 10
-208.453005
 20
815.590134
 30
0.0
 11
-197.953005
 21
815.590134
 31
0.0
  0
ARC
  5
23A
  8
TEAM-HIDE
 10
-197.953005
 20
820.590134
 30
0.0
 40
5.0
 50
270.0
 51
0.0
  0
LINE
  5
23B
  8
TEAM-HIDE
 10
207.546995
 20
815.590134
 30
0.0
 11
197.046995
 21
815.590134
 31
0.0
  0
ARC
  5
23C
  8
TEAM-HIDE
 10
197.046995
 20
820.590134
 30
0.0
 40
5.0
 50
180.0
 51
270.0
  0
LINE
  5
23D
  8
TEAM-HIDE
 10
-192.953005
 20
820.590134
 30
0.0
 11
-192.953005
 21
911.42123
 31
0.0
  0
LINE
  5
23E
  8
TEAM-HIDE
 10
192.046995
 20
820.590134
 30
0.0
 11
192.046995
 21
911.532474
 31
0.0
  0
LINE
  5
23F
  8
TEAM-HIDE
 10
-208.453005
 20
595.324751
 30
0.0
 11
-208.453005
 21
815.590134
 31
0.0
  0
LINE
  5
240
  8
TEAM-HIDE
 10
-181.5
 20
600.038942
 30
0.0
 11
-181.5
 21
912.827482
 31
0.0
  0
LINE
  5
241
  8
TEAM-HIDE
 10
182.0
 20
600.195277
 30
0.0
 11
182.0
 21
912.76609
 31
0.0
  0
LINE
  5
242
  8
TEAM-HIDE
 10
207.546995
 20
595.017666
 30
0.0
 11
207.546995
 21
815.590134
 31
0.0
  0
LINE
  5
243
  8
TEAM-HIDE
 10
-202.453005
 20
872.476726
 30
0.0
 11
-202.453005
 21
935.932943
 31
0.0
  0
LINE
  5
244
  8
TEAM-HIDE
 10
-178.0
 20
913.257228
 30
0.0
 11
-178.0
 21
934.000016
 31
0.0
  0
LINE
  5
245
  8
TEAM-HIDE
 10
202.0
 20
872.476726
 30
0.0
 11
202.0
 21
1062.000016
 31
0.0
  0
CIRCLE
  5
246
  8
TEAM-DET3
 10
-41.99468
 20
469.776052
 30
0.0
 40
1.925464
  0
CIRCLE
  5
247
  8
TEAM-DET3
 10
-41.99468
 20
469.776052
 30
0.0
 40
2.927987
  0
LINE
  5
248
  8
TEAM-DET3
 10
34.000336
 20
461.775507
 30
0.0
 11
39.524202
 21
461.775507
 31
0.0
  0
LINE
  5
249
  8
TEAM-DET3
 10
30.353014
 20
461.775507
 30
0.0
 11
31.001725
 21
461.775507
 31
0.0
  0
POLYLINE
  5
24A
  8
TEAM-DET3
 66
     1
 10
0.0
 20
0.0
 30
0.0
  0
VERTEX
  5
412
  8
TEAM-DET3
 10
28.927089
 20
460.307552
 30
0.0
  0
VERTEX
  5
413
  8
TEAM-DET3
 10
29.125526
 20
460.681689
 30
0.0
  0
VERTEX
  5
414
  8
TEAM-DET3
 10
29.328442
 20
461.006906
 30
0.0
  0
VERTEX
  5
415
  8
TEAM-DET3
 10
29.533426
 20
461.281136
 30
0.0
  0
VERTEX
  5
416
  8
TEAM-DET3
 10
29.744954
 20
461.492665
 30
0.0
  0
VERTEX
  5
417
  8
TEAM-DET3
 10
29.949938
 20
461.648383
 30
0.0
  0
VERTEX
  5
418
  8
TEAM-DET3
 10
30.154921
 20
461.740023
 30
0.0
  0
VERTEX
  5
419
  8
TEAM-DET3
 10
30.353014
 20
461.775507
 30
0.0
  0
SEQEND
  5
41A
  8
TEAM-DET3
  0
LINE
  5
254
  8
TEAM-DET3
 10
10.004213
 20
454.776796
 30
0.0
 11
23.88967
 21
454.776796
 31
0.0
  0
POLYLINE
  5
255
  8
TEAM-DET3
 66
     1
 10
0.0
 20
0.0
 30
0.0
  0
VERTEX
  5
41B
  8
TEAM-DET3
 10
23.88967
 20
454.776796
 30
0.0
  0
VERTEX
  5
41C
  8
TEAM-DET3
 10
24.517711
 20
454.82606
 30
0.0
  0
VERTEX
  5
41D
  8
TEAM-DET3
 10
25.117158
 20
454.995559
 30
0.0
  0
VERTEX
  5
41E
  8
TEAM-DET3
 10
25.67423
 20
455.278401
 30
0.0
  0
VERTEX
  5
41F
  8
TEAM-DET3
 10
26.175491
 20
455.693191
 30
0.0
  0
VERTEX
  5
420
  8
TEAM-DET3
 10
26.627832
 20
456.236827
 30
0.0
  0
SEQEND
  5
421
  8
TEAM-DET3
  0
LINE
  5
25D
  8
TEAM-DET3
 10
34.000336
 20
454.776796
 30
0.0
 11
28.00277
 21
454.776796
 31
0.0
  0
LINE
  5
25E
  8
TEAM-DET3
 10
31.001725
 20
469.776397
 30
0.0
 11
7.463521
 21
469.776397
 31
0.0
  0
LINE
  5
25F
  8
TEAM-DET3
 10
-9.999045
 20
424.775526
 30
0.0
 11
-9.999045
 21
704.775317
 31
0.0
  0
LINE
  5
260
  8
TEAM-DET3
 10
10.004213
 20
424.775526
 30
0.0
 11
10.004213
 21
704.775317
 31
0.0
  0
LINE
  5
261
  8
TEAM-DET3
 10
-9.999045
 20
527.278486
 30
0.0
 11
-24.969708
 21
527.278486
 31
0.0
  0
LINE
  5
262
  8
TEAM-DET3
 10
25.003814
 20
527.278486
 30
0.0
 11
10.004213
 21
527.278486
 31
0.0
  0
LINE
  5
263
  8
TEAM-DET3
 10
-24.998646
 20
511.128911
 30
0.0
 11
-24.998646
 21
579.742665
 31
0.0
  0
LINE
  5
264
  8
TEAM-DET3
 10
25.003814
 20
511.128911
 30
0.0
 11
25.003814
 21
579.742665
 31
0.0
  0
LINE
  5
265
  8
TEAM-DET3
 10
28.00277
 20
511.128911
 30
0.0
 11
10.004213
 21
511.128911
 31
0.0
  0
LINE
  5
266
  8
TEAM-DET3
 10
-9.999045
 20
511.128911
 30
0.0
 11
-27.997602
 21
511.128911
 31
0.0
  0
LINE
  5
267
  8
TEAM-DET3
 10
28.00277
 20
424.775526
 30
0.0
 11
28.00277
 21
458.508523
 31
0.0
  0
LINE
  5
268
  8
TEAM-DET3
 10
28.00277
 20
481.050472
 30
0.0
 11
28.00277
 21
511.128911
 31
0.0
  0
LINE
  5
269
  8
TEAM-DET3
 10
-27.997602
 20
424.775526
 30
0.0
 11
-27.997602
 21
454.776796
 31
0.0
  0
LINE
  5
26A
  8
TEAM-DET3
 10
-27.997602
 20
484.775998
 30
0.0
 11
-27.997602
 21
511.128911
 31
0.0
  0
LINE
  5
26B
  8
TEAM-DET3
 10
-9.999045
 20
454.776796
 30
0.0
 11
-49.99557
 21
454.776796
 31
0.0
  0
LINE
  5
26C
  8
TEAM-DET3
 10
-9.999045
 20
484.775998
 30
0.0
 11
-49.99557
 21
484.775998
 31
0.0
  0
LINE
  5
26D
  8
TEAM-DET3
 10
34.000336
 20
477.777287
 30
0.0
 11
39.524202
 21
477.777287
 31
0.0
  0
LINE
  5
26E
  8
TEAM-DET3
 10
39.524202
 20
477.777287
 30
0.0
 11
39.524202
 21
461.775162
 31
0.0
  0
LINE
  5
26F
  8
TEAM-DET3
 10
36.703014
 20
477.777287
 30
0.0
 11
36.703014
 21
461.775162
 31
0.0
  0
LINE
  5
270
  8
TEAM-DET3
 10
30.353014
 20
477.777287
 30
0.0
 11
31.001725
 21
477.777287
 31
0.0
  0
POLYLINE
  5
271
  8
TEAM-DET3
 66
     1
 10
0.0
 20
0.0
 30
0.0
  0
VERTEX
  5
422
  8
TEAM-DET3
 10
28.927089
 20
479.245242
 30
0.0
  0
VERTEX
  5
423
  8
TEAM-DET3
 10
29.125526
 20
478.871104
 30
0.0
  0
VERTEX
  5
424
  8
TEAM-DET3
 10
29.328442
 20
478.545887
 30
0.0
  0
VERTEX
  5
425
  8
TEAM-DET3
 10
29.533426
 20
478.271658
 30
0.0
  0
VERTEX
  5
426
  8
TEAM-DET3
 10
29.744954
 20
478.060129
 30
0.0
  0
VERTEX
  5
427
  8
TEAM-DET3
 10
29.949938
 20
477.904411
 30
0.0
  0
VERTEX
  5
428
  8
TEAM-DET3
 10
30.154921
 20
477.812771
 30
0.0
  0
VERTEX
  5
429
  8
TEAM-DET3
 10
30.353014
 20
477.777287
 30
0.0
  0
SEQEND
  5
42A
  8
TEAM-DET3
  0
LINE
  5
27B
  8
TEAM-DET3
 10
10.004213
 20
484.775998
 30
0.0
 11
23.88967
 21
484.775998
 31
0.0
  0
POLYLINE
  5
27C
  8
TEAM-DET3
 66
     1
 10
0.0
 20
0.0
 30
0.0
  0
VERTEX
  5
42B
  8
TEAM-DET3
 10
23.88967
 20
484.775998
 30
0.0
  0
VERTEX
  5
42C
  8
TEAM-DET3
 10
24.517711
 20
484.726733
 30
0.0
  0
VERTEX
  5
42D
  8
TEAM-DET3
 10
25.117158
 20
484.557234
 30
0.0
  0
VERTEX
  5
42E
  8
TEAM-DET3
 10
25.67423
 20
484.274392
 30
0.0
  0
VERTEX
  5
42F
  8
TEAM-DET3
 10
26.175491
 20
483.859603
 30
0.0
  0
VERTEX
  5
430
  8
TEAM-DET3
 10
26.627832
 20
483.315967
 30
0.0
  0
SEQEND
  5
431
  8
TEAM-DET3
  0
LINE
  5
284
  8
TEAM-DET3
 10
34.000336
 20
484.775998
 30
0.0
 11
28.00277
 21
484.775998
 31
0.0
  0
LINE
  5
285
  8
TEAM-DET3
 10
34.000336
 20
454.776796
 30
0.0
 11
34.000336
 21
484.775998
 31
0.0
  0
LINE
  5
286
  8
TEAM-DET3
 10
31.001725
 20
454.776796
 30
0.0
 11
31.001725
 21
484.775998
 31
0.0
  0
LINE
  5
287
  8
TEAM-AXE
 10
-39.066694
 20
469.776052
 30
0.0
 11
-44.922667
 21
469.776052
 31
0.0
  0
LINE
  5
288
  8
TEAM-AXE
 10
-41.99468
 20
472.704039
 30
0.0
 11
-41.99468
 21
466.848066
 31
0.0
  0
LINE
  5
289
  8
TEAM-DET3
 10
-204.498801
 20
344.77972
 30
0.0
 11
-174.497876
 21
344.77972
 31
0.0
  0
LINE
  5
28A
  8
TEAM-DET3
 10
-174.497876
 20
344.77972
 30
0.0
 11
-174.497876
 21
329.779774
 31
0.0
  0
LINE
  5
28B
  8
TEAM-DET3
 10
-204.498801
 20
314.780517
 30
0.0
 11
-204.498801
 21
344.77972
 31
0.0
  0
LINE
  5
28C
  8
TEAM-DET3
 10
-204.498801
 20
332.277468
 30
0.0
 11
-184.496232
 21
332.277468
 31
0.0
  0
LINE
  5
28D
  8
TEAM-DET3
 10
-184.496232
 20
332.277468
 30
0.0
 11
-184.496232
 21
334.775162
 31
0.0
  0
LINE
  5
28E
  8
TEAM-DET3
 10
-184.496232
 20
334.775162
 30
0.0
 11
-174.497876
 21
329.779774
 31
0.0
  0
LINE
  5
28F
  8
TEAM-DET3
 10
-174.497876
 20
329.779774
 30
0.0
 11
-174.497876
 21
314.780517
 31
0.0
  0
LINE
  5
290
  8
TEAM-DET3
 10
-174.497876
 20
314.780517
 30
0.0
 11
-204.498801
 21
314.780517
 31
0.0
  0
LINE
  5
291
  8
TEAM-DET3
 10
-174.497876
 20
329.779774
 30
0.0
 11
-184.496232
 21
324.777495
 31
0.0
  0
LINE
  5
292
  8
TEAM-DET3
 10
-184.496232
 20
324.777495
 30
0.0
 11
-184.496232
 21
327.27519
 31
0.0
  0
LINE
  5
293
  8
TEAM-DET3
 10
-184.496232
 20
327.27519
 30
0.0
 11
-204.498801
 21
327.27519
 31
0.0
  0
LINE
  5
294
  8
TEAM-DET3
 10
-138.247203
 20
314.780517
 30
0.0
 11
-168.247784
 21
314.780517
 31
0.0
  0
LINE
  5
295
  8
TEAM-DET3
 10
-138.247203
 20
327.27519
 30
0.0
 11
-158.250461
 21
327.27519
 31
0.0
  0
LINE
  5
296
  8
TEAM-DET3
 10
-158.250461
 20
327.27519
 30
0.0
 11
-158.250461
 21
324.777495
 31
0.0
  0
LINE
  5
297
  8
TEAM-DET3
 10
-158.250461
 20
324.777495
 30
0.0
 11
-168.247784
 21
329.779774
 31
0.0
  0
LINE
  5
298
  8
TEAM-DET3
 10
-138.247203
 20
344.77972
 30
0.0
 11
-138.247203
 21
314.780517
 31
0.0
  0
LINE
  5
299
  8
TEAM-DET3
 10
-168.247784
 20
344.77972
 30
0.0
 11
-138.247203
 21
344.77972
 31
0.0
  0
LINE
  5
29A
  8
TEAM-DET3
 10
-168.247784
 20
329.779774
 30
0.0
 11
-158.250461
 21
334.775162
 31
0.0
  0
LINE
  5
29B
  8
TEAM-DET3
 10
-158.250461
 20
334.775162
 30
0.0
 11
-158.250461
 21
332.277468
 31
0.0
  0
LINE
  5
29C
  8
TEAM-DET3
 10
-158.250461
 20
332.277468
 30
0.0
 11
-138.247203
 21
332.277468
 31
0.0
  0
LINE
  5
29D
  8
TEAM-DET2
 10
-211.4992
 20
1119.775998
 30
0.0
 11
-73.499354
 21
1119.775998
 31
0.0
  0
LINE
  5
29E
  8
TEAM-DET2
 10
-211.4992
 20
1117.779221
 30
0.0
 11
-211.4992
 21
1119.775998
 31
0.0
  0
LINE
  5
29F
  8
TEAM-DET2
 10
-73.499354
 20
1117.779221
 30
0.0
 11
-73.499354
 21
1119.775998
 31
0.0
  0
LINE
  5
2A0
  8
TEAM-DET2
 10
-112.495079
 20
1089.776796
 30
0.0
 11
-112.495079
 21
1117.779221
 31
0.0
  0
LINE
  5
2A1
  8
TEAM-DET2
 10
-112.495079
 20
1089.776796
 30
0.0
 11
-172.495207
 21
1089.776796
 31
0.0
  0
LINE
  5
2A2
  8
TEAM-DET2
 10
-112.495079
 20
1117.779221
 30
0.0
 11
-73.499354
 21
1117.779221
 31
0.0
  0
LINE
  5
2A3
  8
TEAM-DET2
 10
-172.5
 20
1117.779221
 30
0.0
 11
-212.5
 21
1117.779221
 31
0.0
  0
CIRCLE
  5
2A4
  8
TEAM-DET3
 10
-192.5
 20
1100.000016
 30
0.0
 40
6.5
  0
CIRCLE
  5
2A5
  8
TEAM-DET3
 10
-192.5
 20
1100.000016
 30
0.0
 40
12.0
  0
LINE
  5
2A6
  8
TEAM-DET2
 10
211.4992
 20
1119.775998
 30
0.0
 11
73.499354
 21
1119.775998
 31
0.0
  0
LINE
  5
2A7
  8
TEAM-DET2
 10
211.4992
 20
1117.779221
 30
0.0
 11
211.4992
 21
1119.775998
 31
0.0
  0
LINE
  5
2A8
  8
TEAM-DET2
 10
73.499354
 20
1117.779221
 30
0.0
 11
73.499354
 21
1119.775998
 31
0.0
  0
LINE
  5
2A9
  8
TEAM-DET2
 10
112.495079
 20
1089.776796
 30
0.0
 11
112.495079
 21
1117.779221
 31
0.0
  0
LINE
  5
2AA
  8
TEAM-DET2
 10
112.495079
 20
1089.776796
 30
0.0
 11
172.495207
 21
1089.776796
 31
0.0
  0
LINE
  5
2AB
  8
TEAM-DET2
 10
112.495079
 20
1117.779221
 30
0.0
 11
73.499354
 21
1117.779221
 31
0.0
  0
LINE
  5
2AC
  8
TEAM-DET2
 10
172.5
 20
1117.779221
 30
0.0
 11
212.5
 21
1117.779221
 31
0.0
  0
CIRCLE
  5
2AD
  8
TEAM-DET3
 10
192.5
 20
1100.000016
 30
0.0
 40
6.5
  0
CIRCLE
  5
2AE
  8
TEAM-DET3
 10
192.5
 20
1100.000016
 30
0.0
 40
12.0
  0
LINE
  5
2AF
  8
TEAM-HIDE
 10
-210.0
 20
500.000016
 30
0.0
 11
-175.0
 21
500.000016
 31
0.0
  0
LINE
  5
2B0
  8
TEAM-HIDE
 10
175.0
 20
500.000016
 30
0.0
 11
210.0
 21
500.000016
 31
0.0
  0
LINE
  5
2B1
  8
TEAM-DET2
 10
-168.500309
 20
425.000016
 30
0.0
 11
168.500309
 21
425.000016
 31
0.0
  0
LINE
  5
2B2
  8
TEAM-HIDE
 10
-27.999918
 20
409.056296
 30
0.0
 11
-28.0
 21
425.100592
 31
0.0
  0
LINE
  5
2B3
  8
TEAM-HIDE
 10
27.99985
 20
409.14261
 30
0.0
 11
27.99985
 21
425.000016
 31
0.0
  0
LINE
  5
2B4
  8
TEAM-AXE
 10
-36.0
 20
364.95572
 30
0.0
 11
36.0
 21
364.95572
 31
0.0
  0
POLYLINE
  5
2B5
  8
TEAM-DET3
 66
     1
 10
0.0
 20
0.0
 30
0.0
  0
VERTEX
  5
432
  8
TEAM-DET3
 10
27.12987
 20
395.999021
 30
0.0
  0
VERTEX
  5
433
  8
TEAM-DET3
 10
26.875674
 20
394.010942
 30
0.0
  0
VERTEX
  5
434
  8
TEAM-DET3
 10
26.275108
 20
390.293078
 30
0.0
  0
VERTEX
  5
435
  8
TEAM-DET3
 10
25.567036
 20
386.62366
 30
0.0
  0
VERTEX
  5
436
  8
TEAM-DET3
 10
24.770068
 20
383.019688
 30
0.0
  0
VERTEX
  5
437
  8
TEAM-DET3
 10
24.411586
 20
381.518462
 30
0.0
  0
SEQEND
  5
438
  8
TEAM-DET3
  0
POLYLINE
  5
2B6
  8
TEAM-DET3
 66
     1
 10
0.0
 20
0.0
 30
0.0
  0
VERTEX
  5
439
  8
TEAM-DET3
 10
-27.130085
 20
395.998632
 30
0.0
  0
VERTEX
  5
43A
  8
TEAM-DET3
 10
-26.870624
 20
393.975896
 30
0.0
  0
VERTEX
  5
43B
  8
TEAM-DET3
 10
-26.271036
 20
390.270772
 30
0.0
  0
VERTEX
  5
43C
  8
TEAM-DET3
 10
-25.564728
 20
386.613846
 30
0.0
  0
VERTEX
  5
43D
  8
TEAM-DET3
 10
-24.770136
 20
383.021814
 30
0.0
  0
VERTEX
  5
43E
  8
TEAM-DET3
 10
-24.668212
 20
382.588744
 30
0.0
  0
VERTEX
  5
43F
  8
TEAM-DET3
 10
-24.411224
 20
381.518996
 30
0.0
  0
SEQEND
  5
440
  8
TEAM-DET3
  0
ARC
  5
2B7
  8
TEAM-DET3
 10
0.0
 20
381.000016
 30
0.0
 40
31.0
 50
0.0
 51
180.0
  0
POLYLINE
  5
2B8
  8
TEAM-HIDE
 66
     1
 10
0.0
 20
0.0
 30
0.0
  0
VERTEX
  5
441
  8
TEAM-HIDE
 10
-27.999918
 20
409.056296
 30
0.0
  0
VERTEX
  5
442
  8
TEAM-HIDE
 10
-27.919258
 20
405.26507
 30
0.0
  0
VERTEX
  5
443
  8
TEAM-HIDE
 10
-27.70176
 20
401.48236
 30
0.0
  0
VERTEX
  5
444
  8
TEAM-HIDE
 10
-27.350434
 20
397.716448
 30
0.0
  0
VERTEX
  5
445
  8
TEAM-HIDE
 10
-27.130135
 20
395.999021
 30
0.0
  0
SEQEND
  5
446
  8
TEAM-HIDE
  0
POLYLINE
  5
2B9
  8
TEAM-HIDE
 66
     1
 10
0.0
 20
0.0
 30
0.0
  0
VERTEX
  5
447
  8
TEAM-HIDE
 10
27.99985
 20
409.14261
 30
0.0
  0
VERTEX
  5
448
  8
TEAM-HIDE
 10
27.921856
 20
405.338636
 30
0.0
  0
VERTEX
  5
449
  8
TEAM-HIDE
 10
27.706094
 20
401.54309
 30
0.0
  0
VERTEX
  5
44A
  8
TEAM-HIDE
 10
27.355582
 20
397.764324
 30
0.0
  0
VERTEX
  5
44B
  8
TEAM-HIDE
 10
27.12987
 20
395.999021
 30
0.0
  0
SEQEND
  5
44C
  8
TEAM-HIDE
  0
LINE
  5
2BA
  8
TEAM-DET2
 10
-168.500309
 20
315.000016
 30
0.0
 11
168.500309
 21
315.000016
 31
0.0
  0
LINE
  5
2BB
  8
TEAM-AXE
 10
76.563166
 20
330.000016
 30
0.0
 11
127.5
 21
330.000016
 31
0.0
  0
CIRCLE
  5
2BC
  8
TEAM-DET3
 10
90.0
 20
330.000016
 30
0.0
 40
7.5
  0
LINE
  5
2BD
  8
TEAM-AXE
 10
-128.833962
 20
330.000016
 30
0.0
 11
-80.0
 21
330.000016
 31
0.0
  0
CIRCLE
  5
2BE
  8
TEAM-DET3
 10
-115.0
 20
330.000016
 30
0.0
 40
7.5
  0
LINE
  5
2BF
  8
TEAM-AXE
 10
-115.0
 20
316.217356
 30
0.0
 11
-115.0
 21
343.89107
 31
0.0
  0
CIRCLE
  5
2C0
  8
TEAM-DET3
 10
-90.0
 20
330.000016
 30
0.0
 40
7.5
  0
LINE
  5
2C1
  8
TEAM-AXE
 10
-90.0
 20
320.000016
 30
0.0
 11
-90.0
 21
340.000016
 31
0.0
  0
LINE
  5
2C2
  8
TEAM-DET3
 10
23.0
 20
328.000016
 30
0.0
 11
28.0
 21
328.000016
 31
0.0
  0
LINE
  5
2C3
  8
TEAM-DET3
 10
-18.0
 20
330.000016
 30
0.0
 11
18.0
 21
330.000016
 31
0.0
  0
LINE
  5
2C4
  8
TEAM-DET3
 10
-18.0
 20
327.000016
 30
0.0
 11
-2.0
 21
327.000016
 31
0.0
  0
LINE
  5
2C5
  8
TEAM-DET3
 10
-22.0
 20
333.000016
 30
0.0
 11
22.0
 21
333.000016
 31
0.0
  0
LINE
  5
2C6
  8
TEAM-DET3
 10
-28.0
 20
328.000016
 30
0.0
 11
-23.0
 21
328.000016
 31
0.0
  0
ARC
  5
2C7
  8
TEAM-DET3
 10
-28.0
 20
331.000016
 30
0.0
 40
3.0
 50
180.0
 51
270.0
  0
LINE
  5
2C8
  8
TEAM-DET3
 10
-18.0
 20
327.000016
 30
0.0
 11
-18.0
 21
333.000016
 31
0.0
  0
LINE
  5
2C9
  8
TEAM-DET3
 10
-22.0
 20
329.000016
 30
0.0
 11
-22.0
 21
333.000016
 31
0.0
  0
LINE
  5
2CA
  8
TEAM-DET3
 10
-22.0
 20
330.000016
 30
0.0
 11
-18.0
 21
330.000016
 31
0.0
  0
ARC
  5
2CB
  8
TEAM-DET3
 10
-23.0
 20
329.000016
 30
0.0
 40
1.0
 50
270.0
 51
0.0
  0
LINE
  5
2CC
  8
TEAM-DET3
 10
2.0
 20
327.000016
 30
0.0
 11
18.0
 21
327.000016
 31
0.0
  0
ARC
  5
2CD
  8
TEAM-DET3
 10
0.0
 20
327.000016
 30
0.0
 40
2.0
 50
180.0
 51
0.0
  0
LINE
  5
2CE
  8
TEAM-DET3
 10
18.0
 20
330.000016
 30
0.0
 11
22.0
 21
330.000016
 31
0.0
  0
LINE
  5
2CF
  8
TEAM-DET3
 10
18.0
 20
327.000016
 30
0.0
 11
18.0
 21
333.000016
 31
0.0
  0
ARC
  5
2D0
  8
TEAM-DET3
 10
23.0
 20
329.000016
 30
0.0
 40
1.0
 50
180.0
 51
270.0
  0
LINE
  5
2D1
  8
TEAM-DET3
 10
22.0
 20
329.000016
 30
0.0
 11
22.0
 21
333.000016
 31
0.0
  0
ARC
  5
2D2
  8
TEAM-DET3
 10
28.0
 20
331.000016
 30
0.0
 40
3.0
 50
270.0
 51
0.0
  0
CIRCLE
  5
2D3
  8
TEAM-DET3
 10
115.0
 20
330.000016
 30
0.0
 40
7.5
  0
LINE
  5
2D4
  8
TEAM-AXE
 10
90.0
 20
318.000016
 30
0.0
 11
90.0
 21
338.000016
 31
0.0
  0
LINE
  5
2D5
  8
TEAM-AXE
 10
115.0
 20
320.000016
 30
0.0
 11
115.0
 21
340.000016
 31
0.0
  0
LINE
  5
2D6
  8
TEAM-HIDE
 10
-10.113248
 20
318.95572
 30
0.0
 11
10.113248
 21
318.95572
 31
0.0
  0
LINE
  5
2D7
  8
TEAM-HIDE
 10
-13.0
 20
322.95572
 30
0.0
 11
-13.0
 21
327.000016
 31
0.0
  0
ARC
  5
2D8
  8
TEAM-HIDE
 10
-10.113248
 20
319.95572
 30
0.0
 40
1.0
 50
210.0
 51
270.0
  0
LINE
  5
2D9
  8
TEAM-HIDE
 10
-13.0
 20
322.95572
 30
0.0
 11
-10.979274
 21
319.45572
 31
0.0
  0
LINE
  5
2DA
  8
TEAM-HIDE
 10
13.0
 20
322.95572
 30
0.0
 11
13.0
 21
327.000016
 31
0.0
  0
ARC
  5
2DB
  8
TEAM-HIDE
 10
10.113248
 20
319.95572
 30
0.0
 40
1.0
 50
270.0
 51
330.0
  0
LINE
  5
2DC
  8
TEAM-HIDE
 10
10.979274
 20
319.45572
 30
0.0
 11
13.0
 21
322.95572
 31
0.0
  0
LINE
  5
2DD
  8
TEAM-DET3
 10
-13.0
 20
333.000016
 30
0.0
 11
-13.0
 21
338.474594
 31
0.0
  0
LINE
  5
2DE
  8
TEAM-DET3
 10
13.0
 20
333.000016
 30
0.0
 11
13.0
 21
338.474594
 31
0.0
  0
LINE
  5
2DF
  8
TEAM-DET3
 10
-31.0
 20
331.000016
 30
0.0
 11
-31.0
 21
381.000016
 31
0.0
  0
LINE
  5
2E0
  8
TEAM-DET3
 10
31.0
 20
331.000016
 30
0.0
 11
31.0
 21
381.000016
 31
0.0
  0
CIRCLE
  5
2E1
  8
TEAM-DET3
 10
0.0
 20
364.95572
 30
0.0
 40
29.5
  0
CIRCLE
  5
2E2
  8
TEAM-DET3
 10
0.0
 20
364.95572
 30
0.0
 40
23.35
  0
CIRCLE
  5
2E3
  8
TEAM-DET3
 10
0.0
 20
364.95572
 30
0.0
 40
20.0
  0
TEXT
  5
2E4
  8
TEAM-TXT
 10
-180.374542
 20
793.936635
 30
0.0
 40
30.0
  1
team 871038
 41
0.8
 51
15.0
  7
TEAM
  0
ENDSEC
  0
EOF
