  0
SECTION
  2
HEADER
  9
$ACADVER
  1
AC1009
  9
$INSBASE
 10
0.0
 20
0.0
 30
0.0
  9
$EXTMIN
 10
-270.725227
 20
-71.439112
 30
-0.001526
  9
$EXTMAX
 10
351.638313
 20
117.885794
 30
0.0
  9
$LIMMIN
 10
-270.725227
 20
-71.439112
  9
$LIMMAX
 10
351.638313
 20
117.885794
  9
$ORTHOMODE
 70
     1
  9
$REGENMODE
 70
     1
  9
$FILLMODE
 70
     1
  9
$QTEXTMODE
 70
     0
  9
$MIRRTEXT
 70
     0
  9
$DRAGMODE
 70
     2
  9
$LTSCALE
 40
50.0
  9
$OSMODE
 70
     0
  9
$ATTMODE
 70
     1
  9
$TEXTSIZE
 40
200.0
  9
$TRACEWID
 40
1.0
  9
$TEXTSTYLE
  7
STANDARD
  9
$CLAYER
  8
TEAM-MAS
  9
$CELTYPE
  6
BYLAYER
  9
$CECOLOR
 62
   256
  9
$DIMSCALE
 40
1.0
  9
$DIMASZ
 40
20.0
  9
$DIMEXO
 40
10.0
  9
$DIMDLI
 40
1.0
  9
$DIMRND
 40
0.0
  9
$DIMDLE
 40
0.0
  9
$DIMEXE
 40
1.0
  9
$DIMTP
 40
0.0
  9
$DIMTM
 40
0.0
  9
$DIMTXT
 40
35.0
  9
$DIMCEN
 40
1.0
  9
$DIMTSZ
 40
0.0
  9
$DIMTOL
 70
     0
  9
$DIMLIM
 70
     0
  9
$DIMTIH
 70
     0
  9
$DIMTOH
 70
     0
  9
$DIMSE1
 70
     0
  9
$DIMSE2
 70
     0
  9
$DIMTAD
 70
     0
  9
$DIMZIN
 70
     0
  9
$DIMBLK
  1

  9
$DIMASO
 70
     1
  9
$DIMSHO
 70
     0
  9
$DIMPOST
  1

  9
$DIMAPOST
  1

  9
$DIMALT
 70
     0
  9
$DIMALTD
 70
     2
  9
$DIMALTF
 40
25.4
  9
$DIMLFAC
 40
1.0
  9
$DIMTOFL
 70
     0
  9
$DIMTVP
 40
0.0
  9
$DIMTIX
 70
     0
  9
$DIMSOXD
 70
     0
  9
$DIMSAH
 70
     0
  9
$DIMBLK1
  1

  9
$DIMBLK2
  1

  9
$DIMSTYLE
  2
TEAM
  9
$DIMCLRD
 70
     9
  9
$DIMCLRE
 70
     9
  9
$DIMCLRT
 70
    11
  9
$DIMTFAC
 40
1.0
  9
$DIMGAP
 40
7.0
  9
$LUNITS
 70
     2
  9
$LUPREC
 70
     1
  9
$SKETCHINC
 40
1.0
  9
$FILLETRAD
 40
50.0
  9
$AUNITS
 70
     0
  9
$AUPREC
 70
     0
  9
$MENU
  1
ROPLANS
  9
$ELEVATION
 40
0.0
  9
$PELEVATION
 40
0.0
  9
$THICKNESS
 40
0.0
  9
$LIMCHECK
 70
     0
  9
$BLIPMODE
 70
     1
  9
$CHAMFERA
 40
0.0
  9
$CHAMFERB
 40
0.0
  9
$SKPOLY
 70
     0
  9
$TDCREATE
 40
2450392.957851
  9
$TDUPDATE
 40
2456118.662559
  9
$TDINDWG
 40
5.307301
  9
$TDUSRTIMER
 40
5.307301
  9
$USRTIMER
 70
     1
  9
$ANGBASE
 50
0.0
  9
$ANGDIR
 70
     0
  9
$PDMODE
 70
     0
  9
$PDSIZE
 40
0.0
  9
$PLINEWID
 40
0.0
  9
$COORDS
 70
     2
  9
$SPLFRAME
 70
     0
  9
$SPLINETYPE
 70
     6
  9
$SPLINESEGS
 70
     8
  9
$ATTDIA
 70
     0
  9
$ATTREQ
 70
     0
  9
$HANDLING
 70
     1
  9
$HANDSEED
  5
9B
  9
$SURFTAB1
 70
    24
  9
$SURFTAB2
 70
    24
  9
$SURFTYPE
 70
     6
  9
$SURFU
 70
     6
  9
$SURFV
 70
     6
  9
$UCSNAME
  2

  9
$UCSORG
 10
0.0
 20
0.0
 30
0.0
  9
$UCSXDIR
 10
1.0
 20
0.0
 30
0.0
  9
$UCSYDIR
 10
0.0
 20
1.0
 30
0.0
  9
$PUCSNAME
  2

  9
$PUCSORG
 10
0.0
 20
0.0
 30
0.0
  9
$PUCSXDIR
 10
1.0
 20
0.0
 30
0.0
  9
$PUCSYDIR
 10
0.0
 20
1.0
 30
0.0
  9
$USERI1
 70
     0
  9
$USERI2
 70
     0
  9
$USERI3
 70
     0
  9
$USERI4
 70
     0
  9
$USERI5
 70
     0
  9
$USERR1
 40
0.0
  9
$USERR2
 40
0.0
  9
$USERR3
 40
0.0
  9
$USERR4
 40
0.0
  9
$USERR5
 40
0.0
  9
$WORLDVIEW
 70
     1
  9
$SHADEDGE
 70
     0
  9
$SHADEDIF
 70
    70
  9
$TILEMODE
 70
     1
  9
$MAXACTVP
 70
    16
  9
$PLIMCHECK
 70
     0
  9
$PEXTMIN
 10
-0.805942
 20
0.005011
 30
0.0
  9
$PEXTMAX
 10
20.250094
 20
11.356329
 30
0.0
  9
$PLIMMIN
 10
0.0
 20
0.0
  9
$PLIMMAX
 10
12.0
 20
9.0
  9
$UNITMODE
 70
     0
  9
$VISRETAIN
 70
     0
  9
$PLINEGEN
 70
     0
  9
$PSLTSCALE
 70
     0
  0
ENDSEC
  0
SECTION
  2
TABLES
  0
TABLE
  2
VPORT
 70
     2
  0
VPORT
  2
*ACTIVE
 70
     0
 10
0.0
 20
0.0
 11
1.0
 21
1.0
 12
40.456543
 22
23.223341
 13
0.0
 23
0.0
 14
1.0
 24
1.0
 15
50.0
 25
50.0
 16
0.0
 26
0.0
 36
1.0
 17
0.0
 27
0.0
 37
0.0
 40
326.616101
 41
1.911765
 42
50.0
 43
0.0
 44
0.0
 50
0.0
 51
0.0
 71
     0
 72
   100
 73
     1
 74
     1
 75
     0
 76
     0
 77
     0
 78
     0
  0
ENDTAB
  0
TABLE
  2
LTYPE
 70
     3
  0
LTYPE
  2
CONTINUOUS
 70
     0
  3
Solid Line
 72
    65
 73
     0
 40
0.0
  0
LTYPE
  2
31
 70
     0
  3

 72
    65
 73
     4
 40
2.1
 49
1.5
 49
-0.3
 49
0.0
 49
-0.3
  0
LTYPE
  2
22
 70
     0
  3

 72
    65
 73
     2
 40
1.4
 49
1.2
 49
-0.2
  0
ENDTAB
  0
TABLE
  2
LAYER
 70
     9
  0
LAYER
  2
0
 70
     0
 62
     7
  6
CONTINUOUS
  0
LAYER
  2
DEFPOINTS
 70
     0
 62
     7
  6
CONTINUOUS
  0
LAYER
  2
TEAM-AXE
 70
     0
 62
    10
  6
31
  0
LAYER
  2
TEAM-MAS
 70
     0
 62
     9
  6
CONTINUOUS
  0
LAYER
  2
TEAM-TXT
 70
     0
 62
    11
  6
CONTINUOUS
  0
LAYER
  2
TEAM-DET2
 70
     0
 62
    11
  6
CONTINUOUS
  0
LAYER
  2
TEAM-HIDE
 70
     0
 62
     8
  6
22
  0
LAYER
  2
TEAM-DET3
 70
     0
 62
    14
  6
CONTINUOUS
  0
LAYER
  2
TEAM-INSP
 70
     0
 62
     5
  6
CONTINUOUS
  0
ENDTAB
  0
TABLE
  2
STYLE
 70
     2
  0
STYLE
  2
STANDARD
 70
     0
 40
0.0
 41
1.0
 50
0.0
 71
     0
 42
200.0
  3
txt
  4

  0
STYLE
  2
TEAM
 70
     0
 40
0.0
 41
0.8
 50
15.0
 71
     0
 42
7.0
  3
ROMANS.shx
  4

  0
ENDTAB
  0
TABLE
  2
VIEW
 70
     0
  0
ENDTAB
  0
TABLE
  2
UCS
 70
     0
  0
ENDTAB
  0
TABLE
  2
APPID
 70
     1
  0
APPID
  2
ACAD
 70
     0
  0
ENDTAB
  0
TABLE
  2
DIMSTYLE
 70
     1
  0
DIMSTYLE
  2
TEAM
 70
     0
  3

  4

  5

  6

  7

 40
1.0
 41
20.0
 42
10.0
 43
1.0
 44
1.0
 45
0.0
 46
0.0
 47
0.0
 48
0.0
140
35.0
141
1.0
142
0.0
143
25.4
144
1.0
145
0.0
146
1.0
147
7.0
 71
     0
 72
     0
 73
     0
 74
     0
 75
     0
 76
     0
 77
     0
 78
     0
170
     0
171
     2
172
     0
173
     0
174
     0
175
     0
176
     9
177
     9
178
    11
  0
ENDTAB
  0
ENDSEC
  0
SECTION
  2
BLOCKS
  0
BLOCK
  8
0
  2
$MODEL_SPACE
 70
     0
 10
0.0
 20
0.0
 30
0.0
  3
$MODEL_SPACE
  1

  0
ENDBLK
  5
94
  8
0
  0
BLOCK
 67
     1
  8
0
  2
$PAPER_SPACE
 70
     0
 10
0.0
 20
0.0
 30
0.0
  3
$PAPER_SPACE
  1

  0
ENDBLK
  5
92
 67
     1
  8
0
  0
BLOCK
  8
0
  2
*D0
 70
     1
 10
0.0
 20
0.0
 30
0.0
  3
*D0
  1

  0
LINE
  5
22
  8
0
  6
BYBLOCK
 62
     9
 10
3750.0
 20
99990.0
 30
0.0
 11
3750.0
 21
99945.066664
 31
0.0
  0
LINE
  5
23
  8
0
  6
BYBLOCK
 62
     9
 10
4250.0
 20
99990.0
 30
0.0
 11
4250.0
 21
99945.066664
 31
0.0
  0
LINE
  5
24
  8
0
  6
BYBLOCK
 62
     9
 10
3770.0
 20
99946.066664
 30
0.0
 11
3952.166667
 21
99946.066664
 31
0.0
  0
LINE
  5
25
  8
0
  6
BYBLOCK
 62
     9
 10
4230.0
 20
99946.066664
 30
0.0
 11
4047.833333
 21
99946.066664
 31
0.0
  0
SOLID
  5
26
  8
0
  6
BYBLOCK
 62
     9
 10
3770.0
 20
99949.399998
 30
0.0
 11
3770.0
 21
99942.733331
 31
0.0
 12
3750.0
 22
99946.066664
 32
0.0
 13
3750.0
 23
99946.066664
 33
0.0
  0
SOLID
  5
27
  8
0
  6
BYBLOCK
 62
     9
 10
4230.0
 20
99949.399998
 30
0.0
 11
4230.0
 21
99942.733331
 31
0.0
 12
4250.0
 22
99946.066664
 32
0.0
 13
4250.0
 23
99946.066664
 33
0.0
  0
TEXT
  5
28
  8
0
  6
BYBLOCK
 62
    11
 10
3959.166667
 20
99928.566664
 30
0.0
 40
35.0
  1
500
  0
POINT
  5
29
  8
DEFPOINTS
  6
BYBLOCK
 62
     0
 10
3750.0
 20
100000.0
 30
0.0
  0
POINT
  5
2B
  8
DEFPOINTS
  6
BYBLOCK
 62
     0
 10
4250.0
 20
100000.0
 30
0.0
  0
POINT
  5
2C
  8
DEFPOINTS
  6
BYBLOCK
 62
     0
 10
4250.0
 20
99946.066664
 30
0.0
  0
ENDBLK
  5
2E
  8
0
  0
BLOCK
  8
0
  2
*D1
 70
     1
 10
0.0
 20
0.0
 30
0.0
  3
*D1
  1

  0
LINE
  5
45
  8
0
  6
BYBLOCK
 62
     9
 10
4260.0
 20
100000.0
 30
0.0
 11
4335.119319
 21
100000.0
 31
0.0
  0
LINE
  5
46
  8
0
  6
BYBLOCK
 62
     9
 10
4219.0
 20
100075.0
 30
0.0
 11
4335.119319
 21
100075.0
 31
0.0
  0
LINE
  5
47
  8
0
  6
BYBLOCK
 62
     9
 10
4334.119319
 20
99980.0
 30
0.0
 11
4334.119319
 21
99960.0
 31
0.0
  0
LINE
  5
48
  8
0
  6
BYBLOCK
 62
     9
 10
4334.119319
 20
100095.0
 30
0.0
 11
4334.119319
 21
100115.0
 31
0.0
  0
SOLID
  5
49
  8
0
  6
BYBLOCK
 62
     9
 10
4330.785986
 20
99980.0
 30
0.0
 11
4337.452653
 21
99980.0
 31
0.0
 12
4334.119319
 22
100000.0
 32
0.0
 13
4334.119319
 23
100000.0
 33
0.0
  0
SOLID
  5
4A
  8
0
  6
BYBLOCK
 62
     9
 10
4330.785986
 20
100095.0
 30
0.0
 11
4337.452653
 21
100095.0
 31
0.0
 12
4334.119319
 22
100075.0
 32
0.0
 13
4334.119319
 23
100075.0
 33
0.0
  0
TEXT
  5
4B
  8
0
  6
BYBLOCK
 62
    11
 10
4351.619319
 20
100008.333333
 30
0.0
 40
35.0
  1
75
 50
90.0
  0
POINT
  5
4C
  8
DEFPOINTS
  6
BYBLOCK
 62
     0
 10
4250.0
 20
100000.0
 30
0.0
  0
POINT
  5
4D
  8
DEFPOINTS
  6
BYBLOCK
 62
     0
 10
4209.0
 20
100075.0
 30
0.0
  0
POINT
  5
4E
  8
DEFPOINTS
  6
BYBLOCK
 62
     0
 10
4334.119319
 20
100075.0
 30
0.0
  0
ENDBLK
  5
50
  8
0
  0
ENDSEC
  0
SECTION
  2
ENTITIES
  0
DIMENSION
  5
20
  8
TEAM-MAS
  2
*D0
 10
250.0
 20
-53.933336
 30
0.0
 11
0.0
 21
-53.933336
 31
0.0
 12
-4000.0
 22
-100000.0
 32
0.0
 13
-250.0
 23
0.0
 33
0.0
 14
250.0
 24
0.0
 34
0.0
1001
ACAD
1000
DSTYLE
1002
{
1070
    40
1040
1.0
1002
}
  0
LINE
  5
2F
  8
TEAM-DET2
 10
-100.252279
 20
17.998557
 30
0.0
 11
99.751017
 21
17.998557
 31
0.0
  0
LINE
  5
31
  8
TEAM-DET2
 10
-209.0
 20
75.0
 30
0.0
 11
209.0
 21
75.0
 31
0.0
  0
LINE
  5
32
  8
TEAM-DET2
 10
-250.0
 20
0.0
 30
0.0
 11
250.0
 21
0.0
 31
0.0
  0
TEXT
  5
33
  8
TEAM-TXT
 10
-277.946164
 20
87.880016
 30
0.0
 40
30.0
  1
team 871083
 41
0.8
 51
15.0
  7
TEAM
  0
LINE
  5
36
  8
TEAM-DET2
 10
-100.252279
 20
17.998557
 30
0.0
 11
-100.252279
 21
40.0
 31
0.0
  0
LINE
  5
37
  8
TEAM-DET2
 10
-250.0
 20
40.0
 30
0.0
 11
-100.252279
 21
40.0
 31
0.0
  0
LINE
  5
38
  8
TEAM-DET2
 10
-210.0
 20
76.0
 30
0.0
 11
-184.0
 21
76.0
 31
0.0
  0
LINE
  5
39
  8
TEAM-DET2
 10
-209.0
 20
40.0
 30
0.0
 11
-209.0
 21
75.0
 31
0.0
  0
LINE
  5
3A
  8
TEAM-DET2
 10
-210.0
 20
40.0
 30
0.0
 11
-210.0
 21
76.0
 31
0.0
  0
LINE
  5
3B
  8
TEAM-DET2
 10
-184.0
 20
76.0
 30
0.0
 11
-184.0
 21
75.0
 31
0.0
  0
LINE
  5
3C
  8
TEAM-DET2
 10
-250.0
 20
0.0
 30
0.0
 11
-250.0
 21
40.0
 31
0.0
  0
LINE
  5
3D
  8
TEAM-HIDE
 10
-210.0
 20
0.0
 30
0.0
 11
-210.0
 21
40.0
 31
0.0
  0
ARC
  5
40
  8
TEAM-DET3
 10
42.749104
 20
28.504156
 30
0.0
 40
20.002788
 50
328.329432
 51
89.997878
  0
ARC
  5
42
  8
TEAM-DET3
 10
-43.241149
 20
28.499206
 30
0.0
 40
20.007741
 50
90.028515
 51
211.645163
  0
DIMENSION
  5
43
  8
TEAM-MAS
  2
*D1
 10
334.119319
 20
75.0
 30
0.0
 11
334.119319
 21
37.5
 31
0.0
 12
-4000.0
 22
-100000.0
 32
0.0
 13
250.0
 23
0.0
 33
0.0
 14
209.0
 24
75.0
 34
0.0
 50
90.0
1001
ACAD
1000
DSTYLE
1002
{
1070
    40
1040
1.0
1002
}
  0
LINE
  5
51
  8
TEAM-DET2
 10
99.751017
 20
17.998557
 30
0.0
 11
99.751017
 21
40.0
 31
0.0
  0
LINE
  5
52
  8
TEAM-DET3
 10
-43.251107
 20
48.500743
 30
0.0
 11
42.749845
 21
48.500743
 31
0.0
  0
LINE
  5
53
  8
TEAM-DET3
 10
59.456147
 20
39.503532
 30
0.0
 11
-59.950863
 21
39.503532
 31
0.0
  0
LINE
  5
54
  8
TEAM-DET3
 10
62.651079
 20
26.500363
 30
0.0
 11
-63.152024
 21
26.500363
 31
0.0
  0
LINE
  5
55
  8
TEAM-DET2
 10
99.751017
 20
40.0
 30
0.0
 11
250.0
 21
40.0
 31
0.0
  0
LINE
  5
56
  8
TEAM-AXE
 10
32.18025
 20
47.0
 30
0.0
 11
-34.35821
 21
47.0
 31
0.0
  0
LINE
  5
59
  8
TEAM-DET2
 10
210.0
 20
76.0
 30
0.0
 11
184.0
 21
76.0
 31
0.0
  0
LINE
  5
5A
  8
TEAM-DET2
 10
209.0
 20
40.0
 30
0.0
 11
209.0
 21
75.0
 31
0.0
  0
LINE
  5
5B
  8
TEAM-DET2
 10
184.0
 20
76.0
 30
0.0
 11
184.0
 21
75.0
 31
0.0
  0
LINE
  5
5C
  8
TEAM-DET2
 10
210.0
 20
40.0
 30
0.0
 11
210.0
 21
76.0
 31
0.0
  0
LINE
  5
5D
  8
TEAM-DET2
 10
250.0
 20
0.0
 30
0.0
 11
250.0
 21
40.0
 31
0.0
  0
LINE
  5
5E
  8
TEAM-HIDE
 10
210.0
 20
0.0
 30
0.0
 11
210.0
 21
40.0
 31
0.0
  0
LINE
  5
5F
  8
TEAM-AXE
 10
0.0
 20
-16.547463
 30
0.0
 11
0.0
 21
75.0
 31
0.0
  0
CIRCLE
  5
60
  8
TEAM-INSP
 10
0.0
 20
0.0
 30
0.0
 40
10.0
  0
ENDSEC
  0
EOF
