  0
SECTION
  2
HEADER
  9
$ACADVER
  1
AC1009
  9
$INSBASE
 10
0.0
 20
0.0
 30
0.0
  9
$EXTMIN
 10
-330.925819
 20
-60.08781
 30
-0.000006
  9
$EXTMAX
 10
152.692124
 20
1177.267739
 30
0.000006
  9
$LIMMIN
 10
-330.925819
 20
-60.08781
  9
$LIMMAX
 10
152.692124
 20
1177.267739
  9
$ORTHOMODE
 70
     1
  9
$REGENMODE
 70
     1
  9
$FILLMODE
 70
     1
  9
$QTEXTMODE
 70
     0
  9
$MIRRTEXT
 70
     0
  9
$DRAGMODE
 70
     2
  9
$LTSCALE
 40
50.0
  9
$OSMODE
 70
     0
  9
$ATTMODE
 70
     1
  9
$TEXTSIZE
 40
200.0
  9
$TRACEWID
 40
1.0
  9
$TEXTSTYLE
  7
STANDARD
  9
$CLAYER
  8
TEAM-MAS
  9
$CELTYPE
  6
BYLAYER
  9
$CECOLOR
 62
   256
  9
$DIMSCALE
 40
1.0
  9
$DIMASZ
 40
20.0
  9
$DIMEXO
 40
10.0
  9
$DIMDLI
 40
1.0
  9
$DIMRND
 40
0.0
  9
$DIMDLE
 40
0.0
  9
$DIMEXE
 40
1.0
  9
$DIMTP
 40
0.0
  9
$DIMTM
 40
0.0
  9
$DIMTXT
 40
35.0
  9
$DIMCEN
 40
1.0
  9
$DIMTSZ
 40
0.0
  9
$DIMTOL
 70
     0
  9
$DIMLIM
 70
     0
  9
$DIMTIH
 70
     0
  9
$DIMTOH
 70
     0
  9
$DIMSE1
 70
     0
  9
$DIMSE2
 70
     0
  9
$DIMTAD
 70
     0
  9
$DIMZIN
 70
     0
  9
$DIMBLK
  1

  9
$DIMASO
 70
     1
  9
$DIMSHO
 70
     0
  9
$DIMPOST
  1

  9
$DIMAPOST
  1

  9
$DIMALT
 70
     0
  9
$DIMALTD
 70
     2
  9
$DIMALTF
 40
25.4
  9
$DIMLFAC
 40
1.0
  9
$DIMTOFL
 70
     0
  9
$DIMTVP
 40
0.0
  9
$DIMTIX
 70
     0
  9
$DIMSOXD
 70
     0
  9
$DIMSAH
 70
     0
  9
$DIMBLK1
  1

  9
$DIMBLK2
  1

  9
$DIMSTYLE
  2
TEAM
  9
$DIMCLRD
 70
     9
  9
$DIMCLRE
 70
     9
  9
$DIMCLRT
 70
    11
  9
$DIMTFAC
 40
1.0
  9
$DIMGAP
 40
7.0
  9
$LUNITS
 70
     2
  9
$LUPREC
 70
     1
  9
$SKETCHINC
 40
1.0
  9
$FILLETRAD
 40
50.0
  9
$AUNITS
 70
     0
  9
$AUPREC
 70
     0
  9
$MENU
  1
ROPLANS
  9
$ELEVATION
 40
0.0
  9
$PELEVATION
 40
0.0
  9
$THICKNESS
 40
0.0
  9
$LIMCHECK
 70
     0
  9
$BLIPMODE
 70
     1
  9
$CHAMFERA
 40
0.0
  9
$CHAMFERB
 40
0.0
  9
$SKPOLY
 70
     0
  9
$TDCREATE
 40
2450392.957851
  9
$TDUPDATE
 40
2456118.662559
  9
$TDINDWG
 40
5.307301
  9
$TDUSRTIMER
 40
5.307301
  9
$USRTIMER
 70
     1
  9
$ANGBASE
 50
0.0
  9
$ANGDIR
 70
     0
  9
$PDMODE
 70
     0
  9
$PDSIZE
 40
0.0
  9
$PLINEWID
 40
0.0
  9
$COORDS
 70
     2
  9
$SPLFRAME
 70
     0
  9
$SPLINETYPE
 70
     6
  9
$SPLINESEGS
 70
     8
  9
$ATTDIA
 70
     0
  9
$ATTREQ
 70
     0
  9
$HANDLING
 70
     1
  9
$HANDSEED
  5
DE
  9
$SURFTAB1
 70
    24
  9
$SURFTAB2
 70
    24
  9
$SURFTYPE
 70
     6
  9
$SURFU
 70
     6
  9
$SURFV
 70
     6
  9
$UCSNAME
  2

  9
$UCSORG
 10
0.0
 20
0.0
 30
0.0
  9
$UCSXDIR
 10
1.0
 20
0.0
 30
0.0
  9
$UCSYDIR
 10
0.0
 20
1.0
 30
0.0
  9
$PUCSNAME
  2

  9
$PUCSORG
 10
0.0
 20
0.0
 30
0.0
  9
$PUCSXDIR
 10
1.0
 20
0.0
 30
0.0
  9
$PUCSYDIR
 10
0.0
 20
1.0
 30
0.0
  9
$USERI1
 70
     0
  9
$USERI2
 70
     0
  9
$USERI3
 70
     0
  9
$USERI4
 70
     0
  9
$USERI5
 70
     0
  9
$USERR1
 40
0.0
  9
$USERR2
 40
0.0
  9
$USERR3
 40
0.0
  9
$USERR4
 40
0.0
  9
$USERR5
 40
0.0
  9
$WORLDVIEW
 70
     1
  9
$SHADEDGE
 70
     0
  9
$SHADEDIF
 70
    70
  9
$TILEMODE
 70
     1
  9
$MAXACTVP
 70
    16
  9
$PLIMCHECK
 70
     0
  9
$PEXTMIN
 10
-0.805942
 20
0.005011
 30
0.0
  9
$PEXTMAX
 10
20.250094
 20
11.356329
 30
0.0
  9
$PLIMMIN
 10
0.0
 20
0.0
  9
$PLIMMAX
 10
12.0
 20
9.0
  9
$UNITMODE
 70
     0
  9
$VISRETAIN
 70
     0
  9
$PLINEGEN
 70
     0
  9
$PSLTSCALE
 70
     0
  0
ENDSEC
  0
SECTION
  2
TABLES
  0
TABLE
  2
VPORT
 70
     2
  0
VPORT
  2
*ACTIVE
 70
     0
 10
0.0
 20
0.0
 11
1.0
 21
1.0
 12
-89.116848
 22
558.589964
 13
0.0
 23
0.0
 14
1.0
 24
1.0
 15
50.0
 25
50.0
 16
0.0
 26
0.0
 36
1.0
 17
0.0
 27
0.0
 37
0.0
 40
1245.145825
 41
1.911765
 42
50.0
 43
0.0
 44
0.0
 50
0.0
 51
0.0
 71
     0
 72
   100
 73
     1
 74
     1
 75
     0
 76
     0
 77
     0
 78
     0
  0
ENDTAB
  0
TABLE
  2
LTYPE
 70
     3
  0
LTYPE
  2
CONTINUOUS
 70
     0
  3
Solid Line
 72
    65
 73
     0
 40
0.0
  0
LTYPE
  2
31
 70
     0
  3

 72
    65
 73
     4
 40
2.1
 49
1.5
 49
-0.3
 49
0.0
 49
-0.3
  0
LTYPE
  2
22
 70
     0
  3

 72
    65
 73
     2
 40
1.4
 49
1.2
 49
-0.2
  0
ENDTAB
  0
TABLE
  2
LAYER
 70
     9
  0
LAYER
  2
0
 70
     0
 62
     7
  6
CONTINUOUS
  0
LAYER
  2
DEFPOINTS
 70
     0
 62
     7
  6
CONTINUOUS
  0
LAYER
  2
TEAM-AXE
 70
     0
 62
    10
  6
31
  0
LAYER
  2
TEAM-MAS
 70
     0
 62
     9
  6
CONTINUOUS
  0
LAYER
  2
TEAM-TXT
 70
     0
 62
    11
  6
CONTINUOUS
  0
LAYER
  2
TEAM-DET2
 70
     0
 62
    11
  6
CONTINUOUS
  0
LAYER
  2
TEAM-HIDE
 70
     0
 62
     8
  6
22
  0
LAYER
  2
TEAM-DET3
 70
     0
 62
    14
  6
CONTINUOUS
  0
LAYER
  2
TEAM-INSP
 70
     0
 62
     5
  6
CONTINUOUS
  0
ENDTAB
  0
TABLE
  2
STYLE
 70
     2
  0
STYLE
  2
STANDARD
 70
     0
 40
0.0
 41
1.0
 50
0.0
 71
     0
 42
200.0
  3
txt
  4

  0
STYLE
  2
TEAM
 70
     0
 40
0.0
 41
0.8
 50
15.0
 71
     0
 42
7.0
  3
ROMANS.shx
  4

  0
ENDTAB
  0
TABLE
  2
VIEW
 70
     0
  0
ENDTAB
  0
TABLE
  2
UCS
 70
     0
  0
ENDTAB
  0
TABLE
  2
APPID
 70
     1
  0
APPID
  2
ACAD
 70
     0
  0
ENDTAB
  0
TABLE
  2
DIMSTYLE
 70
     1
  0
DIMSTYLE
  2
TEAM
 70
     0
  3

  4

  5

  6

  7

 40
1.0
 41
20.0
 42
10.0
 43
1.0
 44
1.0
 45
0.0
 46
0.0
 47
0.0
 48
0.0
140
35.0
141
1.0
142
0.0
143
25.4
144
1.0
145
0.0
146
1.0
147
7.0
 71
     0
 72
     0
 73
     0
 74
     0
 75
     0
 76
     0
 77
     0
 78
     0
170
     0
171
     2
172
     0
173
     0
174
     0
175
     0
176
     9
177
     9
178
    11
  0
ENDTAB
  0
ENDSEC
  0
SECTION
  2
BLOCKS
  0
BLOCK
  8
0
  2
$MODEL_SPACE
 70
     0
 10
0.0
 20
0.0
 30
0.0
  3
$MODEL_SPACE
  1

  0
ENDBLK
  5
D7
  8
0
  0
BLOCK
 67
     1
  8
0
  2
$PAPER_SPACE
 70
     0
 10
0.0
 20
0.0
 30
0.0
  3
$PAPER_SPACE
  1

  0
ENDBLK
  5
D5
 67
     1
  8
0
  0
BLOCK
  8
0
  2
*D0
 70
     1
 10
0.0
 20
0.0
 30
0.0
  3
*D0
  1

  0
LINE
  5
5D
  8
0
  6
BYBLOCK
 62
     9
 10
8010.0
 20
100000.0
 30
0.0
 11
8096.128903
 21
100000.0
 31
0.0
  0
LINE
  5
5E
  8
0
  6
BYBLOCK
 62
     9
 10
8048.671546
 20
100400.003646
 30
0.0
 11
8096.128903
 21
100400.003646
 31
0.0
  0
LINE
  5
5F
  8
0
  6
BYBLOCK
 62
     9
 10
8095.128903
 20
100020.0
 30
0.0
 11
8095.128903
 21
100152.168489
 31
0.0
  0
LINE
  5
60
  8
0
  6
BYBLOCK
 62
     9
 10
8095.128903
 20
100380.003646
 30
0.0
 11
8095.128903
 21
100247.835156
 31
0.0
  0
SOLID
  5
61
  8
0
  6
BYBLOCK
 62
     9
 10
8091.79557
 20
100020.0
 30
0.0
 11
8098.462236
 21
100020.0
 31
0.0
 12
8095.128903
 22
100000.0
 32
0.0
 13
8095.128903
 23
100000.0
 33
0.0
  0
SOLID
  5
62
  8
0
  6
BYBLOCK
 62
     9
 10
8091.79557
 20
100380.003646
 30
0.0
 11
8098.462236
 21
100380.003646
 31
0.0
 12
8095.128903
 22
100400.003646
 32
0.0
 13
8095.128903
 23
100400.003646
 33
0.0
  0
TEXT
  5
63
  8
0
  6
BYBLOCK
 62
    11
 10
8112.628903
 20
100159.168489
 30
0.0
 40
35.0
  1
400
 50
90.0
  0
POINT
  5
64
  8
DEFPOINTS
  6
BYBLOCK
 62
     0
 10
8000.0
 20
100000.0
 30
0.0
  0
POINT
  5
65
  8
DEFPOINTS
  6
BYBLOCK
 62
     0
 10
8038.671546
 20
100400.003646
 30
0.0
  0
POINT
  5
66
  8
DEFPOINTS
  6
BYBLOCK
 62
     0
 10
8095.128903
 20
100400.003646
 30
0.0
  0
ENDBLK
  5
68
  8
0
  0
BLOCK
  8
0
  2
*D1
 70
     1
 10
0.0
 20
0.0
 30
0.0
  3
*D1
  1

  0
LINE
  5
4F
  8
0
  6
BYBLOCK
 62
     9
 10
8010.0
 20
100000.0
 30
0.0
 11
8136.167118
 21
100000.0
 31
0.0
  0
LINE
  5
50
  8
0
  6
BYBLOCK
 62
     9
 10
8009.999682
 20
101120.000365
 30
0.0
 11
8136.167118
 21
101120.000365
 31
0.0
  0
LINE
  5
51
  8
0
  6
BYBLOCK
 62
     9
 10
8135.167118
 20
100020.0
 30
0.0
 11
8135.167118
 21
100503.416849
 31
0.0
  0
LINE
  5
52
  8
0
  6
BYBLOCK
 62
     9
 10
8135.167118
 20
101100.000365
 30
0.0
 11
8135.167118
 21
100616.583516
 31
0.0
  0
SOLID
  5
53
  8
0
  6
BYBLOCK
 62
     9
 10
8131.833785
 20
100020.0
 30
0.0
 11
8138.500452
 21
100020.0
 31
0.0
 12
8135.167118
 22
100000.0
 32
0.0
 13
8135.167118
 23
100000.0
 33
0.0
  0
SOLID
  5
54
  8
0
  6
BYBLOCK
 62
     9
 10
8131.833785
 20
101100.000365
 30
0.0
 11
8138.500452
 21
101100.000365
 31
0.0
 12
8135.167118
 22
101120.000365
 32
0.0
 13
8135.167118
 23
101120.000365
 33
0.0
  0
TEXT
  5
55
  8
0
  6
BYBLOCK
 62
    11
 10
8152.667118
 20
100510.416849
 30
0.0
 40
35.0
  1
1120
 50
90.0
  0
POINT
  5
56
  8
DEFPOINTS
  6
BYBLOCK
 62
     0
 10
8000.0
 20
100000.0
 30
0.0
  0
POINT
  5
57
  8
DEFPOINTS
  6
BYBLOCK
 62
     0
 10
7999.999682
 20
101120.000365
 30
0.0
  0
POINT
  5
58
  8
DEFPOINTS
  6
BYBLOCK
 62
     0
 10
8135.167118
 20
101120.000365
 30
0.0
  0
ENDBLK
  5
5A
  8
0
  0
BLOCK
  8
0
  2
*D2
 70
     1
 10
0.0
 20
0.0
 30
0.0
  3
*D2
  1

  0
LINE
  5
40
  8
0
  6
BYBLOCK
 62
     9
 10
7999.500103
 20
99998.000016
 30
0.0
 11
7999.500103
 21
100028.808787
 31
0.0
  0
LINE
  5
41
  8
0
  6
BYBLOCK
 62
     9
 10
7951.500103
 20
99998.0
 30
0.0
 11
7951.500103
 21
100028.808787
 31
0.0
  0
LINE
  5
42
  8
0
  6
BYBLOCK
 62
     9
 10
8019.500103
 20
100027.808787
 30
0.0
 11
8039.500103
 21
100027.808787
 31
0.0
  0
LINE
  5
43
  8
0
  6
BYBLOCK
 62
     9
 10
7931.500103
 20
100027.808787
 30
0.0
 11
7911.500103
 21
100027.808787
 31
0.0
  0
TEXT
  5
44
  8
0
  6
BYBLOCK
 62
    11
 10
7844.577543
 20
100010.308787
 30
0.0
 40
35.0
  1
48
  0
LINE
  5
45
  8
0
  6
BYBLOCK
 62
     9
 10
7999.500103
 20
100027.808787
 30
0.0
 11
7951.500103
 21
100027.808787
 31
0.0
  0
SOLID
  5
46
  8
0
  6
BYBLOCK
 62
     9
 10
8019.500103
 20
100031.142121
 30
0.0
 11
8019.500103
 21
100024.475454
 31
0.0
 12
7999.500103
 22
100027.808787
 32
0.0
 13
7999.500103
 23
100027.808787
 33
0.0
  0
SOLID
  5
47
  8
0
  6
BYBLOCK
 62
     9
 10
7931.500103
 20
100031.142121
 30
0.0
 11
7931.500103
 21
100024.475454
 31
0.0
 12
7951.500103
 22
100027.808787
 32
0.0
 13
7951.500103
 23
100027.808787
 33
0.0
  0
POINT
  5
48
  8
DEFPOINTS
  6
BYBLOCK
 62
     0
 10
7999.500103
 20
99988.000016
 30
0.0
  0
POINT
  5
49
  8
DEFPOINTS
  6
BYBLOCK
 62
     0
 10
7951.500103
 20
99988.0
 30
0.0
  0
POINT
  5
4A
  8
DEFPOINTS
  6
BYBLOCK
 62
     0
 10
7951.500103
 20
100027.808787
 30
0.0
  0
ENDBLK
  5
4C
  8
0
  0
BLOCK
  8
0
  2
*D3
 70
     1
 10
0.0
 20
0.0
 30
0.0
  3
*D3
  1

  0
LINE
  5
22
  8
0
  6
BYBLOCK
 62
     9
 10
8010.0
 20
100000.0
 30
0.0
 11
8045.71643
 21
100000.0
 31
0.0
  0
LINE
  5
23
  8
0
  6
BYBLOCK
 62
     9
 10
8009.500107
 20
99980.000016
 30
0.0
 11
8045.71643
 21
99980.000016
 31
0.0
  0
LINE
  5
24
  8
0
  6
BYBLOCK
 62
     9
 10
8044.71643
 20
100020.0
 30
0.0
 11
8044.71643
 21
100040.0
 31
0.0
  0
LINE
  5
25
  8
0
  6
BYBLOCK
 62
     9
 10
8044.71643
 20
99960.000016
 30
0.0
 11
8044.71643
 21
99940.000016
 31
0.0
  0
TEXT
  5
26
  8
0
  6
BYBLOCK
 62
    11
 10
8062.21643
 20
100042.888182
 30
0.0
 40
35.0
  1
0-200
 50
90.0
  0
LINE
  5
27
  8
0
  6
BYBLOCK
 62
     9
 10
8044.71643
 20
100000.0
 30
0.0
 11
8044.71643
 21
99980.000016
 31
0.0
  0
SOLID
  5
28
  8
0
  6
BYBLOCK
 62
     9
 10
8041.383097
 20
100020.0
 30
0.0
 11
8048.049763
 21
100020.0
 31
0.0
 12
8044.71643
 22
100000.0
 32
0.0
 13
8044.71643
 23
100000.0
 33
0.0
  0
SOLID
  5
29
  8
0
  6
BYBLOCK
 62
     9
 10
8041.383097
 20
99960.000016
 30
0.0
 11
8048.049763
 21
99960.000016
 31
0.0
 12
8044.71643
 22
99980.000016
 32
0.0
 13
8044.71643
 23
99980.000016
 33
0.0
  0
POINT
  5
2A
  8
DEFPOINTS
  6
BYBLOCK
 62
     0
 10
8000.0
 20
100000.0
 30
0.0
  0
POINT
  5
2C
  8
DEFPOINTS
  6
BYBLOCK
 62
     0
 10
7999.500107
 20
99980.000016
 30
0.0
  0
POINT
  5
2D
  8
DEFPOINTS
  6
BYBLOCK
 62
     0
 10
8044.71643
 20
99980.000016
 30
0.0
  0
ENDBLK
  5
2F
  8
0
  0
BLOCK
  8
0
  2
*D4
 70
     1
 10
0.0
 20
0.0
 30
0.0
  3
*D4
  1

  0
LINE
  5
32
  8
0
  6
BYBLOCK
 62
     9
 10
7999.999682
 20
101130.000365
 30
0.0
 11
7999.999682
 21
101160.702812
 31
0.0
  0
LINE
  5
33
  8
0
  6
BYBLOCK
 62
     9
 10
7924.999711
 20
101098.690073
 30
0.0
 11
7924.999711
 21
101160.702812
 31
0.0
  0
LINE
  5
34
  8
0
  6
BYBLOCK
 62
     9
 10
8019.999682
 20
101159.702812
 30
0.0
 11
8039.999682
 21
101159.702812
 31
0.0
  0
LINE
  5
35
  8
0
  6
BYBLOCK
 62
     9
 10
7904.999711
 20
101159.702812
 30
0.0
 11
7884.999711
 21
101159.702812
 31
0.0
  0
SOLID
  5
36
  8
0
  6
BYBLOCK
 62
     9
 10
8019.999682
 20
101163.036146
 30
0.0
 11
8019.999682
 21
101156.369479
 31
0.0
 12
7999.999682
 22
101159.702812
 32
0.0
 13
7999.999682
 23
101159.702812
 33
0.0
  0
SOLID
  5
37
  8
0
  6
BYBLOCK
 62
     9
 10
7904.999711
 20
101163.036146
 30
0.0
 11
7904.999711
 21
101156.369479
 31
0.0
 12
7924.999711
 22
101159.702812
 32
0.0
 13
7924.999711
 23
101159.702812
 33
0.0
  0
TEXT
  5
38
  8
0
  6
BYBLOCK
 62
    11
 10
7933.33303
 20
101142.202812
 30
0.0
 40
35.0
  1
75
  0
POINT
  5
39
  8
DEFPOINTS
  6
BYBLOCK
 62
     0
 10
7999.999682
 20
101120.000365
 30
0.0
  0
POINT
  5
3A
  8
DEFPOINTS
  6
BYBLOCK
 62
     0
 10
7924.999711
 20
101088.690073
 30
0.0
  0
POINT
  5
3B
  8
DEFPOINTS
  6
BYBLOCK
 62
     0
 10
7924.999711
 20
101159.702812
 30
0.0
  0
ENDBLK
  5
3D
  8
0
  0
ENDSEC
  0
SECTION
  2
ENTITIES
  0
DIMENSION
  5
20
  8
TEAM-MAS
  2
*D3
 10
44.71643
 20
-19.999984
 30
0.0
 11
44.71643
 21
115.804849
 31
0.0
 12
-8000.0
 22
-100000.0
 32
0.0
 70
   128
  1
0-200
 13
0.0
 23
0.0
 33
0.0
 14
-0.499893
 24
-19.999984
 34
0.0
 50
90.0
1001
ACAD
1000
DSTYLE
1002
{
1070
    40
1040
1.0
1002
}
  0
DIMENSION
  5
30
  8
TEAM-MAS
  2
*D4
 10
-75.000289
 20
1159.702812
 30
0.0
 11
-37.500304
 21
1159.702812
 31
0.0
 12
-8000.0
 22
-100000.0
 32
0.0
 13
-0.000318
 23
1120.000365
 33
0.0
 14
-75.000289
 24
1088.690073
 34
0.0
1001
ACAD
1000
DSTYLE
1002
{
1070
    40
1040
1.0
1002
}
  0
DIMENSION
  5
3E
  8
TEAM-MAS
  2
*D2
 10
-48.499897
 20
27.808787
 30
0.0
 11
-126.255791
 21
27.808787
 31
0.0
 12
-8000.0
 22
-100000.0
 32
0.0
 70
   128
 13
-0.499897
 23
-11.999984
 33
0.0
 14
-48.499897
 24
-12.0
 34
0.0
1001
ACAD
1000
DSTYLE
1002
{
1070
    40
1040
1.0
1002
}
  0
DIMENSION
  5
4D
  8
TEAM-MAS
  2
*D1
 10
135.167118
 20
1120.000365
 30
0.0
 11
135.167118
 21
560.000182
 31
0.0
 12
-8000.0
 22
-100000.0
 32
0.0
 13
0.0
 23
0.0
 33
0.0
 14
-0.000318
 24
1120.000365
 34
0.0
 50
90.0
1001
ACAD
1000
DSTYLE
1002
{
1070
    40
1040
1.0
1002
}
  0
DIMENSION
  5
5B
  8
TEAM-MAS
  2
*D0
 10
95.128903
 20
400.003646
 30
0.0
 11
95.128903
 21
200.001823
 31
0.0
 12
-8000.0
 22
-100000.0
 32
0.0
 13
0.0
 23
0.0
 33
0.0
 14
38.671546
 24
400.003646
 34
0.0
 50
90.0
1001
ACAD
1000
DSTYLE
1002
{
1070
    40
1040
1.0
1002
}
  0
ARC
  5
69
  8
TEAM-HIDE
 10
-8.500277
 20
1056.440095
 30
0.0
 40
5.0
 50
270.000019
 51
0.000019
  0
LINE
  5
6C
  8
TEAM-HIDE
 10
-3.500283
 20
1072.940095
 30
0.0
 11
-3.500277
 21
1056.440095
 31
0.0
  0
ARC
  5
6D
  8
TEAM-HIDE
 10
-8.500283
 20
1072.940095
 30
0.0
 40
5.0
 50
0.000019
 51
90.000019
  0
LINE
  5
6E
  8
TEAM-DET3
 10
-71.500283
 20
1072.940073
 30
0.0
 11
-71.500277
 21
1056.440073
 31
0.0
  0
ARC
  5
70
  8
TEAM-DET3
 10
-66.500277
 20
1056.440075
 30
0.0
 40
5.0
 50
180.000019
 51
270.000019
  0
ARC
  5
71
  8
TEAM-DET3
 10
-66.500283
 20
1072.940075
 30
0.0
 40
5.0
 50
90.000019
 51
180.000019
  0
LINE
  5
72
  8
TEAM-DET3
 10
-75.000289
 20
1088.690073
 30
0.0
 11
-40.000331
 21
1088.690083
 31
0.0
  0
LINE
  5
73
  8
TEAM-DET3
 10
-66.500285
 20
1077.940075
 30
0.0
 11
-40.000327
 21
1077.940083
 31
0.0
  0
LINE
  5
74
  8
TEAM-DET3
 10
-66.500277
 20
1051.440075
 30
0.0
 11
-40.000319
 21
1051.440083
 31
0.0
  0
LINE
  5
75
  8
TEAM-HIDE
 10
-40.000331
 20
1088.690083
 30
0.0
 11
-0.000289
 21
1088.690097
 31
0.0
  0
LINE
  5
76
  8
TEAM-HIDE
 10
-40.000327
 20
1077.940083
 30
0.0
 11
-8.500285
 21
1077.940095
 31
0.0
  0
LINE
  5
77
  8
TEAM-HIDE
 10
-40.000319
 20
1051.440083
 30
0.0
 11
-8.500277
 21
1051.440095
 31
0.0
  0
ARC
  5
78
  8
TEAM-HIDE
 10
-8.499973
 20
127.300667
 30
0.0
 40
5.0
 50
0.000019
 51
90.000019
  0
ARC
  5
79
  8
TEAM-HIDE
 10
-8.499967
 20
110.800667
 30
0.0
 40
5.0
 50
270.000019
 51
0.000019
  0
LINE
  5
7A
  8
TEAM-HIDE
 10
-3.499973
 20
127.300667
 30
0.0
 11
-3.499967
 21
110.800667
 31
0.0
  0
ARC
  5
7B
  8
TEAM-DET3
 10
-66.499973
 20
127.300647
 30
0.0
 40
5.0
 50
90.000019
 51
180.000019
  0
ARC
  5
7C
  8
TEAM-DET3
 10
-66.499967
 20
110.800647
 30
0.0
 40
5.0
 50
180.000019
 51
270.000019
  0
LINE
  5
7D
  8
TEAM-DET3
 10
-71.499973
 20
127.300645
 30
0.0
 11
-71.499967
 21
110.800645
 31
0.0
  0
LINE
  5
7E
  8
TEAM-DET3
 10
-74.999961
 20
95.050645
 30
0.0
 11
-40.000003
 21
95.050655
 31
0.0
  0
LINE
  5
7F
  8
TEAM-DET3
 10
-66.499965
 20
105.800647
 30
0.0
 11
-40.000007
 21
105.800655
 31
0.0
  0
LINE
  5
80
  8
TEAM-DET3
 10
-66.499973
 20
132.300647
 30
0.0
 11
-40.000015
 21
132.300655
 31
0.0
  0
LINE
  5
81
  8
TEAM-HIDE
 10
-40.000003
 20
95.050655
 30
0.0
 11
0.000039
 21
95.050669
 31
0.0
  0
LINE
  5
82
  8
TEAM-HIDE
 10
-40.000007
 20
105.800655
 30
0.0
 11
-8.499965
 21
105.800667
 31
0.0
  0
LINE
  5
83
  8
TEAM-HIDE
 10
-40.000015
 20
132.300655
 30
0.0
 11
-8.499973
 21
132.300667
 31
0.0
  0
LINE
  5
84
  8
TEAM-DET3
 10
-75.000289
 20
1088.690073
 30
0.0
 11
-74.999961
 21
95.050645
 31
0.0
  0
LINE
  5
85
  8
TEAM-AXE
 10
38.671546
 20
400.003646
 30
0.0
 11
-20.000318
 21
400.003646
 31
0.0
  0
ARC
  5
88
  8
TEAM-AXE
 10
-16.817601
 20
368.842757
 30
0.0
 40
31.183326
 50
92.173628
 51
180.357981
  0
LINE
  5
89
  8
TEAM-AXE
 10
-48.000318
 20
368.647926
 30
0.0
 11
-48.000318
 21
312.306585
 31
0.0
  0
LINE
  5
8A
  8
TEAM-AXE
 10
-45.828065
 20
1100.000352
 30
0.0
 11
2.241706
 21
1100.000366
 31
0.0
  0
LINE
  5
8B
  8
TEAM-DET2
 10
-40.00036
 20
1120.000352
 30
0.0
 11
-0.000318
 21
1120.000365
 31
0.0
  0
LINE
  5
8D
  8
TEAM-DET3
 10
-0.499897
 20
-11.999984
 30
0.0
 11
-0.499893
 21
-19.999984
 31
0.0
  0
LINE
  5
8E
  8
TEAM-DET3
 10
-2.499917
 20
68.656183
 30
0.0
 11
-2.499897
 21
-11.999984
 31
0.0
  0
LINE
  5
8F
  8
TEAM-HIDE
 10
-12.499897
 20
-11.999988
 30
0.0
 11
-12.499893
 21
-19.999988
 31
0.0
  0
LINE
  5
90
  8
TEAM-HIDE
 10
-2.500004
 20
418.644297
 30
0.0
 11
-2.499917
 21
68.656183
 31
0.0
  0
LINE
  5
91
  8
TEAM-AXE
 10
-24.499899
 20
-5.906964
 30
0.0
 11
-24.499891
 21
-25.334526
 31
0.0
  0
LINE
  5
92
  8
TEAM-HIDE
 10
-36.499897
 20
-11.999996
 30
0.0
 11
-36.499893
 21
-19.999996
 31
0.0
  0
LINE
  5
93
  8
TEAM-DET3
 10
-48.499897
 20
-12.0
 30
0.0
 11
-48.499893
 21
-20.0
 31
0.0
  0
LINE
  5
94
  8
TEAM-DET3
 10
-37.499917
 20
68.656171
 30
0.0
 11
-37.499897
 21
-11.999996
 31
0.0
  0
LINE
  5
95
  8
TEAM-HIDE
 10
-37.500004
 20
418.644285
 30
0.0
 11
-37.499917
 21
68.656171
 31
0.0
  0
LINE
  5
96
  8
TEAM-DET3
 10
-48.499897
 20
-12.0
 30
0.0
 11
-0.499897
 21
-11.999984
 31
0.0
  0
LINE
  5
97
  8
TEAM-DET3
 10
-48.499893
 20
-20.0
 30
0.0
 11
-0.499893
 21
-19.999984
 31
0.0
  0
LINE
  5
98
  8
TEAM-HIDE
 10
-37.500004
 20
418.644285
 30
0.0
 11
-2.500004
 21
418.644297
 31
0.0
  0
CIRCLE
  5
99
  8
TEAM-HIDE
 10
-19.999919
 20
79.656177
 30
0.0
 40
10.0
  0
LINE
  5
9A
  8
TEAM-DET2
 10
-39.999959
 20
68.65617
 30
0.0
 11
0.000083
 21
68.656183
 31
0.0
  0
LINE
  5
9B
  8
TEAM-DET2
 10
-0.000318
 20
1120.000365
 30
0.0
 11
0.000083
 21
68.656183
 31
0.0
  0
LINE
  5
9C
  8
TEAM-DET2
 10
-40.00036
 20
1120.000352
 30
0.0
 11
-39.999959
 21
68.65617
 31
0.0
  0
TEXT
  5
9D
  8
TEAM-TXT
 10
-338.1407
 20
427.951759
 30
0.0
 40
30.0
  1
team 871083
 41
0.8
 51
15.0
  7
TEAM
  0
CIRCLE
  5
A0
  8
TEAM-INSP
 10
0.0
 20
0.0
 30
0.0
 40
10.0
  0
ENDSEC
  0
EOF
