  0
SECTION
  2
HEADER
  9
$ACADVER
  1
AC1009
  9
$INSBASE
 10
0.0
 20
0.0
 30
0.0
  9
$EXTMIN
 10
-311.667523
 20
-60.08781
 30
-0.000006
  9
$EXTMAX
 10
505.860535
 20
1172.133089
 30
0.000006
  9
$LIMMIN
 10
-311.667523
 20
-60.08781
  9
$LIMMAX
 10
505.860535
 20
1172.133089
  9
$ORTHOMODE
 70
     1
  9
$REGENMODE
 70
     1
  9
$FILLMODE
 70
     1
  9
$QTEXTMODE
 70
     0
  9
$MIRRTEXT
 70
     0
  9
$DRAGMODE
 70
     2
  9
$LTSCALE
 40
50.0
  9
$OSMODE
 70
     0
  9
$ATTMODE
 70
     1
  9
$TEXTSIZE
 40
200.0
  9
$TRACEWID
 40
1.0
  9
$TEXTSTYLE
  7
STANDARD
  9
$CLAYER
  8
TEAM-MAS
  9
$CELTYPE
  6
BYLAYER
  9
$CECOLOR
 62
   256
  9
$DIMSCALE
 40
1.0
  9
$DIMASZ
 40
20.0
  9
$DIMEXO
 40
10.0
  9
$DIMDLI
 40
1.0
  9
$DIMRND
 40
0.0
  9
$DIMDLE
 40
0.0
  9
$DIMEXE
 40
1.0
  9
$DIMTP
 40
0.0
  9
$DIMTM
 40
0.0
  9
$DIMTXT
 40
35.0
  9
$DIMCEN
 40
1.0
  9
$DIMTSZ
 40
0.0
  9
$DIMTOL
 70
     0
  9
$DIMLIM
 70
     0
  9
$DIMTIH
 70
     0
  9
$DIMTOH
 70
     0
  9
$DIMSE1
 70
     0
  9
$DIMSE2
 70
     0
  9
$DIMTAD
 70
     0
  9
$DIMZIN
 70
     0
  9
$DIMBLK
  1

  9
$DIMASO
 70
     1
  9
$DIMSHO
 70
     0
  9
$DIMPOST
  1

  9
$DIMAPOST
  1

  9
$DIMALT
 70
     0
  9
$DIMALTD
 70
     2
  9
$DIMALTF
 40
25.4
  9
$DIMLFAC
 40
1.0
  9
$DIMTOFL
 70
     0
  9
$DIMTVP
 40
0.0
  9
$DIMTIX
 70
     0
  9
$DIMSOXD
 70
     0
  9
$DIMSAH
 70
     0
  9
$DIMBLK1
  1

  9
$DIMBLK2
  1

  9
$DIMSTYLE
  2
TEAM
  9
$DIMCLRD
 70
     9
  9
$DIMCLRE
 70
     9
  9
$DIMCLRT
 70
    11
  9
$DIMTFAC
 40
1.0
  9
$DIMGAP
 40
7.0
  9
$LUNITS
 70
     2
  9
$LUPREC
 70
     1
  9
$SKETCHINC
 40
1.0
  9
$FILLETRAD
 40
50.0
  9
$AUNITS
 70
     0
  9
$AUPREC
 70
     0
  9
$MENU
  1
ROPLANS
  9
$ELEVATION
 40
0.0
  9
$PELEVATION
 40
0.0
  9
$THICKNESS
 40
0.0
  9
$LIMCHECK
 70
     0
  9
$BLIPMODE
 70
     1
  9
$CHAMFERA
 40
0.0
  9
$CHAMFERB
 40
0.0
  9
$SKPOLY
 70
     0
  9
$TDCREATE
 40
2450392.957851
  9
$TDUPDATE
 40
2456118.662559
  9
$TDINDWG
 40
5.307301
  9
$TDUSRTIMER
 40
5.307301
  9
$USRTIMER
 70
     1
  9
$ANGBASE
 50
0.0
  9
$ANGDIR
 70
     0
  9
$PDMODE
 70
     0
  9
$PDSIZE
 40
0.0
  9
$PLINEWID
 40
0.0
  9
$COORDS
 70
     2
  9
$SPLFRAME
 70
     0
  9
$SPLINETYPE
 70
     6
  9
$SPLINESEGS
 70
     8
  9
$ATTDIA
 70
     0
  9
$ATTREQ
 70
     0
  9
$HANDLING
 70
     1
  9
$HANDSEED
  5
29C
  9
$SURFTAB1
 70
    24
  9
$SURFTAB2
 70
    24
  9
$SURFTYPE
 70
     6
  9
$SURFU
 70
     6
  9
$SURFV
 70
     6
  9
$UCSNAME
  2

  9
$UCSORG
 10
0.0
 20
0.0
 30
0.0
  9
$UCSXDIR
 10
1.0
 20
0.0
 30
0.0
  9
$UCSYDIR
 10
0.0
 20
1.0
 30
0.0
  9
$PUCSNAME
  2

  9
$PUCSORG
 10
0.0
 20
0.0
 30
0.0
  9
$PUCSXDIR
 10
1.0
 20
0.0
 30
0.0
  9
$PUCSYDIR
 10
0.0
 20
1.0
 30
0.0
  9
$USERI1
 70
     0
  9
$USERI2
 70
     0
  9
$USERI3
 70
     0
  9
$USERI4
 70
     0
  9
$USERI5
 70
     0
  9
$USERR1
 40
0.0
  9
$USERR2
 40
0.0
  9
$USERR3
 40
0.0
  9
$USERR4
 40
0.0
  9
$USERR5
 40
0.0
  9
$WORLDVIEW
 70
     1
  9
$SHADEDGE
 70
     0
  9
$SHADEDIF
 70
    70
  9
$TILEMODE
 70
     1
  9
$MAXACTVP
 70
    16
  9
$PLIMCHECK
 70
     0
  9
$PEXTMIN
 10
-0.805942
 20
0.005011
 30
0.0
  9
$PEXTMAX
 10
20.250094
 20
11.356329
 30
0.0
  9
$PLIMMIN
 10
0.0
 20
0.0
  9
$PLIMMAX
 10
12.0
 20
9.0
  9
$UNITMODE
 70
     0
  9
$VISRETAIN
 70
     0
  9
$PLINEGEN
 70
     0
  9
$PSLTSCALE
 70
     0
  0
ENDSEC
  0
SECTION
  2
TABLES
  0
TABLE
  2
VPORT
 70
     2
  0
VPORT
  2
*ACTIVE
 70
     0
 10
0.0
 20
0.0
 11
1.0
 21
1.0
 12
97.096506
 22
556.02264
 13
0.0
 23
0.0
 14
1.0
 24
1.0
 15
50.0
 25
50.0
 16
0.0
 26
0.0
 36
1.0
 17
0.0
 27
0.0
 37
0.0
 40
1239.978848
 41
1.911765
 42
50.0
 43
0.0
 44
0.0
 50
0.0
 51
0.0
 71
     0
 72
   100
 73
     1
 74
     1
 75
     0
 76
     0
 77
     0
 78
     0
  0
ENDTAB
  0
TABLE
  2
LTYPE
 70
     3
  0
LTYPE
  2
CONTINUOUS
 70
     0
  3
Solid Line
 72
    65
 73
     0
 40
0.0
  0
LTYPE
  2
31
 70
     0
  3

 72
    65
 73
     4
 40
2.1
 49
1.5
 49
-0.3
 49
0.0
 49
-0.3
  0
LTYPE
  2
22
 70
     0
  3

 72
    65
 73
     2
 40
1.4
 49
1.2
 49
-0.2
  0
ENDTAB
  0
TABLE
  2
LAYER
 70
     9
  0
LAYER
  2
0
 70
     0
 62
     7
  6
CONTINUOUS
  0
LAYER
  2
DEFPOINTS
 70
     0
 62
     7
  6
CONTINUOUS
  0
LAYER
  2
TEAM-AXE
 70
     0
 62
    10
  6
31
  0
LAYER
  2
TEAM-MAS
 70
     0
 62
     9
  6
CONTINUOUS
  0
LAYER
  2
TEAM-TXT
 70
     0
 62
    11
  6
CONTINUOUS
  0
LAYER
  2
TEAM-DET2
 70
     0
 62
    11
  6
CONTINUOUS
  0
LAYER
  2
TEAM-HIDE
 70
     0
 62
     8
  6
22
  0
LAYER
  2
TEAM-DET3
 70
     0
 62
    14
  6
CONTINUOUS
  0
LAYER
  2
TEAM-INSP
 70
     0
 62
     5
  6
CONTINUOUS
  0
ENDTAB
  0
TABLE
  2
STYLE
 70
     2
  0
STYLE
  2
STANDARD
 70
     0
 40
0.0
 41
1.0
 50
0.0
 71
     0
 42
200.0
  3
txt
  4

  0
STYLE
  2
TEAM
 70
     0
 40
0.0
 41
0.8
 50
15.0
 71
     0
 42
7.0
  3
ROMANS.shx
  4

  0
ENDTAB
  0
TABLE
  2
VIEW
 70
     0
  0
ENDTAB
  0
TABLE
  2
UCS
 70
     0
  0
ENDTAB
  0
TABLE
  2
APPID
 70
     1
  0
APPID
  2
ACAD
 70
     0
  0
ENDTAB
  0
TABLE
  2
DIMSTYLE
 70
     1
  0
DIMSTYLE
  2
TEAM
 70
     0
  3

  4

  5

  6

  7

 40
1.0
 41
20.0
 42
10.0
 43
1.0
 44
1.0
 45
0.0
 46
0.0
 47
0.0
 48
0.0
140
35.0
141
1.0
142
0.0
143
25.4
144
1.0
145
0.0
146
1.0
147
7.0
 71
     0
 72
     0
 73
     0
 74
     0
 75
     0
 76
     0
 77
     0
 78
     0
170
     0
171
     2
172
     0
173
     0
174
     0
175
     0
176
     9
177
     9
178
    11
  0
ENDTAB
  0
ENDSEC
  0
SECTION
  2
BLOCKS
  0
BLOCK
  8
0
  2
$MODEL_SPACE
 70
     0
 10
0.0
 20
0.0
 30
0.0
  3
$MODEL_SPACE
  1

  0
ENDBLK
  5
295
  8
0
  0
BLOCK
 67
     1
  8
0
  2
$PAPER_SPACE
 70
     0
 10
0.0
 20
0.0
 30
0.0
  3
$PAPER_SPACE
  1

  0
ENDBLK
  5
293
 67
     1
  8
0
  0
BLOCK
  8
0
  2
*D0
 70
     1
 10
0.0
 20
0.0
 30
0.0
  3
*D0
  1

  0
LINE
  5
9C
  8
0
  6
BYBLOCK
 62
     9
 10
11750.0
 20
101130.000352
 30
0.0
 11
11750.0
 21
101155.601385
 31
0.0
  0
LINE
  5
9D
  8
0
  6
BYBLOCK
 62
     9
 10
12250.0
 20
101130.000352
 30
0.0
 11
12250.0
 21
101155.601385
 31
0.0
  0
LINE
  5
9E
  8
0
  6
BYBLOCK
 62
     9
 10
11770.0
 20
101154.601385
 30
0.0
 11
11952.166666
 21
101154.601385
 31
0.0
  0
LINE
  5
9F
  8
0
  6
BYBLOCK
 62
     9
 10
12230.0
 20
101154.601385
 30
0.0
 11
12047.833333
 21
101154.601385
 31
0.0
  0
SOLID
  5
A0
  8
0
  6
BYBLOCK
 62
     9
 10
11770.0
 20
101157.934718
 30
0.0
 11
11770.0
 21
101151.268052
 31
0.0
 12
11750.0
 22
101154.601385
 32
0.0
 13
11750.0
 23
101154.601385
 33
0.0
  0
SOLID
  5
A1
  8
0
  6
BYBLOCK
 62
     9
 10
12230.0
 20
101157.934718
 30
0.0
 11
12230.0
 21
101151.268052
 31
0.0
 12
12250.0
 22
101154.601385
 32
0.0
 13
12250.0
 23
101154.601385
 33
0.0
  0
TEXT
  5
A2
  8
0
  6
BYBLOCK
 62
    11
 10
11959.166666
 20
101137.101385
 30
0.0
 40
35.0
  1
500
  0
POINT
  5
A3
  8
DEFPOINTS
  6
BYBLOCK
 62
     0
 10
11750.0
 20
101120.000352
 30
0.0
  0
POINT
  5
A4
  8
DEFPOINTS
  6
BYBLOCK
 62
     0
 10
12250.0
 20
101120.000352
 30
0.0
  0
POINT
  5
A5
  8
DEFPOINTS
  6
BYBLOCK
 62
     0
 10
12250.0
 20
101154.601385
 30
0.0
  0
ENDBLK
  5
A7
  8
0
  0
BLOCK
  8
0
  2
*D1
 70
     1
 10
0.0
 20
0.0
 30
0.0
  3
*D1
  1

  0
LINE
  5
8E
  8
0
  6
BYBLOCK
 62
     9
 10
12010.0
 20
100000.0
 30
0.0
 11
12303.708719
 21
100000.0
 31
0.0
  0
LINE
  5
8F
  8
0
  6
BYBLOCK
 62
     9
 10
12011.1
 20
100400.003646
 30
0.0
 11
12303.708719
 21
100400.003646
 31
0.0
  0
LINE
  5
90
  8
0
  6
BYBLOCK
 62
     9
 10
12302.708719
 20
100020.0
 30
0.0
 11
12302.708719
 21
100152.168489
 31
0.0
  0
LINE
  5
91
  8
0
  6
BYBLOCK
 62
     9
 10
12302.708719
 20
100380.003646
 30
0.0
 11
12302.708719
 21
100247.835156
 31
0.0
  0
SOLID
  5
92
  8
0
  6
BYBLOCK
 62
     9
 10
12299.375386
 20
100020.0
 30
0.0
 11
12306.042053
 21
100020.0
 31
0.0
 12
12302.708719
 22
100000.0
 32
0.0
 13
12302.708719
 23
100000.0
 33
0.0
  0
SOLID
  5
93
  8
0
  6
BYBLOCK
 62
     9
 10
12299.375386
 20
100380.003646
 30
0.0
 11
12306.042053
 21
100380.003646
 31
0.0
 12
12302.708719
 22
100400.003646
 32
0.0
 13
12302.708719
 23
100400.003646
 33
0.0
  0
TEXT
  5
94
  8
0
  6
BYBLOCK
 62
    11
 10
12320.208719
 20
100159.168489
 30
0.0
 40
35.0
  1
400
 50
90.0
  0
POINT
  5
95
  8
DEFPOINTS
  6
BYBLOCK
 62
     0
 10
12000.0
 20
100000.0
 30
0.0
  0
POINT
  5
96
  8
DEFPOINTS
  6
BYBLOCK
 62
     0
 10
12001.1
 20
100400.003646
 30
0.0
  0
POINT
  5
97
  8
DEFPOINTS
  6
BYBLOCK
 62
     0
 10
12302.708719
 20
100400.003646
 30
0.0
  0
ENDBLK
  5
99
  8
0
  0
BLOCK
  8
0
  2
*D2
 70
     1
 10
0.0
 20
0.0
 30
0.0
  3
*D2
  1

  0
LINE
  5
80
  8
0
  6
BYBLOCK
 62
     9
 10
12010.0
 20
100000.0
 30
0.0
 11
12355.183845
 21
100000.0
 31
0.0
  0
LINE
  5
81
  8
0
  6
BYBLOCK
 62
     9
 10
12021.235725
 20
100550.003301
 30
0.0
 11
12355.183845
 21
100550.003301
 31
0.0
  0
LINE
  5
82
  8
0
  6
BYBLOCK
 62
     9
 10
12354.183845
 20
100020.0
 30
0.0
 11
12354.183845
 21
100224.25165
 31
0.0
  0
LINE
  5
83
  8
0
  6
BYBLOCK
 62
     9
 10
12354.183845
 20
100530.003301
 30
0.0
 11
12354.183845
 21
100325.75165
 31
0.0
  0
SOLID
  5
84
  8
0
  6
BYBLOCK
 62
     9
 10
12350.850511
 20
100020.0
 30
0.0
 11
12357.517178
 21
100020.0
 31
0.0
 12
12354.183845
 22
100000.0
 32
0.0
 13
12354.183845
 23
100000.0
 33
0.0
  0
SOLID
  5
85
  8
0
  6
BYBLOCK
 62
     9
 10
12350.850511
 20
100530.003301
 30
0.0
 11
12357.517178
 21
100530.003301
 31
0.0
 12
12354.183845
 22
100550.003301
 32
0.0
 13
12354.183845
 23
100550.003301
 33
0.0
  0
TEXT
  5
86
  8
0
  6
BYBLOCK
 62
    11
 10
12371.683845
 20
100231.25165
 30
0.0
 40
35.0
  1
550
 50
90.0
  0
POINT
  5
87
  8
DEFPOINTS
  6
BYBLOCK
 62
     0
 10
12000.0
 20
100000.0
 30
0.0
  0
POINT
  5
88
  8
DEFPOINTS
  6
BYBLOCK
 62
     0
 10
12011.235725
 20
100550.003301
 30
0.0
  0
POINT
  5
89
  8
DEFPOINTS
  6
BYBLOCK
 62
     0
 10
12354.183845
 20
100550.003301
 30
0.0
  0
ENDBLK
  5
8B
  8
0
  0
BLOCK
  8
0
  2
*D3
 70
     1
 10
0.0
 20
0.0
 30
0.0
  3
*D3
  1

  0
LINE
  5
72
  8
0
  6
BYBLOCK
 62
     9
 10
11875.0
 20
100560.003301
 30
0.0
 11
11875.0
 21
100667.370389
 31
0.0
  0
LINE
  5
73
  8
0
  6
BYBLOCK
 62
     9
 10
12125.0
 20
100560.003301
 30
0.0
 11
12125.0
 21
100667.370389
 31
0.0
  0
LINE
  5
74
  8
0
  6
BYBLOCK
 62
     9
 10
11895.0
 20
100666.370389
 30
0.0
 11
11949.25
 21
100666.370389
 31
0.0
  0
LINE
  5
75
  8
0
  6
BYBLOCK
 62
     9
 10
12105.0
 20
100666.370389
 30
0.0
 11
12050.75
 21
100666.370389
 31
0.0
  0
SOLID
  5
76
  8
0
  6
BYBLOCK
 62
     9
 10
11895.0
 20
100669.703722
 30
0.0
 11
11895.0
 21
100663.037055
 31
0.0
 12
11875.0
 22
100666.370389
 32
0.0
 13
11875.0
 23
100666.370389
 33
0.0
  0
SOLID
  5
77
  8
0
  6
BYBLOCK
 62
     9
 10
12105.0
 20
100669.703722
 30
0.0
 11
12105.0
 21
100663.037055
 31
0.0
 12
12125.0
 22
100666.370389
 32
0.0
 13
12125.0
 23
100666.370389
 33
0.0
  0
TEXT
  5
78
  8
0
  6
BYBLOCK
 62
    11
 10
11956.25
 20
100648.870389
 30
0.0
 40
35.0
  1
250
  0
POINT
  5
79
  8
DEFPOINTS
  6
BYBLOCK
 62
     0
 10
11875.0
 20
100550.003301
 30
0.0
  0
POINT
  5
7A
  8
DEFPOINTS
  6
BYBLOCK
 62
     0
 10
12125.0
 20
100550.003301
 30
0.0
  0
POINT
  5
7B
  8
DEFPOINTS
  6
BYBLOCK
 62
     0
 10
12125.0
 20
100666.370389
 30
0.0
  0
ENDBLK
  5
7D
  8
0
  0
BLOCK
  8
0
  2
*D4
 70
     1
 10
0.0
 20
0.0
 30
0.0
  3
*D4
  1

  0
LINE
  5
64
  8
0
  6
BYBLOCK
 62
     9
 10
12010.0
 20
100000.0
 30
0.0
 11
12394.179798
 21
100000.0
 31
0.0
  0
LINE
  5
65
  8
0
  6
BYBLOCK
 62
     9
 10
12249.746951
 20
101000.002693
 30
0.0
 11
12394.179798
 21
101000.002693
 31
0.0
  0
LINE
  5
66
  8
0
  6
BYBLOCK
 62
     9
 10
12393.179798
 20
100020.0
 30
0.0
 11
12393.179798
 21
100443.418013
 31
0.0
  0
LINE
  5
67
  8
0
  6
BYBLOCK
 62
     9
 10
12393.179798
 20
100980.002693
 30
0.0
 11
12393.179798
 21
100556.58468
 31
0.0
  0
SOLID
  5
68
  8
0
  6
BYBLOCK
 62
     9
 10
12389.846465
 20
100020.0
 30
0.0
 11
12396.513132
 21
100020.0
 31
0.0
 12
12393.179798
 22
100000.0
 32
0.0
 13
12393.179798
 23
100000.0
 33
0.0
  0
SOLID
  5
69
  8
0
  6
BYBLOCK
 62
     9
 10
12389.846465
 20
100980.002693
 30
0.0
 11
12396.513132
 21
100980.002693
 31
0.0
 12
12393.179798
 22
101000.002693
 32
0.0
 13
12393.179798
 23
101000.002693
 33
0.0
  0
TEXT
  5
6A
  8
0
  6
BYBLOCK
 62
    11
 10
12410.679798
 20
100450.418013
 30
0.0
 40
35.0
  1
1000
 50
90.0
  0
POINT
  5
6B
  8
DEFPOINTS
  6
BYBLOCK
 62
     0
 10
12000.0
 20
100000.0
 30
0.0
  0
POINT
  5
6C
  8
DEFPOINTS
  6
BYBLOCK
 62
     0
 10
12239.746951
 20
101000.002693
 30
0.0
  0
POINT
  5
6D
  8
DEFPOINTS
  6
BYBLOCK
 62
     0
 10
12393.179798
 20
101000.002693
 30
0.0
  0
ENDBLK
  5
6F
  8
0
  0
BLOCK
  8
0
  2
*D5
 70
     1
 10
0.0
 20
0.0
 30
0.0
  3
*D5
  1

  0
LINE
  5
31
  8
0
  6
BYBLOCK
 62
     9
 10
12010.0
 20
100000.0
 30
0.0
 11
12442.535131
 21
100000.0
 31
0.0
  0
LINE
  5
32
  8
0
  6
BYBLOCK
 62
     9
 10
12010.0
 20
101050.003247
 30
0.0
 11
12442.535131
 21
101050.003247
 31
0.0
  0
LINE
  5
33
  8
0
  6
BYBLOCK
 62
     9
 10
12441.535131
 20
100020.0
 30
0.0
 11
12441.535131
 21
100465.501623
 31
0.0
  0
LINE
  5
34
  8
0
  6
BYBLOCK
 62
     9
 10
12441.535131
 20
101030.003247
 30
0.0
 11
12441.535131
 21
100584.501623
 31
0.0
  0
SOLID
  5
35
  8
0
  6
BYBLOCK
 62
     9
 10
12438.201797
 20
100020.0
 30
0.0
 11
12444.868464
 21
100020.0
 31
0.0
 12
12441.535131
 22
100000.0
 32
0.0
 13
12441.535131
 23
100000.0
 33
0.0
  0
SOLID
  5
36
  8
0
  6
BYBLOCK
 62
     9
 10
12438.201797
 20
101030.003247
 30
0.0
 11
12444.868464
 21
101030.003247
 31
0.0
 12
12441.535131
 22
101050.003247
 32
0.0
 13
12441.535131
 23
101050.003247
 33
0.0
  0
TEXT
  5
37
  8
0
  6
BYBLOCK
 62
    11
 10
12459.035131
 20
100472.501623
 30
0.0
 40
35.0
  1
1050
 50
90.0
  0
POINT
  5
38
  8
DEFPOINTS
  6
BYBLOCK
 62
     0
 10
12000.0
 20
100000.0
 30
0.0
  0
POINT
  5
39
  8
DEFPOINTS
  6
BYBLOCK
 62
     0
 10
12000.0
 20
101050.003247
 30
0.0
  0
POINT
  5
3A
  8
DEFPOINTS
  6
BYBLOCK
 62
     0
 10
12441.535131
 20
101050.003247
 30
0.0
  0
ENDBLK
  5
3C
  8
0
  0
BLOCK
  8
0
  2
*D6
 70
     1
 10
0.0
 20
0.0
 30
0.0
  3
*D6
  1

  0
LINE
  5
4E
  8
0
  6
BYBLOCK
 62
     9
 10
11823.5
 20
99998.0
 30
0.0
 11
11823.5
 21
100023.720575
 31
0.0
  0
LINE
  5
4F
  8
0
  6
BYBLOCK
 62
     9
 10
11750.5
 20
99998.0
 30
0.0
 11
11750.5
 21
100023.720575
 31
0.0
  0
LINE
  5
50
  8
0
  6
BYBLOCK
 62
     9
 10
11803.5
 20
100022.720575
 30
0.0
 11
11770.5
 21
100022.720575
 31
0.0
  0
TEXT
  5
51
  8
0
  6
BYBLOCK
 62
    11
 10
11832.23675
 20
100005.220575
 30
0.0
 40
35.0
  1
73
  0
SOLID
  5
52
  8
0
  6
BYBLOCK
 62
     9
 10
11803.5
 20
100026.053909
 30
0.0
 11
11803.5
 21
100019.387242
 31
0.0
 12
11823.5
 22
100022.720575
 32
0.0
 13
11823.5
 23
100022.720575
 33
0.0
  0
SOLID
  5
53
  8
0
  6
BYBLOCK
 62
     9
 10
11770.5
 20
100026.053909
 30
0.0
 11
11770.5
 21
100019.387242
 31
0.0
 12
11750.5
 22
100022.720575
 32
0.0
 13
11750.5
 23
100022.720575
 33
0.0
  0
POINT
  5
54
  8
DEFPOINTS
  6
BYBLOCK
 62
     0
 10
11823.5
 20
99988.0
 30
0.0
  0
POINT
  5
55
  8
DEFPOINTS
  6
BYBLOCK
 62
     0
 10
11750.5
 20
99988.0
 30
0.0
  0
POINT
  5
56
  8
DEFPOINTS
  6
BYBLOCK
 62
     0
 10
11750.5
 20
100022.720575
 30
0.0
  0
ENDBLK
  5
58
  8
0
  0
BLOCK
  8
0
  2
*D7
 70
     1
 10
0.0
 20
0.0
 30
0.0
  3
*D7
  1

  0
LINE
  5
3F
  8
0
  6
BYBLOCK
 62
     9
 10
11813.5
 20
99980.0
 30
0.0
 11
11704.876374
 21
99980.0
 31
0.0
  0
LINE
  5
40
  8
0
  6
BYBLOCK
 62
     9
 10
11990.0
 20
100000.0
 30
0.0
 11
11704.876374
 21
100000.0
 31
0.0
  0
LINE
  5
41
  8
0
  6
BYBLOCK
 62
     9
 10
11705.876374
 20
99960.0
 30
0.0
 11
11705.876374
 21
99940.0
 31
0.0
  0
LINE
  5
42
  8
0
  6
BYBLOCK
 62
     9
 10
11705.876374
 20
100020.0
 30
0.0
 11
11705.876374
 21
100040.0
 31
0.0
  0
TEXT
  5
43
  8
0
  6
BYBLOCK
 62
    11
 10
11723.354267
 20
100042.210694
 30
0.0
 40
35.0
  1
0-200
 50
90.0
  0
LINE
  5
44
  8
0
  6
BYBLOCK
 62
     9
 10
11705.876374
 20
99980.0
 30
0.0
 11
11705.876374
 21
100000.0
 31
0.0
  0
SOLID
  5
45
  8
0
  6
BYBLOCK
 62
     9
 10
11702.54304
 20
99960.0
 30
0.0
 11
11709.209707
 21
99960.0
 31
0.0
 12
11705.876374
 22
99980.0
 32
0.0
 13
11705.876374
 23
99980.0
 33
0.0
  0
SOLID
  5
46
  8
0
  6
BYBLOCK
 62
     9
 10
11702.54304
 20
100020.0
 30
0.0
 11
11709.209707
 21
100020.0
 31
0.0
 12
11705.876374
 22
100000.0
 32
0.0
 13
11705.876374
 23
100000.0
 33
0.0
  0
POINT
  5
47
  8
DEFPOINTS
  6
BYBLOCK
 62
     0
 10
11823.5
 20
99980.0
 30
0.0
  0
POINT
  5
48
  8
DEFPOINTS
  6
BYBLOCK
 62
     0
 10
12000.0
 20
100000.0
 30
0.0
  0
POINT
  5
49
  8
DEFPOINTS
  6
BYBLOCK
 62
     0
 10
11705.876374
 20
100000.0
 30
0.0
  0
ENDBLK
  5
4B
  8
0
  0
BLOCK
  8
0
  2
*D8
 70
     1
 10
0.0
 20
0.0
 30
0.0
  3
*D8
  1

  0
LINE
  5
22
  8
0
  6
BYBLOCK
 62
     9
 10
12010.0
 20
100000.0
 30
0.0
 11
12489.330275
 21
100000.0
 31
0.0
  0
LINE
  5
23
  8
0
  6
BYBLOCK
 62
     9
 10
12260.0
 20
101120.000352
 30
0.0
 11
12489.330275
 21
101120.000352
 31
0.0
  0
LINE
  5
24
  8
0
  6
BYBLOCK
 62
     9
 10
12488.330275
 20
100020.0
 30
0.0
 11
12488.330275
 21
100503.416843
 31
0.0
  0
LINE
  5
25
  8
0
  6
BYBLOCK
 62
     9
 10
12488.330275
 20
101100.000352
 30
0.0
 11
12488.330275
 21
100616.58351
 31
0.0
  0
SOLID
  5
26
  8
0
  6
BYBLOCK
 62
     9
 10
12484.996942
 20
100020.0
 30
0.0
 11
12491.663609
 21
100020.0
 31
0.0
 12
12488.330275
 22
100000.0
 32
0.0
 13
12488.330275
 23
100000.0
 33
0.0
  0
SOLID
  5
27
  8
0
  6
BYBLOCK
 62
     9
 10
12484.996942
 20
101100.000352
 30
0.0
 11
12491.663609
 21
101100.000352
 31
0.0
 12
12488.330275
 22
101120.000352
 32
0.0
 13
12488.330275
 23
101120.000352
 33
0.0
  0
TEXT
  5
28
  8
0
  6
BYBLOCK
 62
    11
 10
12505.830275
 20
100510.416843
 30
0.0
 40
35.0
  1
1120
 50
90.0
  0
POINT
  5
29
  8
DEFPOINTS
  6
BYBLOCK
 62
     0
 10
12000.0
 20
100000.0
 30
0.0
  0
POINT
  5
2B
  8
DEFPOINTS
  6
BYBLOCK
 62
     0
 10
12250.0
 20
101120.000352
 30
0.0
  0
POINT
  5
2C
  8
DEFPOINTS
  6
BYBLOCK
 62
     0
 10
12488.330275
 20
101120.000352
 30
0.0
  0
ENDBLK
  5
2E
  8
0
  0
ENDSEC
  0
SECTION
  2
ENTITIES
  0
DIMENSION
  5
20
  8
TEAM-MAS
  2
*D8
 10
488.330275
 20
1120.000352
 30
0.0
 11
488.330275
 21
560.000176
 31
0.0
 12
-12000.0
 22
-100000.0
 32
0.0
 13
0.0
 23
0.0
 33
0.0
 14
250.0
 24
1120.000352
 34
0.0
 50
90.0
1001
ACAD
1000
DSTYLE
1002
{
1070
    40
1040
1.0
1002
}
  0
DIMENSION
  5
2F
  8
TEAM-MAS
  2
*D5
 10
441.535131
 20
1050.003247
 30
0.0
 11
441.535131
 21
525.001623
 31
0.0
 12
-12000.0
 22
-100000.0
 32
0.0
 13
0.0
 23
0.0
 33
0.0
 14
0.0
 24
1050.003247
 34
0.0
 50
90.0
1001
ACAD
1000
DSTYLE
1002
{
1070
    40
1040
1.0
1002
}
  0
DIMENSION
  5
3D
  8
TEAM-MAS
  2
*D7
 10
-294.123626
 20
0.0
 30
0.0
 11
-294.145733
 21
115.127361
 31
0.0
 12
-12000.0
 22
-100000.0
 32
0.0
 70
   128
  1
0-200
 13
-176.5
 23
-20.0
 33
0.0
 14
0.0
 24
0.0
 34
0.0
 50
90.0
1001
ACAD
1000
DSTYLE
1002
{
1070
    40
1040
1.0
1002
}
  0
DIMENSION
  5
4C
  8
TEAM-MAS
  2
*D6
 10
-249.5
 20
22.720575
 30
0.0
 11
-138.596583
 21
22.720575
 31
0.0
 12
-12000.0
 22
-100000.0
 32
0.0
 70
   128
 13
-176.5
 23
-12.0
 33
0.0
 14
-249.5
 24
-12.0
 34
0.0
1001
ACAD
1000
DSTYLE
1002
{
1070
    40
1040
1.0
1002
}
  0
LINE
  5
59
  8
TEAM-AXE
 10
125.0
 20
546.403301
 30
0.0
 11
125.0
 21
553.603301
 31
0.0
  0
LINE
  5
5C
  8
TEAM-AXE
 10
121.4
 20
550.003301
 30
0.0
 11
128.6
 21
550.003301
 31
0.0
  0
CIRCLE
  5
5D
  8
TEAM-DET3
 10
125.0
 20
550.003301
 30
0.0
 40
2.6
  0
LINE
  5
5F
  8
TEAM-AXE
 10
-125.0
 20
546.403301
 30
0.0
 11
-125.0
 21
553.603301
 31
0.0
  0
LINE
  5
60
  8
TEAM-AXE
 10
-128.6
 20
550.003301
 30
0.0
 11
-121.4
 21
550.003301
 31
0.0
  0
CIRCLE
  5
61
  8
TEAM-DET3
 10
-125.0
 20
550.003301
 30
0.0
 40
2.6
  0
DIMENSION
  5
62
  8
TEAM-MAS
  2
*D4
 10
393.179798
 20
1000.002693
 30
0.0
 11
393.179798
 21
500.001347
 31
0.0
 12
-12000.0
 22
-100000.0
 32
0.0
 13
0.0
 23
0.0
 33
0.0
 14
239.746951
 24
1000.002693
 34
0.0
 50
90.0
1001
ACAD
1000
DSTYLE
1002
{
1070
    40
1040
1.0
1002
}
  0
DIMENSION
  5
70
  8
TEAM-MAS
  2
*D3
 10
125.0
 20
666.370389
 30
0.0
 11
0.0
 21
666.370389
 31
0.0
 12
-12000.0
 22
-100000.0
 32
0.0
 13
-125.0
 23
550.003301
 33
0.0
 14
125.0
 24
550.003301
 34
0.0
1001
ACAD
1000
DSTYLE
1002
{
1070
    40
1040
1.0
1002
}
  0
DIMENSION
  5
7E
  8
TEAM-MAS
  2
*D2
 10
354.183845
 20
550.003301
 30
0.0
 11
354.183845
 21
275.00165
 31
0.0
 12
-12000.0
 22
-100000.0
 32
0.0
 13
0.0
 23
0.0
 33
0.0
 14
11.235725
 24
550.003301
 34
0.0
 50
90.0
1001
ACAD
1000
DSTYLE
1002
{
1070
    40
1040
1.0
1002
}
  0
DIMENSION
  5
8C
  8
TEAM-MAS
  2
*D1
 10
302.708719
 20
400.003646
 30
0.0
 11
302.708719
 21
200.001823
 31
0.0
 12
-12000.0
 22
-100000.0
 32
0.0
 13
0.0
 23
0.0
 33
0.0
 14
1.1
 24
400.003646
 34
0.0
 50
90.0
1001
ACAD
1000
DSTYLE
1002
{
1070
    40
1040
1.0
1002
}
  0
DIMENSION
  5
9A
  8
TEAM-MAS
  2
*D0
 10
250.0
 20
1154.601385
 30
0.0
 11
0.0
 21
1154.601385
 31
0.0
 12
-12000.0
 22
-100000.0
 32
0.0
 13
-250.0
 23
1120.000352
 33
0.0
 14
250.0
 24
1120.000352
 34
0.0
1001
ACAD
1000
DSTYLE
1002
{
1070
    40
1040
1.0
1002
}
  0
LINE
  5
A8
  8
TEAM-AXE
 10
-37.8
 20
400.003646
 30
0.0
 11
40.0
 21
400.003646
 31
0.0
  0
LINE
  5
A9
  8
TEAM-AXE
 10
0.0
 20
352.843672
 30
0.0
 11
0.0
 21
447.16368
 31
0.0
  0
ARC
  5
AA
  8
TEAM-DET3
 10
-35.811096
 20
372.906722
 30
0.0
 40
0.998358
 50
321.900349
 51
90.099612
  0
LINE
  5
AB
  8
TEAM-DET3
 10
-35.0253
 20
372.290632
 30
0.0
 11
-55.185914
 21
346.48619
 31
0.0
  0
ARC
  5
AC
  8
TEAM-DET3
 10
-55.97339
 20
347.101424
 30
0.0
 40
0.999318
 50
269.998001
 51
322.001996
  0
LINE
  5
AD
  8
TEAM-DET3
 10
-55.97345
 20
346.102096
 30
0.0
 11
-57.96399
 21
346.102096
 31
0.0
  0
ARC
  5
AE
  8
TEAM-DET3
 10
-57.96405
 20
347.101362
 30
0.0
 40
0.999284
 50
208.496471
 51
270.003527
  0
LINE
  5
AF
  8
TEAM-DET3
 10
-58.842286
 20
346.624618
 30
0.0
 11
-72.852906
 21
372.429
 31
0.0
  0
ARC
  5
B0
  8
TEAM-DET3
 10
-71.975708
 20
372.906478
 30
0.0
 40
0.998654
 50
89.939018
 51
208.560984
  0
LINE
  5
B1
  8
TEAM-DET3
 10
48.5
 20
390.457626
 30
0.0
 11
48.5
 21
390.792464
 31
0.0
  0
LINE
  5
B2
  8
TEAM-DET3
 10
165.799988
 20
399.003646
 30
0.0
 11
183.75
 21
399.003646
 31
0.0
  0
ARC
  5
B3
  8
TEAM-DET3
 10
165.799988
 20
399.303694
 30
0.0
 40
0.3
 50
180.0
 51
270.000003
  0
LINE
  5
B4
  8
TEAM-DET3
 10
165.5
 20
400.703718
 30
0.0
 11
165.5
 21
399.303694
 31
0.0
  0
ARC
  5
B5
  8
TEAM-DET3
 10
165.799988
 20
400.703718
 30
0.0
 40
0.3
 50
90.000001
 51
180.00001
  0
LINE
  5
B6
  8
TEAM-DET3
 10
165.799988
 20
401.003646
 30
0.0
 11
183.75
 21
401.003646
 31
0.0
  0
LINE
  5
B7
  8
TEAM-DET3
 10
-183.25
 20
401.003646
 30
0.0
 11
-165.799988
 21
401.003646
 31
0.0
  0
ARC
  5
B8
  8
TEAM-DET3
 10
-165.799988
 20
400.703718
 30
0.0
 40
0.3
 50
0.000005
 51
90.000001
  0
LINE
  5
B9
  8
TEAM-DET3
 10
-165.5
 20
400.703718
 30
0.0
 11
-165.5
 21
399.303694
 31
0.0
  0
ARC
  5
BA
  8
TEAM-DET3
 10
-165.799988
 20
399.303694
 30
0.0
 40
0.3
 50
270.000003
 51
0.000005
  0
LINE
  5
BB
  8
TEAM-DET3
 10
-183.25
 20
399.003646
 30
0.0
 11
-165.799988
 21
399.003646
 31
0.0
  0
LINE
  5
BC
  8
TEAM-DET3
 10
91.814788
 20
346.102096
 30
0.0
 11
61.824432
 21
346.102096
 31
0.0
  0
ARC
  5
BD
  8
TEAM-DET3
 10
61.823364
 20
347.100814
 30
0.0
 40
0.998654
 50
151.439016
 51
270.060982
  0
LINE
  5
BE
  8
TEAM-DET3
 10
60.946136
 20
347.578352
 30
0.0
 11
74.956786
 21
373.382736
 31
0.0
  0
ARC
  5
BF
  8
TEAM-DET3
 10
75.835022
 20
372.90599
 30
0.0
 40
0.999284
 50
89.996473
 51
151.503529
  0
LINE
  5
C0
  8
TEAM-DET3
 10
77.804138
 20
373.905256
 30
0.0
 11
75.835082
 21
373.905256
 31
0.0
  0
ARC
  5
C1
  8
TEAM-DET3
 10
77.804198
 20
372.90599
 30
0.0
 40
0.999284
 50
28.496473
 51
90.003529
  0
LINE
  5
C2
  8
TEAM-DET3
 10
92.693084
 20
347.578352
 30
0.0
 11
78.682434
 21
373.382736
 31
0.0
  0
ARC
  5
C3
  8
TEAM-DET3
 10
91.815856
 20
347.100814
 30
0.0
 40
0.998654
 50
269.939016
 51
28.560987
  0
LINE
  5
C4
  8
TEAM-DET3
 10
138.862824
 20
373.382736
 30
0.0
 11
152.873474
 21
347.578352
 31
0.0
  0
ARC
  5
C5
  8
TEAM-DET3
 10
151.996246
 20
347.100814
 30
0.0
 40
0.998654
 50
269.939016
 51
28.560987
  0
LINE
  5
C6
  8
TEAM-DET3
 10
151.995178
 20
346.102096
 30
0.0
 11
135.355652
 21
346.102096
 31
0.0
  0
ARC
  5
C7
  8
TEAM-DET3
 10
135.35559
 20
347.101362
 30
0.0
 40
0.999284
 50
208.496471
 51
270.003527
  0
LINE
  5
C8
  8
TEAM-DET3
 10
120.466736
 20
372.429
 30
0.0
 11
134.477386
 21
346.624618
 31
0.0
  0
ARC
  5
C9
  8
TEAM-DET3
 10
121.343932
 20
372.906478
 30
0.0
 40
0.998654
 50
89.939018
 51
208.560982
  0
LINE
  5
CA
  8
TEAM-DET3
 10
137.984558
 20
373.905256
 30
0.0
 11
121.345032
 21
373.905256
 31
0.0
  0
ARC
  5
CB
  8
TEAM-DET3
 10
137.984618
 20
372.90599
 30
0.0
 40
0.999284
 50
28.496473
 51
90.003529
  0
ARC
  5
CC
  8
TEAM-DET3
 10
-101.503784
 20
347.100814
 30
0.0
 40
0.998654
 50
269.939016
 51
28.560987
  0
LINE
  5
CD
  8
TEAM-DET3
 10
-101.504822
 20
346.102096
 30
0.0
 11
-131.495178
 21
346.102096
 31
0.0
  0
ARC
  5
CE
  8
TEAM-DET3
 10
-131.496216
 20
347.100814
 30
0.0
 40
0.998654
 50
151.439018
 51
270.060982
  0
LINE
  5
CF
  8
TEAM-DET3
 10
-132.373474
 20
347.578352
 30
0.0
 11
-118.362794
 21
373.382736
 31
0.0
  0
ARC
  5
D0
  8
TEAM-DET3
 10
-117.48462
 20
372.90599
 30
0.0
 40
0.999284
 50
89.996473
 51
151.503529
  0
LINE
  5
D1
  8
TEAM-DET3
 10
-115.515442
 20
373.905256
 30
0.0
 11
-117.484498
 21
373.905256
 31
0.0
  0
ARC
  5
D2
  8
TEAM-DET3
 10
-115.515382
 20
372.90599
 30
0.0
 40
0.999284
 50
28.496473
 51
90.003529
  0
LINE
  5
D3
  8
TEAM-DET3
 10
-100.626526
 20
347.578352
 30
0.0
 11
-114.637208
 21
373.382736
 31
0.0
  0
LINE
  5
D4
  8
TEAM-DET3
 10
97.644348
 20
346.102096
 30
0.0
 11
95.675262
 21
346.102096
 31
0.0
  0
ARC
  5
D5
  8
TEAM-DET3
 10
95.6752
 20
347.101362
 30
0.0
 40
0.999284
 50
208.496471
 51
270.003527
  0
LINE
  5
D6
  8
TEAM-DET3
 10
80.786346
 20
372.429
 30
0.0
 11
94.796996
 21
346.624618
 31
0.0
  0
ARC
  5
D7
  8
TEAM-DET3
 10
81.663574
 20
372.906478
 30
0.0
 40
0.998654
 50
89.939018
 51
208.560982
  0
LINE
  5
D8
  8
TEAM-DET3
 10
111.654998
 20
373.905256
 30
0.0
 11
81.664612
 21
373.905256
 31
0.0
  0
ARC
  5
D9
  8
TEAM-DET3
 10
111.656066
 20
372.906478
 30
0.0
 40
0.998654
 50
331.439009
 51
90.060981
  0
LINE
  5
DA
  8
TEAM-DET3
 10
98.522644
 20
346.624618
 30
0.0
 11
112.533264
 21
372.429
 31
0.0
  0
ARC
  5
DB
  8
TEAM-DET3
 10
97.644408
 20
347.101362
 30
0.0
 40
0.999284
 50
269.996471
 51
331.503527
  0
ARC
  5
DC
  8
TEAM-DET3
 10
-151.996216
 20
347.100814
 30
0.0
 40
0.998654
 50
151.439018
 51
270.060982
  0
LINE
  5
DD
  8
TEAM-DET3
 10
-138.862794
 20
373.382736
 30
0.0
 11
-152.873474
 21
347.578352
 31
0.0
  0
ARC
  5
DE
  8
TEAM-DET3
 10
-137.98462
 20
372.90599
 30
0.0
 40
0.999284
 50
89.996473
 51
151.503529
  0
LINE
  5
DF
  8
TEAM-DET3
 10
-121.344972
 20
373.905256
 30
0.0
 11
-137.984498
 21
373.905256
 31
0.0
  0
ARC
  5
E0
  8
TEAM-DET3
 10
-121.343934
 20
372.906478
 30
0.0
 40
0.998654
 50
331.439023
 51
90.060981
  0
LINE
  5
E1
  8
TEAM-DET3
 10
-120.466736
 20
372.429
 30
0.0
 11
-134.477356
 21
346.624618
 31
0.0
  0
ARC
  5
E2
  8
TEAM-DET3
 10
-135.355592
 20
347.101362
 30
0.0
 40
0.999284
 50
269.996471
 51
331.503527
  0
LINE
  5
E3
  8
TEAM-DET3
 10
-135.355652
 20
346.102096
 30
0.0
 11
-151.995178
 21
346.102096
 31
0.0
  0
ARC
  5
E4
  8
TEAM-DET3
 10
-61.823364
 20
347.100814
 30
0.0
 40
0.998654
 50
269.939016
 51
28.560987
  0
LINE
  5
E5
  8
TEAM-DET3
 10
-61.824464
 20
346.102096
 30
0.0
 11
-91.81482
 21
346.102096
 31
0.0
  0
ARC
  5
E6
  8
TEAM-DET3
 10
-91.815858
 20
347.100814
 30
0.0
 40
0.998654
 50
151.439018
 51
270.060982
  0
LINE
  5
E7
  8
TEAM-DET3
 10
-92.693116
 20
347.578352
 30
0.0
 11
-78.682434
 21
373.382736
 31
0.0
  0
ARC
  5
E8
  8
TEAM-DET3
 10
-77.8042
 20
372.90599
 30
0.0
 40
0.999284
 50
89.996473
 51
151.503529
  0
LINE
  5
E9
  8
TEAM-DET3
 10
-75.835084
 20
373.905256
 30
0.0
 11
-77.804138
 21
373.905256
 31
0.0
  0
ARC
  5
EA
  8
TEAM-DET3
 10
-75.834962
 20
372.90599
 30
0.0
 40
0.999284
 50
28.496473
 51
90.003529
  0
LINE
  5
EB
  8
TEAM-DET3
 10
-60.946168
 20
347.578352
 30
0.0
 11
-74.956788
 21
373.382736
 31
0.0
  0
LINE
  5
EC
  8
TEAM-DET3
 10
131.495178
 20
346.102096
 30
0.0
 11
101.504822
 21
346.102096
 31
0.0
  0
ARC
  5
ED
  8
TEAM-DET3
 10
101.503754
 20
347.100814
 30
0.0
 40
0.998654
 50
151.439016
 51
270.060982
  0
LINE
  5
EE
  8
TEAM-DET3
 10
100.626526
 20
347.578352
 30
0.0
 11
114.637176
 21
373.382736
 31
0.0
  0
ARC
  5
EF
  8
TEAM-DET3
 10
115.51541
 20
372.90599
 30
0.0
 40
0.999284
 50
89.996473
 51
151.503529
  0
LINE
  5
F0
  8
TEAM-DET3
 10
117.484558
 20
373.905256
 30
0.0
 11
115.515472
 21
373.905256
 31
0.0
  0
ARC
  5
F1
  8
TEAM-DET3
 10
117.484618
 20
372.90599
 30
0.0
 40
0.999284
 50
28.496473
 51
90.003529
  0
LINE
  5
F2
  8
TEAM-DET3
 10
132.373474
 20
347.578352
 30
0.0
 11
118.362824
 21
373.382736
 31
0.0
  0
ARC
  5
F3
  8
TEAM-DET3
 10
131.496246
 20
347.100814
 30
0.0
 40
0.998654
 50
269.939016
 51
28.560987
  0
ARC
  5
F4
  8
TEAM-DET3
 10
-95.675172
 20
347.101362
 30
0.0
 40
0.999284
 50
269.996471
 51
331.503527
  0
LINE
  5
F5
  8
TEAM-DET3
 10
-95.675294
 20
346.102096
 30
0.0
 11
-97.644348
 21
346.102096
 31
0.0
  0
ARC
  5
F6
  8
TEAM-DET3
 10
-97.64441
 20
347.101362
 30
0.0
 40
0.999284
 50
208.496471
 51
270.003527
  0
LINE
  5
F7
  8
TEAM-DET3
 10
-98.522584
 20
346.624618
 30
0.0
 11
-112.533264
 21
372.429
 31
0.0
  0
ARC
  5
F8
  8
TEAM-DET3
 10
-111.656006
 20
372.906478
 30
0.0
 40
0.998654
 50
89.939018
 51
208.560984
  0
LINE
  5
F9
  8
TEAM-DET3
 10
-81.664612
 20
373.905256
 30
0.0
 11
-111.65503
 21
373.905256
 31
0.0
  0
ARC
  5
FA
  8
TEAM-DET3
 10
-81.663574
 20
372.906478
 30
0.0
 40
0.998654
 50
331.439023
 51
90.060981
  0
LINE
  5
FB
  8
TEAM-DET3
 10
-80.786378
 20
372.429
 30
0.0
 11
-94.796998
 21
346.624618
 31
0.0
  0
LINE
  5
FC
  8
TEAM-DET3
 10
57.963988
 20
346.102096
 30
0.0
 11
55.97345
 21
346.102096
 31
0.0
  0
ARC
  5
FD
  8
TEAM-DET3
 10
55.973418
 20
347.101424
 30
0.0
 40
0.999318
 50
217.997999
 51
270.002004
  0
LINE
  5
FE
  8
TEAM-DET3
 10
35.02533
 20
372.290632
 30
0.0
 11
55.185912
 21
346.48619
 31
0.0
  0
ARC
  5
FF
  8
TEAM-DET3
 10
35.811096
 20
372.906722
 30
0.0
 40
0.998358
 50
89.900393
 51
218.099652
  0
LINE
  5
100
  8
TEAM-DET3
 10
71.97464
 20
373.905256
 30
0.0
 11
35.812836
 21
373.905256
 31
0.0
  0
ARC
  5
101
  8
TEAM-DET3
 10
71.975708
 20
372.906478
 30
0.0
 40
0.998654
 50
331.439009
 51
90.060981
  0
LINE
  5
102
  8
TEAM-DET3
 10
58.842284
 20
346.624618
 30
0.0
 11
72.852936
 21
372.429
 31
0.0
  0
ARC
  5
103
  8
TEAM-DET3
 10
57.96405
 20
347.101362
 30
0.0
 40
0.999284
 50
269.996471
 51
331.503527
  0
LINE
  5
104
  8
TEAM-DET3
 10
25.492248
 20
366.645614
 30
0.0
 11
25.492248
 21
347.101486
 31
0.0
  0
ARC
  5
105
  8
TEAM-DET3
 10
26.491576
 20
366.645614
 30
0.0
 40
0.999322
 50
128.453717
 51
180.001917
  0
ARC
  5
106
  8
TEAM-DET3
 10
-0.000244
 20
400.003524
 30
0.0
 40
41.598412
 50
308.455586
 51
319.023965
  0
ARC
  5
107
  8
TEAM-DET3
 10
32.1604
 20
372.070906
 30
0.0
 40
0.998974
 50
37.973593
 51
139.050376
  0
LINE
  5
108
  8
TEAM-DET3
 10
32.947936
 20
372.68553
 30
0.0
 11
52.455688
 21
347.71678
 31
0.0
  0
ARC
  5
109
  8
TEAM-DET3
 10
51.669922
 20
347.10063
 30
0.0
 40
0.998358
 50
269.900398
 51
38.099647
  0
LINE
  5
10A
  8
TEAM-DET3
 10
51.668152
 20
346.102096
 30
0.0
 11
26.491638
 21
346.102096
 31
0.0
  0
ARC
  5
10B
  8
TEAM-DET3
 10
26.491394
 20
347.10118
 30
0.0
 40
0.999096
 50
179.984205
 51
270.015787
  0
ARC
  5
10C
  8
TEAM-DET3
 10
-32.1604
 20
372.070906
 30
0.0
 40
0.998974
 50
40.949629
 51
142.026409
  0
ARC
  5
10D
  8
TEAM-DET3
 10
0.000244
 20
400.003524
 30
0.0
 40
41.598412
 50
220.976033
 51
231.544412
  0
ARC
  5
10E
  8
TEAM-DET3
 10
-26.491578
 20
366.645614
 30
0.0
 40
0.999322
 50
359.998079
 51
51.546282
  0
LINE
  5
10F
  8
TEAM-DET3
 10
-25.49225
 20
366.645614
 30
0.0
 11
-25.49225
 21
347.101486
 31
0.0
  0
ARC
  5
110
  8
TEAM-DET3
 10
-26.491364
 20
347.10118
 30
0.0
 40
0.999096
 50
269.984211
 51
0.015796
  0
LINE
  5
111
  8
TEAM-DET3
 10
-26.491638
 20
346.102096
 30
0.0
 11
-51.668152
 21
346.102096
 31
0.0
  0
ARC
  5
112
  8
TEAM-DET3
 10
-51.669922
 20
347.10063
 30
0.0
 40
0.998358
 50
141.900348
 51
270.099607
  0
LINE
  5
113
  8
TEAM-DET3
 10
-32.947938
 20
372.68553
 30
0.0
 11
-52.455688
 21
347.71678
 31
0.0
  0
LINE
  5
114
  8
TEAM-DET3
 10
-24.09845
 20
364.212508
 30
0.0
 11
-24.09845
 21
347.101486
 31
0.0
  0
ARC
  5
115
  8
TEAM-DET3
 10
-23.099762
 20
364.21385
 30
0.0
 40
0.998534
 50
57.086525
 51
180.075927
  0
ARC
  5
116
  8
TEAM-DET3
 10
0.0
 20
400.003646
 30
0.0
 40
41.598412
 50
237.162447
 51
267.648478
  0
ARC
  5
117
  8
TEAM-DET3
 10
-1.74756
 20
357.442
 30
0.0
 40
0.999116
 50
359.98588
 51
87.662601
  0
LINE
  5
118
  8
TEAM-DET3
 10
-0.748414
 20
357.441756
 30
0.0
 11
-0.748414
 21
347.101486
 31
0.0
  0
ARC
  5
119
  8
TEAM-DET3
 10
-1.747528
 20
347.10118
 30
0.0
 40
0.999096
 50
269.984211
 51
0.015796
  0
LINE
  5
11A
  8
TEAM-DET3
 10
-1.747804
 20
346.102096
 30
0.0
 11
-23.09906
 21
346.102096
 31
0.0
  0
ARC
  5
11B
  8
TEAM-DET3
 10
-23.099304
 20
347.10118
 30
0.0
 40
0.999096
 50
179.984212
 51
270.015794
  0
ARC
  5
11C
  8
TEAM-DET3
 10
23.099762
 20
364.21385
 30
0.0
 40
0.998534
 50
359.924067
 51
122.91348
  0
LINE
  5
11D
  8
TEAM-DET3
 10
24.09845
 20
364.212508
 30
0.0
 11
24.09845
 21
347.101486
 31
0.0
  0
ARC
  5
11E
  8
TEAM-DET3
 10
23.099304
 20
347.10118
 30
0.0
 40
0.999096
 50
269.984204
 51
0.015783
  0
LINE
  5
11F
  8
TEAM-DET3
 10
23.09906
 20
346.102096
 30
0.0
 11
1.747802
 21
346.102096
 31
0.0
  0
ARC
  5
120
  8
TEAM-DET3
 10
1.747528
 20
347.10118
 30
0.0
 40
0.999096
 50
179.984205
 51
270.015787
  0
LINE
  5
121
  8
TEAM-DET3
 10
0.748412
 20
357.441756
 30
0.0
 11
0.748412
 21
347.101486
 31
0.0
  0
ARC
  5
122
  8
TEAM-DET3
 10
1.747558
 20
357.442
 30
0.0
 40
0.999116
 50
92.337404
 51
180.014116
  0
ARC
  5
123
  8
TEAM-DET3
 10
0.0
 20
400.003646
 30
0.0
 40
41.598412
 50
272.351527
 51
302.837551
  0
ARC
  5
124
  8
TEAM-DET3
 10
0.0
 20
400.003646
 30
0.0
 40
40.488892
 50
223.156383
 51
242.807865
  0
ARC
  5
125
  8
TEAM-DET3
 10
-28.80716
 20
372.994734
 30
0.0
 40
1.0004
 50
163.292389
 51
223.221499
  0
ARC
  5
126
  8
TEAM-DET3
 10
-28.808778
 20
372.993026
 30
0.0
 40
0.999386
 50
89.908254
 51
163.171215
  0
LINE
  5
127
  8
TEAM-DET3
 10
-27.4274
 20
373.992538
 30
0.0
 11
-28.80719
 21
373.992538
 31
0.0
  0
LINE
  5
128
  8
TEAM-DET3
 10
-17.139984
 20
364.456222
 30
0.0
 11
-16.436738
 21
365.96434
 31
0.0
  0
ARC
  5
129
  8
TEAM-DET3
 10
-18.046082
 20
364.878646
 30
0.0
 40
0.999712
 50
242.79249
 51
334.99359
  0
LINE
  5
12A
  8
TEAM-DET3
 10
17.140014
 20
364.456222
 30
0.0
 11
16.436736
 21
365.96434
 31
0.0
  0
LINE
  5
12B
  8
TEAM-DET3
 10
28.80719
 20
373.992538
 30
0.0
 11
27.427398
 21
373.992538
 31
0.0
  0
ARC
  5
12C
  8
TEAM-DET3
 10
28.808776
 20
372.993026
 30
0.0
 40
0.999386
 50
16.828789
 51
90.091747
  0
ARC
  5
12D
  8
TEAM-DET3
 10
28.807158
 20
372.994734
 30
0.0
 40
1.0004
 50
316.7785
 51
16.707618
  0
ARC
  5
12E
  8
TEAM-DET3
 10
0.0
 20
400.003646
 30
0.0
 40
40.488892
 50
297.19214
 51
316.843619
  0
ARC
  5
12F
  8
TEAM-DET3
 10
18.045592
 20
364.87828
 30
0.0
 40
0.999164
 50
204.994177
 51
297.195268
  0
ARC
  5
130
  8
TEAM-DET3
 10
-1.510834
 20
360.542952
 30
0.0
 40
0.999726
 50
267.792492
 51
359.993107
  0
ARC
  5
131
  8
TEAM-DET3
 10
0.0
 20
400.003646
 30
0.0
 40
40.488892
 50
247.192136
 51
267.80786
  0
ARC
  5
132
  8
TEAM-DET3
 10
-15.308106
 20
363.60179
 30
0.0
 40
0.999164
 50
154.994177
 51
247.195271
  0
LINE
  5
133
  8
TEAM-DET3
 10
-16.213562
 20
364.024214
 30
0.0
 11
-15.510284
 21
365.532332
 31
0.0
  0
LINE
  5
134
  8
TEAM-DET3
 10
-0.511108
 20
362.207136
 30
0.0
 11
-0.511108
 21
360.543074
 31
0.0
  0
ARC
  5
135
  8
TEAM-DET3
 10
0.0
 20
400.003646
 30
0.0
 40
40.488892
 50
272.192138
 51
292.807862
  0
ARC
  5
136
  8
TEAM-DET3
 10
1.510254
 20
360.54283
 30
0.0
 40
0.999164
 50
179.994424
 51
272.195041
  0
LINE
  5
137
  8
TEAM-DET3
 10
0.511108
 20
362.207136
 30
0.0
 11
0.511108
 21
360.543074
 31
0.0
  0
LINE
  5
138
  8
TEAM-DET3
 10
16.213562
 20
364.024214
 30
0.0
 11
15.510284
 21
365.532332
 31
0.0
  0
ARC
  5
139
  8
TEAM-DET3
 10
15.307556
 20
363.601668
 30
0.0
 40
0.999712
 50
292.792494
 51
24.993593
  0
ARC
  5
13A
  8
TEAM-DET3
 10
39.55011
 20
387.481918
 30
0.0
 40
12.521724
 50
90.015809
 51
91.902799
  0
LINE
  5
13B
  8
TEAM-DET3
 10
48.5
 20
390.940902
 30
0.0
 11
48.5
 21
390.792464
 31
0.0
  0
LINE
  5
13C
  8
TEAM-DET3
 10
48.5
 20
390.457626
 30
0.0
 11
48.5
 21
390.309188
 31
0.0
  0
ARC
  5
13D
  8
TEAM-DET3
 10
40.0
 20
394.003646
 30
0.0
 40
3.01685
 50
29.999999
 51
86.948026
  0
ARC
  5
13E
  8
TEAM-DET3
 10
29.82022
 20
376.477644
 30
0.0
 40
1.000002
 50
220.434788
 51
269.970947
  0
LINE
  5
13F
  8
TEAM-DET3
 10
51.5
 20
375.503646
 30
0.0
 11
141.636566
 21
375.503646
 31
0.0
  0
LINE
  5
140
  8
TEAM-DET3
 10
51.5
 20
375.477644
 30
0.0
 11
51.5
 21
375.503646
 31
0.0
  0
LINE
  5
141
  8
TEAM-DET3
 10
51.5
 20
375.477644
 30
0.0
 11
29.819702
 21
375.477644
 31
0.0
  0
LINE
  5
142
  8
TEAM-DET3
 10
141.636566
 20
375.503646
 30
0.0
 11
145.470306
 21
375.713118
 31
0.0
  0
LINE
  5
143
  8
TEAM-DET3
 10
161.854094
 20
404.090682
 30
0.0
 11
145.470306
 21
375.713118
 31
0.0
  0
LINE
  5
144
  8
TEAM-DET3
 10
183.75
 20
405.539534
 30
0.0
 11
164.363646
 21
405.539534
 31
0.0
  0
LINE
  5
145
  8
TEAM-DET3
 10
167.239624
 20
344.503646
 30
0.0
 11
-183.75
 21
344.503646
 31
0.0
  0
LINE
  5
146
  8
TEAM-DET3
 10
183.75
 20
344.554458
 30
0.0
 11
167.239624
 21
344.503646
 31
0.0
  0
LINE
  5
147
  8
TEAM-DET3
 10
-164.363648
 20
405.539534
 30
0.0
 11
-183.25
 21
405.539534
 31
0.0
  0
ARC
  5
148
  8
TEAM-DET3
 10
-164.354614
 20
402.657454
 30
0.0
 40
2.881768
 50
29.82041
 51
90.179584
  0
LINE
  5
149
  8
TEAM-DET3
 10
-161.854066
 20
404.090682
 30
0.0
 11
-145.470338
 21
375.713118
 31
0.0
  0
LINE
  5
14A
  8
TEAM-DET3
 10
-141.636536
 20
375.503646
 30
0.0
 11
-145.470338
 21
375.713118
 31
0.0
  0
LINE
  5
14B
  8
TEAM-DET3
 10
-55.5
 20
375.503646
 30
0.0
 11
-141.636536
 21
375.503646
 31
0.0
  0
LINE
  5
14C
  8
TEAM-DET3
 10
-52.5
 20
395.520858
 30
0.0
 11
-52.5
 21
378.486678
 31
0.0
  0
LINE
  5
14D
  8
TEAM-DET3
 10
-37.786744
 20
399.003646
 30
0.0
 11
-38.274628
 21
399.003646
 31
0.0
  0
LINE
  5
14E
  8
TEAM-DET3
 10
39.54666
 20
400.003646
 30
0.0
 11
40.0
 21
400.003646
 31
0.0
  0
LINE
  5
14F
  8
TEAM-DET3
 10
42.61267
 20
395.512068
 30
0.0
 11
45.49942
 21
390.512068
 31
0.0
  0
ARC
  5
150
  8
TEAM-DET3
 10
51.526
 20
378.517806
 30
0.0
 40
3.040452
 50
236.661293
 51
269.509889
  0
ARC
  5
151
  8
TEAM-DET3
 10
51.50061
 20
378.486556
 30
0.0
 40
3.00058
 50
179.998422
 51
236.73916
  0
ARC
  5
152
  8
TEAM-DET3
 10
51.5
 20
378.503646
 30
0.0
 40
2.999986
 50
179.999872
 51
270.000119
  0
ARC
  5
153
  8
TEAM-DET3
 10
-55.5
 20
378.503646
 30
0.0
 40
3.0
 50
270.000003
 51
359.977411
  0
LINE
  5
154
  8
TEAM-DET3
 10
-29.819702
 20
375.977584
 30
0.0
 11
-53.85492
 21
375.977584
 31
0.0
  0
ARC
  5
155
  8
TEAM-DET3
 10
-29.819458
 20
376.47801
 30
0.0
 40
0.500386
 50
269.969157
 51
329.993632
  0
LINE
  5
156
  8
TEAM-DET3
 10
-40.29181
 20
395.520858
 30
0.0
 11
-37.533247
 21
395.520858
 31
0.0
  0
ARC
  5
157
  8
TEAM-DET3
 10
40.0
 20
394.003646
 30
0.0
 40
6.0
 50
41.810311
 51
90.000001
  0
LINE
  5
158
  8
TEAM-DET3
 10
48.5
 20
391.281234
 30
0.0
 11
47.204468
 21
393.525252
 31
0.0
  0
LINE
  5
159
  8
TEAM-DET3
 10
46.004456
 20
398.003646
 30
0.0
 11
47.204468
 21
393.525252
 31
0.0
  0
LINE
  5
15A
  8
TEAM-DET3
 10
44.472136
 20
398.003646
 30
0.0
 11
46.004456
 21
398.003646
 31
0.0
  0
LINE
  5
15B
  8
TEAM-DET3
 10
48.5
 20
378.486678
 30
0.0
 11
48.5
 21
389.520858
 31
0.0
  0
ARC
  5
15C
  8
TEAM-DET3
 10
46.35086
 20
391.003646
 30
0.0
 40
0.983148
 50
210.000001
 51
270.000003
  0
LINE
  5
15D
  8
TEAM-DET3
 10
48.5
 20
390.082258
 30
0.0
 11
48.5
 21
390.309188
 31
0.0
  0
LINE
  5
15E
  8
TEAM-DET3
 10
48.5
 20
390.940902
 30
0.0
 11
48.5
 21
391.16783
 31
0.0
  0
LINE
  5
15F
  8
TEAM-DET3
 10
48.5
 20
390.082258
 30
0.0
 11
48.5
 21
390.020492
 31
0.0
  0
LINE
  5
160
  8
TEAM-DET3
 10
48.5
 20
390.020492
 30
0.0
 11
48.5
 21
389.520858
 31
0.0
  0
LINE
  5
161
  8
TEAM-DET3
 10
48.5
 20
391.281234
 30
0.0
 11
48.5
 21
391.16783
 31
0.0
  0
LINE
  5
162
  8
TEAM-DET3
 10
46.35086
 20
390.020492
 30
0.0
 11
48.5
 21
390.020492
 31
0.0
  0
LINE
  5
163
  8
TEAM-DET3
 10
-33.941102
 20
402.003646
 30
0.0
 11
-51.160248
 21
402.003646
 31
0.0
  0
LINE
  5
164
  8
TEAM-DET3
 10
-51.160248
 20
402.003646
 30
0.0
 11
-52.5
 21
407.003646
 31
0.0
  0
ARC
  5
165
  8
TEAM-DET3
 10
0.0
 20
400.003646
 30
0.0
 40
41.0
 50
25.519463
 51
158.447922
  0
ARC
  5
166
  8
TEAM-DET3
 10
-45.574098
 20
418.003646
 30
0.0
 40
8.0
 50
270.000003
 51
338.447917
  0
LINE
  5
167
  8
TEAM-DET3
 10
-52.5
 20
410.003646
 30
0.0
 11
-45.574098
 21
410.003646
 31
0.0
  0
LINE
  5
168
  8
TEAM-DET3
 10
-52.5
 20
410.003646
 30
0.0
 11
-52.5
 21
407.003646
 31
0.0
  0
ARC
  5
169
  8
TEAM-DET3
 10
0.0
 20
400.003646
 30
0.0
 40
34.0
 50
170.000012
 51
176.6277
  0
LINE
  5
16A
  8
TEAM-DET3
 10
37.0
 20
407.739302
 30
0.0
 11
37.0
 21
417.66722
 31
0.0
  0
LINE
  5
16B
  8
TEAM-DET3
 10
39.131997
 20
400.003646
 30
0.0
 11
37.502686
 21
404.735458
 31
0.0
  0
LINE
  5
16C
  8
TEAM-DET3
 10
37.5
 20
392.34532
 30
0.0
 11
37.5
 21
395.250716
 31
0.0
  0
ARC
  5
16D
  8
TEAM-DET3
 10
40.0
 20
394.003646
 30
0.0
 40
3.0
 50
213.55731
 51
144.43068
  0
LINE
  5
16E
  8
TEAM-DET3
 10
-47.602386
 20
425.003646
 30
0.0
 11
-50.552766
 21
425.003646
 31
0.0
  0
LINE
  5
16F
  8
TEAM-DET3
 10
-43.049622
 20
425.003646
 30
0.0
 11
-47.602386
 21
425.003646
 31
0.0
  0
LINE
  5
170
  8
TEAM-DET3
 10
-41.447236
 20
425.003646
 30
0.0
 11
-43.049622
 21
425.003646
 31
0.0
  0
LINE
  5
171
  8
TEAM-DET3
 10
-47.602386
 20
421.003646
 30
0.0
 11
-47.602386
 21
425.003646
 31
0.0
  0
LINE
  5
172
  8
TEAM-DET3
 10
-50.552766
 20
421.003646
 30
0.0
 11
-50.552766
 21
425.003646
 31
0.0
  0
LINE
  5
173
  8
TEAM-DET3
 10
-43.049622
 20
421.003646
 30
0.0
 11
-43.049622
 21
425.003646
 31
0.0
  0
LINE
  5
174
  8
TEAM-DET3
 10
-41.447236
 20
421.003646
 30
0.0
 11
-41.447236
 21
425.003646
 31
0.0
  0
LINE
  5
175
  8
TEAM-DET3
 10
-49.921266
 20
420.003646
 30
0.0
 11
-51.0
 21
420.003646
 31
0.0
  0
LINE
  5
176
  8
TEAM-DET3
 10
-41.0
 20
421.003646
 30
0.0
 11
-51.0
 21
421.003646
 31
0.0
  0
LINE
  5
177
  8
TEAM-DET3
 10
-41.0
 20
420.003646
 30
0.0
 11
-49.921266
 21
420.003646
 31
0.0
  0
LINE
  5
178
  8
TEAM-DET3
 10
-47.882202
 20
390.46556
 30
0.0
 11
-48.399994
 21
390.46556
 31
0.0
  0
LINE
  5
179
  8
TEAM-DET3
 10
-43.599976
 20
390.46556
 30
0.0
 11
-47.882202
 21
390.46556
 31
0.0
  0
LINE
  5
17A
  8
TEAM-DET3
 10
-47.254822
 20
390.003646
 30
0.0
 11
-47.599976
 21
390.003646
 31
0.0
  0
LINE
  5
17B
  8
TEAM-DET3
 10
-44.399994
 20
390.003646
 30
0.0
 11
-47.254822
 21
390.003646
 31
0.0
  0
LINE
  5
17C
  8
TEAM-DET3
 10
-47.254822
 20
387.003646
 30
0.0
 11
-47.599976
 21
387.003646
 31
0.0
  0
LINE
  5
17D
  8
TEAM-DET3
 10
-44.399994
 20
387.003646
 30
0.0
 11
-47.254822
 21
387.003646
 31
0.0
  0
LINE
  5
17E
  8
TEAM-DET3
 10
-47.882202
 20
386.541792
 30
0.0
 11
-48.399994
 21
386.541792
 31
0.0
  0
LINE
  5
17F
  8
TEAM-DET3
 10
-43.599976
 20
386.541792
 30
0.0
 11
-47.882202
 21
386.541792
 31
0.0
  0
LINE
  5
180
  8
TEAM-DET3
 10
-47.882202
 20
382.46556
 30
0.0
 11
-48.399994
 21
382.46556
 31
0.0
  0
LINE
  5
181
  8
TEAM-DET3
 10
-43.599976
 20
382.46556
 30
0.0
 11
-47.882202
 21
382.46556
 31
0.0
  0
LINE
  5
182
  8
TEAM-DET3
 10
-47.254822
 20
382.003646
 30
0.0
 11
-47.599976
 21
382.003646
 31
0.0
  0
LINE
  5
183
  8
TEAM-DET3
 10
-44.399994
 20
382.003646
 30
0.0
 11
-47.254822
 21
382.003646
 31
0.0
  0
LINE
  5
184
  8
TEAM-DET3
 10
-51.0
 20
420.003646
 30
0.0
 11
-51.0
 21
421.003646
 31
0.0
  0
LINE
  5
185
  8
TEAM-DET3
 10
-41.0
 20
420.003646
 30
0.0
 11
-41.0
 21
421.003646
 31
0.0
  0
LINE
  5
186
  8
TEAM-DET3
 10
-48.399994
 20
390.46556
 30
0.0
 11
-48.399994
 21
395.503646
 31
0.0
  0
LINE
  5
187
  8
TEAM-DET3
 10
-48.399994
 20
399.503646
 30
0.0
 11
-48.399994
 21
402.003646
 31
0.0
  0
LINE
  5
188
  8
TEAM-DET3
 10
-48.399994
 20
410.003646
 30
0.0
 11
-48.399994
 21
420.003646
 31
0.0
  0
LINE
  5
189
  8
TEAM-DET3
 10
-43.599976
 20
390.46556
 30
0.0
 11
-43.599976
 21
395.503646
 31
0.0
  0
LINE
  5
18A
  8
TEAM-DET3
 10
-43.599976
 20
399.503646
 30
0.0
 11
-43.599976
 21
402.003646
 31
0.0
  0
LINE
  5
18B
  8
TEAM-DET3
 10
-43.599976
 20
410.251082
 30
0.0
 11
-43.599976
 21
420.003646
 31
0.0
  0
LINE
  5
18C
  8
TEAM-DET3
 10
-47.599976
 20
390.003646
 30
0.0
 11
-48.399994
 21
390.46556
 31
0.0
  0
LINE
  5
18D
  8
TEAM-DET3
 10
-44.399994
 20
390.003646
 30
0.0
 11
-43.599976
 21
390.46556
 31
0.0
  0
LINE
  5
18E
  8
TEAM-DET3
 10
-47.599976
 20
387.003646
 30
0.0
 11
-47.599976
 21
390.003646
 31
0.0
  0
LINE
  5
18F
  8
TEAM-DET3
 10
-44.399994
 20
387.003646
 30
0.0
 11
-44.399994
 21
390.003646
 31
0.0
  0
LINE
  5
190
  8
TEAM-DET3
 10
-47.599976
 20
387.003646
 30
0.0
 11
-48.399994
 21
386.541792
 31
0.0
  0
LINE
  5
191
  8
TEAM-DET3
 10
-44.399994
 20
387.003646
 30
0.0
 11
-43.599976
 21
386.541792
 31
0.0
  0
LINE
  5
192
  8
TEAM-DET3
 10
-48.399994
 20
382.46556
 30
0.0
 11
-48.399994
 21
386.541792
 31
0.0
  0
LINE
  5
193
  8
TEAM-DET3
 10
-43.599976
 20
382.46556
 30
0.0
 11
-43.599976
 21
386.541792
 31
0.0
  0
LINE
  5
194
  8
TEAM-DET3
 10
-47.599976
 20
382.003646
 30
0.0
 11
-48.399994
 21
382.46556
 31
0.0
  0
LINE
  5
195
  8
TEAM-DET3
 10
-44.399994
 20
382.003646
 30
0.0
 11
-43.599976
 21
382.46556
 31
0.0
  0
ARC
  5
196
  8
TEAM-DET3
 10
-52.274658
 20
398.503646
 30
0.0
 40
0.5
 50
90.000001
 51
180.00001
  0
ARC
  5
197
  8
TEAM-DET3
 10
-41.188844
 20
395.003646
 30
0.0
 40
0.5
 50
44.999996
 51
90.000001
  0
LINE
  5
198
  8
TEAM-DET3
 10
-40.48175
 20
395.710798
 30
0.0
 11
-38.65332
 21
393.882368
 31
0.0
  0
LINE
  5
199
  8
TEAM-DET3
 10
-38.65332
 20
393.882368
 30
0.0
 11
-39.006898
 21
393.528792
 31
0.0
  0
LINE
  5
19A
  8
TEAM-DET3
 10
-39.006898
 20
393.528792
 30
0.0
 11
-40.835298
 21
395.357222
 31
0.0
  0
ARC
  5
19B
  8
TEAM-DET3
 10
-52.274658
 20
396.503646
 30
0.0
 40
1.0
 50
180.0
 51
270.000003
  0
LINE
  5
19C
  8
TEAM-DET3
 10
-53.274658
 20
396.503646
 30
0.0
 11
-53.274658
 21
398.503646
 31
0.0
  0
ARC
  5
19D
  8
TEAM-DET3
 10
-52.274658
 20
398.503646
 30
0.0
 40
1.0
 50
90.000001
 51
180.00001
  0
LINE
  5
19E
  8
TEAM-DET3
 10
-52.274658
 20
399.503646
 30
0.0
 11
-38.274658
 21
399.503646
 31
0.0
  0
LINE
  5
19F
  8
TEAM-DET3
 10
-38.274658
 20
399.503646
 30
0.0
 11
-38.274658
 21
399.003646
 31
0.0
  0
LINE
  5
1A0
  8
TEAM-DET3
 10
-38.274658
 20
399.003646
 30
0.0
 11
-52.274658
 21
399.003646
 31
0.0
  0
LINE
  5
1A1
  8
TEAM-DET3
 10
-52.774658
 20
398.503646
 30
0.0
 11
-52.774658
 21
396.503646
 31
0.0
  0
ARC
  5
1A2
  8
TEAM-DET3
 10
-41.188844
 20
395.003646
 30
0.0
 40
1.0
 50
44.999996
 51
90.000001
  0
ARC
  5
1A3
  8
TEAM-DET3
 10
-52.274658
 20
396.503646
 30
0.0
 40
0.5
 50
180.0
 51
270.000003
  0
LINE
  5
1A4
  8
TEAM-DET3
 10
-52.274658
 20
396.003646
 30
0.0
 11
-41.188844
 21
396.003646
 31
0.0
  0
LINE
  5
1A5
  8
TEAM-DET3
 10
-41.188844
 20
395.503646
 30
0.0
 11
-52.274658
 21
395.503646
 31
0.0
  0
LINE
  5
1A6
  8
TEAM-DET3
 10
-32.695618
 20
405.768782
 30
0.0
 11
-30.726014
 21
405.421492
 31
0.0
  0
ARC
  5
1A7
  8
TEAM-DET3
 10
0.0
 20
400.003646
 30
0.0
 40
33.2
 50
180.0
 51
170.000012
  0
LINE
  5
1A8
  8
TEAM-DET3
 10
-33.200012
 20
400.003646
 30
0.0
 11
-31.200012
 21
400.003646
 31
0.0
  0
LINE
  5
1A9
  8
TEAM-DET3
 10
-37.225708
 20
406.56761
 30
0.0
 11
-32.695618
 21
405.768782
 31
0.0
  0
ARC
  5
1AA
  8
TEAM-DET3
 10
0.0
 20
400.003646
 30
0.0
 40
37.8
 50
180.00001
 51
170.000022
  0
LINE
  5
1AB
  8
TEAM-DET3
 10
-37.799988
 20
400.003646
 30
0.0
 11
-33.200012
 21
400.003646
 31
0.0
  0
ARC
  5
1AC
  8
TEAM-DET3
 10
0.0
 20
400.003646
 30
0.0
 40
31.2
 50
180.0
 51
170.000012
  0
ARC
  5
1AD
  8
TEAM-DET3
 10
0.0
 20
400.003646
 30
0.0
 40
31.2
 50
180.0
 51
170.000012
  0
ARC
  5
1AE
  8
TEAM-DET3
 10
0.0
 20
400.003646
 30
0.0
 40
31.2
 50
180.0
 51
170.000012
  0
ARC
  5
1AF
  8
TEAM-DET3
 10
0.0
 20
400.003646
 30
0.0
 40
31.2
 50
180.0
 51
170.000012
  0
ARC
  5
1B0
  8
TEAM-DET3
 10
164.354614
 20
402.657454
 30
0.0
 40
2.881768
 50
89.820416
 51
150.17959
  0
LINE
  5
1B1
  8
TEAM-DET3
 10
-35.812832
 20
373.905078
 30
0.0
 11
-71.974645
 21
373.905131
 31
0.0
  0
LINE
  5
1B2
  8
TEAM-DET3
 10
-27.0
 20
557.003301
 30
0.0
 11
-175.5
 21
557.003301
 31
0.0
  0
LINE
  5
1B3
  8
TEAM-DET3
 10
-27.0
 20
543.003301
 30
0.0
 11
-175.5
 21
543.003301
 31
0.0
  0
LINE
  5
1B4
  8
TEAM-DET3
 10
-175.5
 20
543.003301
 30
0.0
 11
-175.5
 21
557.003301
 31
0.0
  0
LINE
  5
1B5
  8
TEAM-DET3
 10
-27.0
 20
543.003301
 30
0.0
 11
-27.0
 21
557.003301
 31
0.0
  0
LINE
  5
1B6
  8
TEAM-DET3
 10
-175.5
 20
551.003301
 30
0.0
 11
-183.979936
 21
551.003301
 31
0.0
  0
LINE
  5
1B7
  8
TEAM-DET3
 10
-175.5
 20
549.003301
 30
0.0
 11
-183.979936
 21
549.003301
 31
0.0
  0
LINE
  5
1B8
  8
TEAM-AXE
 10
-176.979936
 20
550.003301
 30
0.0
 11
-183.979936
 21
550.003301
 31
0.0
  0
LINE
  5
1B9
  8
TEAM-DET3
 10
27.0
 20
557.003301
 30
0.0
 11
175.5
 21
557.003301
 31
0.0
  0
LINE
  5
1BA
  8
TEAM-DET3
 10
27.0
 20
543.003301
 30
0.0
 11
175.5
 21
543.003301
 31
0.0
  0
LINE
  5
1BB
  8
TEAM-DET3
 10
-8.5
 20
556.503301
 30
0.0
 11
8.5
 21
556.503301
 31
0.0
  0
LINE
  5
1BC
  8
TEAM-AXE
 10
-13.09292
 20
550.003301
 30
0.0
 11
11.235725
 21
550.003301
 31
0.0
  0
LINE
  5
1BD
  8
TEAM-DET3
 10
-8.5
 20
543.503301
 30
0.0
 11
8.5
 21
543.503301
 31
0.0
  0
LINE
  5
1BE
  8
TEAM-DET3
 10
-8.5
 20
543.503301
 30
0.0
 11
-8.5
 21
556.503301
 31
0.0
  0
LINE
  5
1BF
  8
TEAM-DET3
 10
8.5
 20
543.503301
 30
0.0
 11
8.5
 21
556.503301
 31
0.0
  0
LINE
  5
1C0
  8
TEAM-DET3
 10
175.5
 20
543.003301
 30
0.0
 11
175.5
 21
557.003301
 31
0.0
  0
LINE
  5
1C1
  8
TEAM-DET3
 10
27.0
 20
543.003301
 30
0.0
 11
27.0
 21
557.003301
 31
0.0
  0
LINE
  5
1C2
  8
TEAM-AXE
 10
0.0
 20
541.440911
 30
0.0
 11
0.0
 21
559.792571
 31
0.0
  0
LINE
  5
1C3
  8
TEAM-DET3
 10
175.5
 20
551.003301
 30
0.0
 11
183.979935
 21
551.003301
 31
0.0
  0
LINE
  5
1C4
  8
TEAM-DET3
 10
175.5
 20
549.003301
 30
0.0
 11
183.979935
 21
549.003301
 31
0.0
  0
LINE
  5
1C5
  8
TEAM-AXE
 10
176.979935
 20
550.003301
 30
0.0
 11
183.979935
 21
550.003301
 31
0.0
  0
LINE
  5
1C6
  8
TEAM-DET3
 10
-184.0
 20
535.279897
 30
0.0
 11
183.979935
 21
535.279897
 31
0.0
  0
LINE
  5
1C7
  8
TEAM-DET3
 10
-184.0
 20
564.799897
 30
0.0
 11
183.979935
 21
564.799897
 31
0.0
  0
LINE
  5
1C8
  8
TEAM-AXE
 10
19.994989
 20
1057.799153
 30
0.0
 11
19.994989
 21
1042.20045
 31
0.0
  0
LINE
  5
1C9
  8
TEAM-AXE
 10
0.0
 20
1066.901096
 30
0.0
 11
0.0
 21
1033.105398
 31
0.0
  0
LINE
  5
1CA
  8
TEAM-AXE
 10
-20.003258
 20
1057.799153
 30
0.0
 11
-20.003258
 21
1042.20734
 31
0.0
  0
LINE
  5
1CB
  8
TEAM-AXE
 10
-27.799165
 20
1050.003247
 30
0.0
 11
27.799509
 21
1050.003247
 31
0.0
  0
CIRCLE
  5
1CC
  8
TEAM-DET3
 10
19.994989
 20
1050.003247
 30
0.0
 40
5.997567
  0
CIRCLE
  5
1CD
  8
TEAM-DET3
 10
19.994989
 20
1050.003247
 30
0.0
 40
4.600925
  0
CIRCLE
  5
1CE
  8
TEAM-DET3
 10
0.0
 20
1050.003247
 30
0.0
 40
13.003168
  0
CIRCLE
  5
1CF
  8
TEAM-DET3
 10
-20.003258
 20
1050.003247
 30
0.0
 40
5.997567
  0
CIRCLE
  5
1D0
  8
TEAM-DET3
 10
-20.003258
 20
1050.003247
 30
0.0
 40
4.600925
  0
LINE
  5
1D1
  8
TEAM-DET3
 10
98.248955
 20
1013.505216
 30
0.0
 11
98.248955
 21
1026.501494
 31
0.0
  0
LINE
  5
1D2
  8
TEAM-DET3
 10
81.251199
 20
1026.501494
 30
0.0
 11
81.251199
 21
1013.505216
 31
0.0
  0
LINE
  5
1D3
  8
TEAM-DET3
 10
183.254275
 20
1005.003065
 30
0.0
 11
-183.748647
 21
1005.003065
 31
0.0
  0
LINE
  5
1D4
  8
TEAM-DET3
 10
183.254275
 20
1008.001676
 30
0.0
 11
-183.748647
 21
1008.001676
 31
0.0
  0
LINE
  5
1D5
  8
TEAM-DET3
 10
183.669064
 20
1087.002539
 30
0.0
 11
-184.165159
 21
1087.002539
 31
0.0
  0
LINE
  5
1D6
  8
TEAM-DET3
 10
81.251199
 20
1026.501494
 30
0.0
 11
98.248955
 21
1026.501494
 31
0.0
  0
LINE
  5
1D7
  8
TEAM-DET3
 10
98.248955
 20
1013.505216
 30
0.0
 11
81.251199
 21
1013.505216
 31
0.0
  0
LINE
  5
1D8
  8
TEAM-DET3
 10
-98.750217
 20
1013.505216
 30
0.0
 11
-98.750217
 21
1026.501494
 31
0.0
  0
LINE
  5
1D9
  8
TEAM-DET3
 10
-98.750217
 20
1013.505216
 30
0.0
 11
-81.74557
 21
1013.505216
 31
0.0
  0
LINE
  5
1DA
  8
TEAM-DET3
 10
-81.74557
 20
1026.501494
 30
0.0
 11
-81.74557
 21
1013.505216
 31
0.0
  0
LINE
  5
1DB
  8
TEAM-DET3
 10
-81.74557
 20
1026.501494
 30
0.0
 11
-98.750217
 21
1026.501494
 31
0.0
  0
LINE
  5
1DC
  8
TEAM-DET3
 10
-183.748647
 20
864.999897
 30
0.0
 11
183.254275
 21
864.999897
 31
0.0
  0
LINE
  5
1DD
  8
TEAM-DET3
 10
-183.748647
 20
795.000724
 30
0.0
 11
183.254275
 21
795.000724
 31
0.0
  0
LINE
  5
1DE
  8
TEAM-AXE
 10
-57.976479
 20
856.504291
 30
0.0
 11
-62.526416
 21
856.504291
 31
0.0
  0
LINE
  5
1DF
  8
TEAM-AXE
 10
-60.247141
 20
858.776676
 30
0.0
 11
-60.247141
 21
854.225016
 31
0.0
  0
LINE
  5
1E0
  8
TEAM-AXE
 10
-103.477922
 20
856.504291
 30
0.0
 11
-108.020969
 21
856.504291
 31
0.0
  0
LINE
  5
1E1
  8
TEAM-AXE
 10
-105.748584
 20
858.776676
 30
0.0
 11
-105.748584
 21
854.225016
 31
0.0
  0
LINE
  5
1E2
  8
TEAM-DET3
 10
231.944498
 20
1004.200542
 30
0.0
 11
229.749973
 21
1000.40577
 31
0.0
  0
LINE
  5
1E3
  8
TEAM-DET3
 10
227.548557
 20
1004.200542
 30
0.0
 11
231.944498
 21
1004.200542
 31
0.0
  0
LINE
  5
1E4
  8
TEAM-DET3
 10
229.749973
 20
1000.40577
 30
0.0
 11
227.548557
 21
1004.200542
 31
0.0
  0
LINE
  5
1E5
  8
TEAM-DET3
 10
219.752306
 20
1000.40577
 30
0.0
 11
229.749973
 21
1000.40577
 31
0.0
  0
LINE
  5
1E6
  8
TEAM-DET3
 10
219.752306
 20
1000.002693
 30
0.0
 11
219.752306
 21
1000.40577
 31
0.0
  0
LINE
  5
1E7
  8
TEAM-DET3
 10
239.746951
 20
1000.40577
 30
0.0
 11
239.746951
 21
1000.002693
 31
0.0
  0
LINE
  5
1E8
  8
TEAM-DET3
 10
229.749973
 20
1000.40577
 30
0.0
 11
239.746951
 21
1000.40577
 31
0.0
  0
LINE
  5
1E9
  8
TEAM-DET3
 10
239.746951
 20
1014.206478
 30
0.0
 11
219.752306
 21
1014.206478
 31
0.0
  0
LINE
  5
1EA
  8
TEAM-DET3
 10
219.752306
 20
1014.206478
 30
0.0
 11
219.752306
 21
994.202875
 31
0.0
  0
LINE
  5
1EB
  8
TEAM-DET3
 10
239.746951
 20
994.202875
 30
0.0
 11
239.746951
 21
1014.206478
 31
0.0
  0
LINE
  5
1EC
  8
TEAM-DET3
 10
219.752306
 20
994.202875
 30
0.0
 11
239.746951
 21
994.202875
 31
0.0
  0
LINE
  5
1ED
  8
TEAM-DET3
 10
-184.0
 20
965.004817
 30
0.0
 11
183.979935
 21
965.004817
 31
0.0
  0
LINE
  5
1EE
  8
TEAM-DET3
 10
-184.0
 20
915.004817
 30
0.0
 11
183.979935
 21
915.004817
 31
0.0
  0
ARC
  5
1EF
  8
TEAM-DET3
 10
-155.0
 20
940.004817
 30
0.0
 40
5.25
 50
90.0
 51
270.0
  0
ARC
  5
1F0
  8
TEAM-DET3
 10
-145.0
 20
940.004817
 30
0.0
 40
5.25
 50
270.0
 51
90.0
  0
LINE
  5
1F1
  8
TEAM-AXE
 10
-150.0
 20
931.410607
 30
0.0
 11
-150.0
 21
947.557597
 31
0.0
  0
LINE
  5
1F2
  8
TEAM-DET3
 10
-155.0
 20
934.754817
 30
0.0
 11
-145.0
 21
934.754817
 31
0.0
  0
LINE
  5
1F3
  8
TEAM-AXE
 10
-163.25
 20
940.004817
 30
0.0
 11
-137.42956
 21
940.004817
 31
0.0
  0
LINE
  5
1F4
  8
TEAM-DET3
 10
-155.0
 20
945.254817
 30
0.0
 11
-145.0
 21
945.254817
 31
0.0
  0
CIRCLE
  5
1F5
  8
TEAM-DET3
 10
0.0
 20
949.004817
 30
0.0
 40
2.6
  0
LINE
  5
1F6
  8
TEAM-AXE
 10
-3.6
 20
949.004817
 30
0.0
 11
3.6
 21
949.004817
 31
0.0
  0
LINE
  5
1F7
  8
TEAM-AXE
 10
0.0
 20
945.404817
 30
0.0
 11
0.0
 21
952.604817
 31
0.0
  0
LINE
  5
1F8
  8
TEAM-AXE
 10
141.35841
 20
940.004817
 30
0.0
 11
157.7577
 21
940.004817
 31
0.0
  0
LINE
  5
1F9
  8
TEAM-DET3
 10
144.75
 20
935.004817
 30
0.0
 11
144.75
 21
945.004817
 31
0.0
  0
LINE
  5
1FA
  8
TEAM-DET3
 10
155.25
 20
935.004817
 30
0.0
 11
155.25
 21
945.004817
 31
0.0
  0
LINE
  5
1FB
  8
TEAM-AXE
 10
150.0
 20
926.754817
 30
0.0
 11
150.0
 21
952.603537
 31
0.0
  0
ARC
  5
1FC
  8
TEAM-DET3
 10
150.0
 20
935.004817
 30
0.0
 40
5.25
 50
180.0
 51
0.0
  0
ARC
  5
1FD
  8
TEAM-DET3
 10
150.0
 20
945.004817
 30
0.0
 40
5.25
 50
0.0
 51
180.0
  0
LINE
  5
1FE
  8
TEAM-DET2
 10
-189.0
 20
1090.001494
 30
0.0
 11
-210.0
 21
1090.001494
 31
0.0
  0
ARC
  5
200
  8
TEAM-DET2
 10
-189.0
 20
1085.001494
 30
0.0
 40
5.0
 50
0.0
 51
90.0
  0
LINE
  5
201
  8
TEAM-DET2
 10
210.247287
 20
1090.001494
 30
0.0
 11
189.247287
 21
1090.001494
 31
0.0
  0
ARC
  5
202
  8
TEAM-DET2
 10
189.247287
 20
1085.001494
 30
0.0
 40
5.0
 50
90.0
 51
180.0
  0
LINE
  5
203
  8
TEAM-DET3
 10
-184.0
 20
610.004264
 30
0.0
 11
183.979935
 21
610.004264
 31
0.0
  0
LINE
  5
204
  8
TEAM-DET3
 10
-184.0
 20
560.484264
 30
0.0
 11
183.979935
 21
560.484264
 31
0.0
  0
ARC
  5
205
  8
TEAM-DET3
 10
-155.0
 20
585.004264
 30
0.0
 40
5.25
 50
90.0
 51
270.0
  0
ARC
  5
206
  8
TEAM-DET3
 10
-145.0
 20
585.004264
 30
0.0
 40
5.25
 50
270.0
 51
90.0
  0
LINE
  5
207
  8
TEAM-AXE
 10
-150.0
 20
576.410054
 30
0.0
 11
-150.0
 21
592.557044
 31
0.0
  0
LINE
  5
208
  8
TEAM-DET3
 10
-155.0
 20
579.754264
 30
0.0
 11
-145.0
 21
579.754264
 31
0.0
  0
LINE
  5
209
  8
TEAM-AXE
 10
-163.25
 20
585.004264
 30
0.0
 11
-137.42956
 21
585.004264
 31
0.0
  0
LINE
  5
20A
  8
TEAM-DET3
 10
-155.0
 20
590.254264
 30
0.0
 11
-145.0
 21
590.254264
 31
0.0
  0
CIRCLE
  5
20B
  8
TEAM-DET3
 10
0.0
 20
594.004264
 30
0.0
 40
2.6
  0
LINE
  5
20C
  8
TEAM-AXE
 10
-3.6
 20
594.004264
 30
0.0
 11
3.6
 21
594.004264
 31
0.0
  0
LINE
  5
20D
  8
TEAM-AXE
 10
0.0
 20
590.404264
 30
0.0
 11
0.0
 21
597.604264
 31
0.0
  0
LINE
  5
20E
  8
TEAM-AXE
 10
141.35841
 20
585.004264
 30
0.0
 11
157.7577
 21
585.004264
 31
0.0
  0
LINE
  5
20F
  8
TEAM-DET3
 10
144.75
 20
580.004264
 30
0.0
 11
144.75
 21
590.004264
 31
0.0
  0
LINE
  5
210
  8
TEAM-DET3
 10
155.25
 20
580.004264
 30
0.0
 11
155.25
 21
590.004264
 31
0.0
  0
LINE
  5
211
  8
TEAM-AXE
 10
150.0
 20
571.754264
 30
0.0
 11
150.0
 21
597.602984
 31
0.0
  0
ARC
  5
212
  8
TEAM-DET3
 10
150.0
 20
580.004264
 30
0.0
 40
5.25
 50
180.0
 51
0.0
  0
ARC
  5
213
  8
TEAM-DET3
 10
150.0
 20
590.004264
 30
0.0
 40
5.25
 50
0.0
 51
180.0
  0
LINE
  5
214
  8
TEAM-DET2
 10
-184.0
 20
135.005897
 30
0.0
 11
183.979935
 21
135.005897
 31
0.0
  0
LINE
  5
215
  8
TEAM-DET2
 10
210.0
 20
95.005897
 30
0.0
 11
-210.0
 21
95.005897
 31
0.0
  0
ARC
  5
216
  8
TEAM-DET2
 10
-189.0
 20
100.005897
 30
0.0
 40
5.0
 50
270.0
 51
0.0
  0
ARC
  5
217
  8
TEAM-DET2
 10
188.979935
 20
101.894371
 30
0.0
 40
5.0
 50
180.0
 51
270.0
  0
LINE
  5
218
  8
TEAM-DET2
 10
183.979935
 20
1085.001494
 30
0.0
 11
183.979935
 21
101.894371
 31
0.0
  0
LINE
  5
219
  8
TEAM-DET2
 10
-184.0
 20
1085.001494
 30
0.0
 11
-184.0
 21
100.005897
 31
0.0
  0
CIRCLE
  5
21A
  8
TEAM-DET3
 10
230.0
 20
1100.000352
 30
0.0
 40
12.0
  0
CIRCLE
  5
21B
  8
TEAM-DET3
 10
230.0
 20
1100.000352
 30
0.0
 40
6.5
  0
LINE
  5
21C
  8
TEAM-DET3
 10
249.5
 20
-20.0
 30
0.0
 11
249.5
 21
-12.0
 31
0.0
  0
LINE
  5
21D
  8
TEAM-DET3
 10
247.5
 20
-12.0
 30
0.0
 11
247.5
 21
70.000016
 31
0.0
  0
LINE
  5
21E
  8
TEAM-HIDE
 10
247.5
 20
70.000016
 30
0.0
 11
247.5
 21
420.000016
 31
0.0
  0
LINE
  5
221
  8
TEAM-DET3
 10
206.0
 20
92.000016
 30
0.0
 11
210.0
 21
92.000016
 31
0.0
  0
LINE
  5
222
  8
TEAM-DET3
 10
198.5
 20
84.750016
 30
0.0
 11
204.0
 21
84.750016
 31
0.0
  0
LINE
  5
223
  8
TEAM-DET3
 10
198.5
 20
88.500016
 30
0.0
 11
204.0
 21
88.500016
 31
0.0
  0
LINE
  5
224
  8
TEAM-DET3
 10
204.0
 20
91.000016
 30
0.0
 11
206.0
 21
91.000016
 31
0.0
  0
LINE
  5
225
  8
TEAM-DET3
 10
206.0
 20
70.000016
 30
0.0
 11
210.0
 21
70.000016
 31
0.0
  0
LINE
  5
226
  8
TEAM-DET3
 10
198.5
 20
73.500016
 30
0.0
 11
204.0
 21
73.500016
 31
0.0
  0
LINE
  5
227
  8
TEAM-DET3
 10
198.5
 20
77.250016
 30
0.0
 11
204.0
 21
77.250016
 31
0.0
  0
LINE
  5
228
  8
TEAM-DET3
 10
204.0
 20
71.000016
 30
0.0
 11
206.0
 21
71.000016
 31
0.0
  0
LINE
  5
229
  8
TEAM-DET3
 10
212.5
 20
-12.0
 30
0.0
 11
212.5
 21
70.000016
 31
0.0
  0
LINE
  5
22A
  8
TEAM-HIDE
 10
193.0
 20
-20.0
 30
0.0
 11
193.0
 21
-12.0
 31
0.0
  0
LINE
  5
22B
  8
TEAM-AXE
 10
187.5
 20
-23.160154
 30
0.0
 11
187.5
 21
-8.705836
 31
0.0
  0
LINE
  5
22C
  8
TEAM-HIDE
 10
182.0
 20
-20.0
 30
0.0
 11
182.0
 21
-12.0
 31
0.0
  0
LINE
  5
22D
  8
TEAM-DET3
 10
206.0
 20
70.000016
 30
0.0
 11
206.0
 21
92.000016
 31
0.0
  0
LINE
  5
22E
  8
TEAM-DET3
 10
210.0
 20
70.000016
 30
0.0
 11
210.0
 21
92.000016
 31
0.0
  0
LINE
  5
22F
  8
TEAM-DET3
 10
198.5
 20
73.500016
 30
0.0
 11
198.5
 21
88.500016
 31
0.0
  0
LINE
  5
230
  8
TEAM-DET3
 10
204.0
 20
71.000016
 30
0.0
 11
204.0
 21
91.000016
 31
0.0
  0
LINE
  5
231
  8
TEAM-DET3
 10
176.5
 20
-20.0
 30
0.0
 11
176.5
 21
-12.0
 31
0.0
  0
LINE
  5
232
  8
TEAM-HIDE
 10
212.5
 20
70.000016
 30
0.0
 11
212.5
 21
420.000016
 31
0.0
  0
LINE
  5
233
  8
TEAM-DET2
 10
210.0
 20
70.000016
 30
0.0
 11
250.0
 21
70.000016
 31
0.0
  0
LINE
  5
234
  8
TEAM-DET3
 10
176.5
 20
-20.0
 30
0.0
 11
249.5
 21
-20.0
 31
0.0
  0
LINE
  5
235
  8
TEAM-DET3
 10
176.5
 20
-12.0
 30
0.0
 11
249.5
 21
-12.0
 31
0.0
  0
LINE
  5
236
  8
TEAM-HIDE
 10
212.5
 20
420.000016
 30
0.0
 11
247.5
 21
420.000016
 31
0.0
  0
LINE
  5
237
  8
TEAM-DET2
 10
250.0
 20
70.000016
 30
0.0
 11
250.0
 21
1120.000352
 31
0.0
  0
LINE
  5
238
  8
TEAM-DET2
 10
210.0
 20
70.000016
 30
0.0
 11
210.0
 21
1120.000352
 31
0.0
  0
CIRCLE
  5
239
  8
TEAM-DET3
 10
-230.0
 20
1100.000352
 30
0.0
 40
12.0
  0
CIRCLE
  5
23A
  8
TEAM-DET3
 10
-230.0
 20
1100.000352
 30
0.0
 40
6.5
  0
LINE
  5
23B
  8
TEAM-HIDE
 10
-247.5
 20
420.000016
 30
0.0
 11
-212.5
 21
420.000016
 31
0.0
  0
LINE
  5
23C
  8
TEAM-DET3
 10
-176.5
 20
-20.0
 30
0.0
 11
-176.5
 21
-12.0
 31
0.0
  0
LINE
  5
23D
  8
TEAM-HIDE
 10
-182.0
 20
-20.0
 30
0.0
 11
-182.0
 21
-12.0
 31
0.0
  0
LINE
  5
23E
  8
TEAM-AXE
 10
-187.5
 20
-23.160154
 30
0.0
 11
-187.5
 21
-8.705836
 31
0.0
  0
LINE
  5
23F
  8
TEAM-HIDE
 10
-193.0
 20
-20.0
 30
0.0
 11
-193.0
 21
-12.0
 31
0.0
  0
LINE
  5
240
  8
TEAM-DET3
 10
-198.5
 20
73.500016
 30
0.0
 11
-198.5
 21
88.500016
 31
0.0
  0
LINE
  5
241
  8
TEAM-DET3
 10
-206.0
 20
91.000016
 30
0.0
 11
-204.0
 21
91.000016
 31
0.0
  0
LINE
  5
242
  8
TEAM-DET3
 10
-210.0
 20
92.000016
 30
0.0
 11
-206.0
 21
92.000016
 31
0.0
  0
LINE
  5
243
  8
TEAM-DET3
 10
-206.0
 20
71.000016
 30
0.0
 11
-204.0
 21
71.000016
 31
0.0
  0
LINE
  5
244
  8
TEAM-DET3
 10
-210.0
 20
70.000016
 30
0.0
 11
-206.0
 21
70.000016
 31
0.0
  0
LINE
  5
245
  8
TEAM-DET3
 10
-212.5
 20
-12.0
 30
0.0
 11
-212.5
 21
70.000016
 31
0.0
  0
LINE
  5
246
  8
TEAM-DET3
 10
-206.0
 20
70.000016
 30
0.0
 11
-206.0
 21
92.000016
 31
0.0
  0
LINE
  5
247
  8
TEAM-DET3
 10
-204.0
 20
71.000016
 30
0.0
 11
-204.0
 21
91.000016
 31
0.0
  0
LINE
  5
248
  8
TEAM-DET3
 10
-249.5
 20
-12.0
 30
0.0
 11
-176.5
 21
-12.0
 31
0.0
  0
LINE
  5
249
  8
TEAM-DET3
 10
-204.0
 20
73.500016
 30
0.0
 11
-198.5
 21
73.500016
 31
0.0
  0
LINE
  5
24A
  8
TEAM-DET3
 10
-204.0
 20
77.250016
 30
0.0
 11
-198.5
 21
77.250016
 31
0.0
  0
LINE
  5
24B
  8
TEAM-DET3
 10
-204.0
 20
84.750016
 30
0.0
 11
-198.5
 21
84.750016
 31
0.0
  0
LINE
  5
24C
  8
TEAM-DET3
 10
-204.0
 20
88.500016
 30
0.0
 11
-198.5
 21
88.500016
 31
0.0
  0
LINE
  5
24D
  8
TEAM-DET3
 10
-249.5
 20
-20.0
 30
0.0
 11
-249.5
 21
-12.0
 31
0.0
  0
LINE
  5
24E
  8
TEAM-DET3
 10
-247.5
 20
-12.0
 30
0.0
 11
-247.5
 21
70.000016
 31
0.0
  0
LINE
  5
24F
  8
TEAM-DET2
 10
-250.0
 20
70.000016
 30
0.0
 11
-210.0
 21
70.000016
 31
0.0
  0
LINE
  5
250
  8
TEAM-DET3
 10
-249.5
 20
-20.0
 30
0.0
 11
-176.5
 21
-20.0
 31
0.0
  0
LINE
  5
251
  8
TEAM-HIDE
 10
-247.5
 20
70.000016
 30
0.0
 11
-247.5
 21
420.000016
 31
0.0
  0
LINE
  5
252
  8
TEAM-HIDE
 10
-212.5
 20
70.000016
 30
0.0
 11
-212.5
 21
420.000016
 31
0.0
  0
LINE
  5
253
  8
TEAM-DET2
 10
-250.0
 20
70.000016
 30
0.0
 11
-250.0
 21
1120.000352
 31
0.0
  0
LINE
  5
254
  8
TEAM-DET2
 10
-210.0
 20
70.000016
 30
0.0
 11
-210.0
 21
1120.000352
 31
0.0
  0
LINE
  5
255
  8
TEAM-DET2
 10
-250.0
 20
1120.000352
 30
0.0
 11
250.0
 21
1120.000352
 31
0.0
  0
LINE
  5
256
  8
TEAM-DET2
 10
-210.0
 20
1090.000352
 30
0.0
 11
210.0
 21
1090.000352
 31
0.0
  0
TEXT
  5
257
  8
TEAM-TXT
 10
-134.163739
 20
954.05517
 30
0.0
 40
30.0
  1
team 871083
 41
0.8
 51
15.0
  7
TEAM
  0
CIRCLE
  5
25A
  8
TEAM-INSP
 10
0.0
 20
0.0
 30
0.0
 40
10.0
  0
ENDSEC
  0
EOF
