  0
SECTION
  2
HEADER
  9
$ACADVER
  1
AC1009
  9
$INSBASE
 10
0.0
 20
0.0
 30
0.0
  9
$EXTMIN
 10
-263.888757
 20
-159.003363
 30
-0.000006
  9
$EXTMAX
 10
309.487815
 20
149.688479
 30
0.000006
  9
$LIMMIN
 10
-263.888757
 20
-159.003363
  9
$LIMMAX
 10
309.487815
 20
149.688479
  9
$ORTHOMODE
 70
     1
  9
$REGENMODE
 70
     1
  9
$FILLMODE
 70
     1
  9
$QTEXTMODE
 70
     0
  9
$MIRRTEXT
 70
     0
  9
$DRAGMODE
 70
     2
  9
$LTSCALE
 40
50.0
  9
$OSMODE
 70
     0
  9
$ATTMODE
 70
     1
  9
$TEXTSIZE
 40
200.0
  9
$TRACEWID
 40
1.0
  9
$TEXTSTYLE
  7
STANDARD
  9
$CLAYER
  8
TEAM-MAS
  9
$CELTYPE
  6
BYLAYER
  9
$CECOLOR
 62
   256
  9
$DIMSCALE
 40
1.0
  9
$DIMASZ
 40
20.0
  9
$DIMEXO
 40
10.0
  9
$DIMDLI
 40
1.0
  9
$DIMRND
 40
0.0
  9
$DIMDLE
 40
0.0
  9
$DIMEXE
 40
1.0
  9
$DIMTP
 40
0.0
  9
$DIMTM
 40
0.0
  9
$DIMTXT
 40
35.0
  9
$DIMCEN
 40
1.0
  9
$DIMTSZ
 40
0.0
  9
$DIMTOL
 70
     0
  9
$DIMLIM
 70
     0
  9
$DIMTIH
 70
     0
  9
$DIMTOH
 70
     0
  9
$DIMSE1
 70
     0
  9
$DIMSE2
 70
     0
  9
$DIMTAD
 70
     0
  9
$DIMZIN
 70
     0
  9
$DIMBLK
  1

  9
$DIMASO
 70
     1
  9
$DIMSHO
 70
     0
  9
$DIMPOST
  1

  9
$DIMAPOST
  1

  9
$DIMALT
 70
     0
  9
$DIMALTD
 70
     2
  9
$DIMALTF
 40
25.4
  9
$DIMLFAC
 40
1.0
  9
$DIMTOFL
 70
     0
  9
$DIMTVP
 40
0.0
  9
$DIMTIX
 70
     0
  9
$DIMSOXD
 70
     0
  9
$DIMSAH
 70
     0
  9
$DIMBLK1
  1

  9
$DIMBLK2
  1

  9
$DIMSTYLE
  2
TEAM
  9
$DIMCLRD
 70
     9
  9
$DIMCLRE
 70
     9
  9
$DIMCLRT
 70
    11
  9
$DIMTFAC
 40
1.0
  9
$DIMGAP
 40
7.0
  9
$LUNITS
 70
     2
  9
$LUPREC
 70
     1
  9
$SKETCHINC
 40
1.0
  9
$FILLETRAD
 40
50.0
  9
$AUNITS
 70
     0
  9
$AUPREC
 70
     0
  9
$MENU
  1
ROPLANS
  9
$ELEVATION
 40
0.0
  9
$PELEVATION
 40
0.0
  9
$THICKNESS
 40
0.0
  9
$LIMCHECK
 70
     0
  9
$BLIPMODE
 70
     1
  9
$CHAMFERA
 40
0.0
  9
$CHAMFERB
 40
0.0
  9
$SKPOLY
 70
     0
  9
$TDCREATE
 40
2450392.957851
  9
$TDUPDATE
 40
2456118.662559
  9
$TDINDWG
 40
5.307301
  9
$TDUSRTIMER
 40
5.307301
  9
$USRTIMER
 70
     1
  9
$ANGBASE
 50
0.0
  9
$ANGDIR
 70
     0
  9
$PDMODE
 70
     0
  9
$PDSIZE
 40
0.0
  9
$PLINEWID
 40
0.0
  9
$COORDS
 70
     2
  9
$SPLFRAME
 70
     0
  9
$SPLINETYPE
 70
     6
  9
$SPLINESEGS
 70
     8
  9
$ATTDIA
 70
     0
  9
$ATTREQ
 70
     0
  9
$HANDLING
 70
     1
  9
$HANDSEED
  5
1BF
  9
$SURFTAB1
 70
    24
  9
$SURFTAB2
 70
    24
  9
$SURFTYPE
 70
     6
  9
$SURFU
 70
     6
  9
$SURFV
 70
     6
  9
$UCSNAME
  2

  9
$UCSORG
 10
0.0
 20
0.0
 30
0.0
  9
$UCSXDIR
 10
1.0
 20
0.0
 30
0.0
  9
$UCSYDIR
 10
0.0
 20
1.0
 30
0.0
  9
$PUCSNAME
  2

  9
$PUCSORG
 10
0.0
 20
0.0
 30
0.0
  9
$PUCSXDIR
 10
1.0
 20
0.0
 30
0.0
  9
$PUCSYDIR
 10
0.0
 20
1.0
 30
0.0
  9
$USERI1
 70
     0
  9
$USERI2
 70
     0
  9
$USERI3
 70
     0
  9
$USERI4
 70
     0
  9
$USERI5
 70
     0
  9
$USERR1
 40
0.0
  9
$USERR2
 40
0.0
  9
$USERR3
 40
0.0
  9
$USERR4
 40
0.0
  9
$USERR5
 40
0.0
  9
$WORLDVIEW
 70
     1
  9
$SHADEDGE
 70
     0
  9
$SHADEDIF
 70
    70
  9
$TILEMODE
 70
     1
  9
$MAXACTVP
 70
    16
  9
$PLIMCHECK
 70
     0
  9
$PEXTMIN
 10
-0.805942
 20
0.005011
 30
0.0
  9
$PEXTMAX
 10
20.250094
 20
11.356329
 30
0.0
  9
$PLIMMIN
 10
0.0
 20
0.0
  9
$PLIMMAX
 10
12.0
 20
9.0
  9
$UNITMODE
 70
     0
  9
$VISRETAIN
 70
     0
  9
$PLINEGEN
 70
     0
  9
$PSLTSCALE
 70
     0
  0
ENDSEC
  0
SECTION
  2
TABLES
  0
TABLE
  2
VPORT
 70
     2
  0
VPORT
  2
*ACTIVE
 70
     0
 10
0.0
 20
0.0
 11
1.0
 21
1.0
 12
22.799529
 22
-4.657442
 13
0.0
 23
0.0
 14
1.0
 24
1.0
 15
50.0
 25
50.0
 16
0.0
 26
0.0
 36
1.0
 17
0.0
 27
0.0
 37
0.0
 40
310.635337
 41
1.911765
 42
50.0
 43
0.0
 44
0.0
 50
0.0
 51
0.0
 71
     0
 72
   100
 73
     1
 74
     1
 75
     0
 76
     0
 77
     0
 78
     0
  0
ENDTAB
  0
TABLE
  2
LTYPE
 70
     3
  0
LTYPE
  2
CONTINUOUS
 70
     0
  3
Solid Line
 72
    65
 73
     0
 40
0.0
  0
LTYPE
  2
31
 70
     0
  3

 72
    65
 73
     4
 40
2.1
 49
1.5
 49
-0.3
 49
0.0
 49
-0.3
  0
LTYPE
  2
22
 70
     0
  3

 72
    65
 73
     2
 40
1.4
 49
1.2
 49
-0.2
  0
ENDTAB
  0
TABLE
  2
LAYER
 70
     9
  0
LAYER
  2
0
 70
     0
 62
     7
  6
CONTINUOUS
  0
LAYER
  2
DEFPOINTS
 70
     0
 62
     7
  6
CONTINUOUS
  0
LAYER
  2
TEAM-AXE
 70
     0
 62
    10
  6
31
  0
LAYER
  2
TEAM-MAS
 70
     0
 62
     9
  6
CONTINUOUS
  0
LAYER
  2
TEAM-TXT
 70
     0
 62
    11
  6
CONTINUOUS
  0
LAYER
  2
TEAM-DET2
 70
     0
 62
    11
  6
CONTINUOUS
  0
LAYER
  2
TEAM-HIDE
 70
     0
 62
     8
  6
22
  0
LAYER
  2
TEAM-DET3
 70
     0
 62
    14
  6
CONTINUOUS
  0
LAYER
  2
TEAM-INSP
 70
     0
 62
     5
  6
CONTINUOUS
  0
ENDTAB
  0
TABLE
  2
STYLE
 70
     2
  0
STYLE
  2
STANDARD
 70
     0
 40
0.0
 41
1.0
 50
0.0
 71
     0
 42
200.0
  3
txt
  4

  0
STYLE
  2
TEAM
 70
     0
 40
0.0
 41
0.8
 50
15.0
 71
     0
 42
7.0
  3
ROMANS.shx
  4

  0
ENDTAB
  0
TABLE
  2
VIEW
 70
     0
  0
ENDTAB
  0
TABLE
  2
UCS
 70
     0
  0
ENDTAB
  0
TABLE
  2
APPID
 70
     1
  0
APPID
  2
ACAD
 70
     0
  0
ENDTAB
  0
TABLE
  2
DIMSTYLE
 70
     1
  0
DIMSTYLE
  2
TEAM
 70
     0
  3

  4

  5

  6

  7

 40
1.0
 41
20.0
 42
10.0
 43
1.0
 44
1.0
 45
0.0
 46
0.0
 47
0.0
 48
0.0
140
35.0
141
1.0
142
0.0
143
25.4
144
1.0
145
0.0
146
1.0
147
7.0
 71
     0
 72
     0
 73
     0
 74
     0
 75
     0
 76
     0
 77
     0
 78
     0
170
     0
171
     2
172
     0
173
     0
174
     0
175
     0
176
     9
177
     9
178
    11
  0
ENDTAB
  0
ENDSEC
  0
SECTION
  2
BLOCKS
  0
BLOCK
  8
0
  2
$MODEL_SPACE
 70
     0
 10
0.0
 20
0.0
 30
0.0
  3
$MODEL_SPACE
  1

  0
ENDBLK
  5
1B8
  8
0
  0
BLOCK
 67
     1
  8
0
  2
$PAPER_SPACE
 70
     0
 10
0.0
 20
0.0
 30
0.0
  3
$PAPER_SPACE
  1

  0
ENDBLK
  5
1B6
 67
     1
  8
0
  0
BLOCK
  8
0
  2
*D0
 70
     1
 10
0.0
 20
0.0
 30
0.0
  3
*D0
  1

  0
LINE
  5
22
  8
0
  6
BYBLOCK
 62
     9
 10
3750.0
 20
111989.997515
 30
0.0
 11
3750.0
 21
111857.503973
 31
0.0
  0
LINE
  5
23
  8
0
  6
BYBLOCK
 62
     9
 10
4250.004378
 20
111989.997515
 30
0.0
 11
4250.004378
 21
111857.503973
 31
0.0
  0
LINE
  5
24
  8
0
  6
BYBLOCK
 62
     9
 10
3770.0
 20
111858.503973
 30
0.0
 11
3952.168856
 21
111858.503973
 31
0.0
  0
LINE
  5
25
  8
0
  6
BYBLOCK
 62
     9
 10
4230.004378
 20
111858.503973
 30
0.0
 11
4047.835522
 21
111858.503973
 31
0.0
  0
SOLID
  5
26
  8
0
  6
BYBLOCK
 62
     9
 10
3770.0
 20
111861.837307
 30
0.0
 11
3770.0
 21
111855.17064
 31
0.0
 12
3750.0
 22
111858.503973
 32
0.0
 13
3750.0
 23
111858.503973
 33
0.0
  0
SOLID
  5
27
  8
0
  6
BYBLOCK
 62
     9
 10
4230.004378
 20
111861.837307
 30
0.0
 11
4230.004378
 21
111855.17064
 31
0.0
 12
4250.004378
 22
111858.503973
 32
0.0
 13
4250.004378
 23
111858.503973
 33
0.0
  0
TEXT
  5
28
  8
0
  6
BYBLOCK
 62
    11
 10
3959.168856
 20
111841.003973
 30
0.0
 40
35.0
  1
500
  0
POINT
  5
29
  8
DEFPOINTS
  6
BYBLOCK
 62
     0
 10
3750.0
 20
111999.997515
 30
0.0
  0
POINT
  5
2B
  8
DEFPOINTS
  6
BYBLOCK
 62
     0
 10
4250.004378
 20
111999.997515
 30
0.0
  0
POINT
  5
2C
  8
DEFPOINTS
  6
BYBLOCK
 62
     0
 10
4250.004378
 20
111858.503973
 30
0.0
  0
ENDBLK
  5
2E
  8
0
  0
BLOCK
  8
0
  2
*D1
 70
     1
 10
0.0
 20
0.0
 30
0.0
  3
*D1
  1

  0
LINE
  5
7A
  8
0
  6
BYBLOCK
 62
     9
 10
4260.004378
 20
111999.997515
 30
0.0
 11
4292.135762
 21
111999.997515
 31
0.0
  0
LINE
  5
7B
  8
0
  6
BYBLOCK
 62
     9
 10
4217.49878
 20
112075.0
 30
0.0
 11
4292.135762
 21
112075.0
 31
0.0
  0
LINE
  5
7C
  8
0
  6
BYBLOCK
 62
     9
 10
4291.135762
 20
112019.997515
 30
0.0
 11
4291.135762
 21
112055.0
 31
0.0
  0
TEXT
  5
7D
  8
0
  6
BYBLOCK
 62
    11
 10
4309.46746
 20
112091.338901
 30
0.0
 40
35.0
  1
75
 50
90.0
  0
SOLID
  5
7E
  8
0
  6
BYBLOCK
 62
     9
 10
4287.802429
 20
112019.997515
 30
0.0
 11
4294.469095
 21
112019.997515
 31
0.0
 12
4291.135762
 22
111999.997515
 32
0.0
 13
4291.135762
 23
111999.997515
 33
0.0
  0
SOLID
  5
7F
  8
0
  6
BYBLOCK
 62
     9
 10
4287.802429
 20
112055.0
 30
0.0
 11
4294.469095
 21
112055.0
 31
0.0
 12
4291.135762
 22
112075.0
 32
0.0
 13
4291.135762
 23
112075.0
 33
0.0
  0
POINT
  5
80
  8
DEFPOINTS
  6
BYBLOCK
 62
     0
 10
4250.004378
 20
111999.997515
 30
0.0
  0
POINT
  5
81
  8
DEFPOINTS
  6
BYBLOCK
 62
     0
 10
4207.49878
 20
112075.0
 30
0.0
  0
POINT
  5
82
  8
DEFPOINTS
  6
BYBLOCK
 62
     0
 10
4291.135762
 20
112075.0
 30
0.0
  0
ENDBLK
  5
84
  8
0
  0
BLOCK
  8
0
  2
*D2
 70
     1
 10
0.0
 20
0.0
 30
0.0
  3
*D2
  1

  0
LINE
  5
6C
  8
0
  6
BYBLOCK
 62
     9
 10
4260.004378
 20
111999.997515
 30
0.0
 11
4292.135762
 21
111999.997515
 31
0.0
  0
LINE
  5
6D
  8
0
  6
BYBLOCK
 62
     9
 10
4009.872617
 20
111909.999994
 30
0.0
 11
4292.135762
 21
111909.999994
 31
0.0
  0
LINE
  5
6E
  8
0
  6
BYBLOCK
 62
     9
 10
4291.135762
 20
112019.997515
 30
0.0
 11
4291.135762
 21
112039.997515
 31
0.0
  0
LINE
  5
6F
  8
0
  6
BYBLOCK
 62
     9
 10
4291.135762
 20
111889.999994
 30
0.0
 11
4291.135762
 21
111869.999994
 31
0.0
  0
SOLID
  5
70
  8
0
  6
BYBLOCK
 62
     9
 10
4287.802429
 20
112019.997515
 30
0.0
 11
4294.469095
 21
112019.997515
 31
0.0
 12
4291.135762
 22
111999.997515
 32
0.0
 13
4291.135762
 23
111999.997515
 33
0.0
  0
SOLID
  5
71
  8
0
  6
BYBLOCK
 62
     9
 10
4287.802429
 20
111889.999994
 30
0.0
 11
4294.469095
 21
111889.999994
 31
0.0
 12
4291.135762
 22
111909.999994
 32
0.0
 13
4291.135762
 23
111909.999994
 33
0.0
  0
TEXT
  5
72
  8
0
  6
BYBLOCK
 62
    11
 10
4308.635762
 20
111928.748754
 30
0.0
 40
35.0
  1
90
 50
90.0
  0
POINT
  5
73
  8
DEFPOINTS
  6
BYBLOCK
 62
     0
 10
4250.004378
 20
111999.997515
 30
0.0
  0
POINT
  5
74
  8
DEFPOINTS
  6
BYBLOCK
 62
     0
 10
3999.872617
 20
111909.999994
 30
0.0
  0
POINT
  5
75
  8
DEFPOINTS
  6
BYBLOCK
 62
     0
 10
4291.135762
 20
111909.999994
 30
0.0
  0
ENDBLK
  5
77
  8
0
  0
ENDSEC
  0
SECTION
  2
ENTITIES
  0
DIMENSION
  5
20
  8
TEAM-MAS
  2
*D0
 10
250.004378
 20
-141.496027
 30
0.0
 11
0.002189
 21
-141.496027
 31
0.0
 12
-4000.0
 22
-112000.0
 32
0.0
 13
-250.0
 23
-0.002485
 33
0.0
 14
250.004378
 24
-0.002485
 34
0.0
1001
ACAD
1000
DSTYLE
1002
{
1070
    40
1040
1.0
1002
}
  0
LINE
  5
2F
  8
TEAM-DET2
 10
-207.503264
 20
74.0
 30
0.0
 11
207.500856
 21
74.0
 31
0.0
  0
ARC
  5
31
  8
TEAM-DET3
 10
-76.50122
 20
25.0
 30
0.0
 40
0.5
 50
180.000005
 51
269.999997
  0
ARC
  5
33
  8
TEAM-DET3
 10
-76.50122
 20
30.0
 30
0.0
 40
0.5
 50
90.000003
 51
179.999995
  0
LINE
  5
34
  8
TEAM-DET2
 10
-40.00122
 20
57.0
 30
0.0
 11
-91.702544
 21
57.0
 31
0.0
  0
LINE
  5
35
  8
TEAM-DET2
 10
-100.002165
 20
18.002734
 30
0.0
 11
174.49878
 21
18.002734
 31
0.0
  0
LINE
  5
36
  8
TEAM-DET2
 10
-250.0
 20
-0.002485
 30
0.0
 11
250.004378
 21
-0.002485
 31
0.0
  0
TEXT
  5
37
  8
TEAM-TXT
 10
-271.089043
 20
85.535562
 30
0.0
 40
30.0
  1
team 871108
 41
0.8
 51
15.0
  7
TEAM
  0
LINE
  5
3A
  8
TEAM-HIDE
 10
-183.50122
 20
4.0
 30
0.0
 11
-123.740084
 21
38.503114
 31
0.0
  0
LINE
  5
3D
  8
TEAM-HIDE
 10
-209.499447
 20
40.003114
 30
0.0
 11
-209.503139
 21
-0.002485
 31
0.0
  0
LINE
  5
3E
  8
TEAM-DET3
 10
-99.00122
 20
35.25
 30
0.0
 11
-100.002165
 21
35.25
 31
0.0
  0
LINE
  5
3F
  8
TEAM-DET2
 10
-209.499447
 20
40.003114
 30
0.0
 11
-209.4964
 21
73.019333
 31
0.0
  0
LINE
  5
40
  8
TEAM-HIDE
 10
-183.50122
 20
4.0
 30
0.0
 11
-183.50122
 21
1.0
 31
0.0
  0
LINE
  5
41
  8
TEAM-DET2
 10
-183.50122
 20
74.0
 30
0.0
 11
-183.50122
 21
75.0
 31
0.0
  0
LINE
  5
42
  8
TEAM-DET2
 10
-188.50122
 20
75.0
 30
0.0
 11
-183.50122
 21
75.0
 31
0.0
  0
LINE
  5
43
  8
TEAM-HIDE
 10
-183.50122
 20
0.0
 30
0.0
 11
-183.50122
 21
1.0
 31
0.0
  0
LINE
  5
44
  8
TEAM-DET2
 10
-188.50122
 20
74.0
 30
0.0
 11
-183.920348
 21
74.0
 31
0.0
  0
ARC
  5
45
  8
TEAM-DET2
 10
-207.50122
 20
73.0
 30
0.0
 40
2.0
 50
90.000003
 51
180.000005
  0
LINE
  5
46
  8
TEAM-DET2
 10
-207.50122
 20
75.0
 30
0.0
 11
-188.50122
 21
75.0
 31
0.0
  0
LINE
  5
47
  8
TEAM-DET2
 10
-207.50122
 20
0.0
 30
0.0
 11
-183.50122
 21
0.0
 31
0.0
  0
ARC
  5
48
  8
TEAM-DET2
 10
-207.50122
 20
73.0
 30
0.0
 40
1.0
 50
90.000003
 51
180.000005
  0
LINE
  5
49
  8
TEAM-DET2
 10
-208.50122
 20
40.003114
 30
0.0
 11
-208.50122
 21
73.0
 31
0.0
  0
LINE
  5
4A
  8
TEAM-DET3
 10
-99.00122
 20
40.846176
 30
0.0
 11
-99.00122
 21
52.787064
 31
0.0
  0
LINE
  5
4B
  8
TEAM-DET3
 10
-99.00122
 20
35.25
 30
0.0
 11
-99.00122
 21
40.846176
 31
0.0
  0
LINE
  5
4C
  8
TEAM-DET3
 10
-88.00122
 20
25.069808
 30
0.0
 11
-77.00119
 21
25.031418
 31
0.0
  0
LINE
  5
4D
  8
TEAM-DET3
 10
-77.00122
 20
25.0
 30
0.0
 11
-77.00122
 21
26.301438
 31
0.0
  0
LINE
  5
4E
  8
TEAM-DET3
 10
-77.00122
 20
26.301438
 30
0.0
 11
-77.00122
 21
30.0
 31
0.0
  0
LINE
  5
4F
  8
TEAM-DET3
 10
-88.00122
 20
33.847656
 30
0.0
 11
-88.00122
 21
37.853486
 31
0.0
  0
LINE
  5
50
  8
TEAM-DET3
 10
-88.00122
 20
37.654114
 30
0.0
 11
-88.00122
 21
57.0
 31
0.0
  0
LINE
  5
51
  8
TEAM-DET3
 10
-88.00122
 20
27.632034
 30
0.0
 11
-88.00122
 21
33.502594
 31
0.0
  0
LINE
  5
52
  8
TEAM-DET3
 10
-88.00122
 20
25.069808
 30
0.0
 11
-88.00122
 21
27.632034
 31
0.0
  0
LINE
  5
53
  8
TEAM-DET3
 10
-247.495119
 20
43.993438
 30
0.0
 11
-247.495119
 21
61.854186
 31
0.0
  0
ARC
  5
54
  8
TEAM-DET3
 10
-244.495119
 20
43.993438
 30
0.0
 40
3.0
 50
179.999995
 51
269.5
  0
ARC
  5
55
  8
TEAM-DET3
 10
-244.495119
 20
61.854186
 30
0.0
 40
3.0
 50
90.5
 51
180.000005
  0
LINE
  5
56
  8
TEAM-DET3
 10
-210.483764
 20
67.131592
 30
0.0
 11
-210.590514
 21
67.122254
 31
0.0
  0
LINE
  5
57
  8
TEAM-DET3
 10
-210.483764
 20
67.131592
 30
0.0
 11
-210.00122
 21
67.173828
 31
0.0
  0
LINE
  5
58
  8
TEAM-DET3
 10
-210.00122
 20
67.173828
 30
0.0
 11
-210.00122
 21
65.155396
 31
0.0
  0
ARC
  5
59
  8
TEAM-DET3
 10
-210.00122
 20
40.19223
 30
0.0
 40
0.5
 50
0.0
 51
89.499999
  0
LINE
  5
5A
  8
TEAM-DET3
 10
-244.521287
 20
40.99356
 30
0.0
 11
-209.50122
 21
40.687896
 31
0.0
  0
LINE
  5
5B
  8
TEAM-DET3
 10
-244.521287
 20
64.854064
 30
0.0
 11
-209.5269
 21
65.159516
 31
0.0
  0
LINE
  5
5C
  8
TEAM-DET3
 10
-210.590514
 20
67.122254
 30
0.0
 11
-214.058578
 21
65.119996
 31
0.0
  0
LINE
  5
5D
  8
TEAM-DET2
 10
-91.702544
 20
57.0
 30
0.0
 11
-123.740084
 21
38.503114
 31
0.0
  0
LINE
  5
5E
  8
TEAM-DET2
 10
-183.50122
 20
4.0
 30
0.0
 11
-183.50122
 21
1.0
 31
0.0
  0
LINE
  5
5F
  8
TEAM-DET3
 10
-211.50122
 20
61.149994
 30
0.0
 11
-211.50122
 21
48.850006
 31
0.0
  0
LINE
  5
60
  8
TEAM-DET2
 10
-183.50122
 20
0.0
 30
0.0
 11
-183.50122
 21
1.0
 31
0.0
  0
LINE
  5
61
  8
TEAM-DET3
 10
-211.50122
 20
61.149994
 30
0.0
 11
-210.915434
 21
61.149994
 31
0.0
  0
LINE
  5
62
  8
TEAM-DET3
 10
-210.915434
 20
61.149994
 30
0.0
 11
-209.794112
 21
61.149994
 31
0.0
  0
LINE
  5
63
  8
TEAM-DET3
 10
-209.794112
 20
61.149994
 30
0.0
 11
-209.50122
 21
61.149994
 31
0.0
  0
LINE
  5
64
  8
TEAM-DET3
 10
-211.50122
 20
48.850006
 30
0.0
 11
-210.915434
 21
48.850006
 31
0.0
  0
LINE
  5
65
  8
TEAM-DET3
 10
-210.915434
 20
48.850006
 30
0.0
 11
-209.794112
 21
48.850006
 31
0.0
  0
LINE
  5
66
  8
TEAM-DET3
 10
-209.794112
 20
48.850006
 30
0.0
 11
-209.50122
 21
48.850006
 31
0.0
  0
LINE
  5
67
  8
TEAM-DET2
 10
-100.002165
 20
18.002734
 30
0.0
 11
-100.002165
 21
35.50198
 31
0.0
  0
LINE
  5
68
  8
TEAM-DET2
 10
-250.0
 20
40.003114
 30
0.0
 11
-104.001921
 21
40.003114
 31
0.0
  0
LINE
  5
69
  8
TEAM-DET2
 10
-250.0
 20
-0.002485
 30
0.0
 11
-250.0
 21
40.003114
 31
0.0
  0
DIMENSION
  5
6A
  8
TEAM-MAS
  2
*D2
 10
291.135762
 20
-90.000006
 30
0.0
 11
291.135762
 21
-45.001246
 31
0.0
 12
-4000.0
 22
-112000.0
 32
0.0
 13
250.004378
 23
-0.002485
 33
0.0
 14
-0.127383
 24
-90.000006
 34
0.0
 50
90.0
1001
ACAD
1000
DSTYLE
1002
{
1070
    40
1040
1.0
1002
}
  0
DIMENSION
  5
78
  8
TEAM-MAS
  2
*D1
 10
291.135762
 20
75.0
 30
0.0
 11
291.96746
 21
120.505568
 31
0.0
 12
-4000.0
 22
-112000.0
 32
0.0
 70
   128
 13
250.004378
 23
-0.002485
 33
0.0
 14
207.49878
 24
75.0
 34
0.0
 50
90.0
1001
ACAD
1000
DSTYLE
1002
{
1070
    40
1040
1.0
1002
}
  0
LINE
  5
85
  8
TEAM-HIDE
 10
209.49878
 20
40.003114
 30
0.0
 11
209.49878
 21
2.0
 31
0.0
  0
LINE
  5
86
  8
TEAM-HIDE
 10
183.498786
 20
-0.002485
 30
0.0
 11
183.49881
 21
40.003114
 31
0.0
  0
LINE
  5
87
  8
TEAM-DET2
 10
178.498536
 20
40.003114
 30
0.0
 11
208.49878
 21
40.003114
 31
0.0
  0
LINE
  5
88
  8
TEAM-DET2
 10
183.49881
 20
57.0
 30
0.0
 11
183.49881
 21
40.003114
 31
0.0
  0
LINE
  5
89
  8
TEAM-HIDE
 10
74.072599
 20
4.999994
 30
0.0
 11
74.072599
 21
-0.002485
 31
0.0
  0
LINE
  5
8A
  8
TEAM-HIDE
 10
-20.25122
 20
1.0
 30
0.0
 11
20.24878
 21
1.0
 31
0.0
  0
LINE
  5
8B
  8
TEAM-HIDE
 10
-74.32738
 20
4.999994
 30
0.0
 11
-74.32738
 21
-0.002485
 31
0.0
  0
LINE
  5
8C
  8
TEAM-AXE
 10
32.17964
 20
49.0
 30
0.0
 11
-34.35882
 21
49.0
 31
0.0
  0
LINE
  5
8F
  8
TEAM-AXE
 10
22.098756
 20
34.0
 30
0.0
 11
-22.101226
 21
34.0
 31
0.0
  0
LINE
  5
90
  8
TEAM-DET2
 10
208.49878
 20
40.003114
 30
0.0
 11
208.49878
 21
73.0
 31
0.0
  0
ARC
  5
91
  8
TEAM-DET2
 10
207.49878
 20
73.0
 30
0.0
 40
1.0
 50
359.999995
 51
89.999997
  0
LINE
  5
92
  8
TEAM-DET2
 10
207.49878
 20
0.0
 30
0.0
 11
183.49878
 21
0.0
 31
0.0
  0
LINE
  5
93
  8
TEAM-DET2
 10
207.49878
 20
75.0
 30
0.0
 11
188.49878
 21
75.0
 31
0.0
  0
ARC
  5
94
  8
TEAM-DET2
 10
207.49878
 20
73.0
 30
0.0
 40
2.0
 50
359.999995
 51
89.999997
  0
ARC
  5
95
  8
TEAM-HIDE
 10
207.49878
 20
2.0
 30
0.0
 40
2.0
 50
269.999999
 51
359.999995
  0
LINE
  5
96
  8
TEAM-DET2
 10
188.49878
 20
74.0
 30
0.0
 11
183.917908
 21
74.0
 31
0.0
  0
LINE
  5
97
  8
TEAM-HIDE
 10
183.49878
 20
0.0
 30
0.0
 11
183.49878
 21
1.0
 31
0.0
  0
LINE
  5
98
  8
TEAM-DET2
 10
188.49878
 20
75.0
 30
0.0
 11
183.49878
 21
75.0
 31
0.0
  0
LINE
  5
99
  8
TEAM-DET2
 10
183.49878
 20
74.0
 30
0.0
 11
183.49878
 21
75.0
 31
0.0
  0
LINE
  5
9A
  8
TEAM-DET2
 10
209.49878
 20
40.003114
 30
0.0
 11
209.49878
 21
73.0
 31
0.0
  0
LINE
  5
9B
  8
TEAM-DET3
 10
210.912966
 20
49.050002
 30
0.0
 11
211.49878
 21
49.050002
 31
0.0
  0
LINE
  5
9C
  8
TEAM-DET3
 10
209.791628
 20
49.050002
 30
0.0
 11
210.912966
 21
49.050002
 31
0.0
  0
LINE
  5
9D
  8
TEAM-DET3
 10
209.49878
 20
49.050002
 30
0.0
 11
209.791628
 21
49.050002
 31
0.0
  0
LINE
  5
9E
  8
TEAM-DET3
 10
210.912966
 20
61.34999
 30
0.0
 11
211.49878
 21
61.34999
 31
0.0
  0
LINE
  5
9F
  8
TEAM-DET3
 10
209.791628
 20
61.34999
 30
0.0
 11
210.912966
 21
61.34999
 31
0.0
  0
LINE
  5
A0
  8
TEAM-DET3
 10
209.49878
 20
61.34999
 30
0.0
 11
209.791628
 21
61.34999
 31
0.0
  0
LINE
  5
A1
  8
TEAM-DET3
 10
211.49878
 20
61.34999
 30
0.0
 11
211.49878
 21
49.050002
 31
0.0
  0
LINE
  5
A2
  8
TEAM-HIDE
 10
-39.00122
 20
0.0
 30
0.0
 11
-21.98419
 21
0.0
 31
0.0
  0
LINE
  5
A3
  8
TEAM-HIDE
 10
21.980866
 20
0.0
 30
0.0
 11
37.669892
 21
0.0
 31
0.0
  0
ARC
  5
A4
  8
TEAM-HIDE
 10
18.74878
 20
-6.5
 30
0.0
 40
3.5
 50
269.999997
 51
0.0
  0
ARC
  5
A5
  8
TEAM-HIDE
 10
-18.75122
 20
-6.5
 30
0.0
 40
3.5
 50
180.000005
 51
269.999997
  0
LINE
  5
A6
  8
TEAM-HIDE
 10
22.24878
 20
-6.5
 30
0.0
 11
22.24878
 21
-1.0
 31
0.0
  0
LINE
  5
A7
  8
TEAM-HIDE
 10
-22.25122
 20
-6.5
 30
0.0
 11
-22.25122
 21
-1.0
 31
0.0
  0
ARC
  5
A8
  8
TEAM-HIDE
 10
20.24878
 20
-1.0
 30
0.0
 40
2.0
 50
0.0
 51
90.000003
  0
ARC
  5
A9
  8
TEAM-HIDE
 10
-20.25122
 20
-1.0
 30
0.0
 40
2.0
 50
90.000003
 51
179.999995
  0
LINE
  5
AA
  8
TEAM-HIDE
 10
18.74878
 20
-10.0
 30
0.0
 11
-16.4559
 21
-10.0
 31
0.0
  0
LINE
  5
AB
  8
TEAM-HIDE
 10
-16.4559
 20
-10.0
 30
0.0
 11
-18.75122
 21
-10.0
 31
0.0
  0
ARC
  5
AC
  8
TEAM-DET3
 10
4.99878
 20
50.0
 30
0.0
 40
12.5
 50
106.260012
 51
73.739986
  0
ARC
  5
AD
  8
TEAM-DET3
 10
76.598664
 20
30.100036
 30
0.0
 40
0.600086
 50
311.826812
 51
359.996235
  0
LINE
  5
AE
  8
TEAM-DET3
 10
77.198762
 20
30.100006
 30
0.0
 11
77.198762
 21
56.999878
 31
0.0
  0
LINE
  5
AF
  8
TEAM-DET3
 10
75.99881
 20
30.5
 30
0.0
 11
75.99881
 21
56.999878
 31
0.0
  0
ARC
  5
B0
  8
TEAM-DET3
 10
76.49881
 20
25.0
 30
0.0
 40
0.5
 50
269.999997
 51
0.0
  0
ARC
  5
B1
  8
TEAM-DET3
 10
76.49881
 20
30.0
 30
0.0
 40
0.5
 50
0.0
 51
90.000003
  0
LINE
  5
B2
  8
TEAM-DET3
 10
70.99881
 20
24.5
 30
0.0
 11
76.49881
 21
24.5
 31
0.0
  0
LINE
  5
B3
  8
TEAM-DET3
 10
70.99881
 20
30.5
 30
0.0
 11
76.49881
 21
30.5
 31
0.0
  0
LINE
  5
B4
  8
TEAM-DET3
 10
-76.50122
 20
24.5
 30
0.0
 11
-71.00122
 21
24.5
 31
0.0
  0
LINE
  5
B5
  8
TEAM-DET3
 10
-76.50122
 20
30.5
 30
0.0
 11
-71.00122
 21
30.5
 31
0.0
  0
CIRCLE
  5
B6
  8
TEAM-DET3
 10
4.99878
 20
25.0
 30
0.0
 40
0.84025
  0
CIRCLE
  5
B7
  8
TEAM-DET3
 10
4.99878
 20
25.0
 30
0.0
 40
7.92154
  0
LINE
  5
B8
  8
TEAM-DET3
 10
76.99881
 20
25.0
 30
0.0
 11
76.99881
 21
26.301438
 31
0.0
  0
LINE
  5
B9
  8
TEAM-DET3
 10
76.99881
 20
26.301438
 30
0.0
 11
76.99881
 21
30.0
 31
0.0
  0
ARC
  5
BA
  8
TEAM-DET3
 10
64.74878
 20
21.5
 30
0.0
 40
0.5
 50
180.000005
 51
269.999997
  0
ARC
  5
BB
  8
TEAM-DET3
 10
-64.75122
 20
21.5
 30
0.0
 40
0.5
 50
269.999997
 51
0.0
  0
LINE
  5
BC
  8
TEAM-DET3
 10
-70.50122
 20
21.0
 30
0.0
 11
-67.00122
 21
21.0
 31
0.0
  0
CIRCLE
  5
BD
  8
TEAM-DET3
 10
4.99878
 20
25.0
 30
0.0
 40
10.0
  0
LINE
  5
BE
  8
TEAM-DET3
 10
64.74878
 20
21.0
 30
0.0
 11
66.99878
 21
21.0
 31
0.0
  0
LINE
  5
BF
  8
TEAM-DET3
 10
64.24878
 20
57.000016
 30
0.0
 11
64.24878
 21
21.5
 31
0.0
  0
LINE
  5
C0
  8
TEAM-DET3
 10
-64.25122
 20
57.000016
 30
0.0
 11
-64.25122
 21
21.5
 31
0.0
  0
LINE
  5
C1
  8
TEAM-DET3
 10
-67.00122
 20
21.0
 30
0.0
 11
-64.75122
 21
21.0
 31
0.0
  0
LINE
  5
C2
  8
TEAM-DET3
 10
66.99878
 20
21.0
 30
0.0
 11
70.49881
 21
21.0
 31
0.0
  0
ARC
  5
C3
  8
TEAM-DET3
 10
70.49881
 20
20.5
 30
0.0
 40
0.5
 50
0.0
 51
90.000003
  0
ARC
  5
C4
  8
TEAM-DET3
 10
-70.50122
 20
20.5
 30
0.0
 40
0.5
 50
90.000003
 51
180.000005
  0
LINE
  5
C5
  8
TEAM-DET3
 10
70.99881
 20
20.5
 30
0.0
 11
70.99881
 21
21.5
 31
0.0
  0
LINE
  5
C6
  8
TEAM-DET3
 10
70.99881
 20
57.000016
 30
0.0
 11
70.99881
 21
21.5
 31
0.0
  0
LINE
  5
C7
  8
TEAM-DET3
 10
70.99881
 20
20.5
 30
0.0
 11
70.99881
 21
18.002734
 31
0.0
  0
LINE
  5
C8
  8
TEAM-DET3
 10
-71.00122
 20
57.00003
 30
0.0
 11
-71.00122
 21
21.5
 31
0.0
  0
LINE
  5
C9
  8
TEAM-DET3
 10
-73.00122
 20
17.812118
 30
0.0
 11
-73.00122
 21
17.805404
 31
0.0
  0
ARC
  5
CA
  8
TEAM-DET3
 10
0.548768
 20
35.199996
 30
0.0
 40
0.2
 50
269.999997
 51
0.0
  0
LINE
  5
CB
  8
TEAM-DET3
 10
-0.551208
 20
35.0
 30
0.0
 11
0.548768
 21
35.0
 31
0.0
  0
LINE
  5
CC
  8
TEAM-DET3
 10
0.74878
 20
35.199996
 30
0.0
 11
0.74878
 21
38.24469
 31
0.0
  0
ARC
  5
CD
  8
TEAM-DET3
 10
-0.551208
 20
35.199996
 30
0.0
 40
0.2
 50
180.000005
 51
269.999997
  0
LINE
  5
CE
  8
TEAM-DET3
 10
-0.75122
 20
35.199996
 30
0.0
 11
-0.75122
 21
38.901016
 31
0.0
  0
LINE
  5
CF
  8
TEAM-DET3
 10
70.99881
 20
19.399994
 30
0.0
 11
72.99881
 21
19.399994
 31
0.0
  0
LINE
  5
D0
  8
TEAM-DET3
 10
72.99881
 20
19.399994
 30
0.0
 11
72.99881
 21
21.399994
 31
0.0
  0
LINE
  5
D1
  8
TEAM-DET3
 10
72.99881
 20
19.399994
 30
0.0
 11
72.99881
 21
18.002734
 31
0.0
  0
LINE
  5
D2
  8
TEAM-DET3
 10
72.99881
 20
22.399994
 30
0.0
 11
72.99881
 21
24.399994
 31
0.0
  0
LINE
  5
D3
  8
TEAM-DET3
 10
72.99881
 20
21.399994
 30
0.0
 11
72.99881
 21
22.399994
 31
0.0
  0
LINE
  5
D4
  8
TEAM-DET3
 10
-73.00122
 20
18.493622
 30
0.0
 11
-73.00122
 21
19.399994
 31
0.0
  0
LINE
  5
D5
  8
TEAM-DET3
 10
-73.00122
 20
21.399994
 30
0.0
 11
-73.00122
 21
19.399994
 31
0.0
  0
LINE
  5
D6
  8
TEAM-DET3
 10
-71.00122
 20
19.399994
 30
0.0
 11
-73.00122
 21
19.399994
 31
0.0
  0
LINE
  5
D7
  8
TEAM-DET3
 10
-73.00122
 20
22.399994
 30
0.0
 11
-73.00122
 21
21.399994
 31
0.0
  0
LINE
  5
D8
  8
TEAM-DET3
 10
-73.00122
 20
24.399994
 30
0.0
 11
-73.00122
 21
22.399994
 31
0.0
  0
LINE
  5
D9
  8
TEAM-DET3
 10
-73.00122
 20
24.399994
 30
0.0
 11
-73.00122
 21
24.500274
 31
0.0
  0
LINE
  5
DA
  8
TEAM-DET3
 10
-73.00122
 20
18.493622
 30
0.0
 11
-73.00122
 21
17.812272
 31
0.0
  0
LINE
  5
DB
  8
TEAM-DET3
 10
-71.00122
 20
18.493622
 30
0.0
 11
-71.00122
 21
17.812272
 31
0.0
  0
LINE
  5
DC
  8
TEAM-DET3
 10
-71.00122
 20
18.493622
 30
0.0
 11
-71.00122
 21
19.399994
 31
0.0
  0
LINE
  5
DD
  8
TEAM-DET3
 10
-71.00122
 20
21.399994
 30
0.0
 11
-71.00122
 21
19.399994
 31
0.0
  0
LINE
  5
DE
  8
TEAM-DET2
 10
-25.00122
 20
57.0
 30
0.0
 11
-25.00122
 21
62.0
 31
0.0
  0
LINE
  5
DF
  8
TEAM-DET2
 10
24.99878
 20
62.0
 30
0.0
 11
24.99878
 21
57.0
 31
0.0
  0
LINE
  5
E0
  8
TEAM-DET2
 10
-25.00122
 20
62.0
 30
0.0
 11
24.99878
 21
62.0
 31
0.0
  0
LINE
  5
E1
  8
TEAM-DET2
 10
183.49881
 20
57.0
 30
0.0
 11
39.99878
 21
57.0
 31
0.0
  0
LINE
  5
E2
  8
TEAM-DET2
 10
39.99878
 20
54.0
 30
0.0
 11
24.99878
 21
54.0
 31
0.0
  0
LINE
  5
E3
  8
TEAM-DET2
 10
24.99878
 20
54.0
 30
0.0
 11
24.99878
 21
57.0
 31
0.0
  0
LINE
  5
E4
  8
TEAM-DET2
 10
39.99878
 20
54.0
 30
0.0
 11
39.99878
 21
57.0
 31
0.0
  0
LINE
  5
E5
  8
TEAM-DET2
 10
-25.00122
 20
57.0
 30
0.0
 11
-25.00122
 21
54.0
 31
0.0
  0
LINE
  5
E6
  8
TEAM-DET2
 10
-25.00122
 20
54.0
 30
0.0
 11
-40.00122
 21
54.0
 31
0.0
  0
LINE
  5
E7
  8
TEAM-DET2
 10
-40.00122
 20
54.0
 30
0.0
 11
-40.00122
 21
57.0
 31
0.0
  0
LINE
  5
E8
  8
TEAM-AXE
 10
4.99878
 20
66.25
 30
0.0
 11
4.99878
 21
33.75
 31
0.0
  0
LINE
  5
E9
  8
TEAM-AXE
 10
21.24878
 20
50.0
 30
0.0
 11
-11.25122
 21
50.0
 31
0.0
  0
LINE
  5
EA
  8
TEAM-AXE
 10
4.99878
 20
38.649994
 30
0.0
 11
4.99878
 21
11.350006
 31
0.0
  0
LINE
  5
EB
  8
TEAM-AXE
 10
18.648774
 20
25.0
 30
0.0
 11
-8.651214
 21
25.0
 31
0.0
  0
LINE
  5
EC
  8
TEAM-AXE
 10
17.876722
 20
25.000929
 30
0.0
 11
-7.303911
 21
25.000929
 31
0.0
  0
LINE
  5
ED
  8
TEAM-AXE
 10
-0.00061
 20
14.974016
 30
0.0
 11
-0.00061
 21
-104.86337
 31
0.0
  0
LINE
  5
EE
  8
TEAM-DET3
 10
-52.278308
 20
-14.923193
 30
0.0
 11
-52.278308
 21
-5.299994
 31
0.0
  0
LINE
  5
EF
  8
TEAM-DET3
 10
-52.312075
 20
-19.922827
 30
0.0
 11
52.066495
 21
-19.922827
 31
0.0
  0
LINE
  5
F0
  8
TEAM-DET3
 10
52.110135
 20
-24.92243
 30
0.0
 11
-52.3557
 21
-24.922752
 31
0.0
  0
LINE
  5
F1
  8
TEAM-DET3
 10
-52.399325
 20
-29.922386
 30
0.0
 11
52.15376
 21
-29.922064
 31
0.0
  0
LINE
  5
F2
  8
TEAM-DET3
 10
52.1974
 20
-34.921667
 30
0.0
 11
-52.442965
 21
-34.921989
 31
0.0
  0
LINE
  5
F3
  8
TEAM-DET3
 10
-52.486605
 20
-39.921622
 30
0.0
 11
52.241025
 21
-39.921301
 31
0.0
  0
LINE
  5
F4
  8
TEAM-DET3
 10
52.284665
 20
-44.920935
 30
0.0
 11
-52.53023
 21
-44.921257
 31
0.0
  0
LINE
  5
F5
  8
TEAM-DET3
 10
-52.573855
 20
-49.92086
 30
0.0
 11
52.32829
 21
-49.920538
 31
0.0
  0
LINE
  5
F6
  8
TEAM-DET3
 10
52.371915
 20
-54.920141
 30
0.0
 11
-52.617495
 21
-54.920462
 31
0.0
  0
LINE
  5
F7
  8
TEAM-DET3
 10
50.21623
 20
-59.996588
 30
0.0
 11
52.415555
 21
-59.996588
 31
0.0
  0
LINE
  5
F8
  8
TEAM-DET3
 10
-52.66112
 20
-59.920097
 30
0.0
 11
50.21623
 21
-59.996588
 31
0.0
  0
LINE
  5
F9
  8
TEAM-DET3
 10
52.45918
 20
-64.919409
 30
0.0
 11
-52.704745
 21
-64.919731
 31
0.0
  0
LINE
  5
FA
  8
TEAM-DET3
 10
52.502805
 20
-69.919012
 30
0.0
 11
-52.748385
 21
-69.919012
 31
0.0
  0
LINE
  5
FB
  8
TEAM-DET3
 10
52.546445
 20
-74.918646
 30
0.0
 11
-52.79201
 21
-74.918968
 31
0.0
  0
LINE
  5
FC
  8
TEAM-DET3
 10
52.59007
 20
-79.918249
 30
0.0
 11
-52.844836
 21
-79.918249
 31
0.0
  0
LINE
  5
FD
  8
TEAM-DET3
 10
52.580884
 20
-78.864416
 30
0.0
 11
52.59007
 21
-79.918249
 31
0.0
  0
LINE
  5
FE
  8
TEAM-DET3
 10
-52.79201
 20
-73.864782
 30
0.0
 11
-52.79201
 21
-74.918968
 31
0.0
  0
LINE
  5
FF
  8
TEAM-DET3
 10
-52.748385
 20
-68.865179
 30
0.0
 11
-52.748385
 21
-69.919012
 31
0.0
  0
LINE
  5
100
  8
TEAM-DET3
 10
-52.704745
 20
-63.865545
 30
0.0
 11
-52.704745
 21
-64.919731
 31
0.0
  0
LINE
  5
101
  8
TEAM-DET3
 10
-52.66112
 20
-58.865942
 30
0.0
 11
-52.66112
 21
-59.920097
 31
0.0
  0
LINE
  5
102
  8
TEAM-DET3
 10
-52.617495
 20
-53.866308
 30
0.0
 11
-52.617495
 21
-54.920462
 31
0.0
  0
LINE
  5
103
  8
TEAM-DET3
 10
-52.573855
 20
-48.866705
 30
0.0
 11
-52.573855
 21
-49.92086
 31
0.0
  0
LINE
  5
104
  8
TEAM-DET3
 10
-52.53023
 20
-43.867071
 30
0.0
 11
-52.53023
 21
-44.921257
 31
0.0
  0
LINE
  5
105
  8
TEAM-DET3
 10
-52.486605
 20
-38.867468
 30
0.0
 11
-52.486605
 21
-39.921622
 31
0.0
  0
LINE
  5
106
  8
TEAM-DET3
 10
-52.442965
 20
-33.867834
 30
0.0
 11
-52.442965
 21
-34.921989
 31
0.0
  0
LINE
  5
107
  8
TEAM-DET3
 10
-52.399325
 20
-28.868231
 30
0.0
 11
-52.399325
 21
-29.922386
 31
0.0
  0
LINE
  5
108
  8
TEAM-DET3
 10
-52.3557
 20
-23.868597
 30
0.0
 11
-52.3557
 21
-24.922752
 31
0.0
  0
LINE
  5
109
  8
TEAM-DET3
 10
-52.312075
 20
-18.868994
 30
0.0
 11
-52.312075
 21
-19.922827
 31
0.0
  0
LINE
  5
10A
  8
TEAM-DET3
 10
-52.83565
 20
-78.864416
 30
0.0
 11
-52.83565
 21
-79.91857
 31
0.0
  0
LINE
  5
10B
  8
TEAM-DET3
 10
-52.922915
 20
-88.863653
 30
0.0
 11
-52.922915
 21
-95.000006
 31
0.0
  0
LINE
  5
10C
  8
TEAM-DET3
 10
52.668149
 20
-88.863653
 30
0.0
 11
52.668149
 21
-95.000006
 31
0.0
  0
LINE
  5
10D
  8
TEAM-DET3
 10
-52.888476
 20
-84.917883
 30
0.0
 11
-52.888476
 21
-83.86402
 31
0.0
  0
LINE
  5
10E
  8
TEAM-DET3
 10
52.63371
 20
-84.917883
 30
0.0
 11
-52.888476
 21
-84.917883
 31
0.0
  0
LINE
  5
10F
  8
TEAM-DET3
 10
52.023542
 20
-14.923193
 30
0.0
 11
52.023542
 21
-5.299994
 31
0.0
  0
LINE
  5
110
  8
TEAM-DET3
 10
-61.372592
 20
-1.943091
 30
0.0
 11
-74.32738
 21
-1.943091
 31
0.0
  0
LINE
  5
111
  8
TEAM-DET3
 10
61.117826
 20
-1.943091
 30
0.0
 11
74.072599
 21
-1.907568
 31
0.0
  0
LINE
  5
112
  8
TEAM-DET3
 10
-1.877383
 20
-5.000006
 30
0.0
 11
-1.877383
 21
-5.100012
 31
0.0
  0
ARC
  5
113
  8
TEAM-DET3
 10
-1.677386
 20
-5.100012
 30
0.0
 40
0.2
 50
179.999997
 51
270.0
  0
LINE
  5
114
  8
TEAM-DET3
 10
-61.372592
 20
-5.000006
 30
0.0
 11
-61.372592
 21
-1.943091
 31
0.0
  0
LINE
  5
115
  8
TEAM-DET3
 10
61.117826
 20
-5.000006
 30
0.0
 11
61.117826
 21
-1.943091
 31
0.0
  0
LINE
  5
116
  8
TEAM-DET3
 10
52.02287
 20
-5.299994
 30
0.0
 11
52.02287
 21
-5.299994
 31
0.0
  0
LINE
  5
117
  8
TEAM-DET3
 10
52.023542
 20
-14.923193
 30
0.0
 11
-52.278308
 21
-14.923193
 31
0.0
  0
LINE
  5
118
  8
TEAM-DET3
 10
-1.677386
 20
-5.299994
 30
0.0
 11
1.42262
 21
-5.299994
 31
0.0
  0
LINE
  5
119
  8
TEAM-DET3
 10
1.622617
 20
-5.000006
 30
0.0
 11
1.622617
 21
-5.100012
 31
0.0
  0
LINE
  5
11A
  8
TEAM-DET3
 10
74.072599
 20
-1.907568
 30
0.0
 11
74.072599
 21
-0.002485
 31
0.0
  0
LINE
  5
11B
  8
TEAM-DET3
 10
-74.32738
 20
-1.907568
 30
0.0
 11
-74.32738
 21
-0.002485
 31
0.0
  0
LINE
  5
11C
  8
TEAM-DET3
 10
-74.32738
 20
-5.000006
 30
0.0
 11
-74.32738
 21
-1.943091
 31
0.0
  0
ARC
  5
11D
  8
TEAM-DET3
 10
1.42262
 20
-5.100012
 30
0.0
 40
0.2
 50
270.0
 51
0.000003
  0
LINE
  5
11E
  8
TEAM-DET3
 10
74.072599
 20
-5.000006
 30
0.0
 11
74.072599
 21
-1.943091
 31
0.0
  0
LINE
  5
11F
  8
TEAM-DET3
 10
74.072599
 20
-5.000006
 30
0.0
 11
66.680662
 21
-5.000006
 31
0.0
  0
LINE
  5
120
  8
TEAM-DET3
 10
1.249418
 20
-5.000006
 30
0.0
 11
66.680662
 21
-5.000006
 31
0.0
  0
LINE
  5
121
  8
TEAM-DET3
 10
-50.64482
 20
-84.917883
 30
0.0
 11
-52.922915
 21
-88.863653
 31
0.0
  0
LINE
  5
122
  8
TEAM-DET3
 10
-50.601178
 20
-79.918249
 30
0.0
 11
-52.879275
 21
-83.86402
 31
0.0
  0
LINE
  5
123
  8
TEAM-DET3
 10
-50.557753
 20
-74.918961
 30
0.0
 11
-52.83565
 21
-78.864416
 31
0.0
  0
LINE
  5
124
  8
TEAM-DET3
 10
-50.513913
 20
-69.919012
 30
0.0
 11
-52.79201
 21
-73.864782
 31
0.0
  0
LINE
  5
125
  8
TEAM-DET3
 10
-50.470472
 20
-64.919724
 30
0.0
 11
-52.748385
 21
-68.865179
 31
0.0
  0
LINE
  5
126
  8
TEAM-DET3
 10
-50.427792
 20
-59.921757
 30
0.0
 11
-52.704745
 21
-63.865545
 31
0.0
  0
LINE
  5
127
  8
TEAM-DET3
 10
-50.383795
 20
-54.920455
 30
0.0
 11
-52.66112
 21
-58.865942
 31
0.0
  0
LINE
  5
128
  8
TEAM-DET3
 10
-50.339564
 20
-49.920853
 30
0.0
 11
-52.617495
 21
-53.866308
 31
0.0
  0
LINE
  5
129
  8
TEAM-DET3
 10
-50.295958
 20
-44.92125
 30
0.0
 11
-52.573855
 21
-48.866705
 31
0.0
  0
LINE
  5
12A
  8
TEAM-DET3
 10
-50.252314
 20
-39.921615
 30
0.0
 11
-52.53023
 21
-43.867071
 31
0.0
  0
LINE
  5
12B
  8
TEAM-DET3
 10
-50.203836
 20
-34.9136
 30
0.0
 11
-52.486605
 21
-38.867468
 31
0.0
  0
LINE
  5
12C
  8
TEAM-DET3
 10
-50.16505
 20
-29.922379
 30
0.0
 11
-52.442965
 21
-33.867834
 31
0.0
  0
LINE
  5
12D
  8
TEAM-DET3
 10
-50.165591
 20
-24.922745
 30
0.0
 11
-52.399325
 21
-28.868231
 31
0.0
  0
LINE
  5
12E
  8
TEAM-DET3
 10
-50.077603
 20
-19.922827
 30
0.0
 11
-52.3557
 21
-23.868597
 31
0.0
  0
LINE
  5
12F
  8
TEAM-DET3
 10
-52.312075
 20
-18.868994
 30
0.0
 11
-50.033967
 21
-14.923193
 31
0.0
  0
LINE
  5
130
  8
TEAM-DET3
 10
49.823545
 20
-14.923193
 30
0.0
 11
52.05731
 21
-18.868994
 31
0.0
  0
LINE
  5
131
  8
TEAM-DET3
 10
52.05731
 20
-18.868994
 30
0.0
 11
52.066495
 21
-19.922827
 31
0.0
  0
LINE
  5
132
  8
TEAM-DET3
 10
49.822837
 20
-19.922827
 30
0.0
 11
52.100934
 21
-23.868597
 31
0.0
  0
LINE
  5
133
  8
TEAM-DET3
 10
52.100934
 20
-23.868597
 30
0.0
 11
52.110135
 21
-24.92243
 31
0.0
  0
LINE
  5
134
  8
TEAM-DET3
 10
49.866481
 20
-24.922437
 30
0.0
 11
52.144559
 21
-28.868231
 31
0.0
  0
LINE
  5
135
  8
TEAM-DET3
 10
52.144559
 20
-28.868231
 30
0.0
 11
52.15376
 21
-29.922064
 31
0.0
  0
LINE
  5
136
  8
TEAM-DET3
 10
49.910106
 20
-29.922071
 30
0.0
 11
52.188199
 21
-33.867834
 31
0.0
  0
LINE
  5
137
  8
TEAM-DET3
 10
52.188199
 20
-33.867834
 30
0.0
 11
52.1974
 21
-34.921667
 31
0.0
  0
LINE
  5
138
  8
TEAM-DET3
 10
49.953731
 20
-34.921674
 30
0.0
 11
52.23184
 21
-38.867468
 31
0.0
  0
LINE
  5
139
  8
TEAM-DET3
 10
52.23184
 20
-38.867468
 30
0.0
 11
52.241025
 21
-39.921301
 31
0.0
  0
LINE
  5
13A
  8
TEAM-DET3
 10
49.997371
 20
-39.921308
 30
0.0
 11
52.275464
 21
-43.867071
 31
0.0
  0
LINE
  5
13B
  8
TEAM-DET3
 10
52.275464
 20
-43.867071
 30
0.0
 11
52.284665
 21
-44.920935
 31
0.0
  0
LINE
  5
13C
  8
TEAM-DET3
 10
50.041014
 20
-44.920942
 30
0.0
 11
52.319089
 21
-48.866705
 31
0.0
  0
LINE
  5
13D
  8
TEAM-DET3
 10
52.319089
 20
-48.866705
 30
0.0
 11
52.32829
 21
-49.920538
 31
0.0
  0
LINE
  5
13E
  8
TEAM-DET3
 10
50.08462
 20
-49.920545
 30
0.0
 11
52.362729
 21
-53.866308
 31
0.0
  0
LINE
  5
13F
  8
TEAM-DET3
 10
52.362729
 20
-53.866308
 30
0.0
 11
52.371915
 21
-54.920141
 31
0.0
  0
LINE
  5
140
  8
TEAM-DET3
 10
50.128261
 20
-54.920148
 30
0.0
 11
52.406354
 21
-58.865942
 31
0.0
  0
LINE
  5
141
  8
TEAM-DET3
 10
52.406354
 20
-58.865942
 30
0.0
 11
52.415555
 21
-59.919775
 31
0.0
  0
LINE
  5
142
  8
TEAM-DET3
 10
50.21623
 20
-59.996588
 30
0.0
 11
52.449979
 21
-63.865545
 31
0.0
  0
LINE
  5
143
  8
TEAM-DET3
 10
52.449979
 20
-63.865545
 30
0.0
 11
52.45918
 21
-64.919409
 31
0.0
  0
LINE
  5
144
  8
TEAM-DET3
 10
50.215529
 20
-64.919416
 30
0.0
 11
52.493619
 21
-68.865179
 31
0.0
  0
LINE
  5
145
  8
TEAM-DET3
 10
52.493619
 20
-68.865179
 30
0.0
 11
52.502805
 21
-69.919012
 31
0.0
  0
LINE
  5
146
  8
TEAM-DET3
 10
50.259147
 20
-69.919012
 30
0.0
 11
52.537244
 21
-73.864782
 31
0.0
  0
LINE
  5
147
  8
TEAM-DET3
 10
52.537244
 20
-73.864782
 30
0.0
 11
52.546445
 21
-74.918646
 31
0.0
  0
LINE
  5
148
  8
TEAM-DET3
 10
50.302809
 20
-74.918653
 30
0.0
 11
52.580884
 21
-78.864416
 31
0.0
  0
LINE
  5
149
  8
TEAM-DET3
 10
50.346412
 20
-79.918249
 30
0.0
 11
52.624509
 21
-83.86402
 31
0.0
  0
LINE
  5
14A
  8
TEAM-DET3
 10
52.624509
 20
-83.86402
 30
0.0
 11
52.63371
 21
-84.917883
 31
0.0
  0
LINE
  5
14B
  8
TEAM-DET3
 10
50.390055
 20
-84.917883
 30
0.0
 11
52.668149
 21
-88.863653
 31
0.0
  0
LINE
  5
14C
  8
TEAM-DET3
 10
6.591337
 20
-92.222693
 30
0.0
 11
6.591337
 21
-90.777655
 31
0.0
  0
ARC
  5
14D
  8
TEAM-DET3
 10
5.596357
 20
-90.776556
 30
0.0
 40
0.994931
 50
359.936892
 51
90.113636
  0
LINE
  5
14E
  8
TEAM-DET3
 10
5.594388
 20
-89.781469
 30
0.0
 11
-5.849154
 21
-89.781469
 31
0.0
  0
ARC
  5
14F
  8
TEAM-DET3
 10
-5.851122
 20
-90.776556
 30
0.0
 40
0.994931
 50
89.886364
 51
180.063108
  0
LINE
  5
150
  8
TEAM-DET3
 10
-6.846102
 20
-92.222693
 30
0.0
 11
-6.846102
 21
-90.777655
 31
0.0
  0
ARC
  5
151
  8
TEAM-DET3
 10
-5.852099
 20
-92.225012
 30
0.0
 40
0.99381
 50
179.86685
 51
270.082616
  0
LINE
  5
152
  8
TEAM-DET3
 10
5.595899
 20
-93.218908
 30
0.0
 11
-5.850665
 21
-93.218908
 31
0.0
  0
ARC
  5
153
  8
TEAM-DET3
 10
5.597333
 20
-92.225012
 30
0.0
 40
0.99381
 50
269.917384
 51
0.13315
  0
ARC
  5
154
  8
TEAM-DET3
 10
5.378614
 20
-92.00614
 30
0.0
 40
0.99381
 50
269.917389
 51
0.133157
  0
LINE
  5
155
  8
TEAM-DET3
 10
-5.631945
 20
-93.000006
 30
0.0
 11
5.37718
 21
-93.000006
 31
0.0
  0
ARC
  5
156
  8
TEAM-DET3
 10
-5.63338
 20
-92.00614
 30
0.0
 40
0.99381
 50
179.866843
 51
270.082611
  0
LINE
  5
157
  8
TEAM-DET3
 10
-6.627383
 20
-90.996191
 30
0.0
 11
-6.627383
 21
-92.003821
 31
0.0
  0
ARC
  5
158
  8
TEAM-DET3
 10
-5.632403
 20
-90.995093
 30
0.0
 40
0.994931
 50
89.886351
 51
180.063108
  0
LINE
  5
159
  8
TEAM-DET3
 10
5.375669
 20
-90.000006
 30
0.0
 11
-5.630435
 21
-90.000006
 31
0.0
  0
ARC
  5
15A
  8
TEAM-DET3
 10
5.377637
 20
-90.995093
 30
0.0
 40
0.994931
 50
359.936892
 51
90.113649
  0
LINE
  5
15B
  8
TEAM-DET3
 10
6.372617
 20
-92.003821
 30
0.0
 11
6.372617
 21
-90.996191
 31
0.0
  0
LINE
  5
15C
  8
TEAM-DET3
 10
74.072599
 20
-5.000006
 30
0.0
 11
74.072599
 21
-5.100012
 31
0.0
  0
ARC
  5
15D
  8
TEAM-DET3
 10
73.872617
 20
-5.100012
 30
0.0
 40
0.2
 50
270.0
 51
0.000003
  0
LINE
  5
15E
  8
TEAM-DET3
 10
-74.127383
 20
-5.299994
 30
0.0
 11
-52.278308
 21
-5.299994
 31
0.0
  0
LINE
  5
15F
  8
TEAM-DET3
 10
-74.32738
 20
-5.000006
 30
0.0
 11
-74.32738
 21
-5.100012
 31
0.0
  0
ARC
  5
160
  8
TEAM-DET3
 10
-74.127383
 20
-5.100012
 30
0.0
 40
0.2
 50
179.999997
 51
270.0
  0
LINE
  5
161
  8
TEAM-DET3
 10
38.022611
 20
-97.000006
 30
0.0
 11
38.022611
 21
-97.300024
 31
0.0
  0
LINE
  5
162
  8
TEAM-DET3
 10
42.022611
 20
-97.000006
 30
0.0
 11
42.022611
 21
-97.300024
 31
0.0
  0
LINE
  5
163
  8
TEAM-DET3
 10
38.022611
 20
-97.300024
 30
0.0
 11
42.022611
 21
-97.300024
 31
0.0
  0
LINE
  5
164
  8
TEAM-DET3
 10
38.022611
 20
-97.000006
 30
0.0
 11
38.022611
 21
-97.300024
 31
0.0
  0
LINE
  5
165
  8
TEAM-DET3
 10
42.872617
 20
-97.000006
 30
0.0
 11
-43.127398
 21
-97.000006
 31
0.0
  0
LINE
  5
166
  8
TEAM-DET3
 10
53.022611
 20
-95.000006
 30
0.0
 11
-53.277377
 21
-95.000006
 31
0.0
  0
LINE
  5
167
  8
TEAM-DET3
 10
-53.277377
 20
-95.000006
 30
0.0
 11
-53.277377
 21
-102.000006
 31
0.0
  0
LINE
  5
168
  8
TEAM-DET3
 10
-6.127383
 20
-95.000006
 30
0.0
 11
-6.127383
 21
-97.000006
 31
0.0
  0
LINE
  5
169
  8
TEAM-DET3
 10
-53.277377
 20
-102.000006
 30
0.0
 11
-52.632083
 21
-102.000006
 31
0.0
  0
ARC
  5
16A
  8
TEAM-DET3
 10
-52.632083
 20
-100.000006
 30
0.0
 40
2.0
 50
270.0
 51
330.000002
  0
LINE
  5
16B
  8
TEAM-DET3
 10
-50.900027
 20
-101.000006
 30
0.0
 11
-50.033999
 21
-99.500006
 31
0.0
  0
LINE
  5
16C
  8
TEAM-DET3
 10
-50.033999
 20
-99.500006
 30
0.0
 11
-43.127383
 21
-97.000006
 31
0.0
  0
LINE
  5
16D
  8
TEAM-DET3
 10
5.872617
 20
-95.000006
 30
0.0
 11
5.872617
 21
-97.000006
 31
0.0
  0
LINE
  5
16E
  8
TEAM-DET3
 10
53.022611
 20
-102.000006
 30
0.0
 11
52.527311
 21
-102.000006
 31
0.0
  0
LINE
  5
16F
  8
TEAM-DET3
 10
53.022611
 20
-95.000006
 30
0.0
 11
53.022611
 21
-102.000006
 31
0.0
  0
LINE
  5
170
  8
TEAM-DET3
 10
52.527402
 20
-102.000006
 30
0.0
 11
52.377317
 21
-102.000006
 31
0.0
  0
ARC
  5
171
  8
TEAM-DET3
 10
52.377317
 20
-100.000006
 30
0.0
 40
2.0
 50
209.999998
 51
270.0
  0
LINE
  5
172
  8
TEAM-DET3
 10
50.140561
 20
-100.12583
 30
0.0
 11
49.779233
 21
-99.500006
 31
0.0
  0
LINE
  5
173
  8
TEAM-DET3
 10
50.645261
 20
-101.000006
 30
0.0
 11
50.140561
 21
-100.12583
 31
0.0
  0
ARC
  5
174
  8
TEAM-DET3
 10
-52.782076
 20
-100.000006
 30
0.0
 40
2.0
 50
270.0
 51
270.488031
  0
LINE
  5
175
  8
TEAM-DET3
 10
49.779233
 20
-99.500006
 30
0.0
 11
42.872617
 21
-97.000006
 31
0.0
  0
LINE
  5
176
  8
TEAM-DET3
 10
-53.377383
 20
-86.100012
 30
0.0
 11
-53.377383
 21
-97.100012
 31
0.0
  0
LINE
  5
177
  8
TEAM-DET3
 10
-53.377383
 20
-97.100012
 30
0.0
 11
-53.277377
 21
-97.100012
 31
0.0
  0
LINE
  5
178
  8
TEAM-DET3
 10
-43.403659
 20
-97.100012
 30
0.0
 11
-42.377383
 21
-97.100012
 31
0.0
  0
LINE
  5
179
  8
TEAM-DET3
 10
-42.377383
 20
-97.100012
 30
0.0
 11
-42.377383
 21
-97.000006
 31
0.0
  0
LINE
  5
17A
  8
TEAM-DET3
 10
-53.277377
 20
-86.100012
 30
0.0
 11
-53.277377
 21
-97.000006
 31
0.0
  0
LINE
  5
17B
  8
TEAM-DET3
 10
-53.277377
 20
-86.100012
 30
0.0
 11
-53.377383
 21
-86.100012
 31
0.0
  0
LINE
  5
17C
  8
TEAM-DET3
 10
52.023542
 20
-5.299994
 30
0.0
 11
73.872617
 21
-5.299994
 31
0.0
  0
LINE
  5
17D
  8
TEAM-AXE
 10
-0.00061
 20
46.080494
 30
0.0
 11
-0.00061
 21
-109.886166
 31
0.0
  0
LINE
  5
17E
  8
TEAM-HIDE
 10
-74.32738
 20
4.999994
 30
0.0
 11
74.072599
 21
4.999994
 31
0.0
  0
LINE
  5
17F
  8
TEAM-DET3
 10
-74.32738
 20
-5.000006
 30
0.0
 11
-1.877386
 21
-5.000006
 31
0.0
  0
LINE
  5
180
  8
TEAM-DET2
 10
208.49878
 20
40.003114
 30
0.0
 11
250.004378
 21
40.003114
 31
0.0
  0
LINE
  5
181
  8
TEAM-DET2
 10
174.49878
 20
18.002734
 30
0.0
 11
174.49878
 21
36.00198
 31
0.0
  0
LINE
  5
182
  8
TEAM-DET2
 10
250.004378
 20
40.003114
 30
0.0
 11
250.004378
 21
-0.002485
 31
0.0
  0
CIRCLE
  5
183
  8
TEAM-INSP
 10
0.0
 20
0.0
 30
0.0
 40
10.0
  0
ENDSEC
  0
EOF
