  0
SECTION
  2
HEADER
  9
$ACADVER
  1
AC1009
  9
$INSBASE
 10
0.0
 20
0.0
 30
0.0
  9
$EXTMIN
 10
-293.983385
 20
-60.110392
 30
-0.000006
  9
$EXTMAX
 10
199.359448
 20
1496.315133
 30
0.000006
  9
$LIMMIN
 10
-293.983385
 20
-60.110392
  9
$LIMMAX
 10
199.359448
 20
1496.315133
  9
$ORTHOMODE
 70
     1
  9
$REGENMODE
 70
     1
  9
$FILLMODE
 70
     1
  9
$QTEXTMODE
 70
     0
  9
$MIRRTEXT
 70
     0
  9
$DRAGMODE
 70
     2
  9
$LTSCALE
 40
50.0
  9
$OSMODE
 70
     0
  9
$ATTMODE
 70
     1
  9
$TEXTSIZE
 40
200.0
  9
$TRACEWID
 40
1.0
  9
$TEXTSTYLE
  7
STANDARD
  9
$CLAYER
  8
TEAM-MAS
  9
$CELTYPE
  6
BYLAYER
  9
$CECOLOR
 62
   256
  9
$DIMSCALE
 40
1.0
  9
$DIMASZ
 40
20.0
  9
$DIMEXO
 40
10.0
  9
$DIMDLI
 40
1.0
  9
$DIMRND
 40
0.0
  9
$DIMDLE
 40
0.0
  9
$DIMEXE
 40
1.0
  9
$DIMTP
 40
0.0
  9
$DIMTM
 40
0.0
  9
$DIMTXT
 40
35.0
  9
$DIMCEN
 40
1.0
  9
$DIMTSZ
 40
0.0
  9
$DIMTOL
 70
     0
  9
$DIMLIM
 70
     0
  9
$DIMTIH
 70
     0
  9
$DIMTOH
 70
     0
  9
$DIMSE1
 70
     0
  9
$DIMSE2
 70
     0
  9
$DIMTAD
 70
     0
  9
$DIMZIN
 70
     0
  9
$DIMBLK
  1

  9
$DIMASO
 70
     1
  9
$DIMSHO
 70
     0
  9
$DIMPOST
  1

  9
$DIMAPOST
  1

  9
$DIMALT
 70
     0
  9
$DIMALTD
 70
     2
  9
$DIMALTF
 40
25.4
  9
$DIMLFAC
 40
1.0
  9
$DIMTOFL
 70
     0
  9
$DIMTVP
 40
0.0
  9
$DIMTIX
 70
     0
  9
$DIMSOXD
 70
     0
  9
$DIMSAH
 70
     0
  9
$DIMBLK1
  1

  9
$DIMBLK2
  1

  9
$DIMSTYLE
  2
TEAM
  9
$DIMCLRD
 70
     9
  9
$DIMCLRE
 70
     9
  9
$DIMCLRT
 70
    11
  9
$DIMTFAC
 40
1.0
  9
$DIMGAP
 40
7.0
  9
$LUNITS
 70
     2
  9
$LUPREC
 70
     1
  9
$SKETCHINC
 40
1.0
  9
$FILLETRAD
 40
50.0
  9
$AUNITS
 70
     0
  9
$AUPREC
 70
     0
  9
$MENU
  1
ROPLANS
  9
$ELEVATION
 40
0.0
  9
$PELEVATION
 40
0.0
  9
$THICKNESS
 40
0.0
  9
$LIMCHECK
 70
     0
  9
$BLIPMODE
 70
     1
  9
$CHAMFERA
 40
0.0
  9
$CHAMFERB
 40
0.0
  9
$SKPOLY
 70
     0
  9
$TDCREATE
 40
2450392.957851
  9
$TDUPDATE
 40
2456118.662559
  9
$TDINDWG
 40
5.307301
  9
$TDUSRTIMER
 40
5.307301
  9
$USRTIMER
 70
     1
  9
$ANGBASE
 50
0.0
  9
$ANGDIR
 70
     0
  9
$PDMODE
 70
     0
  9
$PDSIZE
 40
0.0
  9
$PLINEWID
 40
0.0
  9
$COORDS
 70
     2
  9
$SPLFRAME
 70
     0
  9
$SPLINETYPE
 70
     6
  9
$SPLINESEGS
 70
     8
  9
$ATTDIA
 70
     0
  9
$ATTREQ
 70
     0
  9
$HANDLING
 70
     1
  9
$HANDSEED
  5
4A6
  9
$SURFTAB1
 70
    24
  9
$SURFTAB2
 70
    24
  9
$SURFTYPE
 70
     6
  9
$SURFU
 70
     6
  9
$SURFV
 70
     6
  9
$UCSNAME
  2

  9
$UCSORG
 10
0.0
 20
0.0
 30
0.0
  9
$UCSXDIR
 10
1.0
 20
0.0
 30
0.0
  9
$UCSYDIR
 10
0.0
 20
1.0
 30
0.0
  9
$PUCSNAME
  2

  9
$PUCSORG
 10
0.0
 20
0.0
 30
0.0
  9
$PUCSXDIR
 10
1.0
 20
0.0
 30
0.0
  9
$PUCSYDIR
 10
0.0
 20
1.0
 30
0.0
  9
$USERI1
 70
     0
  9
$USERI2
 70
     0
  9
$USERI3
 70
     0
  9
$USERI4
 70
     0
  9
$USERI5
 70
     0
  9
$USERR1
 40
0.0
  9
$USERR2
 40
0.0
  9
$USERR3
 40
0.0
  9
$USERR4
 40
0.0
  9
$USERR5
 40
0.0
  9
$WORLDVIEW
 70
     1
  9
$SHADEDGE
 70
     0
  9
$SHADEDIF
 70
    70
  9
$TILEMODE
 70
     1
  9
$MAXACTVP
 70
    16
  9
$PLIMCHECK
 70
     0
  9
$PEXTMIN
 10
-0.805942
 20
0.005011
 30
0.0
  9
$PEXTMAX
 10
20.250094
 20
11.356329
 30
0.0
  9
$PLIMMIN
 10
0.0
 20
0.0
  9
$PLIMMAX
 10
12.0
 20
9.0
  9
$UNITMODE
 70
     0
  9
$VISRETAIN
 70
     0
  9
$PLINEGEN
 70
     0
  9
$PSLTSCALE
 70
     0
  0
ENDSEC
  0
SECTION
  2
TABLES
  0
TABLE
  2
VPORT
 70
     2
  0
VPORT
  2
*ACTIVE
 70
     0
 10
0.0
 20
0.0
 11
1.0
 21
1.0
 12
-47.311969
 22
718.10237
 13
0.0
 23
0.0
 14
1.0
 24
1.0
 15
50.0
 25
50.0
 16
0.0
 26
0.0
 36
1.0
 17
0.0
 27
0.0
 37
0.0
 40
1566.224636
 41
1.911765
 42
50.0
 43
0.0
 44
0.0
 50
0.0
 51
0.0
 71
     0
 72
   100
 73
     1
 74
     1
 75
     0
 76
     0
 77
     0
 78
     0
  0
ENDTAB
  0
TABLE
  2
LTYPE
 70
     3
  0
LTYPE
  2
CONTINUOUS
 70
     0
  3
Solid Line
 72
    65
 73
     0
 40
0.0
  0
LTYPE
  2
31
 70
     0
  3

 72
    65
 73
     4
 40
2.1
 49
1.5
 49
-0.3
 49
0.0
 49
-0.3
  0
LTYPE
  2
22
 70
     0
  3

 72
    65
 73
     2
 40
1.4
 49
1.2
 49
-0.2
  0
ENDTAB
  0
TABLE
  2
LAYER
 70
     9
  0
LAYER
  2
0
 70
     0
 62
     7
  6
CONTINUOUS
  0
LAYER
  2
DEFPOINTS
 70
     0
 62
     7
  6
CONTINUOUS
  0
LAYER
  2
TEAM-AXE
 70
     0
 62
    10
  6
31
  0
LAYER
  2
TEAM-MAS
 70
     0
 62
     9
  6
CONTINUOUS
  0
LAYER
  2
TEAM-TXT
 70
     0
 62
    11
  6
CONTINUOUS
  0
LAYER
  2
TEAM-DET2
 70
     0
 62
    11
  6
CONTINUOUS
  0
LAYER
  2
TEAM-HIDE
 70
     0
 62
     8
  6
22
  0
LAYER
  2
TEAM-DET3
 70
     0
 62
    14
  6
CONTINUOUS
  0
LAYER
  2
TEAM-INSP
 70
     0
 62
     5
  6
CONTINUOUS
  0
ENDTAB
  0
TABLE
  2
STYLE
 70
     2
  0
STYLE
  2
STANDARD
 70
     0
 40
0.0
 41
1.0
 50
0.0
 71
     0
 42
200.0
  3
txt
  4

  0
STYLE
  2
TEAM
 70
     0
 40
0.0
 41
0.8
 50
15.0
 71
     0
 42
7.0
  3
ROMANS.shx
  4

  0
ENDTAB
  0
TABLE
  2
VIEW
 70
     0
  0
ENDTAB
  0
TABLE
  2
UCS
 70
     0
  0
ENDTAB
  0
TABLE
  2
APPID
 70
     1
  0
APPID
  2
ACAD
 70
     0
  0
ENDTAB
  0
TABLE
  2
DIMSTYLE
 70
     1
  0
DIMSTYLE
  2
TEAM
 70
     0
  3

  4

  5

  6

  7

 40
1.0
 41
20.0
 42
10.0
 43
1.0
 44
1.0
 45
0.0
 46
0.0
 47
0.0
 48
0.0
140
35.0
141
1.0
142
0.0
143
25.4
144
1.0
145
0.0
146
1.0
147
7.0
 71
     0
 72
     0
 73
     0
 74
     0
 75
     0
 76
     0
 77
     0
 78
     0
170
     0
171
     2
172
     0
173
     0
174
     0
175
     0
176
     9
177
     9
178
    11
  0
ENDTAB
  0
ENDSEC
  0
SECTION
  2
BLOCKS
  0
BLOCK
  8
0
  2
$MODEL_SPACE
 70
     0
 10
0.0
 20
0.0
 30
0.0
  3
$MODEL_SPACE
  1

  0
ENDBLK
  5
36F
  8
0
  0
BLOCK
 67
     1
  8
0
  2
$PAPER_SPACE
 70
     0
 10
0.0
 20
0.0
 30
0.0
  3
$PAPER_SPACE
  1

  0
ENDBLK
  5
36D
 67
     1
  8
0
  0
BLOCK
  8
0
  2
*D0
 70
     1
 10
0.0
 20
0.0
 30
0.0
  3
*D0
  1

  0
LINE
  5
88
  8
0
  6
BYBLOCK
 62
     9
 10
8010.0
 20
112000.0
 30
0.0
 11
8091.355002
 21
112000.0
 31
0.0
  0
LINE
  5
89
  8
0
  6
BYBLOCK
 62
     9
 10
8048.467057
 20
112400.000372
 30
0.0
 11
8091.355002
 21
112400.000372
 31
0.0
  0
LINE
  5
8A
  8
0
  6
BYBLOCK
 62
     9
 10
8090.355002
 20
112020.0
 30
0.0
 11
8090.355002
 21
112152.166853
 31
0.0
  0
LINE
  5
8B
  8
0
  6
BYBLOCK
 62
     9
 10
8090.355002
 20
112380.000372
 30
0.0
 11
8090.355002
 21
112247.833519
 31
0.0
  0
SOLID
  5
8C
  8
0
  6
BYBLOCK
 62
     9
 10
8087.021669
 20
112020.0
 30
0.0
 11
8093.688335
 21
112020.0
 31
0.0
 12
8090.355002
 22
112000.0
 32
0.0
 13
8090.355002
 23
112000.0
 33
0.0
  0
SOLID
  5
8D
  8
0
  6
BYBLOCK
 62
     9
 10
8087.021669
 20
112380.000372
 30
0.0
 11
8093.688335
 21
112380.000372
 31
0.0
 12
8090.355002
 22
112400.000372
 32
0.0
 13
8090.355002
 23
112400.000372
 33
0.0
  0
TEXT
  5
8E
  8
0
  6
BYBLOCK
 62
    11
 10
8107.855002
 20
112159.166853
 30
0.0
 40
35.0
  1
400
 50
90.0
  0
POINT
  5
8F
  8
DEFPOINTS
  6
BYBLOCK
 62
     0
 10
8000.0
 20
112000.0
 30
0.0
  0
POINT
  5
90
  8
DEFPOINTS
  6
BYBLOCK
 62
     0
 10
8038.467057
 20
112400.000372
 30
0.0
  0
POINT
  5
91
  8
DEFPOINTS
  6
BYBLOCK
 62
     0
 10
8090.355002
 20
112400.000372
 30
0.0
  0
ENDBLK
  5
93
  8
0
  0
BLOCK
  8
0
  2
*D1
 70
     1
 10
0.0
 20
0.0
 30
0.0
  3
*D1
  1

  0
LINE
  5
31
  8
0
  6
BYBLOCK
 62
     9
 10
8010.0
 20
112000.0
 30
0.0
 11
8137.093304
 21
112000.0
 31
0.0
  0
LINE
  5
32
  8
0
  6
BYBLOCK
 62
     9
 10
8120.99999
 20
113280.000794
 30
0.0
 11
8137.093304
 21
113280.000794
 31
0.0
  0
LINE
  5
33
  8
0
  6
BYBLOCK
 62
     9
 10
8136.093304
 20
112020.0
 30
0.0
 11
8136.093304
 21
112577.58373
 31
0.0
  0
LINE
  5
34
  8
0
  6
BYBLOCK
 62
     9
 10
8136.093304
 20
113260.000794
 30
0.0
 11
8136.093304
 21
112702.417064
 31
0.0
  0
SOLID
  5
35
  8
0
  6
BYBLOCK
 62
     9
 10
8132.759971
 20
112020.0
 30
0.0
 11
8139.426638
 21
112020.0
 31
0.0
 12
8136.093304
 22
112000.0
 32
0.0
 13
8136.093304
 23
112000.0
 33
0.0
  0
SOLID
  5
36
  8
0
  6
BYBLOCK
 62
     9
 10
8132.759971
 20
113260.000794
 30
0.0
 11
8139.426638
 21
113260.000794
 31
0.0
 12
8136.093304
 22
113280.000794
 32
0.0
 13
8136.093304
 23
113280.000794
 33
0.0
  0
TEXT
  5
37
  8
0
  6
BYBLOCK
 62
    11
 10
8153.593304
 20
112584.58373
 30
0.0
 40
35.0
  1
1280
 50
90.0
  0
POINT
  5
38
  8
DEFPOINTS
  6
BYBLOCK
 62
     0
 10
8000.0
 20
112000.0
 30
0.0
  0
POINT
  5
39
  8
DEFPOINTS
  6
BYBLOCK
 62
     0
 10
8110.99999
 20
113280.000794
 30
0.0
  0
POINT
  5
3A
  8
DEFPOINTS
  6
BYBLOCK
 62
     0
 10
8136.093304
 20
113280.000794
 30
0.0
  0
ENDBLK
  5
3C
  8
0
  0
BLOCK
  8
0
  2
*D2
 70
     1
 10
0.0
 20
0.0
 30
0.0
  3
*D2
  1

  0
LINE
  5
22
  8
0
  6
BYBLOCK
 62
     9
 10
8010.0
 20
112000.0
 30
0.0
 11
8182.831996
 21
112000.0
 31
0.0
  0
LINE
  5
23
  8
0
  6
BYBLOCK
 62
     9
 10
8010.000072
 20
113440.002181
 30
0.0
 11
8182.831996
 21
113440.002181
 31
0.0
  0
LINE
  5
24
  8
0
  6
BYBLOCK
 62
     9
 10
8181.831996
 20
112020.0
 30
0.0
 11
8181.831996
 21
112657.584424
 31
0.0
  0
LINE
  5
25
  8
0
  6
BYBLOCK
 62
     9
 10
8181.831996
 20
113420.002181
 30
0.0
 11
8181.831996
 21
112782.417757
 31
0.0
  0
SOLID
  5
26
  8
0
  6
BYBLOCK
 62
     9
 10
8178.498663
 20
112020.0
 30
0.0
 11
8185.165329
 21
112020.0
 31
0.0
 12
8181.831996
 22
112000.0
 32
0.0
 13
8181.831996
 23
112000.0
 33
0.0
  0
SOLID
  5
27
  8
0
  6
BYBLOCK
 62
     9
 10
8178.498663
 20
113420.002181
 30
0.0
 11
8185.165329
 21
113420.002181
 31
0.0
 12
8181.831996
 22
113440.002181
 32
0.0
 13
8181.831996
 23
113440.002181
 33
0.0
  0
TEXT
  5
28
  8
0
  6
BYBLOCK
 62
    11
 10
8199.331996
 20
112664.584424
 30
0.0
 40
35.0
  1
1440
 50
90.0
  0
POINT
  5
29
  8
DEFPOINTS
  6
BYBLOCK
 62
     0
 10
8000.0
 20
112000.0
 30
0.0
  0
POINT
  5
2B
  8
DEFPOINTS
  6
BYBLOCK
 62
     0
 10
8000.000072
 20
113440.002181
 30
0.0
  0
POINT
  5
2C
  8
DEFPOINTS
  6
BYBLOCK
 62
     0
 10
8181.831996
 20
113440.002181
 30
0.0
  0
ENDBLK
  5
2E
  8
0
  0
BLOCK
  8
0
  2
*D3
 70
     1
 10
0.0
 20
0.0
 30
0.0
  3
*D3
  1

  0
LINE
  5
69
  8
0
  6
BYBLOCK
 62
     9
 10
8009.500107
 20
111980.000016
 30
0.0
 11
8044.536972
 21
111980.000016
 31
0.0
  0
LINE
  5
6A
  8
0
  6
BYBLOCK
 62
     9
 10
8010.0
 20
112000.0
 30
0.0
 11
8044.536972
 21
112000.0
 31
0.0
  0
LINE
  5
6B
  8
0
  6
BYBLOCK
 62
     9
 10
8043.536972
 20
111960.000016
 30
0.0
 11
8043.536972
 21
111940.000016
 31
0.0
  0
LINE
  5
6C
  8
0
  6
BYBLOCK
 62
     9
 10
8043.536972
 20
112020.0
 30
0.0
 11
8043.536972
 21
112040.0
 31
0.0
  0
TEXT
  5
6D
  8
0
  6
BYBLOCK
 62
    11
 10
8061.036972
 20
112049.433299
 30
0.0
 40
35.0
  1
0-200
 50
90.0
  0
LINE
  5
6E
  8
0
  6
BYBLOCK
 62
     9
 10
8043.536972
 20
111980.000016
 30
0.0
 11
8043.536972
 21
112000.0
 31
0.0
  0
SOLID
  5
6F
  8
0
  6
BYBLOCK
 62
     9
 10
8040.203639
 20
111960.000016
 30
0.0
 11
8046.870306
 21
111960.000016
 31
0.0
 12
8043.536972
 22
111980.000016
 32
0.0
 13
8043.536972
 23
111980.000016
 33
0.0
  0
SOLID
  5
70
  8
0
  6
BYBLOCK
 62
     9
 10
8040.203639
 20
112020.0
 30
0.0
 11
8046.870306
 21
112020.0
 31
0.0
 12
8043.536972
 22
112000.0
 32
0.0
 13
8043.536972
 23
112000.0
 33
0.0
  0
POINT
  5
71
  8
DEFPOINTS
  6
BYBLOCK
 62
     0
 10
7999.500107
 20
111980.000016
 30
0.0
  0
POINT
  5
72
  8
DEFPOINTS
  6
BYBLOCK
 62
     0
 10
8000.0
 20
112000.0
 30
0.0
  0
POINT
  5
73
  8
DEFPOINTS
  6
BYBLOCK
 62
     0
 10
8043.536972
 20
112000.0
 30
0.0
  0
ENDBLK
  5
75
  8
0
  0
BLOCK
  8
0
  2
*D4
 70
     1
 10
0.0
 20
0.0
 30
0.0
  3
*D4
  1

  0
LINE
  5
79
  8
0
  6
BYBLOCK
 62
     9
 10
7999.500103
 20
111998.000016
 30
0.0
 11
7999.500103
 21
112026.100474
 31
0.0
  0
LINE
  5
7A
  8
0
  6
BYBLOCK
 62
     9
 10
7951.500103
 20
111998.0
 30
0.0
 11
7951.500103
 21
112026.100474
 31
0.0
  0
LINE
  5
7B
  8
0
  6
BYBLOCK
 62
     9
 10
8019.500103
 20
112025.100474
 30
0.0
 11
8039.500103
 21
112025.100474
 31
0.0
  0
LINE
  5
7C
  8
0
  6
BYBLOCK
 62
     9
 10
7931.500103
 20
112025.100474
 30
0.0
 11
7911.500103
 21
112025.100474
 31
0.0
  0
TEXT
  5
7D
  8
0
  6
BYBLOCK
 62
    11
 10
7843.854012
 20
112007.600474
 30
0.0
 40
35.0
  1
48
  0
LINE
  5
7E
  8
0
  6
BYBLOCK
 62
     9
 10
7999.500103
 20
112025.100474
 30
0.0
 11
7951.500103
 21
112025.100474
 31
0.0
  0
SOLID
  5
7F
  8
0
  6
BYBLOCK
 62
     9
 10
8019.500103
 20
112028.433807
 30
0.0
 11
8019.500103
 21
112021.767141
 31
0.0
 12
7999.500103
 22
112025.100474
 32
0.0
 13
7999.500103
 23
112025.100474
 33
0.0
  0
SOLID
  5
80
  8
0
  6
BYBLOCK
 62
     9
 10
7931.500103
 20
112028.433807
 30
0.0
 11
7931.500103
 21
112021.767141
 31
0.0
 12
7951.500103
 22
112025.100474
 32
0.0
 13
7951.500103
 23
112025.100474
 33
0.0
  0
POINT
  5
81
  8
DEFPOINTS
  6
BYBLOCK
 62
     0
 10
7999.500103
 20
111988.000016
 30
0.0
  0
POINT
  5
82
  8
DEFPOINTS
  6
BYBLOCK
 62
     0
 10
7951.500103
 20
111988.0
 30
0.0
  0
POINT
  5
83
  8
DEFPOINTS
  6
BYBLOCK
 62
     0
 10
7951.500103
 20
112025.100474
 30
0.0
  0
ENDBLK
  5
85
  8
0
  0
BLOCK
  8
0
  2
*D5
 70
     1
 10
0.0
 20
0.0
 30
0.0
  3
*D5
  1

  0
LINE
  5
225
  8
0
  6
BYBLOCK
 62
     9
 10
8000.000072
 20
113450.002181
 30
0.0
 11
8000.000072
 21
113479.700585
 31
0.0
  0
LINE
  5
226
  8
0
  6
BYBLOCK
 62
     9
 10
7925.0
 20
113283.646989
 30
0.0
 11
7925.0
 21
113479.700585
 31
0.0
  0
LINE
  5
227
  8
0
  6
BYBLOCK
 62
     9
 10
7980.000072
 20
113478.700585
 30
0.0
 11
7945.0
 21
113478.700585
 31
0.0
  0
TEXT
  5
228
  8
0
  6
BYBLOCK
 62
    11
 10
7861.482028
 20
113461.200585
 30
0.0
 40
35.0
  1
75
  0
SOLID
  5
229
  8
0
  6
BYBLOCK
 62
     9
 10
7980.000072
 20
113482.033919
 30
0.0
 11
7980.000072
 21
113475.367252
 31
0.0
 12
8000.000072
 22
113478.700585
 32
0.0
 13
8000.000072
 23
113478.700585
 33
0.0
  0
SOLID
  5
22A
  8
0
  6
BYBLOCK
 62
     9
 10
7945.0
 20
113482.033919
 30
0.0
 11
7945.0
 21
113475.367252
 31
0.0
 12
7925.0
 22
113478.700585
 32
0.0
 13
7925.0
 23
113478.700585
 33
0.0
  0
POINT
  5
22B
  8
DEFPOINTS
  6
BYBLOCK
 62
     0
 10
8000.000072
 20
113440.002181
 30
0.0
  0
POINT
  5
22C
  8
DEFPOINTS
  6
BYBLOCK
 62
     0
 10
7925.0
 20
113273.646989
 30
0.0
  0
POINT
  5
22D
  8
DEFPOINTS
  6
BYBLOCK
 62
     0
 10
7925.0
 20
113478.700585
 30
0.0
  0
ENDBLK
  5
22F
  8
0
  0
BLOCK
  8
0
  2
*D6
 70
     1
 10
0.0
 20
0.0
 30
0.0
  3
*D6
  1

  0
LINE
  5
218
  8
0
  6
BYBLOCK
 62
     9
 10
8000.000072
 20
113450.002181
 30
0.0
 11
8000.000072
 21
113479.700585
 31
0.0
  0
LINE
  5
219
  8
0
  6
BYBLOCK
 62
     9
 10
8089.995293
 20
113289.874021
 30
0.0
 11
8089.995293
 21
113479.700585
 31
0.0
  0
LINE
  5
21A
  8
0
  6
BYBLOCK
 62
     9
 10
8020.000072
 20
113478.700585
 30
0.0
 11
8069.995293
 21
113478.700585
 31
0.0
  0
TEXT
  5
21B
  8
0
  6
BYBLOCK
 62
    11
 10
8094.121262
 20
113461.200585
 30
0.0
 40
35.0
  1
90
  0
SOLID
  5
21C
  8
0
  6
BYBLOCK
 62
     9
 10
8020.000072
 20
113482.033919
 30
0.0
 11
8020.000072
 21
113475.367252
 31
0.0
 12
8000.000072
 22
113478.700585
 32
0.0
 13
8000.000072
 23
113478.700585
 33
0.0
  0
SOLID
  5
21D
  8
0
  6
BYBLOCK
 62
     9
 10
8069.995293
 20
113482.033919
 30
0.0
 11
8069.995293
 21
113475.367252
 31
0.0
 12
8089.995293
 22
113478.700585
 32
0.0
 13
8089.995293
 23
113478.700585
 33
0.0
  0
POINT
  5
21E
  8
DEFPOINTS
  6
BYBLOCK
 62
     0
 10
8000.000072
 20
113440.002181
 30
0.0
  0
POINT
  5
21F
  8
DEFPOINTS
  6
BYBLOCK
 62
     0
 10
8089.995293
 20
113279.874021
 30
0.0
  0
POINT
  5
220
  8
DEFPOINTS
  6
BYBLOCK
 62
     0
 10
8089.995293
 20
113478.700585
 30
0.0
  0
ENDBLK
  5
222
  8
0
  0
ENDSEC
  0
SECTION
  2
ENTITIES
  0
DIMENSION
  5
20
  8
TEAM-MAS
  2
*D2
 10
181.831996
 20
1440.002181
 30
0.0
 11
181.831996
 21
720.00109
 31
0.0
 12
-8000.0
 22
-112000.0
 32
0.0
 13
0.0
 23
0.0
 33
0.0
 14
0.000072
 24
1440.002181
 34
0.0
 50
90.0
1001
ACAD
1000
DSTYLE
1002
{
1070
    40
1040
1.0
1002
}
  0
DIMENSION
  5
2F
  8
TEAM-MAS
  2
*D1
 10
136.093304
 20
1280.000794
 30
0.0
 11
136.093304
 21
640.000397
 31
0.0
 12
-8000.0
 22
-112000.0
 32
0.0
 13
0.0
 23
0.0
 33
0.0
 14
110.99999
 24
1280.000794
 34
0.0
 50
90.0
1001
ACAD
1000
DSTYLE
1002
{
1070
    40
1040
1.0
1002
}
  0
POLYLINE
  5
3D
  8
TEAM-DET3
 66
     1
 10
0.0
 20
0.0
 30
0.0
  0
VERTEX
  5
375
  8
TEAM-DET3
 10
-75.0
 20
1273.646989
 30
0.0
  0
VERTEX
  5
376
  8
TEAM-DET3
 10
-75.0
 20
413.030903
 30
0.0
  0
VERTEX
  5
377
  8
TEAM-DET3
 10
-73.003283
 20
413.030903
 30
0.0
  0
SEQEND
  5
378
  8
TEAM-DET3
  0
POLYLINE
  5
43
  8
TEAM-DET3
 66
     1
 10
0.0
 20
0.0
 30
0.0
  0
VERTEX
  5
379
  8
TEAM-DET3
 10
-65.504227
 20
1274.148236
 30
0.0
  0
VERTEX
  5
37A
  8
TEAM-DET3
 10
-65.504227
 20
1237.403962
 30
0.0
  0
SEQEND
  5
37B
  8
TEAM-DET3
  0
POLYLINE
  5
47
  8
TEAM-DET3
 66
     1
 10
0.0
 20
0.0
 30
0.0
  0
VERTEX
  5
37C
  8
TEAM-DET3
 10
-40.006471
 20
273.868589
 30
0.0
  0
VERTEX
  5
37D
  8
TEAM-DET3
 10
-39.999969
 20
1361.741462
 30
0.0
  0
SEQEND
  5
37E
  8
TEAM-DET3
  0
LINE
  5
4B
  8
TEAM-DET2
 10
0.0
 20
1373.000794
 30
0.0
 11
0.0
 21
316.374689
 31
0.0
  0
LINE
  5
4D
  8
TEAM-HIDE
 10
-36.19989
 20
1275.500834
 30
0.0
 11
-36.19989
 21
413.859789
 31
0.0
  0
LINE
  5
50
  8
TEAM-HIDE
 10
-14.399902
 20
416.359789
 30
0.0
 11
-14.399902
 21
1273.000834
 31
0.0
  0
LINE
  5
51
  8
TEAM-HIDE
 10
-61.0
 20
1339.750794
 30
0.0
 11
-61.0
 21
1210.000834
 31
0.0
  0
LINE
  5
52
  8
TEAM-DET3
 10
96.11383
 20
1333.024015
 30
0.0
 11
96.11383
 21
1226.724027
 31
0.0
  0
LINE
  5
53
  8
TEAM-DET3
 10
98.11383
 20
1322.874021
 30
0.0
 11
98.11383
 21
1236.874006
 31
0.0
  0
LINE
  5
54
  8
TEAM-DET3
 10
16.037017
 20
1332.024946
 30
0.0
 11
16.037017
 21
1227.723096
 31
0.0
  0
LINE
  5
55
  8
TEAM-HIDE
 10
-3.88617
 20
1205.674024
 30
0.0
 11
-3.88617
 21
1354.074003
 31
0.0
  0
LINE
  5
56
  8
TEAM-DET3
 10
86.031707
 20
1332.635114
 30
0.0
 11
86.031707
 21
1227.112928
 31
0.0
  0
LINE
  5
57
  8
TEAM-DET3
 10
81.032073
 20
1332.591474
 30
0.0
 11
81.032073
 21
1227.156568
 31
0.0
  0
LINE
  5
58
  8
TEAM-DET3
 10
76.03247
 20
1332.547849
 30
0.0
 11
76.032791
 21
1227.209394
 31
0.0
  0
LINE
  5
59
  8
TEAM-DET3
 10
71.032836
 20
1332.504209
 30
0.0
 11
71.032836
 21
1227.253019
 31
0.0
  0
LINE
  5
5A
  8
TEAM-DET3
 10
66.033233
 20
1332.460584
 30
0.0
 11
66.033554
 21
1227.296659
 31
0.0
  0
LINE
  5
5B
  8
TEAM-DET3
 10
61.03392
 20
1227.340284
 30
0.0
 11
61.110412
 21
1330.217634
 31
0.0
  0
LINE
  5
5C
  8
TEAM-DET3
 10
56.033965
 20
1332.373319
 30
0.0
 11
56.034286
 21
1227.383909
 31
0.0
  0
LINE
  5
5D
  8
TEAM-DET3
 10
51.034683
 20
1227.427549
 30
0.0
 11
51.034362
 21
1332.329694
 31
0.0
  0
LINE
  5
5E
  8
TEAM-DET3
 10
46.034759
 20
1332.286069
 30
0.0
 11
46.03508
 21
1227.471174
 31
0.0
  0
LINE
  5
5F
  8
TEAM-DET3
 10
41.035446
 20
1227.514799
 30
0.0
 11
41.035125
 21
1332.242429
 31
0.0
  0
LINE
  5
60
  8
TEAM-DET3
 10
36.035491
 20
1332.198804
 30
0.0
 11
36.035812
 21
1227.558439
 31
0.0
  0
LINE
  5
61
  8
TEAM-DET3
 10
31.036209
 20
1227.602079
 30
0.0
 11
31.035888
 21
1332.155164
 31
0.0
  0
LINE
  5
62
  8
TEAM-DET3
 10
26.036254
 20
1332.111539
 30
0.0
 11
26.036575
 21
1227.645704
 31
0.0
  0
LINE
  5
63
  8
TEAM-DET3
 10
21.036651
 20
1227.689329
 30
0.0
 11
21.036651
 21
1332.067899
 31
0.0
  0
LINE
  5
64
  8
TEAM-DET3
 10
6.11383
 20
1278.124021
 30
0.0
 11
6.11383
 21
1205.674024
 31
0.0
  0
LINE
  5
65
  8
TEAM-DET2
 10
0.000072
 20
1440.002181
 30
0.0
 11
0.000083
 21
273.87472
 31
0.0
  0
LINE
  5
66
  8
TEAM-DET2
 10
-39.999961
 20
1440.002168
 30
0.0
 11
-39.999959
 21
273.874707
 31
0.0
  0
DIMENSION
  5
67
  8
TEAM-MAS
  2
*D3
 10
43.536972
 20
0.0
 30
0.0
 11
43.536972
 21
122.349965
 31
0.0
 12
-8000.0
 22
-112000.0
 32
0.0
 70
   128
  1
0-200
 13
-0.499893
 23
-19.999984
 33
0.0
 14
0.0
 24
0.0
 34
0.0
 50
90.0
1001
ACAD
1000
DSTYLE
1002
{
1070
    40
1040
1.0
1002
}
  0
ARC
  5
76
  8
TEAM-DET3
 10
-70.77641
 20
397.033054
 30
0.0
 40
12.524305
 50
327.931729
 51
32.068271
  0
DIMENSION
  5
77
  8
TEAM-MAS
  2
*D4
 10
-48.499897
 20
25.100474
 30
0.0
 11
-126.979322
 21
25.100474
 31
0.0
 12
-8000.0
 22
-112000.0
 32
0.0
 70
   128
 13
-0.499897
 23
-11.999984
 33
0.0
 14
-48.499897
 24
-12.0
 34
0.0
1001
ACAD
1000
DSTYLE
1002
{
1070
    40
1040
1.0
1002
}
  0
DIMENSION
  5
86
  8
TEAM-MAS
  2
*D0
 10
90.355002
 20
400.000372
 30
0.0
 11
90.355002
 21
200.000186
 31
0.0
 12
-8000.0
 22
-112000.0
 32
0.0
 13
0.0
 23
0.0
 33
0.0
 14
38.467057
 24
400.000372
 34
0.0
 50
90.0
1001
ACAD
1000
DSTYLE
1002
{
1070
    40
1040
1.0
1002
}
  0
POLYLINE
  5
94
  8
TEAM-DET3
 66
     1
 10
0.0
 20
0.0
 30
0.0
  0
VERTEX
  5
37F
  8
TEAM-DET3
 10
-23.403682
 20
601.454984
 30
0.0
  0
VERTEX
  5
380
  8
TEAM-DET3
 10
-23.403682
 20
576.253841
 30
0.0
  0
VERTEX
  5
381
  8
TEAM-DET3
 10
-23.806746
 20
575.850778
 30
0.0
  0
VERTEX
  5
382
  8
TEAM-DET3
 10
-23.806746
 20
572.352389
 30
0.0
  0
SEQEND
  5
383
  8
TEAM-DET3
  0
POLYLINE
  5
9A
  8
TEAM-DET3
 66
     1
 10
0.0
 20
0.0
 30
0.0
  0
VERTEX
  5
384
  8
TEAM-DET3
 10
-8.207138
 20
572.352389
 30
0.0
  0
VERTEX
  5
385
  8
TEAM-DET3
 10
-23.806746
 20
572.352389
 30
0.0
  0
SEQEND
  5
386
  8
TEAM-DET3
  0
POLYLINE
  5
9E
  8
TEAM-DET3
 66
     1
 10
0.0
 20
0.0
 30
0.0
  0
VERTEX
  5
387
  8
TEAM-DET3
 10
-8.207138
 20
575.850778
 30
0.0
  0
VERTEX
  5
388
  8
TEAM-DET3
 10
-8.207138
 20
572.352389
 30
0.0
  0
SEQEND
  5
389
  8
TEAM-DET3
  0
POLYLINE
  5
A2
  8
TEAM-DET3
 66
     1
 10
0.0
 20
0.0
 30
0.0
  0
VERTEX
  5
38A
  8
TEAM-DET3
 10
-8.207138
 20
575.850778
 30
0.0
  0
VERTEX
  5
38B
  8
TEAM-DET3
 10
-8.602623
 20
576.253841
 30
0.0
  0
SEQEND
  5
38C
  8
TEAM-DET3
  0
POLYLINE
  5
A6
  8
TEAM-DET3
 66
     1
 10
0.0
 20
0.0
 30
0.0
  0
VERTEX
  5
38D
  8
TEAM-DET3
 10
-8.602623
 20
601.454984
 30
0.0
  0
VERTEX
  5
38E
  8
TEAM-DET3
 10
-8.602623
 20
576.253841
 30
0.0
  0
SEQEND
  5
38F
  8
TEAM-DET3
  0
POLYLINE
  5
AA
  8
TEAM-DET3
 66
     1
 10
0.0
 20
0.0
 30
0.0
  0
VERTEX
  5
390
  8
TEAM-DET3
 10
-8.207138
 20
601.851158
 30
0.0
  0
VERTEX
  5
391
  8
TEAM-DET3
 10
-8.602623
 20
601.454984
 30
0.0
  0
SEQEND
  5
392
  8
TEAM-DET3
  0
POLYLINE
  5
AE
  8
TEAM-DET3
 66
     1
 10
0.0
 20
0.0
 30
0.0
  0
VERTEX
  5
393
  8
TEAM-DET3
 10
-8.207138
 20
605.356091
 30
0.0
  0
VERTEX
  5
394
  8
TEAM-DET3
 10
-8.207138
 20
601.851158
 30
0.0
  0
SEQEND
  5
395
  8
TEAM-DET3
  0
POLYLINE
  5
B2
  8
TEAM-DET3
 66
     1
 10
0.0
 20
0.0
 30
0.0
  0
VERTEX
  5
396
  8
TEAM-DET3
 10
-8.207138
 20
605.356091
 30
0.0
  0
VERTEX
  5
397
  8
TEAM-DET3
 10
-23.806746
 20
605.356091
 30
0.0
  0
VERTEX
  5
398
  8
TEAM-DET3
 10
-23.806746
 20
601.851158
 30
0.0
  0
SEQEND
  5
399
  8
TEAM-DET3
  0
POLYLINE
  5
B7
  8
TEAM-DET3
 66
     1
 10
0.0
 20
0.0
 30
0.0
  0
VERTEX
  5
39A
  8
TEAM-DET3
 10
-23.403682
 20
601.454984
 30
0.0
  0
VERTEX
  5
39B
  8
TEAM-DET3
 10
-23.806746
 20
601.851158
 30
0.0
  0
SEQEND
  5
39C
  8
TEAM-DET3
  0
POLYLINE
  5
BB
  8
TEAM-AXE
 66
     1
 10
0.0
 20
0.0
 30
0.0
  0
VERTEX
  5
39D
  8
TEAM-AXE
 10
4.169681
 20
1052.356152
 30
0.0
  0
VERTEX
  5
39E
  8
TEAM-AXE
 10
2.171586
 20
1052.356152
 30
0.0
  0
SEQEND
  5
39F
  8
TEAM-AXE
  0
POLYLINE
  5
C1
  8
TEAM-AXE
 66
     1
 10
0.0
 20
0.0
 30
0.0
  0
VERTEX
  5
3A0
  8
TEAM-AXE
 10
0.168324
 20
1052.356152
 30
0.0
  0
VERTEX
  5
3A1
  8
TEAM-AXE
 10
-3.655271
 20
1052.356152
 30
0.0
  0
SEQEND
  5
3A2
  8
TEAM-AXE
  0
POLYLINE
  5
C5
  8
TEAM-AXE
 66
     1
 10
0.0
 20
0.0
 30
0.0
  0
VERTEX
  5
3A3
  8
TEAM-AXE
 10
6.172599
 20
1052.356152
 30
0.0
  0
VERTEX
  5
3A4
  8
TEAM-AXE
 10
9.996194
 20
1052.356152
 30
0.0
  0
SEQEND
  5
3A5
  8
TEAM-AXE
  0
POLYLINE
  5
C9
  8
TEAM-AXE
 66
     1
 10
0.0
 20
0.0
 30
0.0
  0
VERTEX
  5
3A6
  8
TEAM-AXE
 10
3.991575
 20
1052.356152
 30
0.0
  0
VERTEX
  5
3A7
  8
TEAM-AXE
 10
5.994493
 20
1052.356152
 30
0.0
  0
SEQEND
  5
3A8
  8
TEAM-AXE
  0
POLYLINE
  5
CD
  8
TEAM-AXE
 66
     1
 10
0.0
 20
0.0
 30
0.0
  0
VERTEX
  5
3A9
  8
TEAM-AXE
 10
7.991209
 20
1052.356152
 30
0.0
  0
VERTEX
  5
3AA
  8
TEAM-AXE
 10
10.996619
 20
1052.356152
 30
0.0
  0
SEQEND
  5
3AB
  8
TEAM-AXE
  0
POLYLINE
  5
D1
  8
TEAM-AXE
 66
     1
 10
0.0
 20
0.0
 30
0.0
  0
VERTEX
  5
3AC
  8
TEAM-AXE
 10
1.995547
 20
1052.356152
 30
0.0
  0
VERTEX
  5
3AD
  8
TEAM-AXE
 10
-1.003662
 20
1052.356152
 30
0.0
  0
SEQEND
  5
3AE
  8
TEAM-AXE
  0
POLYLINE
  5
D5
  8
TEAM-DET3
 66
     1
 10
0.0
 20
0.0
 30
0.0
  0
VERTEX
  5
3AF
  8
TEAM-DET3
 10
6.496083
 20
1030.102889
 30
0.0
  0
VERTEX
  5
3B0
  8
TEAM-DET3
 10
0.993055
 20
1030.102889
 30
0.0
  0
SEQEND
  5
3B1
  8
TEAM-DET3
  0
POLYLINE
  5
D9
  8
TEAM-DET3
 66
     1
 10
0.0
 20
0.0
 30
0.0
  0
VERTEX
  5
3B2
  8
TEAM-DET3
 10
6.496083
 20
1074.607349
 30
0.0
  0
VERTEX
  5
3B3
  8
TEAM-DET3
 10
0.993055
 20
1074.607349
 30
0.0
  0
SEQEND
  5
3B4
  8
TEAM-DET3
  0
POLYLINE
  5
DD
  8
TEAM-DET3
 66
     1
 10
0.0
 20
0.0
 30
0.0
  0
VERTEX
  5
3B5
  8
TEAM-DET3
 10
9.996194
 20
1061.344134
 30
0.0
  0
VERTEX
  5
3B6
  8
TEAM-DET3
 10
9.996194
 20
1033.603
 30
0.0
  0
SEQEND
  5
3B7
  8
TEAM-DET3
  0
POLYLINE
  5
E1
  8
TEAM-DET3
 66
     1
 10
0.0
 20
0.0
 30
0.0
  0
VERTEX
  5
3B8
  8
TEAM-DET3
 10
9.996194
 20
1071.100692
 30
0.0
  0
VERTEX
  5
3B9
  8
TEAM-DET3
 10
9.996194
 20
1061.344134
 30
0.0
  0
SEQEND
  5
3BA
  8
TEAM-DET3
  0
POLYLINE
  5
E5
  8
TEAM-DET3
 66
     1
 10
0.0
 20
0.0
 30
0.0
  0
VERTEX
  5
3BB
  8
TEAM-DET3
 10
-40.006471
 20
1110.788403
 30
0.0
  0
VERTEX
  5
3BC
  8
TEAM-DET3
 10
-65.504227
 20
1110.788403
 30
0.0
  0
SEQEND
  5
3BD
  8
TEAM-DET3
  0
POLYLINE
  5
E9
  8
TEAM-DET3
 66
     1
 10
0.0
 20
0.0
 30
0.0
  0
VERTEX
  5
3BE
  8
TEAM-DET3
 10
-68.708069
 20
404.430828
 30
0.0
  0
VERTEX
  5
3BF
  8
TEAM-DET3
 10
-68.708069
 20
389.636659
 30
0.0
  0
SEQEND
  5
3C0
  8
TEAM-DET3
  0
POLYLINE
  5
ED
  8
TEAM-DET3
 66
     1
 10
0.0
 20
0.0
 30
0.0
  0
VERTEX
  5
3C1
  8
TEAM-DET3
 10
-74.803636
 20
355.035859
 30
0.0
  0
VERTEX
  5
3C2
  8
TEAM-DET3
 10
-73.003283
 20
355.035859
 30
0.0
  0
SEQEND
  5
3C3
  8
TEAM-DET3
  0
POLYLINE
  5
F1
  8
TEAM-DET3
 66
     1
 10
0.0
 20
0.0
 30
0.0
  0
VERTEX
  5
3C4
  8
TEAM-DET3
 10
-65.504227
 20
874.856091
 30
0.0
  0
VERTEX
  5
3C5
  8
TEAM-DET3
 10
-40.006471
 20
874.856091
 30
0.0
  0
SEQEND
  5
3C6
  8
TEAM-DET3
  0
POLYLINE
  5
F5
  8
TEAM-DET3
 66
     1
 10
0.0
 20
0.0
 30
0.0
  0
VERTEX
  5
3C7
  8
TEAM-DET3
 10
-65.504227
 20
1237.403962
 30
0.0
  0
VERTEX
  5
3C8
  8
TEAM-DET3
 10
-65.504227
 20
1083.768569
 30
0.0
  0
SEQEND
  5
3C9
  8
TEAM-DET3
  0
POLYLINE
  5
F9
  8
TEAM-DET3
 66
     1
 10
0.0
 20
0.0
 30
0.0
  0
VERTEX
  5
3CA
  8
TEAM-DET3
 10
-65.504227
 20
1083.768569
 30
0.0
  0
VERTEX
  5
3CB
  8
TEAM-DET3
 10
-65.504227
 20
874.856091
 30
0.0
  0
SEQEND
  5
3CC
  8
TEAM-DET3
  0
POLYLINE
  5
FD
  8
TEAM-DET3
 66
     1
 10
0.0
 20
0.0
 30
0.0
  0
VERTEX
  5
3CD
  8
TEAM-DET3
 10
-73.003283
 20
404.804954
 30
0.0
  0
VERTEX
  5
3CE
  8
TEAM-DET3
 10
-73.003283
 20
389.262533
 30
0.0
  0
SEQEND
  5
3CF
  8
TEAM-DET3
  0
POLYLINE
  5
101
  8
TEAM-DET3
 66
     1
 10
0.0
 20
0.0
 30
0.0
  0
VERTEX
  5
3D0
  8
TEAM-DET3
 10
-65.750888
 20
363.036506
 30
0.0
  0
VERTEX
  5
3D1
  8
TEAM-DET3
 10
-65.750888
 20
365.033223
 30
0.0
  0
SEQEND
  5
3D2
  8
TEAM-DET3
  0
POLYLINE
  5
105
  8
TEAM-DET3
 66
     1
 10
0.0
 20
0.0
 30
0.0
  0
VERTEX
  5
3D3
  8
TEAM-DET3
 10
-65.750888
 20
365.739446
 30
0.0
  0
VERTEX
  5
3D4
  8
TEAM-DET3
 10
-65.750888
 20
365.033223
 30
0.0
  0
SEQEND
  5
3D5
  8
TEAM-DET3
  0
POLYLINE
  5
109
  8
TEAM-DET3
 66
     1
 10
0.0
 20
0.0
 30
0.0
  0
VERTEX
  5
3D6
  8
TEAM-DET3
 10
-65.750888
 20
366.861824
 30
0.0
  0
VERTEX
  5
3D7
  8
TEAM-DET3
 10
-65.750888
 20
365.739446
 30
0.0
  0
SEQEND
  5
3D8
  8
TEAM-DET3
  0
POLYLINE
  5
10D
  8
TEAM-DET3
 66
     1
 10
0.0
 20
0.0
 30
0.0
  0
VERTEX
  5
3D9
  8
TEAM-DET3
 10
-65.750888
 20
368.279093
 30
0.0
  0
VERTEX
  5
3DA
  8
TEAM-DET3
 10
-65.750888
 20
366.861824
 30
0.0
  0
SEQEND
  5
3DB
  8
TEAM-DET3
  0
POLYLINE
  5
111
  8
TEAM-DET3
 66
     1
 10
0.0
 20
0.0
 30
0.0
  0
VERTEX
  5
3DC
  8
TEAM-DET3
 10
-65.750888
 20
377.790024
 30
0.0
  0
VERTEX
  5
3DD
  8
TEAM-DET3
 10
-65.750888
 20
368.279093
 30
0.0
  0
SEQEND
  5
3DE
  8
TEAM-DET3
  0
POLYLINE
  5
115
  8
TEAM-DET3
 66
     1
 10
0.0
 20
0.0
 30
0.0
  0
VERTEX
  5
3DF
  8
TEAM-DET3
 10
-65.750888
 20
379.207293
 30
0.0
  0
VERTEX
  5
3E0
  8
TEAM-DET3
 10
-65.750888
 20
377.790024
 30
0.0
  0
SEQEND
  5
3E1
  8
TEAM-DET3
  0
POLYLINE
  5
119
  8
TEAM-DET3
 66
     1
 10
0.0
 20
0.0
 30
0.0
  0
VERTEX
  5
3E2
  8
TEAM-DET3
 10
-65.750888
 20
380.33036
 30
0.0
  0
VERTEX
  5
3E3
  8
TEAM-DET3
 10
-65.750888
 20
379.207293
 30
0.0
  0
SEQEND
  5
3E4
  8
TEAM-DET3
  0
POLYLINE
  5
11D
  8
TEAM-DET3
 66
     1
 10
0.0
 20
0.0
 30
0.0
  0
VERTEX
  5
3E5
  8
TEAM-DET3
 10
-65.750888
 20
381.034517
 30
0.0
  0
VERTEX
  5
3E6
  8
TEAM-DET3
 10
-65.750888
 20
380.33036
 30
0.0
  0
SEQEND
  5
3E7
  8
TEAM-DET3
  0
POLYLINE
  5
121
  8
TEAM-DET3
 66
     1
 10
0.0
 20
0.0
 30
0.0
  0
VERTEX
  5
3E8
  8
TEAM-DET3
 10
-65.750888
 20
383.032611
 30
0.0
  0
VERTEX
  5
3E9
  8
TEAM-DET3
 10
-65.750888
 20
381.034517
 30
0.0
  0
SEQEND
  5
3EA
  8
TEAM-DET3
  0
POLYLINE
  5
125
  8
TEAM-DET3
 66
     1
 10
0.0
 20
0.0
 30
0.0
  0
VERTEX
  5
3EB
  8
TEAM-DET3
 10
-68.708069
 20
383.032611
 30
0.0
  0
VERTEX
  5
3EC
  8
TEAM-DET3
 10
-65.750888
 20
383.032611
 30
0.0
  0
SEQEND
  5
3ED
  8
TEAM-DET3
  0
POLYLINE
  5
129
  8
TEAM-DET3
 66
     1
 10
0.0
 20
0.0
 30
0.0
  0
VERTEX
  5
3EE
  8
TEAM-DET3
 10
-68.708069
 20
363.036506
 30
0.0
  0
VERTEX
  5
3EF
  8
TEAM-DET3
 10
-68.708069
 20
383.032611
 30
0.0
  0
SEQEND
  5
3F0
  8
TEAM-DET3
  0
POLYLINE
  5
12D
  8
TEAM-DET3
 66
     1
 10
0.0
 20
0.0
 30
0.0
  0
VERTEX
  5
3F1
  8
TEAM-DET3
 10
-65.750888
 20
363.036506
 30
0.0
  0
VERTEX
  5
3F2
  8
TEAM-DET3
 10
-68.708069
 20
363.036506
 30
0.0
  0
SEQEND
  5
3F3
  8
TEAM-DET3
  0
POLYLINE
  5
131
  8
TEAM-DET3
 66
     1
 10
0.0
 20
0.0
 30
0.0
  0
VERTEX
  5
3F4
  8
TEAM-DET3
 10
-52.254103
 20
363.036506
 30
0.0
  0
VERTEX
  5
3F5
  8
TEAM-DET3
 10
-52.254103
 20
365.033223
 30
0.0
  0
SEQEND
  5
3F6
  8
TEAM-DET3
  0
POLYLINE
  5
135
  8
TEAM-DET3
 66
     1
 10
0.0
 20
0.0
 30
0.0
  0
VERTEX
  5
3F7
  8
TEAM-DET3
 10
-52.254103
 20
365.739446
 30
0.0
  0
VERTEX
  5
3F8
  8
TEAM-DET3
 10
-52.254103
 20
365.033223
 30
0.0
  0
SEQEND
  5
3F9
  8
TEAM-DET3
  0
POLYLINE
  5
139
  8
TEAM-DET3
 66
     1
 10
0.0
 20
0.0
 30
0.0
  0
VERTEX
  5
3FA
  8
TEAM-DET3
 10
-52.254103
 20
366.861824
 30
0.0
  0
VERTEX
  5
3FB
  8
TEAM-DET3
 10
-52.254103
 20
365.739446
 30
0.0
  0
SEQEND
  5
3FC
  8
TEAM-DET3
  0
POLYLINE
  5
13D
  8
TEAM-DET3
 66
     1
 10
0.0
 20
0.0
 30
0.0
  0
VERTEX
  5
3FD
  8
TEAM-DET3
 10
-52.254103
 20
368.279093
 30
0.0
  0
VERTEX
  5
3FE
  8
TEAM-DET3
 10
-52.254103
 20
366.861824
 30
0.0
  0
SEQEND
  5
3FF
  8
TEAM-DET3
  0
POLYLINE
  5
141
  8
TEAM-DET3
 66
     1
 10
0.0
 20
0.0
 30
0.0
  0
VERTEX
  5
400
  8
TEAM-DET3
 10
-52.254103
 20
377.790024
 30
0.0
  0
VERTEX
  5
401
  8
TEAM-DET3
 10
-52.254103
 20
368.279093
 30
0.0
  0
SEQEND
  5
402
  8
TEAM-DET3
  0
POLYLINE
  5
145
  8
TEAM-DET3
 66
     1
 10
0.0
 20
0.0
 30
0.0
  0
VERTEX
  5
403
  8
TEAM-DET3
 10
-52.254103
 20
379.207293
 30
0.0
  0
VERTEX
  5
404
  8
TEAM-DET3
 10
-52.254103
 20
377.790024
 30
0.0
  0
SEQEND
  5
405
  8
TEAM-DET3
  0
POLYLINE
  5
149
  8
TEAM-DET3
 66
     1
 10
0.0
 20
0.0
 30
0.0
  0
VERTEX
  5
406
  8
TEAM-DET3
 10
-52.254103
 20
380.33036
 30
0.0
  0
VERTEX
  5
407
  8
TEAM-DET3
 10
-52.254103
 20
379.207293
 30
0.0
  0
SEQEND
  5
408
  8
TEAM-DET3
  0
POLYLINE
  5
14D
  8
TEAM-DET3
 66
     1
 10
0.0
 20
0.0
 30
0.0
  0
VERTEX
  5
409
  8
TEAM-DET3
 10
-52.254103
 20
381.034517
 30
0.0
  0
VERTEX
  5
40A
  8
TEAM-DET3
 10
-52.254103
 20
380.33036
 30
0.0
  0
SEQEND
  5
40B
  8
TEAM-DET3
  0
POLYLINE
  5
151
  8
TEAM-DET3
 66
     1
 10
0.0
 20
0.0
 30
0.0
  0
VERTEX
  5
40C
  8
TEAM-DET3
 10
-52.254103
 20
383.032611
 30
0.0
  0
VERTEX
  5
40D
  8
TEAM-DET3
 10
-52.254103
 20
381.034517
 30
0.0
  0
SEQEND
  5
40E
  8
TEAM-DET3
  0
POLYLINE
  5
155
  8
TEAM-DET3
 66
     1
 10
0.0
 20
0.0
 30
0.0
  0
VERTEX
  5
40F
  8
TEAM-DET3
 10
-49.304502
 20
363.036506
 30
0.0
  0
VERTEX
  5
410
  8
TEAM-DET3
 10
-52.254103
 20
363.036506
 30
0.0
  0
SEQEND
  5
411
  8
TEAM-DET3
  0
POLYLINE
  5
159
  8
TEAM-DET3
 66
     1
 10
0.0
 20
0.0
 30
0.0
  0
VERTEX
  5
412
  8
TEAM-DET3
 10
-49.304502
 20
363.036506
 30
0.0
  0
VERTEX
  5
413
  8
TEAM-DET3
 10
-49.304502
 20
383.032611
 30
0.0
  0
SEQEND
  5
414
  8
TEAM-DET3
  0
POLYLINE
  5
15D
  8
TEAM-DET3
 66
     1
 10
0.0
 20
0.0
 30
0.0
  0
VERTEX
  5
415
  8
TEAM-DET3
 10
-52.254103
 20
383.032611
 30
0.0
  0
VERTEX
  5
416
  8
TEAM-DET3
 10
-49.304502
 20
383.032611
 30
0.0
  0
SEQEND
  5
417
  8
TEAM-DET3
  0
POLYLINE
  5
161
  8
TEAM-DET3
 66
     1
 10
0.0
 20
0.0
 30
0.0
  0
VERTEX
  5
418
  8
TEAM-DET3
 10
-60.163113
 20
403.682576
 30
0.0
  0
VERTEX
  5
419
  8
TEAM-DET3
 10
-73.003283
 20
404.804954
 30
0.0
  0
SEQEND
  5
41A
  8
TEAM-DET3
  0
POLYLINE
  5
165
  8
TEAM-DET3
 66
     1
 10
0.0
 20
0.0
 30
0.0
  0
VERTEX
  5
41B
  8
TEAM-DET3
 10
-73.003283
 20
413.030903
 30
0.0
  0
VERTEX
  5
41C
  8
TEAM-DET3
 10
-73.003283
 20
404.804954
 30
0.0
  0
SEQEND
  5
41D
  8
TEAM-DET3
  0
POLYLINE
  5
169
  8
TEAM-DET3
 66
     1
 10
0.0
 20
0.0
 30
0.0
  0
VERTEX
  5
41E
  8
TEAM-DET3
 10
-73.003283
 20
389.262533
 30
0.0
  0
VERTEX
  5
41F
  8
TEAM-DET3
 10
-73.003283
 20
355.035859
 30
0.0
  0
SEQEND
  5
420
  8
TEAM-DET3
  0
POLYLINE
  5
16D
  8
TEAM-DET3
 66
     1
 10
0.0
 20
0.0
 30
0.0
  0
VERTEX
  5
421
  8
TEAM-DET3
 10
-73.003283
 20
389.262533
 30
0.0
  0
VERTEX
  5
422
  8
TEAM-DET3
 10
-60.163113
 20
390.383533
 30
0.0
  0
SEQEND
  5
423
  8
TEAM-DET3
  0
POLYLINE
  5
171
  8
TEAM-DET3
 66
     1
 10
0.0
 20
0.0
 30
0.0
  0
VERTEX
  5
424
  8
TEAM-DET3
 10
-23.403682
 20
741.454984
 30
0.0
  0
VERTEX
  5
425
  8
TEAM-DET3
 10
-23.403682
 20
716.253841
 30
0.0
  0
VERTEX
  5
426
  8
TEAM-DET3
 10
-23.806746
 20
715.850778
 30
0.0
  0
VERTEX
  5
427
  8
TEAM-DET3
 10
-23.806746
 20
712.352389
 30
0.0
  0
SEQEND
  5
428
  8
TEAM-DET3
  0
POLYLINE
  5
177
  8
TEAM-DET3
 66
     1
 10
0.0
 20
0.0
 30
0.0
  0
VERTEX
  5
429
  8
TEAM-DET3
 10
-8.207138
 20
712.352389
 30
0.0
  0
VERTEX
  5
42A
  8
TEAM-DET3
 10
-23.806746
 20
712.352389
 30
0.0
  0
SEQEND
  5
42B
  8
TEAM-DET3
  0
POLYLINE
  5
17B
  8
TEAM-DET3
 66
     1
 10
0.0
 20
0.0
 30
0.0
  0
VERTEX
  5
42C
  8
TEAM-DET3
 10
-8.207138
 20
715.850778
 30
0.0
  0
VERTEX
  5
42D
  8
TEAM-DET3
 10
-8.207138
 20
712.352389
 30
0.0
  0
SEQEND
  5
42E
  8
TEAM-DET3
  0
POLYLINE
  5
17F
  8
TEAM-DET3
 66
     1
 10
0.0
 20
0.0
 30
0.0
  0
VERTEX
  5
42F
  8
TEAM-DET3
 10
-8.207138
 20
715.850778
 30
0.0
  0
VERTEX
  5
430
  8
TEAM-DET3
 10
-8.602623
 20
716.253841
 30
0.0
  0
SEQEND
  5
431
  8
TEAM-DET3
  0
POLYLINE
  5
183
  8
TEAM-DET3
 66
     1
 10
0.0
 20
0.0
 30
0.0
  0
VERTEX
  5
432
  8
TEAM-DET3
 10
-8.602623
 20
741.454984
 30
0.0
  0
VERTEX
  5
433
  8
TEAM-DET3
 10
-8.602623
 20
716.253841
 30
0.0
  0
SEQEND
  5
434
  8
TEAM-DET3
  0
POLYLINE
  5
187
  8
TEAM-DET3
 66
     1
 10
0.0
 20
0.0
 30
0.0
  0
VERTEX
  5
435
  8
TEAM-DET3
 10
-8.207138
 20
741.851158
 30
0.0
  0
VERTEX
  5
436
  8
TEAM-DET3
 10
-8.602623
 20
741.454984
 30
0.0
  0
SEQEND
  5
437
  8
TEAM-DET3
  0
POLYLINE
  5
18B
  8
TEAM-DET3
 66
     1
 10
0.0
 20
0.0
 30
0.0
  0
VERTEX
  5
438
  8
TEAM-DET3
 10
-8.207138
 20
745.356091
 30
0.0
  0
VERTEX
  5
439
  8
TEAM-DET3
 10
-8.207138
 20
741.851158
 30
0.0
  0
SEQEND
  5
43A
  8
TEAM-DET3
  0
POLYLINE
  5
18F
  8
TEAM-DET3
 66
     1
 10
0.0
 20
0.0
 30
0.0
  0
VERTEX
  5
43B
  8
TEAM-DET3
 10
-8.207138
 20
745.356091
 30
0.0
  0
VERTEX
  5
43C
  8
TEAM-DET3
 10
-23.806746
 20
745.356091
 30
0.0
  0
VERTEX
  5
43D
  8
TEAM-DET3
 10
-23.806746
 20
741.851158
 30
0.0
  0
SEQEND
  5
43E
  8
TEAM-DET3
  0
POLYLINE
  5
194
  8
TEAM-DET3
 66
     1
 10
0.0
 20
0.0
 30
0.0
  0
VERTEX
  5
43F
  8
TEAM-DET3
 10
-23.403682
 20
741.454984
 30
0.0
  0
VERTEX
  5
440
  8
TEAM-DET3
 10
-23.806746
 20
741.851158
 30
0.0
  0
SEQEND
  5
441
  8
TEAM-DET3
  0
LINE
  5
198
  8
TEAM-DET3
 10
-66.5
 20
323.109689
 30
0.0
 11
-39.999959
 21
323.109689
 31
0.0
  0
LINE
  5
199
  8
TEAM-DET3
 10
-66.5
 20
349.609689
 30
0.0
 11
-39.999959
 21
349.609689
 31
0.0
  0
LINE
  5
19A
  8
TEAM-DET2
 10
-75.0
 20
316.374719
 30
0.0
 11
0.0
 21
316.374719
 31
0.0
  0
ARC
  5
19B
  8
TEAM-AXE
 10
-18.0
 20
370.000372
 30
0.0
 40
30.0
 50
90.0
 51
180.0
  0
LINE
  5
19C
  8
TEAM-AXE
 10
-48.0
 20
370.000372
 30
0.0
 11
-48.0
 21
317.548392
 31
0.0
  0
LINE
  5
19D
  8
TEAM-AXE
 10
38.467057
 20
400.000372
 30
0.0
 11
-20.0
 21
400.000372
 31
0.0
  0
LINE
  5
19E
  8
TEAM-HIDE
 10
-12.399902
 20
416.359789
 30
0.0
 11
-14.399902
 21
416.359789
 31
0.0
  0
LINE
  5
19F
  8
TEAM-HIDE
 10
-12.399902
 20
416.359789
 30
0.0
 11
-11.19989
 21
416.359789
 31
0.0
  0
LINE
  5
1A0
  8
TEAM-HIDE
 10
-11.19989
 20
413.859789
 30
0.0
 11
-11.19989
 21
416.359789
 31
0.0
  0
LINE
  5
1A1
  8
TEAM-HIDE
 10
-11.19989
 20
413.859789
 30
0.0
 11
-36.19989
 21
413.859789
 31
0.0
  0
LINE
  5
1A2
  8
TEAM-HIDE
 10
-36.19989
 20
1210.000834
 30
0.0
 11
-61.0
 21
1210.000834
 31
0.0
  0
LINE
  5
1A3
  8
TEAM-HIDE
 10
-14.399902
 20
1210.000834
 30
0.0
 11
-36.19989
 21
1210.000834
 31
0.0
  0
LINE
  5
1A4
  8
TEAM-HIDE
 10
-22.75
 20
404.359719
 30
0.0
 11
-9.25
 21
404.359719
 31
0.0
  0
LINE
  5
1A5
  8
TEAM-HIDE
 10
-9.25
 20
406.359719
 30
0.0
 11
-9.25
 21
404.359719
 31
0.0
  0
LINE
  5
1A6
  8
TEAM-HIDE
 10
-9.25
 20
406.359719
 30
0.0
 11
-6.299988
 21
406.359719
 31
0.0
  0
LINE
  5
1A7
  8
TEAM-HIDE
 10
-6.299988
 20
406.359719
 30
0.0
 11
-6.299988
 21
386.359719
 31
0.0
  0
LINE
  5
1A8
  8
TEAM-HIDE
 10
-6.299988
 20
386.359719
 30
0.0
 11
-9.25
 21
386.359719
 31
0.0
  0
LINE
  5
1A9
  8
TEAM-HIDE
 10
-9.25
 20
388.359719
 30
0.0
 11
-9.25
 21
386.359719
 31
0.0
  0
LINE
  5
1AA
  8
TEAM-HIDE
 10
-22.75
 20
388.359719
 30
0.0
 11
-9.25
 21
388.359719
 31
0.0
  0
LINE
  5
1AB
  8
TEAM-HIDE
 10
-22.75
 20
388.359719
 30
0.0
 11
-22.75
 21
386.359719
 31
0.0
  0
LINE
  5
1AC
  8
TEAM-HIDE
 10
-22.75
 20
386.359719
 30
0.0
 11
-25.700012
 21
386.359719
 31
0.0
  0
LINE
  5
1AD
  8
TEAM-HIDE
 10
-25.700012
 20
406.359719
 30
0.0
 11
-25.700012
 21
386.359719
 31
0.0
  0
LINE
  5
1AE
  8
TEAM-HIDE
 10
-25.700012
 20
406.359719
 30
0.0
 11
-22.75
 21
406.359719
 31
0.0
  0
LINE
  5
1AF
  8
TEAM-HIDE
 10
-22.75
 20
406.359719
 30
0.0
 11
-22.75
 21
404.359719
 31
0.0
  0
LINE
  5
1B0
  8
TEAM-DET3
 10
-62.25
 20
406.359719
 30
0.0
 11
-62.25
 21
404.359719
 31
0.0
  0
LINE
  5
1B1
  8
TEAM-DET3
 10
-65.200012
 20
406.359719
 30
0.0
 11
-62.25
 21
406.359719
 31
0.0
  0
LINE
  5
1B2
  8
TEAM-DET3
 10
-65.200012
 20
406.359719
 30
0.0
 11
-65.200012
 21
386.359719
 31
0.0
  0
LINE
  5
1B3
  8
TEAM-DET3
 10
-62.25
 20
386.359719
 30
0.0
 11
-65.200012
 21
386.359719
 31
0.0
  0
LINE
  5
1B4
  8
TEAM-DET3
 10
-62.25
 20
388.359719
 30
0.0
 11
-62.25
 21
386.359719
 31
0.0
  0
LINE
  5
1B5
  8
TEAM-DET3
 10
-62.25
 20
388.359719
 30
0.0
 11
-48.75
 21
388.359719
 31
0.0
  0
LINE
  5
1B6
  8
TEAM-DET3
 10
-48.75
 20
388.359719
 30
0.0
 11
-48.75
 21
386.359719
 31
0.0
  0
LINE
  5
1B7
  8
TEAM-DET3
 10
-45.799988
 20
386.359719
 30
0.0
 11
-48.75
 21
386.359719
 31
0.0
  0
LINE
  5
1B8
  8
TEAM-DET3
 10
-45.799988
 20
406.359719
 30
0.0
 11
-45.799988
 21
386.359719
 31
0.0
  0
LINE
  5
1B9
  8
TEAM-DET3
 10
-48.75
 20
406.359719
 30
0.0
 11
-45.799988
 21
406.359719
 31
0.0
  0
LINE
  5
1BA
  8
TEAM-DET3
 10
-48.75
 20
406.359719
 30
0.0
 11
-48.75
 21
404.359719
 31
0.0
  0
LINE
  5
1BB
  8
TEAM-DET3
 10
-62.25
 20
404.359719
 30
0.0
 11
-48.75
 21
404.359719
 31
0.0
  0
ARC
  5
1BC
  8
TEAM-HIDE
 10
-18.599974
 20
371.758615
 30
0.0
 40
5.5
 50
180.003311
 51
257.753308
  0
LINE
  5
1BD
  8
TEAM-HIDE
 10
-18.814452
 20
366.177101
 30
0.0
 11
-19.7666
 21
366.383797
 31
0.0
  0
LINE
  5
1BE
  8
TEAM-HIDE
 10
-24.099974
 20
371.758309
 30
0.0
 11
-24.100342
 21
378.555703
 31
0.0
  0
LINE
  5
1BF
  8
TEAM-HIDE
 10
-21.676086
 20
380.510293
 30
0.0
 11
-15.971984
 21
379.272163
 31
0.0
  0
ARC
  5
1C0
  8
TEAM-HIDE
 10
-22.100342
 20
378.555825
 30
0.0
 40
2.0
 50
77.753309
 51
180.003311
  0
ARC
  5
1C1
  8
TEAM-HIDE
 10
-13.400024
 20
373.085823
 30
0.0
 40
5.5
 50
0.00331
 51
77.753309
  0
LINE
  5
1C2
  8
TEAM-HIDE
 10
-13.185546
 20
378.667337
 30
0.0
 11
-12.233398
 21
378.460641
 31
0.0
  0
LINE
  5
1C3
  8
TEAM-HIDE
 10
-7.900024
 20
373.086129
 30
0.0
 11
-7.899658
 21
366.288735
 31
0.0
  0
LINE
  5
1C4
  8
TEAM-HIDE
 10
-10.323912
 20
364.334145
 30
0.0
 11
-16.028014
 21
365.572273
 31
0.0
  0
ARC
  5
1C5
  8
TEAM-HIDE
 10
-9.899658
 20
366.288613
 30
0.0
 40
2.0
 50
257.753308
 51
0.003316
  0
ARC
  5
1C6
  8
TEAM-HIDE
 10
-16.0
 20
372.422219
 30
0.0
 40
6.85
 50
65.740803
 51
89.765816
  0
ARC
  5
1C7
  8
TEAM-HIDE
 10
-16.0
 20
372.422219
 30
0.0
 40
6.85
 50
245.740808
 51
269.765807
  0
LINE
  5
1C8
  8
TEAM-HIDE
 10
-39.999959
 20
323.109689
 30
0.0
 11
-8.5
 21
323.109689
 31
0.0
  0
ARC
  5
1C9
  8
TEAM-DET3
 10
-66.5
 20
328.109689
 30
0.0
 40
5.0
 50
180.000005
 51
270.000001
  0
LINE
  5
1CA
  8
TEAM-DET3
 10
-71.5
 20
328.109689
 30
0.0
 11
-71.5
 21
344.609689
 31
0.0
  0
ARC
  5
1CB
  8
TEAM-DET3
 10
-66.5
 20
344.609689
 30
0.0
 40
5.0
 50
90.000003
 51
180.000005
  0
LINE
  5
1CC
  8
TEAM-HIDE
 10
-39.999959
 20
349.609689
 30
0.0
 11
-8.5
 21
349.609689
 31
0.0
  0
ARC
  5
1CD
  8
TEAM-HIDE
 10
-8.5
 20
344.609689
 30
0.0
 40
5.0
 50
0.0
 51
90.000003
  0
LINE
  5
1CE
  8
TEAM-HIDE
 10
-3.5
 20
328.109689
 30
0.0
 11
-3.5
 21
344.609689
 31
0.0
  0
ARC
  5
1CF
  8
TEAM-HIDE
 10
-8.5
 20
328.109689
 30
0.0
 40
5.0
 50
270.000001
 51
0.00001
  0
LINE
  5
1D0
  8
TEAM-DET3
 10
87.213836
 20
1226.724027
 30
0.0
 11
87.213836
 21
1226.624021
 31
0.0
  0
LINE
  5
1D1
  8
TEAM-DET3
 10
87.213836
 20
1226.724027
 30
0.0
 11
98.11383
 21
1226.724027
 31
0.0
  0
LINE
  5
1D2
  8
TEAM-DET3
 10
98.213836
 20
1237.624021
 30
0.0
 11
98.11383
 21
1237.624021
 31
0.0
  0
LINE
  5
1D3
  8
TEAM-DET3
 10
98.213836
 20
1236.597745
 30
0.0
 11
98.213836
 21
1237.624021
 31
0.0
  0
LINE
  5
1D4
  8
TEAM-DET3
 10
98.213836
 20
1226.624021
 30
0.0
 11
98.213836
 21
1226.724027
 31
0.0
  0
LINE
  5
1D5
  8
TEAM-DET3
 10
87.213836
 20
1226.624021
 30
0.0
 11
98.213836
 21
1226.624021
 31
0.0
  0
ARC
  5
1D6
  8
TEAM-DET3
 10
101.11383
 20
1227.219328
 30
0.0
 40
2.0
 50
0.0
 51
0.488031
  0
LINE
  5
1D7
  8
TEAM-DET3
 10
100.61383
 20
1229.967405
 30
0.0
 11
98.11383
 21
1236.874021
 31
0.0
  0
LINE
  5
1D8
  8
TEAM-DET3
 10
102.11383
 20
1229.101377
 30
0.0
 11
100.61383
 21
1229.967405
 31
0.0
  0
ARC
  5
1D9
  8
TEAM-DET3
 10
101.11383
 20
1227.369321
 30
0.0
 40
2.0
 50
0.0
 51
60.000002
  0
LINE
  5
1DA
  8
TEAM-DET3
 10
103.11383
 20
1226.724027
 30
0.0
 11
103.11383
 21
1227.369321
 31
0.0
  0
LINE
  5
1DB
  8
TEAM-DET3
 10
96.11383
 20
1226.724027
 30
0.0
 11
103.11383
 21
1226.724027
 31
0.0
  0
ARC
  5
1DC
  8
TEAM-DET3
 10
6.213836
 20
1205.874021
 30
0.0
 40
0.2
 50
269.999997
 51
0.0
  0
LINE
  5
1DD
  8
TEAM-DET3
 10
6.11383
 20
1205.674024
 30
0.0
 11
6.213836
 21
1205.674024
 31
0.0
  0
LINE
  5
1DE
  8
TEAM-DET3
 10
6.413818
 20
1205.874021
 30
0.0
 11
6.413818
 21
1227.723096
 31
0.0
  0
LINE
  5
1DF
  8
TEAM-DET3
 10
19.982818
 20
1227.689329
 30
0.0
 11
16.037017
 21
1229.967437
 31
0.0
  0
LINE
  5
1E0
  8
TEAM-DET3
 10
21.036651
 20
1229.923801
 30
0.0
 11
24.982421
 21
1227.645704
 31
0.0
  0
LINE
  5
1E1
  8
TEAM-DET3
 10
26.036569
 20
1229.835813
 30
0.0
 11
29.982055
 21
1227.602079
 31
0.0
  0
LINE
  5
1E2
  8
TEAM-DET3
 10
31.036202
 20
1229.836354
 30
0.0
 11
34.981658
 21
1227.558439
 31
0.0
  0
LINE
  5
1E3
  8
TEAM-DET3
 10
36.027424
 20
1229.797568
 30
0.0
 11
39.981292
 21
1227.514799
 31
0.0
  0
LINE
  5
1E4
  8
TEAM-DET3
 10
41.035439
 20
1229.74909
 30
0.0
 11
44.980895
 21
1227.471174
 31
0.0
  0
LINE
  5
1E5
  8
TEAM-DET3
 10
46.035073
 20
1229.705446
 30
0.0
 11
49.980529
 21
1227.427549
 31
0.0
  0
LINE
  5
1E6
  8
TEAM-DET3
 10
51.034677
 20
1229.66184
 30
0.0
 11
54.980132
 21
1227.383909
 31
0.0
  0
LINE
  5
1E7
  8
TEAM-DET3
 10
56.034279
 20
1229.617609
 30
0.0
 11
59.979766
 21
1227.340284
 31
0.0
  0
LINE
  5
1E8
  8
TEAM-DET3
 10
61.035581
 20
1229.573612
 30
0.0
 11
64.979369
 21
1227.296659
 31
0.0
  0
LINE
  5
1E9
  8
TEAM-DET3
 10
66.033547
 20
1229.530932
 30
0.0
 11
69.979003
 21
1227.253019
 31
0.0
  0
LINE
  5
1EA
  8
TEAM-DET3
 10
71.032836
 20
1229.487491
 30
0.0
 11
74.978606
 21
1227.209394
 31
0.0
  0
LINE
  5
1EB
  8
TEAM-DET3
 10
76.032784
 20
1229.443651
 30
0.0
 11
79.97824
 21
1227.165754
 31
0.0
  0
LINE
  5
1EC
  8
TEAM-DET3
 10
81.032073
 20
1229.400226
 30
0.0
 11
84.977844
 21
1227.122129
 31
0.0
  0
LINE
  5
1ED
  8
TEAM-DET3
 10
86.031707
 20
1229.356584
 30
0.0
 11
89.977477
 21
1227.078489
 31
0.0
  0
LINE
  5
1EE
  8
TEAM-DET3
 10
6.11383
 20
1205.674024
 30
0.0
 11
3.056915
 21
1205.674024
 31
0.0
  0
LINE
  5
1EF
  8
TEAM-DET3
 10
3.021392
 20
1205.674024
 30
0.0
 11
0.0
 21
1205.674024
 31
0.0
  0
LINE
  5
1F0
  8
TEAM-DET3
 10
6.11383
 20
1218.628812
 30
0.0
 11
3.056915
 21
1218.628812
 31
0.0
  0
LINE
  5
1F1
  8
TEAM-DET3
 10
3.056915
 20
1218.628812
 30
0.0
 11
3.056915
 21
1205.674024
 31
0.0
  0
LINE
  5
1F2
  8
TEAM-DET3
 10
86.031707
 20
1227.112928
 30
0.0
 11
84.977844
 21
1227.112928
 31
0.0
  0
LINE
  5
1F3
  8
TEAM-DET3
 10
89.977477
 20
1227.078489
 30
0.0
 11
96.11383
 21
1227.078489
 31
0.0
  0
LINE
  5
1F4
  8
TEAM-DET3
 10
79.97824
 20
1227.165754
 30
0.0
 11
81.032394
 21
1227.165754
 31
0.0
  0
LINE
  5
1F5
  8
TEAM-DET3
 10
19.982818
 20
1227.689329
 30
0.0
 11
21.036651
 21
1227.689329
 31
0.0
  0
LINE
  5
1F6
  8
TEAM-DET3
 10
24.982421
 20
1227.645704
 30
0.0
 11
26.036575
 21
1227.645704
 31
0.0
  0
LINE
  5
1F7
  8
TEAM-DET3
 10
29.982055
 20
1227.602079
 30
0.0
 11
31.036209
 21
1227.602079
 31
0.0
  0
LINE
  5
1F8
  8
TEAM-DET3
 10
34.981658
 20
1227.558439
 30
0.0
 11
36.035812
 21
1227.558439
 31
0.0
  0
LINE
  5
1F9
  8
TEAM-DET3
 10
39.981292
 20
1227.514799
 30
0.0
 11
41.035446
 21
1227.514799
 31
0.0
  0
LINE
  5
1FA
  8
TEAM-DET3
 10
44.980895
 20
1227.471174
 30
0.0
 11
46.03508
 21
1227.471174
 31
0.0
  0
LINE
  5
1FB
  8
TEAM-DET3
 10
49.980529
 20
1227.427549
 30
0.0
 11
51.034683
 21
1227.427549
 31
0.0
  0
LINE
  5
1FC
  8
TEAM-DET3
 10
54.980132
 20
1227.383909
 30
0.0
 11
56.034286
 21
1227.383909
 31
0.0
  0
LINE
  5
1FD
  8
TEAM-DET3
 10
59.979766
 20
1227.340284
 30
0.0
 11
61.03392
 21
1227.340284
 31
0.0
  0
LINE
  5
1FE
  8
TEAM-DET3
 10
64.979369
 20
1227.296659
 30
0.0
 11
66.033554
 21
1227.296659
 31
0.0
  0
LINE
  5
1FF
  8
TEAM-DET3
 10
69.979003
 20
1227.253019
 30
0.0
 11
71.032836
 21
1227.253019
 31
0.0
  0
LINE
  5
200
  8
TEAM-DET3
 10
74.978606
 20
1227.209394
 30
0.0
 11
76.032791
 21
1227.209394
 31
0.0
  0
LINE
  5
201
  8
TEAM-DET3
 10
16.037017
 20
1227.723096
 30
0.0
 11
6.413818
 21
1227.723096
 31
0.0
  0
LINE
  5
202
  8
TEAM-HIDE
 10
-14.399902
 20
1210.000834
 30
0.0
 11
0.0
 21
1210.000834
 31
0.0
  0
LINE
  5
203
  8
TEAM-HIDE
 10
0.0
 20
1205.674024
 30
0.0
 11
-3.88617
 21
1205.674024
 31
0.0
  0
LINE
  5
204
  8
TEAM-DET2
 10
-75.000307
 20
315.038826
 30
0.0
 11
-0.000307
 21
315.038826
 31
0.0
  0
LINE
  5
205
  8
TEAM-DET3
 10
-0.499897
 20
-11.999984
 30
0.0
 11
-0.499893
 21
-19.999984
 31
0.0
  0
LINE
  5
206
  8
TEAM-DET3
 10
-2.499917
 20
273.87472
 30
0.0
 11
-2.499897
 21
-11.999984
 31
0.0
  0
LINE
  5
207
  8
TEAM-HIDE
 10
-12.499897
 20
-11.999988
 30
0.0
 11
-12.499893
 21
-19.999988
 31
0.0
  0
LINE
  5
208
  8
TEAM-AXE
 10
-24.499899
 20
-5.906964
 30
0.0
 11
-24.499891
 21
-25.334526
 31
0.0
  0
LINE
  5
209
  8
TEAM-HIDE
 10
-36.499897
 20
-11.999996
 30
0.0
 11
-36.499893
 21
-19.999996
 31
0.0
  0
LINE
  5
20A
  8
TEAM-DET3
 10
-48.499897
 20
-12.0
 30
0.0
 11
-48.499893
 21
-20.0
 31
0.0
  0
LINE
  5
20B
  8
TEAM-DET3
 10
-37.499917
 20
273.874708
 30
0.0
 11
-37.499897
 21
-11.999996
 31
0.0
  0
LINE
  5
20C
  8
TEAM-DET3
 10
-48.499897
 20
-12.0
 30
0.0
 11
-0.499897
 21
-11.999984
 31
0.0
  0
LINE
  5
20D
  8
TEAM-DET3
 10
-48.499893
 20
-20.0
 30
0.0
 11
-0.499893
 21
-19.999984
 31
0.0
  0
CIRCLE
  5
20E
  8
TEAM-HIDE
 10
-19.999919
 20
284.862834
 30
0.0
 40
10.0
  0
LINE
  5
20F
  8
TEAM-DET2
 10
-39.999959
 20
273.874707
 30
0.0
 11
0.000083
 21
273.87472
 31
0.0
  0
TEXT
  5
210
  8
TEAM-TXT
 10
-301.211311
 20
177.929913
 30
0.0
 40
30.0
  1
team 871108
 41
0.8
 51
15.0
  7
TEAM
  0
CIRCLE
  5
213
  8
TEAM-INSP
 10
0.0
 20
0.0
 30
0.0
 40
10.0
  0
ARC
  5
215
  8
TEAM-DET3
 10
-74.158698
 20
1315.651419
 30
0.0
 40
15.495215
 50
334.584574
 51
25.415426
  0
DIMENSION
  5
216
  8
TEAM-MAS
  2
*D6
 10
89.995293
 20
1478.700585
 30
0.0
 11
120.371262
 21
1478.700585
 31
0.0
 12
-8000.0
 22
-112000.0
 32
0.0
 70
   128
 13
0.000072
 23
1440.002181
 33
0.0
 14
89.995293
 24
1279.874021
 34
0.0
1001
ACAD
1000
DSTYLE
1002
{
1070
    40
1040
1.0
1002
}
  0
DIMENSION
  5
223
  8
TEAM-MAS
  2
*D5
 10
-75.0
 20
1478.700585
 30
0.0
 11
-109.351306
 21
1478.700585
 31
0.0
 12
-8000.0
 22
-112000.0
 32
0.0
 70
   128
 13
0.000072
 23
1440.002181
 33
0.0
 14
-75.0
 24
1273.646989
 34
0.0
1001
ACAD
1000
DSTYLE
1002
{
1070
    40
1040
1.0
1002
}
  0
LINE
  5
230
  8
TEAM-HIDE
 10
-39.999969
 20
1373.000794
 30
0.0
 11
-75.0
 21
1373.000794
 31
0.0
  0
POLYLINE
  5
231
  8
TEAM-DET3
 66
     1
 10
0.0
 20
0.0
 30
0.0
  0
VERTEX
  5
442
  8
TEAM-DET3
 10
-52.176246
 20
1301.650287
 30
0.0
  0
VERTEX
  5
443
  8
TEAM-DET3
 10
-52.254103
 20
1301.621694
 30
0.0
  0
SEQEND
  5
444
  8
TEAM-DET3
  0
POLYLINE
  5
235
  8
TEAM-DET3
 66
     1
 10
0.0
 20
0.0
 30
0.0
  0
VERTEX
  5
445
  8
TEAM-DET3
 10
-75.0
 20
1273.646989
 30
0.0
  0
VERTEX
  5
446
  8
TEAM-DET3
 10
-73.003283
 20
1273.646989
 30
0.0
  0
SEQEND
  5
447
  8
TEAM-DET3
  0
POLYLINE
  5
239
  8
TEAM-DET3
 66
     1
 10
0.0
 20
0.0
 30
0.0
  0
VERTEX
  5
448
  8
TEAM-DET3
 10
-74.803636
 20
1331.648579
 30
0.0
  0
VERTEX
  5
449
  8
TEAM-DET3
 10
-73.003283
 20
1331.648579
 30
0.0
  0
SEQEND
  5
44A
  8
TEAM-DET3
  0
POLYLINE
  5
23D
  8
TEAM-DET3
 66
     1
 10
0.0
 20
0.0
 30
0.0
  0
VERTEX
  5
44B
  8
TEAM-DET3
 10
-40.006471
 20
1274.148236
 30
0.0
  0
VERTEX
  5
44C
  8
TEAM-DET3
 10
-65.504227
 20
1274.148236
 30
0.0
  0
SEQEND
  5
44D
  8
TEAM-DET3
  0
POLYLINE
  5
241
  8
TEAM-DET3
 66
     1
 10
0.0
 20
0.0
 30
0.0
  0
VERTEX
  5
44E
  8
TEAM-DET3
 10
-73.003283
 20
1323.42263
 30
0.0
  0
VERTEX
  5
44F
  8
TEAM-DET3
 10
-73.003283
 20
1307.873319
 30
0.0
  0
SEQEND
  5
450
  8
TEAM-DET3
  0
POLYLINE
  5
245
  8
TEAM-DET3
 66
     1
 10
0.0
 20
0.0
 30
0.0
  0
VERTEX
  5
451
  8
TEAM-DET3
 10
-49.304502
 20
1281.647636
 30
0.0
  0
VERTEX
  5
452
  8
TEAM-DET3
 10
-49.304502
 20
1301.650287
 30
0.0
  0
SEQEND
  5
453
  8
TEAM-DET3
  0
POLYLINE
  5
249
  8
TEAM-DET3
 66
     1
 10
0.0
 20
0.0
 30
0.0
  0
VERTEX
  5
454
  8
TEAM-DET3
 10
-52.254103
 20
1301.650287
 30
0.0
  0
VERTEX
  5
455
  8
TEAM-DET3
 10
-49.304502
 20
1301.650287
 30
0.0
  0
SEQEND
  5
456
  8
TEAM-DET3
  0
POLYLINE
  5
24D
  8
TEAM-DET3
 66
     1
 10
0.0
 20
0.0
 30
0.0
  0
VERTEX
  5
457
  8
TEAM-DET3
 10
-52.254103
 20
1281.647636
 30
0.0
  0
VERTEX
  5
458
  8
TEAM-DET3
 10
-52.254103
 20
1283.652621
 30
0.0
  0
SEQEND
  5
459
  8
TEAM-DET3
  0
POLYLINE
  5
251
  8
TEAM-DET3
 66
     1
 10
0.0
 20
0.0
 30
0.0
  0
VERTEX
  5
45A
  8
TEAM-DET3
 10
-52.254103
 20
1284.357122
 30
0.0
  0
VERTEX
  5
45B
  8
TEAM-DET3
 10
-52.254103
 20
1283.652621
 30
0.0
  0
SEQEND
  5
45C
  8
TEAM-DET3
  0
POLYLINE
  5
255
  8
TEAM-DET3
 66
     1
 10
0.0
 20
0.0
 30
0.0
  0
VERTEX
  5
45D
  8
TEAM-DET3
 10
-52.254103
 20
1285.4795
 30
0.0
  0
VERTEX
  5
45E
  8
TEAM-DET3
 10
-52.254103
 20
1284.357122
 30
0.0
  0
SEQEND
  5
45F
  8
TEAM-DET3
  0
POLYLINE
  5
259
  8
TEAM-DET3
 66
     1
 10
0.0
 20
0.0
 30
0.0
  0
VERTEX
  5
460
  8
TEAM-DET3
 10
-52.254103
 20
1286.890224
 30
0.0
  0
VERTEX
  5
461
  8
TEAM-DET3
 10
-52.254103
 20
1285.4795
 30
0.0
  0
SEQEND
  5
462
  8
TEAM-DET3
  0
POLYLINE
  5
25D
  8
TEAM-DET3
 66
     1
 10
0.0
 20
0.0
 30
0.0
  0
VERTEX
  5
463
  8
TEAM-DET3
 10
-52.254103
 20
1296.408044
 30
0.0
  0
VERTEX
  5
464
  8
TEAM-DET3
 10
-52.254103
 20
1286.890224
 30
0.0
  0
SEQEND
  5
465
  8
TEAM-DET3
  0
POLYLINE
  5
261
  8
TEAM-DET3
 66
     1
 10
0.0
 20
0.0
 30
0.0
  0
VERTEX
  5
466
  8
TEAM-DET3
 10
-52.254103
 20
1297.818768
 30
0.0
  0
VERTEX
  5
467
  8
TEAM-DET3
 10
-52.254103
 20
1296.408044
 30
0.0
  0
SEQEND
  5
468
  8
TEAM-DET3
  0
POLYLINE
  5
265
  8
TEAM-DET3
 66
     1
 10
0.0
 20
0.0
 30
0.0
  0
VERTEX
  5
469
  8
TEAM-DET3
 10
-52.254103
 20
1298.941146
 30
0.0
  0
VERTEX
  5
46A
  8
TEAM-DET3
 10
-52.254103
 20
1297.818768
 30
0.0
  0
SEQEND
  5
46B
  8
TEAM-DET3
  0
POLYLINE
  5
269
  8
TEAM-DET3
 66
     1
 10
0.0
 20
0.0
 30
0.0
  0
VERTEX
  5
46C
  8
TEAM-DET3
 10
-52.254103
 20
1299.645647
 30
0.0
  0
VERTEX
  5
46D
  8
TEAM-DET3
 10
-52.254103
 20
1298.941146
 30
0.0
  0
SEQEND
  5
46E
  8
TEAM-DET3
  0
POLYLINE
  5
26D
  8
TEAM-DET3
 66
     1
 10
0.0
 20
0.0
 30
0.0
  0
VERTEX
  5
46F
  8
TEAM-DET3
 10
-52.254103
 20
1301.650287
 30
0.0
  0
VERTEX
  5
470
  8
TEAM-DET3
 10
-52.254103
 20
1299.645647
 30
0.0
  0
SEQEND
  5
471
  8
TEAM-DET3
  0
POLYLINE
  5
271
  8
TEAM-DET3
 66
     1
 10
0.0
 20
0.0
 30
0.0
  0
VERTEX
  5
472
  8
TEAM-DET3
 10
-65.750888
 20
1281.647636
 30
0.0
  0
VERTEX
  5
473
  8
TEAM-DET3
 10
-65.750888
 20
1283.652621
 30
0.0
  0
SEQEND
  5
474
  8
TEAM-DET3
  0
POLYLINE
  5
275
  8
TEAM-DET3
 66
     1
 10
0.0
 20
0.0
 30
0.0
  0
VERTEX
  5
475
  8
TEAM-DET3
 10
-65.750888
 20
1284.357122
 30
0.0
  0
VERTEX
  5
476
  8
TEAM-DET3
 10
-65.750888
 20
1283.652621
 30
0.0
  0
SEQEND
  5
477
  8
TEAM-DET3
  0
POLYLINE
  5
279
  8
TEAM-DET3
 66
     1
 10
0.0
 20
0.0
 30
0.0
  0
VERTEX
  5
478
  8
TEAM-DET3
 10
-65.750888
 20
1285.4795
 30
0.0
  0
VERTEX
  5
479
  8
TEAM-DET3
 10
-65.750888
 20
1284.357122
 30
0.0
  0
SEQEND
  5
47A
  8
TEAM-DET3
  0
POLYLINE
  5
27D
  8
TEAM-DET3
 66
     1
 10
0.0
 20
0.0
 30
0.0
  0
VERTEX
  5
47B
  8
TEAM-DET3
 10
-65.750888
 20
1286.890224
 30
0.0
  0
VERTEX
  5
47C
  8
TEAM-DET3
 10
-65.750888
 20
1285.4795
 30
0.0
  0
SEQEND
  5
47D
  8
TEAM-DET3
  0
POLYLINE
  5
281
  8
TEAM-DET3
 66
     1
 10
0.0
 20
0.0
 30
0.0
  0
VERTEX
  5
47E
  8
TEAM-DET3
 10
-65.750888
 20
1296.408044
 30
0.0
  0
VERTEX
  5
47F
  8
TEAM-DET3
 10
-65.750888
 20
1286.890224
 30
0.0
  0
SEQEND
  5
480
  8
TEAM-DET3
  0
POLYLINE
  5
285
  8
TEAM-DET3
 66
     1
 10
0.0
 20
0.0
 30
0.0
  0
VERTEX
  5
481
  8
TEAM-DET3
 10
-65.750888
 20
1297.818768
 30
0.0
  0
VERTEX
  5
482
  8
TEAM-DET3
 10
-65.750888
 20
1296.408044
 30
0.0
  0
SEQEND
  5
483
  8
TEAM-DET3
  0
POLYLINE
  5
289
  8
TEAM-DET3
 66
     1
 10
0.0
 20
0.0
 30
0.0
  0
VERTEX
  5
484
  8
TEAM-DET3
 10
-65.750888
 20
1298.941146
 30
0.0
  0
VERTEX
  5
485
  8
TEAM-DET3
 10
-65.750888
 20
1297.818768
 30
0.0
  0
SEQEND
  5
486
  8
TEAM-DET3
  0
POLYLINE
  5
28D
  8
TEAM-DET3
 66
     1
 10
0.0
 20
0.0
 30
0.0
  0
VERTEX
  5
487
  8
TEAM-DET3
 10
-65.750888
 20
1299.645647
 30
0.0
  0
VERTEX
  5
488
  8
TEAM-DET3
 10
-65.750888
 20
1298.941146
 30
0.0
  0
SEQEND
  5
489
  8
TEAM-DET3
  0
POLYLINE
  5
291
  8
TEAM-DET3
 66
     1
 10
0.0
 20
0.0
 30
0.0
  0
VERTEX
  5
48A
  8
TEAM-DET3
 10
-65.750888
 20
1301.650287
 30
0.0
  0
VERTEX
  5
48B
  8
TEAM-DET3
 10
-65.750888
 20
1299.645647
 30
0.0
  0
SEQEND
  5
48C
  8
TEAM-DET3
  0
POLYLINE
  5
295
  8
TEAM-DET3
 66
     1
 10
0.0
 20
0.0
 30
0.0
  0
VERTEX
  5
48D
  8
TEAM-DET3
 10
-68.708069
 20
1301.650287
 30
0.0
  0
VERTEX
  5
48E
  8
TEAM-DET3
 10
-65.750888
 20
1301.650287
 30
0.0
  0
SEQEND
  5
48F
  8
TEAM-DET3
  0
POLYLINE
  5
299
  8
TEAM-DET3
 66
     1
 10
0.0
 20
0.0
 30
0.0
  0
VERTEX
  5
490
  8
TEAM-DET3
 10
-68.708069
 20
1281.647636
 30
0.0
  0
VERTEX
  5
491
  8
TEAM-DET3
 10
-68.708069
 20
1301.650287
 30
0.0
  0
SEQEND
  5
492
  8
TEAM-DET3
  0
POLYLINE
  5
29D
  8
TEAM-DET3
 66
     1
 10
0.0
 20
0.0
 30
0.0
  0
VERTEX
  5
493
  8
TEAM-DET3
 10
-65.750888
 20
1281.647636
 30
0.0
  0
VERTEX
  5
494
  8
TEAM-DET3
 10
-68.708069
 20
1281.647636
 30
0.0
  0
SEQEND
  5
495
  8
TEAM-DET3
  0
POLYLINE
  5
2A1
  8
TEAM-DET3
 66
     1
 10
0.0
 20
0.0
 30
0.0
  0
VERTEX
  5
496
  8
TEAM-DET3
 10
-49.304502
 20
1281.647636
 30
0.0
  0
VERTEX
  5
497
  8
TEAM-DET3
 10
-52.254103
 20
1281.647636
 30
0.0
  0
SEQEND
  5
498
  8
TEAM-DET3
  0
POLYLINE
  5
2A5
  8
TEAM-DET3
 66
     1
 10
0.0
 20
0.0
 30
0.0
  0
VERTEX
  5
499
  8
TEAM-DET3
 10
-60.163113
 20
1322.30163
 30
0.0
  0
VERTEX
  5
49A
  8
TEAM-DET3
 10
-73.003283
 20
1323.42263
 30
0.0
  0
SEQEND
  5
49B
  8
TEAM-DET3
  0
POLYLINE
  5
2A9
  8
TEAM-DET3
 66
     1
 10
0.0
 20
0.0
 30
0.0
  0
VERTEX
  5
49C
  8
TEAM-DET3
 10
-73.003283
 20
1331.648579
 30
0.0
  0
VERTEX
  5
49D
  8
TEAM-DET3
 10
-73.003283
 20
1323.42263
 30
0.0
  0
SEQEND
  5
49E
  8
TEAM-DET3
  0
POLYLINE
  5
2AD
  8
TEAM-DET3
 66
     1
 10
0.0
 20
0.0
 30
0.0
  0
VERTEX
  5
49F
  8
TEAM-DET3
 10
-73.003283
 20
1307.873319
 30
0.0
  0
VERTEX
  5
4A0
  8
TEAM-DET3
 10
-73.003283
 20
1273.646989
 30
0.0
  0
SEQEND
  5
4A1
  8
TEAM-DET3
  0
POLYLINE
  5
2B1
  8
TEAM-DET3
 66
     1
 10
0.0
 20
0.0
 30
0.0
  0
VERTEX
  5
4A2
  8
TEAM-DET3
 10
-73.003283
 20
1307.873319
 30
0.0
  0
VERTEX
  5
4A3
  8
TEAM-DET3
 10
-60.163113
 20
1309.001209
 30
0.0
  0
SEQEND
  5
4A4
  8
TEAM-DET3
  0
LINE
  5
2B5
  8
TEAM-DET3
 10
-50.59743
 20
1355.500834
 30
0.0
 11
-39.999969
 21
1355.500834
 31
0.0
  0
LINE
  5
2B6
  8
TEAM-DET3
 10
-51.99743
 20
1353.500834
 30
0.0
 11
-39.999969
 21
1353.500834
 31
0.0
  0
LINE
  5
2B7
  8
TEAM-DET3
 10
-61.0
 20
1350.000834
 30
0.0
 11
-39.999969
 21
1350.000834
 31
0.0
  0
LINE
  5
2B8
  8
TEAM-HIDE
 10
-66.5
 20
1366.250794
 30
0.0
 11
-39.999969
 21
1366.250794
 31
0.0
  0
LINE
  5
2B9
  8
TEAM-DET2
 10
0.0
 20
1373.000794
 30
0.0
 11
-39.999969
 21
1373.000794
 31
0.0
  0
LINE
  5
2BA
  8
TEAM-DET3
 10
-61.0
 20
1350.000834
 30
0.0
 11
-61.0
 21
1339.750794
 31
0.0
  0
LINE
  5
2BB
  8
TEAM-HIDE
 10
-33.29743
 20
1355.500834
 30
0.0
 11
-39.999969
 21
1355.500834
 31
0.0
  0
LINE
  5
2BC
  8
TEAM-DET3
 10
-51.99743
 20
1350.000834
 30
0.0
 11
-51.99743
 21
1353.500834
 31
0.0
  0
LINE
  5
2BD
  8
TEAM-HIDE
 10
-31.89743
 20
1350.000834
 30
0.0
 11
-31.89743
 21
1353.500834
 31
0.0
  0
LINE
  5
2BE
  8
TEAM-DET3
 10
-50.59743
 20
1353.500834
 30
0.0
 11
-50.59743
 21
1355.500834
 31
0.0
  0
LINE
  5
2BF
  8
TEAM-HIDE
 10
-33.29743
 20
1353.500834
 30
0.0
 11
-33.29743
 21
1355.500834
 31
0.0
  0
LINE
  5
2C0
  8
TEAM-HIDE
 10
-31.89743
 20
1353.500834
 30
0.0
 11
-39.999969
 21
1353.500834
 31
0.0
  0
LINE
  5
2C1
  8
TEAM-AXE
 10
-44.96667
 20
1280.000794
 30
0.0
 11
110.99999
 21
1280.000794
 31
0.0
  0
LINE
  5
2C2
  8
TEAM-HIDE
 10
-39.999969
 20
1350.000834
 30
0.0
 11
-3.5
 21
1350.000834
 31
0.0
  0
LINE
  5
2C3
  8
TEAM-HIDE
 10
-36.19989
 20
1275.500834
 30
0.0
 11
-11.19989
 21
1275.500834
 31
0.0
  0
LINE
  5
2C4
  8
TEAM-HIDE
 10
-11.19989
 20
1273.000834
 30
0.0
 11
-11.19989
 21
1275.500834
 31
0.0
  0
LINE
  5
2C5
  8
TEAM-HIDE
 10
-12.399902
 20
1273.000834
 30
0.0
 11
-11.19989
 21
1273.000834
 31
0.0
  0
LINE
  5
2C6
  8
TEAM-HIDE
 10
-12.399902
 20
1273.000834
 30
0.0
 11
-14.399902
 21
1273.000834
 31
0.0
  0
LINE
  5
2C7
  8
TEAM-HIDE
 10
-9.549864
 20
1307.000834
 30
0.0
 11
-9.549864
 21
1305.000834
 31
0.0
  0
LINE
  5
2C8
  8
TEAM-HIDE
 10
-6.499878
 20
1305.000834
 30
0.0
 11
-9.549864
 21
1305.000834
 31
0.0
  0
LINE
  5
2C9
  8
TEAM-HIDE
 10
-6.499878
 20
1325.000834
 30
0.0
 11
-6.499878
 21
1305.000834
 31
0.0
  0
LINE
  5
2CA
  8
TEAM-HIDE
 10
-9.549864
 20
1325.000834
 30
0.0
 11
-6.499878
 21
1325.000834
 31
0.0
  0
LINE
  5
2CB
  8
TEAM-HIDE
 10
-9.549864
 20
1325.000834
 30
0.0
 11
-9.549864
 21
1323.000834
 31
0.0
  0
LINE
  5
2CC
  8
TEAM-HIDE
 10
-21.849914
 20
1323.000834
 30
0.0
 11
-9.549864
 21
1323.000834
 31
0.0
  0
LINE
  5
2CD
  8
TEAM-HIDE
 10
-21.849914
 20
1325.000834
 30
0.0
 11
-21.849914
 21
1323.000834
 31
0.0
  0
LINE
  5
2CE
  8
TEAM-HIDE
 10
-24.899902
 20
1325.000834
 30
0.0
 11
-21.849914
 21
1325.000834
 31
0.0
  0
LINE
  5
2CF
  8
TEAM-HIDE
 10
-24.899902
 20
1325.000834
 30
0.0
 11
-24.899902
 21
1305.000834
 31
0.0
  0
LINE
  5
2D0
  8
TEAM-HIDE
 10
-21.849914
 20
1305.000834
 30
0.0
 11
-24.899902
 21
1305.000834
 31
0.0
  0
LINE
  5
2D1
  8
TEAM-HIDE
 10
-21.849914
 20
1307.000834
 30
0.0
 11
-21.849914
 21
1305.000834
 31
0.0
  0
LINE
  5
2D2
  8
TEAM-HIDE
 10
-21.849914
 20
1307.000834
 30
0.0
 11
-9.549864
 21
1307.000834
 31
0.0
  0
ARC
  5
2D3
  8
TEAM-HIDE
 10
-18.599974
 20
1290.33722
 30
0.0
 40
5.5
 50
180.003311
 51
257.753308
  0
LINE
  5
2D4
  8
TEAM-HIDE
 10
-18.814452
 20
1284.755678
 30
0.0
 11
-19.7666
 21
1284.962342
 31
0.0
  0
LINE
  5
2D5
  8
TEAM-HIDE
 10
-24.099974
 20
1290.336854
 30
0.0
 11
-24.100342
 21
1297.134218
 31
0.0
  0
LINE
  5
2D6
  8
TEAM-HIDE
 10
-21.676086
 20
1299.088808
 30
0.0
 11
-15.971984
 21
1297.850648
 31
0.0
  0
ARC
  5
2D7
  8
TEAM-HIDE
 10
-22.100342
 20
1297.13434
 30
0.0
 40
2.0
 50
77.753309
 51
180.003311
  0
ARC
  5
2D8
  8
TEAM-HIDE
 10
-13.400024
 20
1291.664368
 30
0.0
 40
5.5
 50
0.00331
 51
77.753309
  0
LINE
  5
2D9
  8
TEAM-HIDE
 10
-13.185546
 20
1297.245912
 30
0.0
 11
-12.233398
 21
1297.039246
 31
0.0
  0
LINE
  5
2DA
  8
TEAM-HIDE
 10
-7.900024
 20
1291.664734
 30
0.0
 11
-7.899658
 21
1284.86725
 31
0.0
  0
LINE
  5
2DB
  8
TEAM-HIDE
 10
-10.323912
 20
1282.91266
 30
0.0
 11
-16.028014
 21
1284.150818
 31
0.0
  0
ARC
  5
2DC
  8
TEAM-HIDE
 10
-9.899658
 20
1284.867128
 30
0.0
 40
2.0
 50
257.753308
 51
0.003316
  0
ARC
  5
2DD
  8
TEAM-HIDE
 10
-16.0
 20
1291.000794
 30
0.0
 40
6.85
 50
65.740803
 51
89.765816
  0
ARC
  5
2DE
  8
TEAM-HIDE
 10
-16.0
 20
1291.000794
 30
0.0
 40
6.85
 50
245.740808
 51
269.765807
  0
LINE
  5
2DF
  8
TEAM-HIDE
 10
-66.5
 20
1339.750794
 30
0.0
 11
-8.5
 21
1339.750794
 31
0.0
  0
ARC
  5
2E0
  8
TEAM-HIDE
 10
-8.5
 20
1344.750794
 30
0.0
 40
5.0
 50
270.000001
 51
0.00001
  0
LINE
  5
2E1
  8
TEAM-HIDE
 10
-3.5
 20
1344.750794
 30
0.0
 11
-3.5
 21
1361.250794
 31
0.0
  0
ARC
  5
2E2
  8
TEAM-HIDE
 10
-8.5
 20
1361.250794
 30
0.0
 40
5.0
 50
0.0
 51
90.000003
  0
LINE
  5
2E3
  8
TEAM-HIDE
 10
-39.999969
 20
1366.250794
 30
0.0
 11
-8.5
 21
1366.250794
 31
0.0
  0
ARC
  5
2E4
  8
TEAM-HIDE
 10
-66.5
 20
1361.250794
 30
0.0
 40
5.0
 50
90.000003
 51
180.000005
  0
LINE
  5
2E5
  8
TEAM-DET3
 10
-71.5
 20
1344.750794
 30
0.0
 11
-71.5
 21
1361.250794
 31
0.0
  0
ARC
  5
2E6
  8
TEAM-DET3
 10
-66.5
 20
1344.750794
 30
0.0
 40
5.0
 50
180.000005
 51
270.000001
  0
LINE
  5
2E7
  8
TEAM-DET3
 10
6.413818
 20
1331.940305
 30
0.0
 11
6.413818
 21
1353.874021
 31
0.0
  0
LINE
  5
2E8
  8
TEAM-DET3
 10
100.61383
 20
1329.780637
 30
0.0
 11
98.11383
 21
1322.874021
 31
0.0
  0
LINE
  5
2E9
  8
TEAM-DET3
 10
102.11383
 20
1330.646665
 30
0.0
 11
101.239654
 21
1330.141965
 31
0.0
  0
LINE
  5
2EA
  8
TEAM-DET3
 10
101.239654
 20
1330.141965
 30
0.0
 11
100.61383
 21
1329.780637
 31
0.0
  0
ARC
  5
2EB
  8
TEAM-DET3
 10
101.11383
 20
1332.378721
 30
0.0
 40
2.0
 50
299.999998
 51
0.0
  0
LINE
  5
2EC
  8
TEAM-DET3
 10
103.11383
 20
1332.528806
 30
0.0
 11
103.11383
 21
1332.378721
 31
0.0
  0
LINE
  5
2ED
  8
TEAM-DET3
 10
96.11383
 20
1333.024015
 30
0.0
 11
103.11383
 21
1333.024015
 31
0.0
  0
LINE
  5
2EE
  8
TEAM-DET3
 10
103.11383
 20
1333.024015
 30
0.0
 11
103.11383
 21
1332.528715
 31
0.0
  0
LINE
  5
2EF
  8
TEAM-DET3
 10
96.11383
 20
1285.874021
 30
0.0
 11
98.11383
 21
1285.874021
 31
0.0
  0
LINE
  5
2F0
  8
TEAM-DET3
 10
96.11383
 20
1273.874021
 30
0.0
 11
98.11383
 21
1273.874021
 31
0.0
  0
LINE
  5
2F1
  8
TEAM-DET3
 10
98.11383
 20
1318.024015
 30
0.0
 11
98.413848
 21
1318.024015
 31
0.0
  0
LINE
  5
2F2
  8
TEAM-DET3
 10
98.413848
 20
1318.024015
 30
0.0
 11
98.413848
 21
1322.024015
 31
0.0
  0
LINE
  5
2F3
  8
TEAM-DET3
 10
98.11383
 20
1322.024015
 30
0.0
 11
98.413848
 21
1322.024015
 31
0.0
  0
LINE
  5
2F4
  8
TEAM-DET3
 10
98.11383
 20
1318.024015
 30
0.0
 11
98.413848
 21
1318.024015
 31
0.0
  0
ARC
  5
2F5
  8
TEAM-DET3
 10
6.213836
 20
1353.874021
 30
0.0
 40
0.2
 50
0.0
 51
90.000003
  0
LINE
  5
2F6
  8
TEAM-DET3
 10
6.11383
 20
1354.074003
 30
0.0
 11
6.213836
 21
1354.074003
 31
0.0
  0
LINE
  5
2F7
  8
TEAM-DET3
 10
6.413818
 20
1331.940305
 30
0.0
 11
6.413818
 21
1353.874021
 31
0.0
  0
LINE
  5
2F8
  8
TEAM-DET3
 10
92.217645
 20
1286.374021
 30
0.0
 11
91.210015
 21
1286.374021
 31
0.0
  0
ARC
  5
2F9
  8
TEAM-DET3
 10
91.208917
 20
1285.379041
 30
0.0
 40
0.994931
 50
89.936892
 51
180.113649
  0
LINE
  5
2FA
  8
TEAM-DET3
 10
90.21383
 20
1285.377073
 30
0.0
 11
90.21383
 21
1274.370969
 31
0.0
  0
ARC
  5
2FB
  8
TEAM-DET3
 10
91.208917
 20
1274.369001
 30
0.0
 40
0.994931
 50
179.886351
 51
270.063108
  0
LINE
  5
2FC
  8
TEAM-DET3
 10
91.210015
 20
1273.374021
 30
0.0
 11
92.217645
 21
1273.374021
 31
0.0
  0
ARC
  5
2FD
  8
TEAM-DET3
 10
92.219964
 20
1274.368024
 30
0.0
 40
0.99381
 50
269.866843
 51
0.082611
  0
LINE
  5
2FE
  8
TEAM-DET3
 10
93.21383
 20
1274.369459
 30
0.0
 11
93.21383
 21
1285.378584
 31
0.0
  0
ARC
  5
2FF
  8
TEAM-DET3
 10
92.219964
 20
1285.380018
 30
0.0
 40
0.99381
 50
359.917389
 51
90.133157
  0
ARC
  5
300
  8
TEAM-DET3
 10
92.438836
 20
1285.598737
 30
0.0
 40
0.99381
 50
359.917384
 51
90.13315
  0
LINE
  5
301
  8
TEAM-DET3
 10
93.432732
 20
1285.597303
 30
0.0
 11
93.432732
 21
1274.150739
 31
0.0
  0
ARC
  5
302
  8
TEAM-DET3
 10
92.438836
 20
1274.149305
 30
0.0
 40
0.99381
 50
269.86685
 51
0.082616
  0
LINE
  5
303
  8
TEAM-DET3
 10
92.436517
 20
1273.155302
 30
0.0
 11
90.991479
 21
1273.155302
 31
0.0
  0
ARC
  5
304
  8
TEAM-DET3
 10
90.99038
 20
1274.150282
 30
0.0
 40
0.994931
 50
179.886364
 51
270.063108
  0
LINE
  5
305
  8
TEAM-DET3
 10
89.995293
 20
1285.595792
 30
0.0
 11
89.995293
 21
1274.15225
 31
0.0
  0
ARC
  5
306
  8
TEAM-DET3
 10
90.99038
 20
1285.597761
 30
0.0
 40
0.994931
 50
89.936892
 51
180.113636
  0
LINE
  5
307
  8
TEAM-DET3
 10
92.436517
 20
1286.592741
 30
0.0
 11
90.991479
 21
1286.592741
 31
0.0
  0
LINE
  5
308
  8
TEAM-DET3
 10
86.031707
 20
1330.391459
 30
0.0
 11
89.977477
 21
1332.669553
 31
0.0
  0
LINE
  5
309
  8
TEAM-DET3
 10
84.977844
 20
1332.625913
 30
0.0
 11
86.031707
 21
1332.635114
 31
0.0
  0
LINE
  5
30A
  8
TEAM-DET3
 10
81.032073
 20
1330.347816
 30
0.0
 11
84.977844
 21
1332.625913
 31
0.0
  0
LINE
  5
30B
  8
TEAM-DET3
 10
76.032477
 20
1330.304213
 30
0.0
 11
79.97824
 21
1332.582288
 31
0.0
  0
LINE
  5
30C
  8
TEAM-DET3
 10
74.978606
 20
1332.538648
 30
0.0
 11
76.03247
 21
1332.547849
 31
0.0
  0
LINE
  5
30D
  8
TEAM-DET3
 10
71.032836
 20
1330.260551
 30
0.0
 11
74.978606
 21
1332.538648
 31
0.0
  0
LINE
  5
30E
  8
TEAM-DET3
 10
69.979003
 20
1332.495023
 30
0.0
 11
71.032836
 21
1332.504209
 31
0.0
  0
LINE
  5
30F
  8
TEAM-DET3
 10
66.03324
 20
1330.216933
 30
0.0
 11
69.979003
 21
1332.495023
 31
0.0
  0
LINE
  5
310
  8
TEAM-DET3
 10
64.979369
 20
1332.451383
 30
0.0
 11
66.033233
 21
1332.460584
 31
0.0
  0
LINE
  5
311
  8
TEAM-DET3
 10
61.110412
 20
1330.217634
 30
0.0
 11
64.979369
 21
1332.451383
 31
0.0
  0
LINE
  5
312
  8
TEAM-DET3
 10
59.979766
 20
1332.407758
 30
0.0
 11
61.033599
 21
1332.416959
 31
0.0
  0
LINE
  5
313
  8
TEAM-DET3
 10
56.033972
 20
1330.129665
 30
0.0
 11
59.979766
 21
1332.407758
 31
0.0
  0
LINE
  5
314
  8
TEAM-DET3
 10
54.980132
 20
1332.364133
 30
0.0
 11
56.033965
 21
1332.373319
 31
0.0
  0
LINE
  5
315
  8
TEAM-DET3
 10
51.034369
 20
1330.086024
 30
0.0
 11
54.980132
 21
1332.364133
 31
0.0
  0
LINE
  5
316
  8
TEAM-DET3
 10
49.980529
 20
1332.320493
 30
0.0
 11
51.034362
 21
1332.329694
 31
0.0
  0
LINE
  5
317
  8
TEAM-DET3
 10
46.034766
 20
1330.042418
 30
0.0
 11
49.980529
 21
1332.320493
 31
0.0
  0
LINE
  5
318
  8
TEAM-DET3
 10
44.980895
 20
1332.276868
 30
0.0
 11
46.034759
 21
1332.286069
 31
0.0
  0
LINE
  5
319
  8
TEAM-DET3
 10
41.035132
 20
1329.998775
 30
0.0
 11
44.980895
 21
1332.276868
 31
0.0
  0
LINE
  5
31A
  8
TEAM-DET3
 10
39.981292
 20
1332.233244
 30
0.0
 11
41.035125
 21
1332.242429
 31
0.0
  0
LINE
  5
31B
  8
TEAM-DET3
 10
36.035498
 20
1329.955135
 30
0.0
 11
39.981292
 21
1332.233244
 31
0.0
  0
LINE
  5
31C
  8
TEAM-DET3
 10
34.981658
 20
1332.189603
 30
0.0
 11
36.035491
 21
1332.198804
 31
0.0
  0
LINE
  5
31D
  8
TEAM-DET3
 10
31.035895
 20
1329.91151
 30
0.0
 11
34.981658
 21
1332.189603
 31
0.0
  0
LINE
  5
31E
  8
TEAM-DET3
 10
29.982055
 20
1332.145963
 30
0.0
 11
31.035888
 21
1332.155164
 31
0.0
  0
LINE
  5
31F
  8
TEAM-DET3
 10
26.036261
 20
1329.867885
 30
0.0
 11
29.982055
 21
1332.145963
 31
0.0
  0
LINE
  5
320
  8
TEAM-DET3
 10
24.982421
 20
1332.102338
 30
0.0
 11
26.036254
 21
1332.111539
 31
0.0
  0
LINE
  5
321
  8
TEAM-DET3
 10
21.036651
 20
1329.824241
 30
0.0
 11
24.982421
 21
1332.102338
 31
0.0
  0
LINE
  5
322
  8
TEAM-DET3
 10
19.982818
 20
1332.058714
 30
0.0
 11
21.036651
 21
1332.067899
 31
0.0
  0
LINE
  5
323
  8
TEAM-DET3
 10
16.037017
 20
1329.824949
 30
0.0
 11
19.982818
 21
1332.058714
 31
0.0
  0
LINE
  5
324
  8
TEAM-DET3
 10
6.11383
 20
1281.250822
 30
0.0
 11
6.11383
 21
1346.682066
 31
0.0
  0
LINE
  5
325
  8
TEAM-DET3
 10
6.11383
 20
1354.074003
 30
0.0
 11
6.11383
 21
1346.682066
 31
0.0
  0
LINE
  5
326
  8
TEAM-DET3
 10
6.11383
 20
1354.074003
 30
0.0
 11
3.056915
 21
1354.074003
 31
0.0
  0
ARC
  5
327
  8
TEAM-DET3
 10
6.213836
 20
1281.424024
 30
0.0
 40
0.2
 50
0.0
 51
90.000003
  0
LINE
  5
328
  8
TEAM-DET3
 10
3.021392
 20
1354.074003
 30
0.0
 11
0.0
 21
1354.074003
 31
0.0
  0
LINE
  5
329
  8
TEAM-DET3
 10
6.11383
 20
1281.624021
 30
0.0
 11
6.213836
 21
1281.624021
 31
0.0
  0
LINE
  5
32A
  8
TEAM-DET3
 10
6.413818
 20
1278.324018
 30
0.0
 11
6.413818
 21
1281.424024
 31
0.0
  0
LINE
  5
32B
  8
TEAM-DET3
 10
6.413818
 20
1332.024274
 30
0.0
 11
6.413818
 21
1332.024274
 31
0.0
  0
LINE
  5
32C
  8
TEAM-DET3
 10
6.11383
 20
1341.11923
 30
0.0
 11
3.056915
 21
1341.11923
 31
0.0
  0
ARC
  5
32D
  8
TEAM-DET3
 10
6.213836
 20
1278.324018
 30
0.0
 40
0.2
 50
269.999997
 51
0.0
  0
LINE
  5
32E
  8
TEAM-DET3
 10
6.11383
 20
1278.124021
 30
0.0
 11
6.213836
 21
1278.124021
 31
0.0
  0
LINE
  5
32F
  8
TEAM-DET3
 10
3.056915
 20
1341.11923
 30
0.0
 11
3.021392
 21
1354.074003
 31
0.0
  0
LINE
  5
330
  8
TEAM-DET3
 10
16.037017
 20
1332.024946
 30
0.0
 11
6.413818
 21
1332.024946
 31
0.0
  0
LINE
  5
331
  8
TEAM-DET3
 10
89.977477
 20
1332.669553
 30
0.0
 11
96.11383
 21
1332.669553
 31
0.0
  0
LINE
  5
332
  8
TEAM-DET3
 10
79.97824
 20
1332.582288
 30
0.0
 11
81.032073
 21
1332.591474
 31
0.0
  0
LINE
  5
333
  8
TEAM-DET3
 10
61.110412
 20
1330.217634
 30
0.0
 11
61.110412
 21
1332.416959
 31
0.0
  0
LINE
  5
334
  8
TEAM-AXE
 10
-13.860192
 20
1280.000794
 30
0.0
 11
105.977194
 21
1280.000794
 31
0.0
  0
LINE
  5
335
  8
TEAM-HIDE
 10
-8.5
 20
1339.750794
 30
0.0
 11
0.0
 21
1339.750794
 31
0.0
  0
LINE
  5
336
  8
TEAM-HIDE
 10
0.0
 20
1354.074003
 30
0.0
 11
-3.88617
 21
1354.074003
 31
0.0
  0
LINE
  5
337
  8
TEAM-DET2
 10
-39.99997
 20
1440.002168
 30
0.0
 11
0.000072
 21
1440.002181
 31
0.0
  0
ENDSEC
  0
EOF
