  0
SECTION
  2
HEADER
  9
$ACADVER
  1
AC1009
  9
$INSBASE
 10
0.0
 20
0.0
 30
0.0
  9
$EXTMIN
 10
-330.884728
 20
-60.049775
 30
-0.000006
  9
$EXTMAX
 10
562.4001
 20
1487.952138
 30
0.000006
  9
$LIMMIN
 10
-330.884728
 20
-60.049775
  9
$LIMMAX
 10
562.4001
 20
1487.952138
  9
$ORTHOMODE
 70
     1
  9
$REGENMODE
 70
     1
  9
$FILLMODE
 70
     1
  9
$QTEXTMODE
 70
     0
  9
$MIRRTEXT
 70
     0
  9
$DRAGMODE
 70
     2
  9
$LTSCALE
 40
50.0
  9
$OSMODE
 70
     0
  9
$ATTMODE
 70
     1
  9
$TEXTSIZE
 40
200.0
  9
$TRACEWID
 40
1.0
  9
$TEXTSTYLE
  7
STANDARD
  9
$CLAYER
  8
TEAM-MAS
  9
$CELTYPE
  6
BYLAYER
  9
$CECOLOR
 62
   256
  9
$DIMSCALE
 40
1.0
  9
$DIMASZ
 40
20.0
  9
$DIMEXO
 40
10.0
  9
$DIMDLI
 40
1.0
  9
$DIMRND
 40
0.0
  9
$DIMDLE
 40
0.0
  9
$DIMEXE
 40
1.0
  9
$DIMTP
 40
0.0
  9
$DIMTM
 40
0.0
  9
$DIMTXT
 40
35.0
  9
$DIMCEN
 40
1.0
  9
$DIMTSZ
 40
0.0
  9
$DIMTOL
 70
     0
  9
$DIMLIM
 70
     0
  9
$DIMTIH
 70
     0
  9
$DIMTOH
 70
     0
  9
$DIMSE1
 70
     0
  9
$DIMSE2
 70
     0
  9
$DIMTAD
 70
     0
  9
$DIMZIN
 70
     0
  9
$DIMBLK
  1

  9
$DIMASO
 70
     1
  9
$DIMSHO
 70
     0
  9
$DIMPOST
  1

  9
$DIMAPOST
  1

  9
$DIMALT
 70
     0
  9
$DIMALTD
 70
     2
  9
$DIMALTF
 40
25.4
  9
$DIMLFAC
 40
1.0
  9
$DIMTOFL
 70
     0
  9
$DIMTVP
 40
0.0
  9
$DIMTIX
 70
     0
  9
$DIMSOXD
 70
     0
  9
$DIMSAH
 70
     0
  9
$DIMBLK1
  1

  9
$DIMBLK2
  1

  9
$DIMSTYLE
  2
TEAM
  9
$DIMCLRD
 70
     9
  9
$DIMCLRE
 70
     9
  9
$DIMCLRT
 70
    11
  9
$DIMTFAC
 40
1.0
  9
$DIMGAP
 40
7.0
  9
$LUNITS
 70
     2
  9
$LUPREC
 70
     1
  9
$SKETCHINC
 40
1.0
  9
$FILLETRAD
 40
50.0
  9
$AUNITS
 70
     0
  9
$AUPREC
 70
     0
  9
$MENU
  1
ROPLANS
  9
$ELEVATION
 40
0.0
  9
$PELEVATION
 40
0.0
  9
$THICKNESS
 40
0.0
  9
$LIMCHECK
 70
     0
  9
$BLIPMODE
 70
     1
  9
$CHAMFERA
 40
0.0
  9
$CHAMFERB
 40
0.0
  9
$SKPOLY
 70
     0
  9
$TDCREATE
 40
2450392.957851
  9
$TDUPDATE
 40
2456118.662559
  9
$TDINDWG
 40
5.307301
  9
$TDUSRTIMER
 40
5.307301
  9
$USRTIMER
 70
     1
  9
$ANGBASE
 50
0.0
  9
$ANGDIR
 70
     0
  9
$PDMODE
 70
     0
  9
$PDSIZE
 40
0.0
  9
$PLINEWID
 40
0.0
  9
$COORDS
 70
     2
  9
$SPLFRAME
 70
     0
  9
$SPLINETYPE
 70
     6
  9
$SPLINESEGS
 70
     8
  9
$ATTDIA
 70
     0
  9
$ATTREQ
 70
     0
  9
$HANDLING
 70
     1
  9
$HANDSEED
  5
105D
  9
$SURFTAB1
 70
    24
  9
$SURFTAB2
 70
    24
  9
$SURFTYPE
 70
     6
  9
$SURFU
 70
     6
  9
$SURFV
 70
     6
  9
$UCSNAME
  2

  9
$UCSORG
 10
0.0
 20
0.0
 30
0.0
  9
$UCSXDIR
 10
1.0
 20
0.0
 30
0.0
  9
$UCSYDIR
 10
0.0
 20
1.0
 30
0.0
  9
$PUCSNAME
  2

  9
$PUCSORG
 10
0.0
 20
0.0
 30
0.0
  9
$PUCSXDIR
 10
1.0
 20
0.0
 30
0.0
  9
$PUCSYDIR
 10
0.0
 20
1.0
 30
0.0
  9
$USERI1
 70
     0
  9
$USERI2
 70
     0
  9
$USERI3
 70
     0
  9
$USERI4
 70
     0
  9
$USERI5
 70
     0
  9
$USERR1
 40
0.0
  9
$USERR2
 40
0.0
  9
$USERR3
 40
0.0
  9
$USERR4
 40
0.0
  9
$USERR5
 40
0.0
  9
$WORLDVIEW
 70
     1
  9
$SHADEDGE
 70
     0
  9
$SHADEDIF
 70
    70
  9
$TILEMODE
 70
     1
  9
$MAXACTVP
 70
    16
  9
$PLIMCHECK
 70
     0
  9
$PEXTMIN
 10
-0.805942
 20
0.005011
 30
0.0
  9
$PEXTMAX
 10
20.250094
 20
11.356329
 30
0.0
  9
$PLIMMIN
 10
0.0
 20
0.0
  9
$PLIMMAX
 10
12.0
 20
9.0
  9
$UNITMODE
 70
     0
  9
$VISRETAIN
 70
     0
  9
$PLINEGEN
 70
     0
  9
$PSLTSCALE
 70
     0
  0
ENDSEC
  0
SECTION
  2
TABLES
  0
TABLE
  2
VPORT
 70
     2
  0
VPORT
  2
*ACTIVE
 70
     0
 10
0.0
 20
0.0
 11
1.0
 21
1.0
 12
115.757686
 22
713.951182
 13
0.0
 23
0.0
 14
1.0
 24
1.0
 15
50.0
 25
50.0
 16
0.0
 26
0.0
 36
1.0
 17
0.0
 27
0.0
 37
0.0
 40
1557.74799
 41
1.911765
 42
50.0
 43
0.0
 44
0.0
 50
0.0
 51
0.0
 71
     0
 72
   100
 73
     1
 74
     1
 75
     0
 76
     0
 77
     0
 78
     0
  0
ENDTAB
  0
TABLE
  2
LTYPE
 70
     3
  0
LTYPE
  2
CONTINUOUS
 70
     0
  3
Solid Line
 72
    65
 73
     0
 40
0.0
  0
LTYPE
  2
31
 70
     0
  3

 72
    65
 73
     4
 40
2.1
 49
1.5
 49
-0.3
 49
0.0
 49
-0.3
  0
LTYPE
  2
22
 70
     0
  3

 72
    65
 73
     2
 40
1.4
 49
1.2
 49
-0.2
  0
ENDTAB
  0
TABLE
  2
LAYER
 70
     9
  0
LAYER
  2
0
 70
     0
 62
     7
  6
CONTINUOUS
  0
LAYER
  2
DEFPOINTS
 70
     0
 62
     7
  6
CONTINUOUS
  0
LAYER
  2
TEAM-AXE
 70
     0
 62
    10
  6
31
  0
LAYER
  2
TEAM-MAS
 70
     0
 62
     9
  6
CONTINUOUS
  0
LAYER
  2
TEAM-TXT
 70
     0
 62
    11
  6
CONTINUOUS
  0
LAYER
  2
TEAM-DET2
 70
     0
 62
    11
  6
CONTINUOUS
  0
LAYER
  2
TEAM-HIDE
 70
     0
 62
     8
  6
22
  0
LAYER
  2
TEAM-DET3
 70
     0
 62
    14
  6
CONTINUOUS
  0
LAYER
  2
TEAM-INSP
 70
     0
 62
     5
  6
CONTINUOUS
  0
ENDTAB
  0
TABLE
  2
STYLE
 70
     2
  0
STYLE
  2
STANDARD
 70
     0
 40
0.0
 41
1.0
 50
0.0
 71
     0
 42
200.0
  3
txt
  4

  0
STYLE
  2
TEAM
 70
     0
 40
0.0
 41
0.8
 50
15.0
 71
     0
 42
7.0
  3
ROMANS.shx
  4

  0
ENDTAB
  0
TABLE
  2
VIEW
 70
     0
  0
ENDTAB
  0
TABLE
  2
UCS
 70
     0
  0
ENDTAB
  0
TABLE
  2
APPID
 70
     1
  0
APPID
  2
ACAD
 70
     0
  0
ENDTAB
  0
TABLE
  2
DIMSTYLE
 70
     1
  0
DIMSTYLE
  2
TEAM
 70
     0
  3

  4

  5

  6

  7

 40
1.0
 41
20.0
 42
10.0
 43
1.0
 44
1.0
 45
0.0
 46
0.0
 47
0.0
 48
0.0
140
35.0
141
1.0
142
0.0
143
25.4
144
1.0
145
0.0
146
1.0
147
7.0
 71
     0
 72
     0
 73
     0
 74
     0
 75
     0
 76
     0
 77
     0
 78
     0
170
     0
171
     2
172
     0
173
     0
174
     0
175
     0
176
     9
177
     9
178
    11
  0
ENDTAB
  0
ENDSEC
  0
SECTION
  2
BLOCKS
  0
BLOCK
  8
0
  2
$MODEL_SPACE
 70
     0
 10
0.0
 20
0.0
 30
0.0
  3
$MODEL_SPACE
  1

  0
ENDBLK
  5
D92
  8
0
  0
BLOCK
 67
     1
  8
0
  2
$PAPER_SPACE
 70
     0
 10
0.0
 20
0.0
 30
0.0
  3
$PAPER_SPACE
  1

  0
ENDBLK
  5
D90
 67
     1
  8
0
  0
BLOCK
  8
0
  2
*D0
 70
     1
 10
0.0
 20
0.0
 30
0.0
  3
*D0
  1

  0
LINE
  5
133
  8
0
  6
BYBLOCK
 62
     9
 10
12010.0
 20
112000.0
 30
0.0
 11
12298.90619
 21
112000.0
 31
0.0
  0
LINE
  5
134
  8
0
  6
BYBLOCK
 62
     9
 10
12010.001962
 20
112400.000372
 30
0.0
 11
12298.90619
 21
112400.000372
 31
0.0
  0
LINE
  5
135
  8
0
  6
BYBLOCK
 62
     9
 10
12297.90619
 20
112020.0
 30
0.0
 11
12297.90619
 21
112152.166853
 31
0.0
  0
LINE
  5
136
  8
0
  6
BYBLOCK
 62
     9
 10
12297.90619
 20
112380.000372
 30
0.0
 11
12297.90619
 21
112247.833519
 31
0.0
  0
SOLID
  5
137
  8
0
  6
BYBLOCK
 62
     9
 10
12294.572857
 20
112020.0
 30
0.0
 11
12301.239524
 21
112020.0
 31
0.0
 12
12297.90619
 22
112000.0
 32
0.0
 13
12297.90619
 23
112000.0
 33
0.0
  0
SOLID
  5
138
  8
0
  6
BYBLOCK
 62
     9
 10
12294.572857
 20
112380.000372
 30
0.0
 11
12301.239524
 21
112380.000372
 31
0.0
 12
12297.90619
 22
112400.000372
 32
0.0
 13
12297.90619
 23
112400.000372
 33
0.0
  0
TEXT
  5
139
  8
0
  6
BYBLOCK
 62
    11
 10
12315.40619
 20
112159.166853
 30
0.0
 40
35.0
  1
400
 50
90.0
  0
POINT
  5
13A
  8
DEFPOINTS
  6
BYBLOCK
 62
     0
 10
12000.0
 20
112000.0
 30
0.0
  0
POINT
  5
13B
  8
DEFPOINTS
  6
BYBLOCK
 62
     0
 10
12000.001962
 20
112400.000372
 30
0.0
  0
POINT
  5
13C
  8
DEFPOINTS
  6
BYBLOCK
 62
     0
 10
12297.90619
 20
112400.000372
 30
0.0
  0
ENDBLK
  5
13E
  8
0
  0
BLOCK
  8
0
  2
*D1
 70
     1
 10
0.0
 20
0.0
 30
0.0
  3
*D1
  1

  0
LINE
  5
125
  8
0
  6
BYBLOCK
 62
     9
 10
11875.0
 20
112559.998922
 30
0.0
 11
11875.0
 21
112604.088627
 31
0.0
  0
LINE
  5
126
  8
0
  6
BYBLOCK
 62
     9
 10
12125.0
 20
112559.998922
 30
0.0
 11
12125.0
 21
112604.088627
 31
0.0
  0
LINE
  5
127
  8
0
  6
BYBLOCK
 62
     9
 10
11895.0
 20
112603.088627
 30
0.0
 11
11949.25
 21
112603.088627
 31
0.0
  0
LINE
  5
128
  8
0
  6
BYBLOCK
 62
     9
 10
12105.0
 20
112603.088627
 30
0.0
 11
12050.75
 21
112603.088627
 31
0.0
  0
SOLID
  5
129
  8
0
  6
BYBLOCK
 62
     9
 10
11895.0
 20
112606.42196
 30
0.0
 11
11895.0
 21
112599.755293
 31
0.0
 12
11875.0
 22
112603.088627
 32
0.0
 13
11875.0
 23
112603.088627
 33
0.0
  0
SOLID
  5
12A
  8
0
  6
BYBLOCK
 62
     9
 10
12105.0
 20
112606.42196
 30
0.0
 11
12105.0
 21
112599.755293
 31
0.0
 12
12125.0
 22
112603.088627
 32
0.0
 13
12125.0
 23
112603.088627
 33
0.0
  0
TEXT
  5
12B
  8
0
  6
BYBLOCK
 62
    11
 10
11956.25
 20
112585.588627
 30
0.0
 40
35.0
  1
250
  0
POINT
  5
12C
  8
DEFPOINTS
  6
BYBLOCK
 62
     0
 10
11875.0
 20
112549.998922
 30
0.0
  0
POINT
  5
12D
  8
DEFPOINTS
  6
BYBLOCK
 62
     0
 10
12125.0
 20
112549.998922
 30
0.0
  0
POINT
  5
12E
  8
DEFPOINTS
  6
BYBLOCK
 62
     0
 10
12125.0
 20
112603.088627
 30
0.0
  0
ENDBLK
  5
130
  8
0
  0
BLOCK
  8
0
  2
*D2
 70
     1
 10
0.0
 20
0.0
 30
0.0
  3
*D2
  1

  0
LINE
  5
111
  8
0
  6
BYBLOCK
 62
     9
 10
12010.0
 20
112000.0
 30
0.0
 11
12349.36056
 21
112000.0
 31
0.0
  0
LINE
  5
112
  8
0
  6
BYBLOCK
 62
     9
 10
12138.6
 20
112549.998922
 30
0.0
 11
12349.36056
 21
112549.998922
 31
0.0
  0
LINE
  5
113
  8
0
  6
BYBLOCK
 62
     9
 10
12348.36056
 20
112020.0
 30
0.0
 11
12348.36056
 21
112224.249461
 31
0.0
  0
LINE
  5
114
  8
0
  6
BYBLOCK
 62
     9
 10
12348.36056
 20
112529.998922
 30
0.0
 11
12348.36056
 21
112325.749461
 31
0.0
  0
SOLID
  5
115
  8
0
  6
BYBLOCK
 62
     9
 10
12345.027227
 20
112020.0
 30
0.0
 11
12351.693894
 21
112020.0
 31
0.0
 12
12348.36056
 22
112000.0
 32
0.0
 13
12348.36056
 23
112000.0
 33
0.0
  0
SOLID
  5
116
  8
0
  6
BYBLOCK
 62
     9
 10
12345.027227
 20
112529.998922
 30
0.0
 11
12351.693894
 21
112529.998922
 31
0.0
 12
12348.36056
 22
112549.998922
 32
0.0
 13
12348.36056
 23
112549.998922
 33
0.0
  0
TEXT
  5
117
  8
0
  6
BYBLOCK
 62
    11
 10
12365.86056
 20
112231.249461
 30
0.0
 40
35.0
  1
550
 50
90.0
  0
POINT
  5
118
  8
DEFPOINTS
  6
BYBLOCK
 62
     0
 10
12000.0
 20
112000.0
 30
0.0
  0
POINT
  5
119
  8
DEFPOINTS
  6
BYBLOCK
 62
     0
 10
12128.6
 20
112549.998922
 30
0.0
  0
POINT
  5
11A
  8
DEFPOINTS
  6
BYBLOCK
 62
     0
 10
12348.36056
 20
112549.998922
 30
0.0
  0
ENDBLK
  5
11C
  8
0
  0
BLOCK
  8
0
  2
*D3
 70
     1
 10
0.0
 20
0.0
 30
0.0
  3
*D3
  1

  0
LINE
  5
4D
  8
0
  6
BYBLOCK
 62
     9
 10
12010.0
 20
112000.0
 30
0.0
 11
12397.103737
 21
112000.0
 31
0.0
  0
LINE
  5
4E
  8
0
  6
BYBLOCK
 62
     9
 10
11871.82785
 20
112844.99511
 30
0.0
 11
12397.103737
 21
112844.99511
 31
0.0
  0
LINE
  5
4F
  8
0
  6
BYBLOCK
 62
     9
 10
12396.103737
 20
112020.0
 30
0.0
 11
12396.103737
 21
112368.830888
 31
0.0
  0
LINE
  5
50
  8
0
  6
BYBLOCK
 62
     9
 10
12396.103737
 20
112824.99511
 30
0.0
 11
12396.103737
 21
112476.164222
 31
0.0
  0
SOLID
  5
51
  8
0
  6
BYBLOCK
 62
     9
 10
12392.770403
 20
112020.0
 30
0.0
 11
12399.43707
 21
112020.0
 31
0.0
 12
12396.103737
 22
112000.0
 32
0.0
 13
12396.103737
 23
112000.0
 33
0.0
  0
SOLID
  5
52
  8
0
  6
BYBLOCK
 62
     9
 10
12392.770403
 20
112824.99511
 30
0.0
 11
12399.43707
 21
112824.99511
 31
0.0
 12
12396.103737
 22
112844.99511
 32
0.0
 13
12396.103737
 23
112844.99511
 33
0.0
  0
TEXT
  5
53
  8
0
  6
BYBLOCK
 62
    11
 10
12413.603737
 20
112375.830888
 30
0.0
 40
35.0
  1
845
 50
90.0
  0
POINT
  5
54
  8
DEFPOINTS
  6
BYBLOCK
 62
     0
 10
12000.0
 20
112000.0
 30
0.0
  0
POINT
  5
55
  8
DEFPOINTS
  6
BYBLOCK
 62
     0
 10
11861.82785
 20
112844.99511
 30
0.0
  0
POINT
  5
56
  8
DEFPOINTS
  6
BYBLOCK
 62
     0
 10
12396.103737
 20
112844.99511
 30
0.0
  0
ENDBLK
  5
58
  8
0
  0
BLOCK
  8
0
  2
*D4
 70
     1
 10
0.0
 20
0.0
 30
0.0
  3
*D4
  1

  0
LINE
  5
3F
  8
0
  6
BYBLOCK
 62
     9
 10
12010.0
 20
112000.0
 30
0.0
 11
12446.683189
 21
112000.0
 31
0.0
  0
LINE
  5
40
  8
0
  6
BYBLOCK
 62
     9
 10
12039.805396
 20
113050.000433
 30
0.0
 11
12446.683189
 21
113050.000433
 31
0.0
  0
LINE
  5
41
  8
0
  6
BYBLOCK
 62
     9
 10
12445.683189
 20
112020.0
 30
0.0
 11
12445.683189
 21
112465.500217
 31
0.0
  0
LINE
  5
42
  8
0
  6
BYBLOCK
 62
     9
 10
12445.683189
 20
113030.000433
 30
0.0
 11
12445.683189
 21
112584.500217
 31
0.0
  0
SOLID
  5
43
  8
0
  6
BYBLOCK
 62
     9
 10
12442.349855
 20
112020.0
 30
0.0
 11
12449.016522
 21
112020.0
 31
0.0
 12
12445.683189
 22
112000.0
 32
0.0
 13
12445.683189
 23
112000.0
 33
0.0
  0
SOLID
  5
44
  8
0
  6
BYBLOCK
 62
     9
 10
12442.349855
 20
113030.000433
 30
0.0
 11
12449.016522
 21
113030.000433
 31
0.0
 12
12445.683189
 22
113050.000433
 32
0.0
 13
12445.683189
 23
113050.000433
 33
0.0
  0
TEXT
  5
45
  8
0
  6
BYBLOCK
 62
    11
 10
12463.183189
 20
112472.500217
 30
0.0
 40
35.0
  1
1050
 50
90.0
  0
POINT
  5
46
  8
DEFPOINTS
  6
BYBLOCK
 62
     0
 10
12000.0
 20
112000.0
 30
0.0
  0
POINT
  5
47
  8
DEFPOINTS
  6
BYBLOCK
 62
     0
 10
12029.805396
 20
113050.000433
 30
0.0
  0
POINT
  5
48
  8
DEFPOINTS
  6
BYBLOCK
 62
     0
 10
12445.683189
 20
113050.000433
 30
0.0
  0
ENDBLK
  5
4A
  8
0
  0
BLOCK
  8
0
  2
*D5
 70
     1
 10
0.0
 20
0.0
 30
0.0
  3
*D5
  1

  0
LINE
  5
31
  8
0
  6
BYBLOCK
 62
     9
 10
12010.0
 20
112000.0
 30
0.0
 11
12496.262641
 21
112000.0
 31
0.0
  0
LINE
  5
32
  8
0
  6
BYBLOCK
 62
     9
 10
12009.973692
 20
113279.995075
 30
0.0
 11
12496.262641
 21
113279.995075
 31
0.0
  0
LINE
  5
33
  8
0
  6
BYBLOCK
 62
     9
 10
12495.262641
 20
112020.0
 30
0.0
 11
12495.262641
 21
112577.580871
 31
0.0
  0
LINE
  5
34
  8
0
  6
BYBLOCK
 62
     9
 10
12495.262641
 20
113259.995075
 30
0.0
 11
12495.262641
 21
112702.414204
 31
0.0
  0
SOLID
  5
35
  8
0
  6
BYBLOCK
 62
     9
 10
12491.929308
 20
112020.0
 30
0.0
 11
12498.595974
 21
112020.0
 31
0.0
 12
12495.262641
 22
112000.0
 32
0.0
 13
12495.262641
 23
112000.0
 33
0.0
  0
SOLID
  5
36
  8
0
  6
BYBLOCK
 62
     9
 10
12491.929308
 20
113259.995075
 30
0.0
 11
12498.595974
 21
113259.995075
 31
0.0
 12
12495.262641
 22
113279.995075
 32
0.0
 13
12495.262641
 23
113279.995075
 33
0.0
  0
TEXT
  5
37
  8
0
  6
BYBLOCK
 62
    11
 10
12512.762641
 20
112584.580871
 30
0.0
 40
35.0
  1
1280
 50
90.0
  0
POINT
  5
38
  8
DEFPOINTS
  6
BYBLOCK
 62
     0
 10
12000.0
 20
112000.0
 30
0.0
  0
POINT
  5
39
  8
DEFPOINTS
  6
BYBLOCK
 62
     0
 10
11999.973692
 20
113279.995075
 30
0.0
  0
POINT
  5
3A
  8
DEFPOINTS
  6
BYBLOCK
 62
     0
 10
12495.262641
 20
113279.995075
 30
0.0
  0
ENDBLK
  5
3C
  8
0
  0
BLOCK
  8
0
  2
*D6
 70
     1
 10
0.0
 20
0.0
 30
0.0
  3
*D6
  1

  0
LINE
  5
22
  8
0
  6
BYBLOCK
 62
     9
 10
12010.0
 20
112000.0
 30
0.0
 11
12545.842093
 21
112000.0
 31
0.0
  0
LINE
  5
23
  8
0
  6
BYBLOCK
 62
     9
 10
12260.0
 20
113440.002174
 30
0.0
 11
12545.842093
 21
113440.002174
 31
0.0
  0
LINE
  5
24
  8
0
  6
BYBLOCK
 62
     9
 10
12544.842093
 20
112020.0
 30
0.0
 11
12544.842093
 21
112657.584421
 31
0.0
  0
LINE
  5
25
  8
0
  6
BYBLOCK
 62
     9
 10
12544.842093
 20
113420.002174
 30
0.0
 11
12544.842093
 21
112782.417754
 31
0.0
  0
SOLID
  5
26
  8
0
  6
BYBLOCK
 62
     9
 10
12541.50876
 20
112020.0
 30
0.0
 11
12548.175427
 21
112020.0
 31
0.0
 12
12544.842093
 22
112000.0
 32
0.0
 13
12544.842093
 23
112000.0
 33
0.0
  0
SOLID
  5
27
  8
0
  6
BYBLOCK
 62
     9
 10
12541.50876
 20
113420.002174
 30
0.0
 11
12548.175427
 21
113420.002174
 31
0.0
 12
12544.842093
 22
113440.002174
 32
0.0
 13
12544.842093
 23
113440.002174
 33
0.0
  0
TEXT
  5
28
  8
0
  6
BYBLOCK
 62
    11
 10
12562.342093
 20
112664.584421
 30
0.0
 40
35.0
  1
1440
 50
90.0
  0
POINT
  5
29
  8
DEFPOINTS
  6
BYBLOCK
 62
     0
 10
12000.0
 20
112000.0
 30
0.0
  0
POINT
  5
2B
  8
DEFPOINTS
  6
BYBLOCK
 62
     0
 10
12250.0
 20
113440.002174
 30
0.0
  0
POINT
  5
2C
  8
DEFPOINTS
  6
BYBLOCK
 62
     0
 10
12544.842093
 20
113440.002174
 30
0.0
  0
ENDBLK
  5
2E
  8
0
  0
BLOCK
  8
0
  2
*D7
 70
     1
 10
0.0
 20
0.0
 30
0.0
  3
*D7
  1

  0
LINE
  5
102
  8
0
  6
BYBLOCK
 62
     9
 10
11833.5
 20
111980.0
 30
0.0
 11
11952.718712
 21
111980.0
 31
0.0
  0
LINE
  5
103
  8
0
  6
BYBLOCK
 62
     9
 10
11990.0
 20
112000.0
 30
0.0
 11
11950.718712
 21
112000.0
 31
0.0
  0
LINE
  5
104
  8
0
  6
BYBLOCK
 62
     9
 10
11951.718712
 20
111960.0
 30
0.0
 11
11951.718712
 21
111940.0
 31
0.0
  0
LINE
  5
105
  8
0
  6
BYBLOCK
 62
     9
 10
11951.718712
 20
112020.0
 30
0.0
 11
11951.718712
 21
112040.0
 31
0.0
  0
TEXT
  5
106
  8
0
  6
BYBLOCK
 62
    11
 10
11969.218712
 20
112041.199446
 30
0.0
 40
35.0
  1
0-200
 50
90.0
  0
LINE
  5
107
  8
0
  6
BYBLOCK
 62
     9
 10
11951.718712
 20
111980.0
 30
0.0
 11
11951.718712
 21
112000.0
 31
0.0
  0
SOLID
  5
108
  8
0
  6
BYBLOCK
 62
     9
 10
11948.385379
 20
111960.0
 30
0.0
 11
11955.052046
 21
111960.0
 31
0.0
 12
11951.718712
 22
111980.0
 32
0.0
 13
11951.718712
 23
111980.0
 33
0.0
  0
SOLID
  5
109
  8
0
  6
BYBLOCK
 62
     9
 10
11948.385379
 20
112020.0
 30
0.0
 11
11955.052046
 21
112020.0
 31
0.0
 12
11951.718712
 22
112000.0
 32
0.0
 13
11951.718712
 23
112000.0
 33
0.0
  0
POINT
  5
10A
  8
DEFPOINTS
  6
BYBLOCK
 62
     0
 10
11823.5
 20
111980.0
 30
0.0
  0
POINT
  5
10B
  8
DEFPOINTS
  6
BYBLOCK
 62
     0
 10
12000.0
 20
112000.0
 30
0.0
  0
POINT
  5
10C
  8
DEFPOINTS
  6
BYBLOCK
 62
     0
 10
11951.718712
 20
112000.0
 30
0.0
  0
ENDBLK
  5
10E
  8
0
  0
BLOCK
  8
0
  2
*D8
 70
     1
 10
0.0
 20
0.0
 30
0.0
  3
*D8
  1

  0
LINE
  5
F5
  8
0
  6
BYBLOCK
 62
     9
 10
11823.5
 20
111998.0
 30
0.0
 11
11823.5
 21
112063.726206
 31
0.0
  0
LINE
  5
F6
  8
0
  6
BYBLOCK
 62
     9
 10
11750.5
 20
111998.0
 30
0.0
 11
11750.5
 21
112063.726206
 31
0.0
  0
LINE
  5
F7
  8
0
  6
BYBLOCK
 62
     9
 10
11803.5
 20
112062.726206
 30
0.0
 11
11770.5
 21
112062.726206
 31
0.0
  0
TEXT
  5
F8
  8
0
  6
BYBLOCK
 62
    11
 10
11669.146346
 20
112048.55954
 30
0.0
 40
35.0
  1
73
  0
SOLID
  5
F9
  8
0
  6
BYBLOCK
 62
     9
 10
11803.5
 20
112066.05954
 30
0.0
 11
11803.5
 21
112059.392873
 31
0.0
 12
11823.5
 22
112062.726206
 32
0.0
 13
11823.5
 23
112062.726206
 33
0.0
  0
SOLID
  5
FA
  8
0
  6
BYBLOCK
 62
     9
 10
11770.5
 20
112066.05954
 30
0.0
 11
11770.5
 21
112059.392873
 31
0.0
 12
11750.5
 22
112062.726206
 32
0.0
 13
11750.5
 23
112062.726206
 33
0.0
  0
POINT
  5
FB
  8
DEFPOINTS
  6
BYBLOCK
 62
     0
 10
11823.5
 20
111988.0
 30
0.0
  0
POINT
  5
FC
  8
DEFPOINTS
  6
BYBLOCK
 62
     0
 10
11750.5
 20
111988.0
 30
0.0
  0
POINT
  5
FD
  8
DEFPOINTS
  6
BYBLOCK
 62
     0
 10
11750.5
 20
112062.726206
 30
0.0
  0
ENDBLK
  5
FF
  8
0
  0
BLOCK
  8
0
  2
*D9
 70
     1
 10
0.0
 20
0.0
 30
0.0
  3
*D9
  1

  0
LINE
  5
794
  8
0
  6
BYBLOCK
 62
     9
 10
11750.0
 20
113450.002174
 30
0.0
 11
11750.0
 21
113471.354781
 31
0.0
  0
LINE
  5
795
  8
0
  6
BYBLOCK
 62
     9
 10
12250.0
 20
113450.002174
 30
0.0
 11
12250.0
 21
113471.354781
 31
0.0
  0
LINE
  5
796
  8
0
  6
BYBLOCK
 62
     9
 10
11770.0
 20
113470.354781
 30
0.0
 11
11952.166667
 21
113470.354781
 31
0.0
  0
LINE
  5
797
  8
0
  6
BYBLOCK
 62
     9
 10
12230.0
 20
113470.354781
 30
0.0
 11
12047.833333
 21
113470.354781
 31
0.0
  0
SOLID
  5
798
  8
0
  6
BYBLOCK
 62
     9
 10
11770.0
 20
113473.688114
 30
0.0
 11
11770.0
 21
113467.021447
 31
0.0
 12
11750.0
 22
113470.354781
 32
0.0
 13
11750.0
 23
113470.354781
 33
0.0
  0
SOLID
  5
799
  8
0
  6
BYBLOCK
 62
     9
 10
12230.0
 20
113473.688114
 30
0.0
 11
12230.0
 21
113467.021447
 31
0.0
 12
12250.0
 22
113470.354781
 32
0.0
 13
12250.0
 23
113470.354781
 33
0.0
  0
TEXT
  5
79A
  8
0
  6
BYBLOCK
 62
    11
 10
11959.166667
 20
113452.854781
 30
0.0
 40
35.0
  1
500
  0
POINT
  5
79B
  8
DEFPOINTS
  6
BYBLOCK
 62
     0
 10
11750.0
 20
113440.002174
 30
0.0
  0
POINT
  5
79C
  8
DEFPOINTS
  6
BYBLOCK
 62
     0
 10
12250.0
 20
113440.002174
 30
0.0
  0
POINT
  5
79D
  8
DEFPOINTS
  6
BYBLOCK
 62
     0
 10
12250.0
 20
113470.354781
 30
0.0
  0
ENDBLK
  5
79F
  8
0
  0
ENDSEC
  0
SECTION
  2
ENTITIES
  0
DIMENSION
  5
20
  8
TEAM-MAS
  2
*D6
 10
544.842093
 20
1440.002174
 30
0.0
 11
544.842093
 21
720.001087
 31
0.0
 12
-12000.0
 22
-112000.0
 32
0.0
 13
0.0
 23
0.0
 33
0.0
 14
250.0
 24
1440.002174
 34
0.0
 50
90.0
1001
ACAD
1000
DSTYLE
1002
{
1070
    40
1040
1.0
1002
}
  0
DIMENSION
  5
2F
  8
TEAM-MAS
  2
*D5
 10
495.262641
 20
1279.995075
 30
0.0
 11
495.262641
 21
639.997537
 31
0.0
 12
-12000.0
 22
-112000.0
 32
0.0
 13
0.0
 23
0.0
 33
0.0
 14
-0.026308
 24
1279.995075
 34
0.0
 50
90.0
1001
ACAD
1000
DSTYLE
1002
{
1070
    40
1040
1.0
1002
}
  0
DIMENSION
  5
3D
  8
TEAM-MAS
  2
*D4
 10
445.683189
 20
1050.000433
 30
0.0
 11
445.683189
 21
525.000217
 31
0.0
 12
-12000.0
 22
-112000.0
 32
0.0
 13
0.0
 23
0.0
 33
0.0
 14
29.805396
 24
1050.000433
 34
0.0
 50
90.0
1001
ACAD
1000
DSTYLE
1002
{
1070
    40
1040
1.0
1002
}
  0
DIMENSION
  5
4B
  8
TEAM-MAS
  2
*D3
 10
396.103737
 20
844.99511
 30
0.0
 11
396.103737
 21
422.497555
 31
0.0
 12
-12000.0
 22
-112000.0
 32
0.0
 13
0.0
 23
0.0
 33
0.0
 14
-138.17215
 24
844.99511
 34
0.0
 50
90.0
1001
ACAD
1000
DSTYLE
1002
{
1070
    40
1040
1.0
1002
}
  0
LINE
  5
59
  8
TEAM-DET3
 10
-73.026308
 20
1208.103145
 30
0.0
 11
-73.026308
 21
1345.906995
 31
0.0
  0
LINE
  5
5B
  8
TEAM-DET3
 10
72.973692
 20
1345.906995
 30
0.0
 11
72.973692
 21
1208.103145
 31
0.0
  0
LINE
  5
5C
  8
TEAM-AXE
 10
-0.026308
 20
1317.005075
 30
0.0
 11
-0.026308
 21
1237.005075
 31
0.0
  0
LINE
  5
5F
  8
TEAM-DET2
 10
183.473692
 20
355.030336
 30
0.0
 11
183.473692
 21
1365.005075
 31
0.0
  0
LINE
  5
61
  8
TEAM-DET3
 10
-172.526308
 20
1261.005075
 30
0.0
 11
-172.526308
 21
1247.005075
 31
0.0
  0
LINE
  5
62
  8
TEAM-DET3
 10
76.723692
 20
1288.505075
 30
0.0
 11
76.723692
 21
1223.005075
 31
0.0
  0
LINE
  5
63
  8
TEAM-DET2
 10
-183.526308
 20
319.974001
 30
0.0
 11
-183.526308
 21
1365.005076
 31
0.0
  0
LINE
  5
64
  8
TEAM-DET3
 10
78.289062
 20
1254.505045
 30
0.0
 11
78.289062
 21
1297.505045
 31
0.0
  0
LINE
  5
65
  8
TEAM-DET3
 10
79.703308
 20
1254.505045
 30
0.0
 11
79.703308
 21
1297.505045
 31
0.0
  0
LINE
  5
66
  8
TEAM-DET3
 10
-83.896364
 20
1287.005045
 30
0.0
 11
-83.896332
 21
1223.005045
 31
0.0
  0
LINE
  5
67
  8
TEAM-DET3
 10
-89.896332
 20
1223.005045
 30
0.0
 11
-89.896364
 21
1287.005045
 31
0.0
  0
POLYLINE
  5
68
  8
TEAM-DET3
 66
     1
 10
0.0
 20
0.0
 30
0.0
  0
VERTEX
  5
D98
  8
TEAM-DET3
 10
-15.18339
 20
1251.92118
 30
0.0
  0
VERTEX
  5
D99
  8
TEAM-DET3
 10
-15.286226
 20
1252.960685
 30
0.0
  0
VERTEX
  5
D9A
  8
TEAM-DET3
 10
-15.424036
 20
1253.929634
 30
0.0
  0
VERTEX
  5
D9B
  8
TEAM-DET3
 10
-15.520143
 20
1254.407661
 30
0.0
  0
VERTEX
  5
D9C
  8
TEAM-DET3
 10
-15.814073
 20
1255.410682
 30
0.0
  0
VERTEX
  5
D9D
  8
TEAM-DET3
 10
-15.831438
 20
1255.457816
 30
0.0
  0
SEQEND
  5
D9E
  8
TEAM-DET3
  0
POLYLINE
  5
69
  8
TEAM-DET3
 66
     1
 10
0.0
 20
0.0
 30
0.0
  0
VERTEX
  5
D9F
  8
TEAM-DET3
 10
-34.221178
 20
1255.457816
 30
0.0
  0
VERTEX
  5
DA0
  8
TEAM-DET3
 10
-34.331728
 20
1255.141334
 30
0.0
  0
VERTEX
  5
DA1
  8
TEAM-DET3
 10
-34.600496
 20
1254.08155
 30
0.0
  0
VERTEX
  5
DA2
  8
TEAM-DET3
 10
-34.762651
 20
1252.993263
 30
0.0
  0
VERTEX
  5
DA3
  8
TEAM-DET3
 10
-34.869219
 20
1251.92118
 30
0.0
  0
SEQEND
  5
DA4
  8
TEAM-DET3
  0
POLYLINE
  5
6A
  8
TEAM-DET3
 66
     1
 10
0.0
 20
0.0
 30
0.0
  0
VERTEX
  5
DA5
  8
TEAM-DET3
 10
-34.738672
 20
1254.190894
 30
0.0
  0
VERTEX
  5
DA6
  8
TEAM-DET3
 10
-34.695986
 20
1254.394477
 30
0.0
  0
VERTEX
  5
DA7
  8
TEAM-DET3
 10
-34.489885
 20
1255.162925
 30
0.0
  0
VERTEX
  5
DA8
  8
TEAM-DET3
 10
-34.161135
 20
1256.018394
 30
0.0
  0
VERTEX
  5
DA9
  8
TEAM-DET3
 10
-33.7465
 20
1256.83245
 30
0.0
  0
VERTEX
  5
DAA
  8
TEAM-DET3
 10
-33.372866
 20
1257.434028
 30
0.0
  0
VERTEX
  5
DAB
  8
TEAM-DET3
 10
-32.691622
 20
1258.339515
 30
0.0
  0
VERTEX
  5
DAC
  8
TEAM-DET3
 10
-32.367128
 20
1258.707649
 30
0.0
  0
VERTEX
  5
DAD
  8
TEAM-DET3
 10
-31.659014
 20
1259.402839
 30
0.0
  0
VERTEX
  5
DAE
  8
TEAM-DET3
 10
-30.888742
 20
1260.022544
 30
0.0
  0
VERTEX
  5
DAF
  8
TEAM-DET3
 10
-30.060121
 20
1260.562202
 30
0.0
  0
VERTEX
  5
DB0
  8
TEAM-DET3
 10
-29.178484
 20
1261.01847
 30
0.0
  0
VERTEX
  5
DB1
  8
TEAM-DET3
 10
-28.052828
 20
1261.452125
 30
0.0
  0
VERTEX
  5
DB2
  8
TEAM-DET3
 10
-26.883608
 20
1261.74691
 30
0.0
  0
VERTEX
  5
DB3
  8
TEAM-DET3
 10
-25.687143
 20
1261.899192
 30
0.0
  0
VERTEX
  5
DB4
  8
TEAM-DET3
 10
-24.525194
 20
1261.908546
 30
0.0
  0
VERTEX
  5
DB5
  8
TEAM-DET3
 10
-23.366808
 20
1261.782218
 30
0.0
  0
VERTEX
  5
DB6
  8
TEAM-DET3
 10
-22.23076
 20
1261.522346
 30
0.0
  0
VERTEX
  5
DB7
  8
TEAM-DET3
 10
-21.135561
 20
1261.133293
 30
0.0
  0
VERTEX
  5
DB8
  8
TEAM-DET3
 10
-20.204744
 20
1260.68238
 30
0.0
  0
VERTEX
  5
DB9
  8
TEAM-DET3
 10
-19.328707
 20
1260.139503
 30
0.0
  0
VERTEX
  5
DBA
  8
TEAM-DET3
 10
-18.514292
 20
1259.50846
 30
0.0
  0
VERTEX
  5
DBB
  8
TEAM-DET3
 10
-17.766695
 20
1258.794502
 30
0.0
  0
VERTEX
  5
DBC
  8
TEAM-DET3
 10
-17.422342
 20
1258.411842
 30
0.0
  0
VERTEX
  5
DBD
  8
TEAM-DET3
 10
-16.819765
 20
1257.637443
 30
0.0
  0
VERTEX
  5
DBE
  8
TEAM-DET3
 10
-16.303682
 20
1256.828193
 30
0.0
  0
VERTEX
  5
DBF
  8
TEAM-DET3
 10
-15.881372
 20
1255.995735
 30
0.0
  0
VERTEX
  5
DC0
  8
TEAM-DET3
 10
-15.549562
 20
1255.121543
 30
0.0
  0
VERTEX
  5
DC1
  8
TEAM-DET3
 10
-15.322237
 20
1254.232124
 30
0.0
  0
VERTEX
  5
DC2
  8
TEAM-DET3
 10
-15.313944
 20
1254.190894
 30
0.0
  0
SEQEND
  5
DC3
  8
TEAM-DET3
  0
LINE
  5
6B
  8
TEAM-DET3
 10
-53.176309
 20
1270.92118
 30
0.0
 11
-53.176309
 21
1233.92118
 31
0.0
  0
LINE
  5
6C
  8
TEAM-DET3
 10
53.123701
 20
1233.771186
 30
0.0
 11
53.123701
 21
1270.92118
 31
0.0
  0
LINE
  5
6D
  8
TEAM-DET3
 10
74.173689
 20
1275.371177
 30
0.0
 11
74.173689
 21
1215.675971
 31
0.0
  0
LINE
  5
6E
  8
TEAM-DET3
 10
-74.226305
 20
1215.675971
 30
0.0
 11
-74.226305
 21
1275.371177
 31
0.0
  0
LINE
  5
6F
  8
TEAM-AXE
 10
-0.026308
 20
1195.726341
 30
0.0
 11
-0.026308
 21
1356.138557
 31
0.0
  0
LINE
  5
70
  8
TEAM-DET3
 10
-10.026308
 20
1288.67118
 30
0.0
 11
-10.026308
 21
1238.67118
 31
0.0
  0
LINE
  5
71
  8
TEAM-DET3
 10
39.973692
 20
1238.67118
 30
0.0
 11
39.973692
 21
1288.67118
 31
0.0
  0
LINE
  5
72
  8
TEAM-AXE
 10
-25.026308
 20
1268.7873
 30
0.0
 11
-25.026308
 21
1235.055061
 31
0.0
  0
ARC
  5
73
  8
TEAM-HIDE
 10
23.674408
 20
1257.427531
 30
0.0
 40
9.0
 50
286.100304
 51
6.931279
  0
LINE
  5
76
  8
TEAM-HIDE
 10
45.846558
 20
1276.993663
 30
0.0
 11
45.806976
 21
1243.993693
 31
0.0
  0
LINE
  5
77
  8
TEAM-HIDE
 10
-70.976684
 20
1210.213032
 30
0.0
 11
-70.976684
 21
1344.005075
 31
0.0
  0
LINE
  5
78
  8
TEAM-HIDE
 10
71.023316
 20
1276.255075
 30
0.0
 11
71.023316
 21
1217.005075
 31
0.0
  0
LINE
  5
79
  8
TEAM-DET2
 10
250.0
 20
272.489
 30
0.0
 11
250.0
 21
1440.002174
 31
0.0
  0
LINE
  5
7A
  8
TEAM-DET2
 10
210.0
 20
272.489
 30
0.0
 11
210.0
 21
1440.002174
 31
0.0
  0
LINE
  5
7B
  8
TEAM-DET2
 10
-250.0
 20
272.489
 30
0.0
 11
-250.0
 21
1440.002174
 31
0.0
  0
LINE
  5
7C
  8
TEAM-DET2
 10
-210.0
 20
272.489
 30
0.0
 11
-210.0
 21
1440.002174
 31
0.0
  0
POLYLINE
  5
7D
  8
TEAM-DET3
 66
     1
 10
0.0
 20
0.0
 30
0.0
  0
VERTEX
  5
DC4
  8
TEAM-DET3
 10
144.739806
 20
850.001057
 30
0.0
  0
VERTEX
  5
DC5
  8
TEAM-DET3
 10
144.739806
 20
840.003693
 30
0.0
  0
SEQEND
  5
DC6
  8
TEAM-DET3
  0
POLYLINE
  5
81
  8
TEAM-DET3
 66
     1
 10
0.0
 20
0.0
 30
0.0
  0
VERTEX
  5
DC7
  8
TEAM-DET3
 10
155.238072
 20
840.003693
 30
0.0
  0
VERTEX
  5
DC8
  8
TEAM-DET3
 10
155.238072
 20
850.001057
 30
0.0
  0
SEQEND
  5
DC9
  8
TEAM-DET3
  0
POLYLINE
  5
85
  8
TEAM-AXE
 66
     1
 10
0.0
 20
0.0
 30
0.0
  0
VERTEX
  5
DCA
  8
TEAM-AXE
 10
149.988939
 20
843.002558
 30
0.0
  0
VERTEX
  5
DCB
  8
TEAM-AXE
 10
149.988939
 20
846.826153
 30
0.0
  0
SEQEND
  5
DCC
  8
TEAM-AXE
  0
POLYLINE
  5
89
  8
TEAM-AXE
 66
     1
 10
0.0
 20
0.0
 30
0.0
  0
VERTEX
  5
DCD
  8
TEAM-AXE
 10
149.988939
 20
837.004829
 30
0.0
  0
VERTEX
  5
DCE
  8
TEAM-AXE
 10
149.988939
 20
833.181233
 30
0.0
  0
SEQEND
  5
DCF
  8
TEAM-AXE
  0
POLYLINE
  5
8D
  8
TEAM-AXE
 66
     1
 10
0.0
 20
0.0
 30
0.0
  0
VERTEX
  5
DD0
  8
TEAM-AXE
 10
149.988939
 20
841.004463
 30
0.0
  0
VERTEX
  5
DD1
  8
TEAM-AXE
 10
149.988939
 20
839.001201
 30
0.0
  0
SEQEND
  5
DD2
  8
TEAM-AXE
  0
POLYLINE
  5
91
  8
TEAM-AXE
 66
     1
 10
0.0
 20
0.0
 30
0.0
  0
VERTEX
  5
DD3
  8
TEAM-AXE
 10
152.994349
 20
840.003693
 30
0.0
  0
VERTEX
  5
DD4
  8
TEAM-AXE
 10
156.817945
 20
840.003693
 30
0.0
  0
SEQEND
  5
DD5
  8
TEAM-AXE
  0
POLYLINE
  5
95
  8
TEAM-AXE
 66
     1
 10
0.0
 20
0.0
 30
0.0
  0
VERTEX
  5
DD6
  8
TEAM-AXE
 10
146.990074
 20
840.003693
 30
0.0
  0
VERTEX
  5
DD7
  8
TEAM-AXE
 10
143.166479
 20
840.003693
 30
0.0
  0
SEQEND
  5
DD8
  8
TEAM-AXE
  0
POLYLINE
  5
99
  8
TEAM-AXE
 66
     1
 10
0.0
 20
0.0
 30
0.0
  0
VERTEX
  5
DD9
  8
TEAM-AXE
 10
150.991431
 20
840.003693
 30
0.0
  0
VERTEX
  5
DDA
  8
TEAM-AXE
 10
148.993337
 20
840.003693
 30
0.0
  0
SEQEND
  5
DDB
  8
TEAM-AXE
  0
POLYLINE
  5
9D
  8
TEAM-AXE
 66
     1
 10
0.0
 20
0.0
 30
0.0
  0
VERTEX
  5
DDC
  8
TEAM-AXE
 10
149.988939
 20
852.999577
 30
0.0
  0
VERTEX
  5
DDD
  8
TEAM-AXE
 10
149.988939
 20
856.829718
 30
0.0
  0
SEQEND
  5
DDE
  8
TEAM-AXE
  0
POLYLINE
  5
A1
  8
TEAM-AXE
 66
     1
 10
0.0
 20
0.0
 30
0.0
  0
VERTEX
  5
DDF
  8
TEAM-AXE
 10
149.988939
 20
847.001848
 30
0.0
  0
VERTEX
  5
DE0
  8
TEAM-AXE
 10
149.988939
 20
843.178597
 30
0.0
  0
SEQEND
  5
DE1
  8
TEAM-AXE
  0
POLYLINE
  5
A5
  8
TEAM-AXE
 66
     1
 10
0.0
 20
0.0
 30
0.0
  0
VERTEX
  5
DE2
  8
TEAM-AXE
 10
149.988939
 20
851.003205
 30
0.0
  0
VERTEX
  5
DE3
  8
TEAM-AXE
 10
149.988939
 20
848.998564
 30
0.0
  0
SEQEND
  5
DE4
  8
TEAM-AXE
  0
POLYLINE
  5
A9
  8
TEAM-AXE
 66
     1
 10
0.0
 20
0.0
 30
0.0
  0
VERTEX
  5
DE5
  8
TEAM-AXE
 10
152.994349
 20
850.001057
 30
0.0
  0
VERTEX
  5
DE6
  8
TEAM-AXE
 10
156.817945
 20
850.001057
 30
0.0
  0
SEQEND
  5
DE7
  8
TEAM-AXE
  0
POLYLINE
  5
AD
  8
TEAM-AXE
 66
     1
 10
0.0
 20
0.0
 30
0.0
  0
VERTEX
  5
DE8
  8
TEAM-AXE
 10
146.990074
 20
850.001057
 30
0.0
  0
VERTEX
  5
DE9
  8
TEAM-AXE
 10
143.166479
 20
850.001057
 30
0.0
  0
SEQEND
  5
DEA
  8
TEAM-AXE
  0
POLYLINE
  5
B1
  8
TEAM-AXE
 66
     1
 10
0.0
 20
0.0
 30
0.0
  0
VERTEX
  5
DEB
  8
TEAM-AXE
 10
150.991431
 20
850.001057
 30
0.0
  0
VERTEX
  5
DEC
  8
TEAM-AXE
 10
148.993337
 20
850.001057
 30
0.0
  0
SEQEND
  5
DED
  8
TEAM-AXE
  0
ARC
  5
B5
  8
TEAM-DET3
 10
149.992384
 20
840.003693
 30
0.0
 40
5.253094
 50
180.0
 51
0.0
  0
ARC
  5
B6
  8
TEAM-DET3
 10
149.992384
 20
850.001057
 30
0.0
 40
5.253094
 50
0.0
 51
180.0
  0
POLYLINE
  5
B7
  8
TEAM-DET3
 66
     1
 10
0.0
 20
0.0
 30
0.0
  0
VERTEX
  5
DEE
  8
TEAM-DET3
 10
-154.999897
 20
839.748075
 30
0.0
  0
VERTEX
  5
DEF
  8
TEAM-DET3
 10
-145.002878
 20
839.748075
 30
0.0
  0
SEQEND
  5
DF0
  8
TEAM-DET3
  0
POLYLINE
  5
BB
  8
TEAM-DET3
 66
     1
 10
0.0
 20
0.0
 30
0.0
  0
VERTEX
  5
DF1
  8
TEAM-DET3
 10
-145.002878
 20
850.254608
 30
0.0
  0
VERTEX
  5
DF2
  8
TEAM-DET3
 10
-154.999897
 20
850.254608
 30
0.0
  0
SEQEND
  5
DF3
  8
TEAM-DET3
  0
POLYLINE
  5
BF
  8
TEAM-AXE
 66
     1
 10
0.0
 20
0.0
 30
0.0
  0
VERTEX
  5
DF4
  8
TEAM-AXE
 10
-145.002878
 20
848.00434
 30
0.0
  0
VERTEX
  5
DF5
  8
TEAM-AXE
 10
-145.002878
 20
851.827935
 30
0.0
  0
SEQEND
  5
DF6
  8
TEAM-AXE
  0
POLYLINE
  5
C3
  8
TEAM-AXE
 66
     1
 10
0.0
 20
0.0
 30
0.0
  0
VERTEX
  5
DF7
  8
TEAM-AXE
 10
-145.002878
 20
842.000065
 30
0.0
  0
VERTEX
  5
DF8
  8
TEAM-AXE
 10
-145.002878
 20
838.17647
 30
0.0
  0
SEQEND
  5
DF9
  8
TEAM-AXE
  0
POLYLINE
  5
C7
  8
TEAM-AXE
 66
     1
 10
0.0
 20
0.0
 30
0.0
  0
VERTEX
  5
DFA
  8
TEAM-AXE
 10
-145.002878
 20
845.9997
 30
0.0
  0
VERTEX
  5
DFB
  8
TEAM-AXE
 10
-145.002878
 20
844.003328
 30
0.0
  0
SEQEND
  5
DFC
  8
TEAM-AXE
  0
POLYLINE
  5
CB
  8
TEAM-AXE
 66
     1
 10
0.0
 20
0.0
 30
0.0
  0
VERTEX
  5
DFD
  8
TEAM-AXE
 10
-141.997468
 20
845.00582
 30
0.0
  0
VERTEX
  5
DFE
  8
TEAM-AXE
 10
-138.17215
 20
845.00582
 30
0.0
  0
SEQEND
  5
DFF
  8
TEAM-AXE
  0
POLYLINE
  5
CF
  8
TEAM-AXE
 66
     1
 10
0.0
 20
0.0
 30
0.0
  0
VERTEX
  5
E00
  8
TEAM-AXE
 10
-148.00002
 20
845.00582
 30
0.0
  0
VERTEX
  5
E01
  8
TEAM-AXE
 10
-151.824993
 20
845.00582
 30
0.0
  0
SEQEND
  5
E02
  8
TEAM-AXE
  0
POLYLINE
  5
D3
  8
TEAM-AXE
 66
     1
 10
0.0
 20
0.0
 30
0.0
  0
VERTEX
  5
E03
  8
TEAM-AXE
 10
-144.000385
 20
845.00582
 30
0.0
  0
VERTEX
  5
E04
  8
TEAM-AXE
 10
-145.996758
 20
845.00582
 30
0.0
  0
SEQEND
  5
E05
  8
TEAM-AXE
  0
POLYLINE
  5
D7
  8
TEAM-AXE
 66
     1
 10
0.0
 20
0.0
 30
0.0
  0
VERTEX
  5
E06
  8
TEAM-AXE
 10
-154.999897
 20
848.00434
 30
0.0
  0
VERTEX
  5
E07
  8
TEAM-AXE
 10
-154.999897
 20
851.827935
 30
0.0
  0
SEQEND
  5
E08
  8
TEAM-AXE
  0
POLYLINE
  5
DB
  8
TEAM-AXE
 66
     1
 10
0.0
 20
0.0
 30
0.0
  0
VERTEX
  5
E09
  8
TEAM-AXE
 10
-154.999897
 20
842.000065
 30
0.0
  0
VERTEX
  5
E0A
  8
TEAM-AXE
 10
-154.999897
 20
838.17647
 30
0.0
  0
SEQEND
  5
E0B
  8
TEAM-AXE
  0
POLYLINE
  5
DF
  8
TEAM-AXE
 66
     1
 10
0.0
 20
0.0
 30
0.0
  0
VERTEX
  5
E0C
  8
TEAM-AXE
 10
-154.999897
 20
845.9997
 30
0.0
  0
VERTEX
  5
E0D
  8
TEAM-AXE
 10
-154.999897
 20
844.003328
 30
0.0
  0
SEQEND
  5
E0E
  8
TEAM-AXE
  0
POLYLINE
  5
E3
  8
TEAM-AXE
 66
     1
 10
0.0
 20
0.0
 30
0.0
  0
VERTEX
  5
E0F
  8
TEAM-AXE
 10
-152.001032
 20
845.00582
 30
0.0
  0
VERTEX
  5
E10
  8
TEAM-AXE
 10
-148.177781
 20
845.00582
 30
0.0
  0
SEQEND
  5
E11
  8
TEAM-AXE
  0
POLYLINE
  5
E7
  8
TEAM-AXE
 66
     1
 10
0.0
 20
0.0
 30
0.0
  0
VERTEX
  5
E12
  8
TEAM-AXE
 10
-157.998761
 20
845.00582
 30
0.0
  0
VERTEX
  5
E13
  8
TEAM-AXE
 10
-161.822357
 20
845.00582
 30
0.0
  0
SEQEND
  5
E14
  8
TEAM-AXE
  0
POLYLINE
  5
EB
  8
TEAM-AXE
 66
     1
 10
0.0
 20
0.0
 30
0.0
  0
VERTEX
  5
E15
  8
TEAM-AXE
 10
-153.997749
 20
845.00582
 30
0.0
  0
VERTEX
  5
E16
  8
TEAM-AXE
 10
-156.000667
 20
845.00582
 30
0.0
  0
SEQEND
  5
E17
  8
TEAM-AXE
  0
ARC
  5
EF
  8
TEAM-DET3
 10
-145.002878
 20
845.001514
 30
0.0
 40
5.253094
 50
270.0
 51
90.0
  0
ARC
  5
F0
  8
TEAM-DET3
 10
-154.999897
 20
845.001514
 30
0.0
 40
5.253094
 50
90.0
 51
270.0
  0
CIRCLE
  5
F1
  8
TEAM-DET3
 10
-47.977928
 20
438.738499
 30
0.0
 40
10.783869
  0
CIRCLE
  5
F2
  8
TEAM-DET3
 10
67.024516
 20
438.929068
 30
0.0
 40
10.783869
  0
DIMENSION
  5
F3
  8
TEAM-MAS
  2
*D8
 10
-249.5
 20
62.726206
 30
0.0
 11
-301.686987
 21
66.05954
 31
0.0
 12
-12000.0
 22
-112000.0
 32
0.0
 70
   128
 13
-176.5
 23
-12.0
 33
0.0
 14
-249.5
 24
-12.0
 34
0.0
1001
ACAD
1000
DSTYLE
1002
{
1070
    40
1040
1.0
1002
}
  0
DIMENSION
  5
100
  8
TEAM-MAS
  2
*D7
 10
-48.281288
 20
0.0
 30
0.0
 11
-48.281288
 21
114.116113
 31
0.0
 12
-12000.0
 22
-112000.0
 32
0.0
 70
   128
  1
0-200
 13
-176.5
 23
-20.0
 33
0.0
 14
0.0
 24
0.0
 34
0.0
 50
90.0
1001
ACAD
1000
DSTYLE
1002
{
1070
    40
1040
1.0
1002
}
  0
DIMENSION
  5
10F
  8
TEAM-MAS
  2
*D2
 10
348.36056
 20
549.998922
 30
0.0
 11
348.36056
 21
274.999461
 31
0.0
 12
-12000.0
 22
-112000.0
 32
0.0
 13
0.0
 23
0.0
 33
0.0
 14
128.6
 24
549.998922
 34
0.0
 50
90.0
1001
ACAD
1000
DSTYLE
1002
{
1070
    40
1040
1.0
1002
}
  0
CIRCLE
  5
11D
  8
TEAM-DET3
 10
-125.0
 20
549.998922
 30
0.0
 40
2.6
  0
LINE
  5
11E
  8
TEAM-AXE
 10
-128.6
 20
549.998922
 30
0.0
 11
-121.4
 21
549.998922
 31
0.0
  0
LINE
  5
11F
  8
TEAM-AXE
 10
-125.0
 20
546.398922
 30
0.0
 11
-125.0
 21
553.598922
 31
0.0
  0
CIRCLE
  5
120
  8
TEAM-DET3
 10
125.0
 20
549.998922
 30
0.0
 40
2.6
  0
LINE
  5
121
  8
TEAM-AXE
 10
121.4
 20
549.998922
 30
0.0
 11
128.6
 21
549.998922
 31
0.0
  0
LINE
  5
122
  8
TEAM-AXE
 10
125.0
 20
546.398922
 30
0.0
 11
125.0
 21
553.598922
 31
0.0
  0
DIMENSION
  5
123
  8
TEAM-MAS
  2
*D1
 10
125.0
 20
603.088627
 30
0.0
 11
0.0
 21
603.088627
 31
0.0
 12
-12000.0
 22
-112000.0
 32
0.0
 13
-125.0
 23
549.998922
 33
0.0
 14
125.0
 24
549.998922
 34
0.0
1001
ACAD
1000
DSTYLE
1002
{
1070
    40
1040
1.0
1002
}
  0
DIMENSION
  5
131
  8
TEAM-MAS
  2
*D0
 10
297.90619
 20
400.000372
 30
0.0
 11
297.90619
 21
200.000186
 31
0.0
 12
-12000.0
 22
-112000.0
 32
0.0
 13
0.0
 23
0.0
 33
0.0
 14
0.001962
 24
400.000372
 34
0.0
 50
90.0
1001
ACAD
1000
DSTYLE
1002
{
1070
    40
1040
1.0
1002
}
  0
LINE
  5
13F
  8
TEAM-AXE
 10
-0.344444
 20
1021.075445
 30
0.0
 11
-0.344444
 21
1078.925421
 31
0.0
  0
ARC
  5
140
  8
TEAM-DET3
 10
399.759584
 20
2133.803485
 30
0.0
 40
1180.321384
 50
240.384604
 51
241.096667
  0
ARC
  5
141
  8
TEAM-DET3
 10
-129.512735
 20
1189.17771
 30
0.0
 40
80.274458
 50
227.711716
 51
238.761637
  0
ARC
  5
142
  8
TEAM-DET3
 10
8.721537
 20
1368.560825
 30
0.0
 40
301.301903
 50
244.282604
 51
250.248376
  0
LINE
  5
143
  8
TEAM-DET3
 10
-122.023195
 20
1097.104288
 30
0.0
 11
-171.143038
 21
1120.541666
 31
0.0
  0
LINE
  5
144
  8
TEAM-DET3
 10
-137.484743
 20
1084.985045
 30
0.0
 11
-170.729052
 21
1100.50712
 31
0.0
  0
LINE
  5
145
  8
TEAM-AXE
 10
-117.701235
 20
1085.414366
 30
0.0
 11
-175.051027
 21
1112.177042
 31
0.0
  0
POLYLINE
  5
146
  8
TEAM-DET3
 66
     1
 10
0.0
 20
0.0
 30
0.0
  0
VERTEX
  5
E18
  8
TEAM-DET3
 10
-183.498038
 20
535.010372
 30
0.0
  0
VERTEX
  5
E19
  8
TEAM-DET3
 10
-1.033405
 20
535.010372
 30
0.0
  0
SEQEND
  5
E1A
  8
TEAM-DET3
  0
POLYLINE
  5
14A
  8
TEAM-DET3
 66
     1
 10
0.0
 20
0.0
 30
0.0
  0
VERTEX
  5
E1B
  8
TEAM-DET3
 10
1.020499
 20
535.010372
 30
0.0
  0
VERTEX
  5
E1C
  8
TEAM-DET3
 10
183.485132
 20
535.010372
 30
0.0
  0
SEQEND
  5
E1D
  8
TEAM-DET3
  0
POLYLINE
  5
14E
  8
TEAM-DET3
 66
     1
 10
0.0
 20
0.0
 30
0.0
  0
VERTEX
  5
E1E
  8
TEAM-DET3
 10
-0.000454
 20
869.991275
 30
0.0
  0
VERTEX
  5
E1F
  8
TEAM-DET3
 10
183.486997
 20
869.991275
 30
0.0
  0
SEQEND
  5
E20
  8
TEAM-DET3
  0
POLYLINE
  5
152
  8
TEAM-DET3
 66
     1
 10
0.0
 20
0.0
 30
0.0
  0
VERTEX
  5
E21
  8
TEAM-DET3
 10
-0.000454
 20
869.991275
 30
0.0
  0
VERTEX
  5
E22
  8
TEAM-DET3
 10
-183.496173
 20
869.991275
 30
0.0
  0
SEQEND
  5
E23
  8
TEAM-DET3
  0
POLYLINE
  5
156
  8
TEAM-DET3
 66
     1
 10
0.0
 20
0.0
 30
0.0
  0
VERTEX
  5
E24
  8
TEAM-DET3
 10
-0.000454
 20
819.990677
 30
0.0
  0
VERTEX
  5
E25
  8
TEAM-DET3
 10
183.486997
 20
819.990677
 30
0.0
  0
SEQEND
  5
E26
  8
TEAM-DET3
  0
POLYLINE
  5
15A
  8
TEAM-DET3
 66
     1
 10
0.0
 20
0.0
 30
0.0
  0
VERTEX
  5
E27
  8
TEAM-DET3
 10
-0.000454
 20
819.990677
 30
0.0
  0
VERTEX
  5
E28
  8
TEAM-DET3
 10
-183.496173
 20
819.990677
 30
0.0
  0
SEQEND
  5
E29
  8
TEAM-DET3
  0
LINE
  5
15E
  8
TEAM-DET3
 10
-68.928228
 20
1204.005075
 30
0.0
 11
68.875612
 21
1204.005075
 31
0.0
  0
LINE
  5
15F
  8
TEAM-DET2
 10
209.473692
 20
314.989
 30
0.0
 11
209.473692
 21
354.974
 31
0.0
  0
LINE
  5
160
  8
TEAM-DET2
 10
209.473692
 20
412.97403
 30
0.0
 11
209.473692
 21
1213.77403
 31
0.0
  0
LINE
  5
161
  8
TEAM-DET2
 10
209.473692
 20
314.989
 30
0.0
 11
188.473692
 21
314.989
 31
0.0
  0
ARC
  5
162
  8
TEAM-DET2
 10
188.460907
 20
319.9762
 30
0.0
 40
4.987216
 50
180.025259
 51
270.146875
  0
LINE
  5
163
  8
TEAM-DET2
 10
183.473692
 20
319.974
 30
0.0
 11
183.473692
 21
354.977664
 31
0.0
  0
LINE
  5
164
  8
TEAM-DET2
 10
183.473692
 20
355.004
 30
0.0
 11
183.473692
 21
355.030336
 31
0.0
  0
LINE
  5
165
  8
TEAM-DET2
 10
183.473692
 20
355.004
 30
0.0
 11
183.473692
 21
354.977664
 31
0.0
  0
LINE
  5
166
  8
TEAM-DET3
 10
171.473692
 20
1223.005075
 30
0.0
 11
182.973692
 21
1223.005075
 31
0.0
  0
LINE
  5
167
  8
TEAM-DET3
 10
171.473692
 20
1223.005075
 30
0.0
 11
171.473692
 21
1209.005075
 31
0.0
  0
LINE
  5
168
  8
TEAM-DET3
 10
172.473692
 20
1208.005075
 30
0.0
 11
182.973692
 21
1208.005075
 31
0.0
  0
ARC
  5
169
  8
TEAM-DET3
 10
172.473692
 20
1209.005075
 30
0.0
 40
1.0
 50
179.99999
 51
269.999999
  0
ARC
  5
16A
  8
TEAM-DET3
 10
-173.526308
 20
1209.005075
 30
0.0
 40
1.0
 50
270.000001
 51
0.00001
  0
LINE
  5
16B
  8
TEAM-DET3
 10
-173.526308
 20
1208.005075
 30
0.0
 11
-183.526308
 21
1208.005075
 31
0.0
  0
LINE
  5
16C
  8
TEAM-DET3
 10
-172.526308
 20
1223.005075
 30
0.0
 11
-172.526308
 21
1209.005075
 31
0.0
  0
LINE
  5
16D
  8
TEAM-DET3
 10
182.973692
 20
1175.005075
 30
0.0
 11
-183.526308
 21
1175.005075
 31
0.0
  0
LINE
  5
16E
  8
TEAM-DET3
 10
-172.526308
 20
1223.005075
 30
0.0
 11
-183.526308
 21
1223.005075
 31
0.0
  0
LINE
  5
16F
  8
TEAM-DET3
 10
-183.526308
 20
1247.005075
 30
0.0
 11
-172.526308
 21
1247.005075
 31
0.0
  0
LINE
  5
170
  8
TEAM-DET3
 10
76.455748
 20
1208.005075
 30
0.0
 11
76.455748
 21
1223.005075
 31
0.0
  0
LINE
  5
171
  8
TEAM-DET3
 10
73.132004
 20
1208.005075
 30
0.0
 11
76.723692
 21
1208.005075
 31
0.0
  0
LINE
  5
172
  8
TEAM-DET3
 10
72.973692
 20
1223.005075
 30
0.0
 11
76.723692
 21
1223.005075
 31
0.0
  0
ARC
  5
173
  8
TEAM-DET2
 10
-188.513523
 20
319.9762
 30
0.0
 40
4.987216
 50
269.853125
 51
359.974741
  0
LINE
  5
174
  8
TEAM-DET2
 10
-209.526308
 20
314.989
 30
0.0
 11
-188.526308
 21
314.989
 31
0.0
  0
LINE
  5
175
  8
TEAM-DET2
 10
-209.526308
 20
412.97403
 30
0.0
 11
-209.526308
 21
1213.747664
 31
0.0
  0
LINE
  5
176
  8
TEAM-DET2
 10
-209.526308
 20
314.989
 30
0.0
 11
-209.526308
 21
354.947634
 31
0.0
  0
LINE
  5
177
  8
TEAM-AXE
 10
0.001962
 20
447.160376
 30
0.0
 11
0.001962
 21
352.840368
 31
0.0
  0
LINE
  5
178
  8
TEAM-DET3
 10
-76.508364
 20
1208.005075
 30
0.0
 11
-76.508364
 21
1223.005075
 31
0.0
  0
LINE
  5
179
  8
TEAM-DET3
 10
-73.026308
 20
1223.005075
 30
0.0
 11
-76.508364
 21
1223.005075
 31
0.0
  0
LINE
  5
17A
  8
TEAM-DET3
 10
-73.18462
 20
1208.005075
 30
0.0
 11
-76.508364
 21
1208.005075
 31
0.0
  0
LINE
  5
17B
  8
TEAM-DET3
 10
201.473692
 20
412.974
 30
0.0
 11
209.473692
 21
412.974
 31
0.0
  0
LINE
  5
17C
  8
TEAM-DET3
 10
208.473692
 20
354.974
 30
0.0
 11
208.473692
 21
389.20044
 31
0.0
  0
LINE
  5
17D
  8
TEAM-DET3
 10
208.473692
 20
389.20044
 30
0.0
 11
208.473692
 21
390.297974
 31
0.0
  0
LINE
  5
17E
  8
TEAM-DET3
 10
208.473692
 20
404.74756
 30
0.0
 11
208.473692
 21
412.974
 31
0.0
  0
LINE
  5
17F
  8
TEAM-DET3
 10
209.473692
 20
412.974
 30
0.0
 11
209.473692
 21
403.823976
 31
0.0
  0
LINE
  5
180
  8
TEAM-DET3
 10
209.473692
 20
390.124024
 30
0.0
 11
209.473692
 21
354.974
 31
0.0
  0
LINE
  5
181
  8
TEAM-DET3
 10
209.473692
 20
404.74756
 30
0.0
 11
208.473692
 21
404.74756
 31
0.0
  0
ARC
  5
182
  8
TEAM-DET3
 10
209.473692
 20
377.731324
 30
0.0
 40
2.0
 50
0.0
 51
45.000001
  0
LINE
  5
183
  8
TEAM-DET3
 10
209.76654
 20
380.266848
 30
0.0
 11
210.887878
 21
379.14551
 31
0.0
  0
ARC
  5
184
  8
TEAM-DET3
 10
210.473692
 20
380.974
 30
0.0
 40
1.0
 50
180.000005
 51
224.999996
  0
LINE
  5
185
  8
TEAM-DET3
 10
209.473692
 20
379.14551
 30
0.0
 11
210.180784
 21
378.438478
 31
0.0
  0
ARC
  5
186
  8
TEAM-DET3
 10
209.473692
 20
377.731324
 30
0.0
 40
1.0
 50
0.0
 51
45.000001
  0
LINE
  5
187
  8
TEAM-DET3
 10
210.473692
 20
377.731324
 30
0.0
 11
210.473692
 21
368.216554
 31
0.0
  0
ARC
  5
188
  8
TEAM-DET3
 10
209.473692
 20
368.216554
 30
0.0
 40
1.0
 50
314.999992
 51
0.00001
  0
LINE
  5
189
  8
TEAM-DET3
 10
209.473692
 20
366.80237
 30
0.0
 11
210.180784
 21
367.509522
 31
0.0
  0
ARC
  5
18A
  8
TEAM-DET3
 10
210.473692
 20
364.974
 30
0.0
 40
1.0
 50
135.0
 51
180.000005
  0
LINE
  5
18B
  8
TEAM-DET3
 10
210.887878
 20
366.80237
 30
0.0
 11
209.76654
 21
365.681032
 31
0.0
  0
ARC
  5
18C
  8
TEAM-DET3
 10
209.473692
 20
368.216554
 30
0.0
 40
2.0
 50
314.999992
 51
0.00001
  0
LINE
  5
18D
  8
TEAM-DET3
 10
211.473692
 20
377.731324
 30
0.0
 11
211.473692
 21
368.216554
 31
0.0
  0
LINE
  5
18E
  8
TEAM-DET3
 10
201.473692
 20
354.974
 30
0.0
 11
209.473692
 21
354.974
 31
0.0
  0
LINE
  5
18F
  8
TEAM-DET3
 10
201.473692
 20
354.974
 30
0.0
 11
201.473692
 21
412.947634
 31
0.0
  0
LINE
  5
190
  8
TEAM-DET3
 10
205.473692
 20
411.974
 30
0.0
 11
205.473575
 21
387.954382
 31
0.0
  0
LINE
  5
191
  8
TEAM-DET3
 10
203.473692
 20
364.724976
 30
0.0
 11
203.473692
 21
356.724976
 31
0.0
  0
LINE
  5
192
  8
TEAM-DET3
 10
203.473692
 20
364.724976
 30
0.0
 11
203.473692
 21
382.764528
 31
0.0
  0
ARC
  5
193
  8
TEAM-DET3
 10
206.598936
 20
382.766602
 30
0.0
 40
3.125126
 50
150.626722
 51
180.038705
  0
LINE
  5
194
  8
TEAM-DET3
 10
203.875608
 20
384.29944
 30
0.0
 11
205.071776
 21
386.419434
 31
0.0
  0
ARC
  5
195
  8
TEAM-DET3
 10
202.348448
 20
387.952272
 30
0.0
 40
3.125128
 50
330.626703
 51
0.038691
  0
LINE
  5
196
  8
TEAM-DET3
 10
206.473692
 20
356.724976
 30
0.0
 11
206.473692
 21
380.513306
 31
0.0
  0
ARC
  5
197
  8
TEAM-DET3
 10
209.598936
 20
380.515382
 30
0.0
 40
3.125126
 50
150.626722
 51
180.038705
  0
ARC
  5
198
  8
TEAM-DET3
 10
209.120726
 20
375.769166
 30
0.0
 40
2.64731
 50
147.99128
 51
179.857691
  0
LINE
  5
199
  8
TEAM-DET3
 10
208.473692
 20
385.703126
 30
0.0
 11
208.473692
 21
385.486086
 31
0.0
  0
ARC
  5
19A
  8
TEAM-DET3
 10
205.826658
 20
380.505128
 30
0.0
 40
2.64731
 50
327.991258
 51
359.85767
  0
LINE
  5
19B
  8
TEAM-DET3
 10
208.071776
 20
379.101808
 30
0.0
 11
206.875608
 21
377.172486
 31
0.0
  0
LINE
  5
19C
  8
TEAM-DET3
 10
208.071776
 20
384.168214
 30
0.0
 11
206.875608
 21
382.04822
 31
0.0
  0
ARC
  5
19D
  8
TEAM-DET3
 10
205.348448
 20
385.701052
 30
0.0
 40
3.125128
 50
330.626703
 51
0.038691
  0
LINE
  5
19E
  8
TEAM-DET3
 10
210.973692
 20
403.107424
 30
0.0
 11
210.973692
 21
404.50757
 31
0.0
  0
LINE
  5
19F
  8
TEAM-DET3
 10
210.973692
 20
403.107424
 30
0.0
 11
210.973692
 21
396.31006
 31
0.0
  0
LINE
  5
1A0
  8
TEAM-DET3
 10
210.973692
 20
391.779298
 30
0.0
 11
210.973692
 21
396.31006
 31
0.0
  0
POLYLINE
  5
1A1
  8
TEAM-DET3
 66
     1
 10
0.0
 20
0.0
 30
0.0
 70
   128
  0
VERTEX
  5
E2A
  8
TEAM-DET3
 10
211.063489
 20
391.213247
 30
0.0
  0
VERTEX
  5
E2B
  8
TEAM-DET3
 10
211.12404
 20
391.1336
 30
0.0
  0
VERTEX
  5
E2C
  8
TEAM-DET3
 10
211.197467
 20
391.065071
 30
0.0
  0
VERTEX
  5
E2D
  8
TEAM-DET3
 10
211.281666
 20
391.009622
 30
0.0
  0
VERTEX
  5
E2E
  8
TEAM-DET3
 10
211.374227
 20
390.968841
 30
0.0
  0
VERTEX
  5
E2F
  8
TEAM-DET3
 10
211.472499
 20
390.943895
 30
0.0
  0
VERTEX
  5
E30
  8
TEAM-DET3
 10
211.573668
 20
390.9355
 30
0.0
  0
SEQEND
  5
E31
  8
TEAM-DET3
  0
LINE
  5
1A2
  8
TEAM-DET3
 10
210.973669
 20
391.779237
 30
0.0
 11
211.063495
 21
391.213279
 31
0.0
  0
LINE
  5
1A3
  8
TEAM-DET3
 10
211.490172
 20
390.124024
 30
0.0
 11
211.573668
 21
390.124024
 31
0.0
  0
LINE
  5
1A4
  8
TEAM-DET3
 10
214.27368
 20
404.50757
 30
0.0
 11
214.27368
 21
403.107424
 31
0.0
  0
LINE
  5
1A5
  8
TEAM-DET3
 10
214.27368
 20
396.31006
 30
0.0
 11
214.27368
 21
403.107424
 31
0.0
  0
LINE
  5
1A6
  8
TEAM-DET3
 10
214.27368
 20
396.31006
 30
0.0
 11
214.27368
 21
391.521852
 31
0.0
  0
LINE
  5
1A7
  8
TEAM-DET3
 10
214.27368
 20
391.301516
 30
0.0
 11
214.27368
 21
391.521852
 31
0.0
  0
LINE
  5
1A8
  8
TEAM-DET3
 10
214.27368
 20
391.301516
 30
0.0
 11
214.27368
 21
390.866212
 31
0.0
  0
LINE
  5
1A9
  8
TEAM-DET3
 10
214.27368
 20
390.866212
 30
0.0
 11
214.27368
 21
390.724
 31
0.0
  0
LINE
  5
1AA
  8
TEAM-DET3
 10
213.673704
 20
390.935548
 30
0.0
 11
211.573668
 21
390.935548
 31
0.0
  0
LINE
  5
1AB
  8
TEAM-DET3
 10
213.673704
 20
390.124024
 30
0.0
 11
209.473692
 21
390.124024
 31
0.0
  0
POLYLINE
  5
1AC
  8
TEAM-DET3
 66
     1
 10
0.0
 20
0.0
 30
0.0
 70
   128
  0
VERTEX
  5
E32
  8
TEAM-DET3
 10
213.673704
 20
390.9355
 30
0.0
  0
VERTEX
  5
E33
  8
TEAM-DET3
 10
213.777894
 20
390.944408
 30
0.0
  0
VERTEX
  5
E34
  8
TEAM-DET3
 10
213.878918
 20
390.970862
 30
0.0
  0
VERTEX
  5
E35
  8
TEAM-DET3
 10
213.973707
 20
391.014056
 30
0.0
  0
VERTEX
  5
E36
  8
TEAM-DET3
 10
214.059381
 20
391.072681
 30
0.0
  0
VERTEX
  5
E37
  8
TEAM-DET3
 10
214.133335
 20
391.144952
 30
0.0
  0
VERTEX
  5
E38
  8
TEAM-DET3
 10
214.193325
 20
391.228676
 30
0.0
  0
VERTEX
  5
E39
  8
TEAM-DET3
 10
214.237525
 20
391.321308
 30
0.0
  0
VERTEX
  5
E3A
  8
TEAM-DET3
 10
214.264595
 20
391.420033
 30
0.0
  0
VERTEX
  5
E3B
  8
TEAM-DET3
 10
214.27371
 20
391.521852
 30
0.0
  0
SEQEND
  5
E3C
  8
TEAM-DET3
  0
ARC
  5
1AD
  8
TEAM-DET3
 10
213.673766
 20
390.723878
 30
0.0
 40
0.599894
 50
269.990722
 51
0.013898
  0
LINE
  5
1AE
  8
TEAM-DET3
 10
208.473692
 20
411.974
 30
0.0
 11
205.473692
 21
411.974
 31
0.0
  0
LINE
  5
1AF
  8
TEAM-DET3
 10
206.473692
 20
356.724976
 30
0.0
 11
203.473692
 21
356.724976
 31
0.0
  0
ARC
  5
1B0
  8
TEAM-DET3
 10
211.573668
 20
404.50757
 30
0.0
 40
0.6
 50
90.000003
 51
180.000005
  0
LINE
  5
1B1
  8
TEAM-DET3
 10
210.973692
 20
403.823976
 30
0.0
 11
209.473692
 21
403.823976
 31
0.0
  0
LINE
  5
1B2
  8
TEAM-DET3
 10
211.573668
 20
405.107546
 30
0.0
 11
213.673704
 21
405.107546
 31
0.0
  0
ARC
  5
1B3
  8
TEAM-DET3
 10
213.673704
 20
404.50757
 30
0.0
 40
0.6
 50
359.999999
 51
90.000003
  0
ARC
  5
1B4
  8
TEAM-DET3
 10
-213.72632
 20
363.414064
 30
0.0
 40
0.6
 50
179.999999
 51
270.000003
  0
LINE
  5
1B5
  8
TEAM-DET3
 10
-211.626284
 20
362.814088
 30
0.0
 11
-213.72632
 21
362.814088
 31
0.0
  0
LINE
  5
1B6
  8
TEAM-DET3
 10
-211.026308
 20
364.097658
 30
0.0
 11
-209.526308
 21
364.097658
 31
0.0
  0
ARC
  5
1B7
  8
TEAM-DET3
 10
-211.626284
 20
363.414064
 30
0.0
 40
0.6
 50
270.000003
 51
0.000005
  0
LINE
  5
1B8
  8
TEAM-DET3
 10
-206.526308
 20
411.196658
 30
0.0
 11
-203.526308
 21
411.196658
 31
0.0
  0
LINE
  5
1B9
  8
TEAM-DET3
 10
-208.526308
 20
355.947634
 30
0.0
 11
-205.526308
 21
355.947634
 31
0.0
  0
ARC
  5
1BA
  8
TEAM-DET3
 10
-213.726382
 20
377.197756
 30
0.0
 40
0.599894
 50
89.990722
 51
180.013898
  0
POLYLINE
  5
1BB
  8
TEAM-DET3
 66
     1
 10
0.0
 20
0.0
 30
0.0
 70
   128
  0
VERTEX
  5
E3D
  8
TEAM-DET3
 10
-213.72632
 20
376.986134
 30
0.0
  0
VERTEX
  5
E3E
  8
TEAM-DET3
 10
-213.83051
 20
376.977226
 30
0.0
  0
VERTEX
  5
E3F
  8
TEAM-DET3
 10
-213.931534
 20
376.950772
 30
0.0
  0
VERTEX
  5
E40
  8
TEAM-DET3
 10
-214.026323
 20
376.907578
 30
0.0
  0
VERTEX
  5
E41
  8
TEAM-DET3
 10
-214.111997
 20
376.848953
 30
0.0
  0
VERTEX
  5
E42
  8
TEAM-DET3
 10
-214.185951
 20
376.776682
 30
0.0
  0
VERTEX
  5
E43
  8
TEAM-DET3
 10
-214.245941
 20
376.692958
 30
0.0
  0
VERTEX
  5
E44
  8
TEAM-DET3
 10
-214.290141
 20
376.600326
 30
0.0
  0
VERTEX
  5
E45
  8
TEAM-DET3
 10
-214.317211
 20
376.501601
 30
0.0
  0
VERTEX
  5
E46
  8
TEAM-DET3
 10
-214.326326
 20
376.399782
 30
0.0
  0
SEQEND
  5
E47
  8
TEAM-DET3
  0
LINE
  5
1BC
  8
TEAM-DET3
 10
-213.72632
 20
377.79761
 30
0.0
 11
-209.526308
 21
377.79761
 31
0.0
  0
LINE
  5
1BD
  8
TEAM-DET3
 10
-213.72632
 20
376.986086
 30
0.0
 11
-211.626284
 21
376.986086
 31
0.0
  0
LINE
  5
1BE
  8
TEAM-DET3
 10
-214.326296
 20
377.055422
 30
0.0
 11
-214.326296
 21
377.197634
 31
0.0
  0
LINE
  5
1BF
  8
TEAM-DET3
 10
-214.326296
 20
376.620118
 30
0.0
 11
-214.326296
 21
377.055422
 31
0.0
  0
LINE
  5
1C0
  8
TEAM-DET3
 10
-214.326296
 20
376.620118
 30
0.0
 11
-214.326296
 21
376.399782
 31
0.0
  0
LINE
  5
1C1
  8
TEAM-DET3
 10
-214.326296
 20
371.611574
 30
0.0
 11
-214.326296
 21
376.399782
 31
0.0
  0
LINE
  5
1C2
  8
TEAM-DET3
 10
-214.326296
 20
371.611574
 30
0.0
 11
-214.326296
 21
364.81421
 31
0.0
  0
LINE
  5
1C3
  8
TEAM-DET3
 10
-214.326296
 20
363.414064
 30
0.0
 11
-214.326296
 21
364.81421
 31
0.0
  0
LINE
  5
1C4
  8
TEAM-DET3
 10
-211.542788
 20
377.79761
 30
0.0
 11
-211.626284
 21
377.79761
 31
0.0
  0
LINE
  5
1C5
  8
TEAM-DET3
 10
-211.026285
 20
376.142397
 30
0.0
 11
-211.116111
 21
376.708355
 31
0.0
  0
POLYLINE
  5
1C6
  8
TEAM-DET3
 66
     1
 10
0.0
 20
0.0
 30
0.0
 70
   128
  0
VERTEX
  5
E48
  8
TEAM-DET3
 10
-211.116105
 20
376.708387
 30
0.0
  0
VERTEX
  5
E49
  8
TEAM-DET3
 10
-211.176656
 20
376.788034
 30
0.0
  0
VERTEX
  5
E4A
  8
TEAM-DET3
 10
-211.250083
 20
376.856563
 30
0.0
  0
VERTEX
  5
E4B
  8
TEAM-DET3
 10
-211.334282
 20
376.912012
 30
0.0
  0
VERTEX
  5
E4C
  8
TEAM-DET3
 10
-211.426843
 20
376.952793
 30
0.0
  0
VERTEX
  5
E4D
  8
TEAM-DET3
 10
-211.525115
 20
376.977739
 30
0.0
  0
VERTEX
  5
E4E
  8
TEAM-DET3
 10
-211.626284
 20
376.986134
 30
0.0
  0
SEQEND
  5
E4F
  8
TEAM-DET3
  0
LINE
  5
1C7
  8
TEAM-DET3
 10
-211.026308
 20
376.142336
 30
0.0
 11
-211.026308
 21
371.611574
 31
0.0
  0
LINE
  5
1C8
  8
TEAM-DET3
 10
-211.026308
 20
364.81421
 30
0.0
 11
-211.026308
 21
371.611574
 31
0.0
  0
LINE
  5
1C9
  8
TEAM-DET3
 10
-211.026308
 20
364.81421
 30
0.0
 11
-211.026308
 21
363.414064
 31
0.0
  0
ARC
  5
1CA
  8
TEAM-DET3
 10
-205.401064
 20
382.220582
 30
0.0
 40
3.125128
 50
150.626703
 51
180.038691
  0
LINE
  5
1CB
  8
TEAM-DET3
 10
-208.124392
 20
383.75342
 30
0.0
 11
-206.928224
 21
385.873414
 31
0.0
  0
LINE
  5
1CC
  8
TEAM-DET3
 10
-208.124392
 20
388.819826
 30
0.0
 11
-206.928224
 21
390.749148
 31
0.0
  0
ARC
  5
1CD
  8
TEAM-DET3
 10
-205.879274
 20
387.416506
 30
0.0
 40
2.64731
 50
147.991258
 51
179.85767
  0
LINE
  5
1CE
  8
TEAM-DET3
 10
-208.526308
 20
382.218508
 30
0.0
 11
-208.526308
 21
382.435548
 31
0.0
  0
ARC
  5
1CF
  8
TEAM-DET3
 10
-209.173342
 20
392.152468
 30
0.0
 40
2.64731
 50
327.99128
 51
359.857691
  0
ARC
  5
1D0
  8
TEAM-DET3
 10
-209.651552
 20
387.406252
 30
0.0
 40
3.125126
 50
330.626722
 51
0.038705
  0
LINE
  5
1D1
  8
TEAM-DET3
 10
-206.526308
 20
411.196658
 30
0.0
 11
-206.526308
 21
387.408328
 31
0.0
  0
ARC
  5
1D2
  8
TEAM-DET3
 10
-202.401064
 20
379.969362
 30
0.0
 40
3.125128
 50
150.626703
 51
180.038691
  0
LINE
  5
1D3
  8
TEAM-DET3
 10
-203.928224
 20
383.622194
 30
0.0
 11
-205.124392
 21
381.5022
 31
0.0
  0
ARC
  5
1D4
  8
TEAM-DET3
 10
-206.651552
 20
385.155032
 30
0.0
 40
3.125126
 50
330.626722
 51
0.038705
  0
LINE
  5
1D5
  8
TEAM-DET3
 10
-203.526308
 20
403.196658
 30
0.0
 11
-203.526308
 21
385.157106
 31
0.0
  0
LINE
  5
1D6
  8
TEAM-DET3
 10
-203.526308
 20
403.196658
 30
0.0
 11
-203.526308
 21
411.196658
 31
0.0
  0
LINE
  5
1D7
  8
TEAM-DET3
 10
-205.526308
 20
355.947634
 30
0.0
 11
-205.526191
 21
379.967252
 31
0.0
  0
LINE
  5
1D8
  8
TEAM-DET3
 10
-201.526308
 20
412.947634
 30
0.0
 11
-201.526308
 21
354.974
 31
0.0
  0
LINE
  5
1D9
  8
TEAM-DET3
 10
-201.526308
 20
412.947634
 30
0.0
 11
-209.526308
 21
412.947634
 31
0.0
  0
LINE
  5
1DA
  8
TEAM-DET3
 10
-211.526308
 20
390.19031
 30
0.0
 11
-211.526308
 21
399.70508
 31
0.0
  0
ARC
  5
1DB
  8
TEAM-DET3
 10
-209.526308
 20
399.70508
 30
0.0
 40
2.0
 50
134.999992
 51
180.00001
  0
LINE
  5
1DC
  8
TEAM-DET3
 10
-210.940494
 20
401.119264
 30
0.0
 11
-209.819156
 21
402.240602
 31
0.0
  0
ARC
  5
1DD
  8
TEAM-DET3
 10
-210.526308
 20
402.947634
 30
0.0
 40
1.0
 50
315.0
 51
0.000005
  0
LINE
  5
1DE
  8
TEAM-DET3
 10
-209.526308
 20
401.119264
 30
0.0
 11
-210.2334
 21
400.412112
 31
0.0
  0
ARC
  5
1DF
  8
TEAM-DET3
 10
-209.526308
 20
399.70508
 30
0.0
 40
1.0
 50
134.999992
 51
180.00001
  0
LINE
  5
1E0
  8
TEAM-DET3
 10
-210.526308
 20
390.19031
 30
0.0
 11
-210.526308
 21
399.70508
 31
0.0
  0
ARC
  5
1E1
  8
TEAM-DET3
 10
-209.526308
 20
390.19031
 30
0.0
 40
1.0
 50
180.0
 51
225.000001
  0
LINE
  5
1E2
  8
TEAM-DET3
 10
-209.526308
 20
388.776124
 30
0.0
 11
-210.2334
 21
389.483156
 31
0.0
  0
ARC
  5
1E3
  8
TEAM-DET3
 10
-210.526308
 20
386.947634
 30
0.0
 40
1.0
 50
0.000005
 51
44.999996
  0
LINE
  5
1E4
  8
TEAM-DET3
 10
-209.819156
 20
387.654786
 30
0.0
 11
-210.940494
 21
388.776124
 31
0.0
  0
ARC
  5
1E5
  8
TEAM-DET3
 10
-209.526308
 20
390.19031
 30
0.0
 40
2.0
 50
180.0
 51
225.000001
  0
LINE
  5
1E6
  8
TEAM-DET3
 10
-209.526308
 20
363.174074
 30
0.0
 11
-208.526308
 21
363.174074
 31
0.0
  0
LINE
  5
1E7
  8
TEAM-DET3
 10
-209.526308
 20
377.79761
 30
0.0
 11
-209.526308
 21
412.947634
 31
0.0
  0
LINE
  5
1E8
  8
TEAM-DET3
 10
-209.526308
 20
354.947634
 30
0.0
 11
-209.526308
 21
364.097658
 31
0.0
  0
LINE
  5
1E9
  8
TEAM-DET3
 10
-208.526308
 20
363.174074
 30
0.0
 11
-208.526308
 21
354.947634
 31
0.0
  0
LINE
  5
1EA
  8
TEAM-DET3
 10
-208.526308
 20
378.721194
 30
0.0
 11
-208.526308
 21
377.62366
 31
0.0
  0
LINE
  5
1EB
  8
TEAM-DET3
 10
-208.526308
 20
412.947634
 30
0.0
 11
-208.526308
 21
378.721194
 31
0.0
  0
LINE
  5
1EC
  8
TEAM-DET3
 10
-201.526308
 20
354.947634
 30
0.0
 11
-209.526308
 21
354.947634
 31
0.0
  0
LINE
  5
1ED
  8
TEAM-DET2
 10
-209.526308
 20
412.947634
 30
0.0
 11
-209.526308
 21
412.97403
 31
0.0
  0
LINE
  5
1EE
  8
TEAM-AXE
 10
29.805396
 20
1050.000433
 30
0.0
 11
-28.04458
 21
1050.000433
 31
0.0
  0
LINE
  5
1EF
  8
TEAM-DET3
 10
8.751962
 20
543.010372
 30
0.0
 11
0.528268
 21
543.010372
 31
0.0
  0
ARC
  5
1F0
  8
TEAM-DET3
 10
8.751962
 20
543.510372
 30
0.0
 40
0.5
 50
270.000001
 51
0.00001
  0
LINE
  5
1F1
  8
TEAM-DET3
 10
9.251962
 20
556.510372
 30
0.0
 11
9.251962
 21
543.510372
 31
0.0
  0
ARC
  5
1F2
  8
TEAM-DET3
 10
8.751962
 20
556.510372
 30
0.0
 40
0.5
 50
0.0
 51
90.000003
  0
LINE
  5
1F3
  8
TEAM-DET3
 10
0.528268
 20
557.010372
 30
0.0
 11
8.751962
 21
557.010372
 31
0.0
  0
LINE
  5
1F4
  8
TEAM-DET3
 10
183.248135
 20
564.998922
 30
0.0
 11
-0.001897
 21
564.998922
 31
0.0
  0
LINE
  5
1F5
  8
TEAM-DET3
 10
0.475626
 20
543.010372
 30
0.0
 11
-7.748038
 21
543.010372
 31
0.0
  0
LINE
  5
1F6
  8
TEAM-DET3
 10
-7.748038
 20
557.010372
 30
0.0
 11
0.475626
 21
557.010372
 31
0.0
  0
LINE
  5
1F7
  8
TEAM-DET3
 10
-76.778203
 20
543.748922
 30
0.0
 11
-76.778203
 21
543.998922
 31
0.0
  0
ARC
  5
1F8
  8
TEAM-DET3
 10
-77.528203
 20
543.748922
 30
0.0
 40
0.75
 50
180.000005
 51
0.00001
  0
LINE
  5
1F9
  8
TEAM-DET3
 10
-78.278203
 20
543.998922
 30
0.0
 11
-78.278203
 21
543.748922
 31
0.0
  0
LINE
  5
1FA
  8
TEAM-DET3
 10
-79.278203
 20
543.998922
 30
0.0
 11
-78.278203
 21
543.998922
 31
0.0
  0
LINE
  5
1FB
  8
TEAM-DET3
 10
-79.278203
 20
543.748922
 30
0.0
 11
-79.278203
 21
543.998922
 31
0.0
  0
ARC
  5
1FC
  8
TEAM-DET3
 10
-80.028203
 20
543.748922
 30
0.0
 40
0.75
 50
180.000005
 51
0.00001
  0
LINE
  5
1FD
  8
TEAM-DET3
 10
-80.778203
 20
543.998922
 30
0.0
 11
-80.778203
 21
543.748922
 31
0.0
  0
LINE
  5
1FE
  8
TEAM-DET3
 10
-81.778203
 20
543.998922
 30
0.0
 11
-80.778203
 21
543.998922
 31
0.0
  0
LINE
  5
1FF
  8
TEAM-DET3
 10
-81.778203
 20
543.748922
 30
0.0
 11
-81.778203
 21
543.998922
 31
0.0
  0
ARC
  5
200
  8
TEAM-DET3
 10
-82.528203
 20
543.748922
 30
0.0
 40
0.75
 50
180.000005
 51
0.00001
  0
LINE
  5
201
  8
TEAM-DET3
 10
-83.278203
 20
543.998922
 30
0.0
 11
-83.278203
 21
543.748922
 31
0.0
  0
LINE
  5
202
  8
TEAM-DET3
 10
-84.278203
 20
543.998922
 30
0.0
 11
-83.278203
 21
543.998922
 31
0.0
  0
LINE
  5
203
  8
TEAM-DET3
 10
-84.278203
 20
543.748922
 30
0.0
 11
-84.278203
 21
543.998922
 31
0.0
  0
ARC
  5
204
  8
TEAM-DET3
 10
-85.028203
 20
543.748922
 30
0.0
 40
0.75
 50
180.000005
 51
0.00001
  0
LINE
  5
205
  8
TEAM-DET3
 10
-85.778203
 20
543.998922
 30
0.0
 11
-85.778203
 21
543.748922
 31
0.0
  0
LINE
  5
206
  8
TEAM-DET3
 10
-86.778203
 20
543.998922
 30
0.0
 11
-85.778203
 21
543.998922
 31
0.0
  0
LINE
  5
207
  8
TEAM-DET3
 10
-86.778203
 20
543.748922
 30
0.0
 11
-86.778203
 21
543.998922
 31
0.0
  0
ARC
  5
208
  8
TEAM-DET3
 10
-87.528203
 20
543.748922
 30
0.0
 40
0.75
 50
180.000005
 51
0.00001
  0
LINE
  5
209
  8
TEAM-DET3
 10
-88.278203
 20
543.998922
 30
0.0
 11
-88.278203
 21
543.748922
 31
0.0
  0
LINE
  5
20A
  8
TEAM-DET3
 10
-89.278203
 20
543.998922
 30
0.0
 11
-88.278203
 21
543.998922
 31
0.0
  0
LINE
  5
20B
  8
TEAM-DET3
 10
-89.278203
 20
543.748922
 30
0.0
 11
-89.278203
 21
543.998922
 31
0.0
  0
ARC
  5
20C
  8
TEAM-DET3
 10
-90.028203
 20
543.748922
 30
0.0
 40
0.75
 50
180.000005
 51
0.00001
  0
LINE
  5
20D
  8
TEAM-DET3
 10
-90.778203
 20
543.998922
 30
0.0
 11
-90.778203
 21
543.748922
 31
0.0
  0
LINE
  5
20E
  8
TEAM-DET3
 10
-91.778203
 20
543.998922
 30
0.0
 11
-90.778203
 21
543.998922
 31
0.0
  0
LINE
  5
20F
  8
TEAM-DET3
 10
-91.778203
 20
543.748922
 30
0.0
 11
-91.778203
 21
543.998922
 31
0.0
  0
ARC
  5
210
  8
TEAM-DET3
 10
-92.528203
 20
543.748922
 30
0.0
 40
0.75
 50
180.000005
 51
0.00001
  0
LINE
  5
211
  8
TEAM-DET3
 10
-93.278203
 20
543.998922
 30
0.0
 11
-93.278203
 21
543.748922
 31
0.0
  0
LINE
  5
212
  8
TEAM-DET3
 10
-94.278203
 20
543.998922
 30
0.0
 11
-93.278203
 21
543.998922
 31
0.0
  0
LINE
  5
213
  8
TEAM-DET3
 10
-94.278203
 20
543.748922
 30
0.0
 11
-94.278203
 21
543.998922
 31
0.0
  0
ARC
  5
214
  8
TEAM-DET3
 10
-95.028203
 20
543.748922
 30
0.0
 40
0.75
 50
180.000005
 51
0.00001
  0
LINE
  5
215
  8
TEAM-DET3
 10
-95.778203
 20
543.998922
 30
0.0
 11
-95.778203
 21
543.748922
 31
0.0
  0
LINE
  5
216
  8
TEAM-DET3
 10
-96.778203
 20
543.998922
 30
0.0
 11
-95.778203
 21
543.998922
 31
0.0
  0
LINE
  5
217
  8
TEAM-DET3
 10
-96.778203
 20
543.748922
 30
0.0
 11
-96.778203
 21
543.998922
 31
0.0
  0
ARC
  5
218
  8
TEAM-DET3
 10
-97.528203
 20
543.748922
 30
0.0
 40
0.75
 50
180.000005
 51
0.00001
  0
LINE
  5
219
  8
TEAM-DET3
 10
-98.278203
 20
543.998922
 30
0.0
 11
-98.278203
 21
543.748922
 31
0.0
  0
LINE
  5
21A
  8
TEAM-DET3
 10
-99.278203
 20
543.998922
 30
0.0
 11
-98.278203
 21
543.998922
 31
0.0
  0
LINE
  5
21B
  8
TEAM-DET3
 10
-99.278203
 20
543.748922
 30
0.0
 11
-99.278203
 21
543.998922
 31
0.0
  0
ARC
  5
21C
  8
TEAM-DET3
 10
-100.028203
 20
543.748922
 30
0.0
 40
0.75
 50
180.000005
 51
0.00001
  0
LINE
  5
21D
  8
TEAM-DET3
 10
-100.778203
 20
543.998922
 30
0.0
 11
-100.778203
 21
543.748922
 31
0.0
  0
LINE
  5
21E
  8
TEAM-DET3
 10
-101.778203
 20
543.998922
 30
0.0
 11
-100.778203
 21
543.998922
 31
0.0
  0
LINE
  5
21F
  8
TEAM-DET3
 10
-101.778203
 20
543.748922
 30
0.0
 11
-101.778203
 21
543.998922
 31
0.0
  0
ARC
  5
220
  8
TEAM-DET3
 10
-102.528203
 20
543.748922
 30
0.0
 40
0.75
 50
180.000005
 51
0.00001
  0
LINE
  5
221
  8
TEAM-DET3
 10
-103.278203
 20
543.998922
 30
0.0
 11
-103.278203
 21
543.748922
 31
0.0
  0
LINE
  5
222
  8
TEAM-DET3
 10
-104.278203
 20
543.998922
 30
0.0
 11
-103.278203
 21
543.998922
 31
0.0
  0
LINE
  5
223
  8
TEAM-DET3
 10
-104.278203
 20
543.748922
 30
0.0
 11
-104.278203
 21
543.998922
 31
0.0
  0
ARC
  5
224
  8
TEAM-DET3
 10
-105.028203
 20
543.748922
 30
0.0
 40
0.75
 50
180.000005
 51
0.00001
  0
LINE
  5
225
  8
TEAM-DET3
 10
-105.778203
 20
543.998922
 30
0.0
 11
-105.778203
 21
543.748922
 31
0.0
  0
LINE
  5
226
  8
TEAM-DET3
 10
-106.778203
 20
543.998922
 30
0.0
 11
-105.778203
 21
543.998922
 31
0.0
  0
LINE
  5
227
  8
TEAM-DET3
 10
-106.778203
 20
543.748922
 30
0.0
 11
-106.778203
 21
543.998922
 31
0.0
  0
ARC
  5
228
  8
TEAM-DET3
 10
-107.528203
 20
543.748922
 30
0.0
 40
0.75
 50
180.000005
 51
0.00001
  0
LINE
  5
229
  8
TEAM-DET3
 10
-108.278203
 20
543.998922
 30
0.0
 11
-108.278203
 21
543.748922
 31
0.0
  0
LINE
  5
22A
  8
TEAM-DET3
 10
-109.278203
 20
543.998922
 30
0.0
 11
-108.278203
 21
543.998922
 31
0.0
  0
LINE
  5
22B
  8
TEAM-DET3
 10
-109.278203
 20
543.748922
 30
0.0
 11
-109.278203
 21
543.998922
 31
0.0
  0
ARC
  5
22C
  8
TEAM-DET3
 10
-110.028203
 20
543.748922
 30
0.0
 40
0.75
 50
180.000005
 51
0.00001
  0
LINE
  5
22D
  8
TEAM-DET3
 10
-110.778203
 20
543.998922
 30
0.0
 11
-110.778203
 21
543.748922
 31
0.0
  0
LINE
  5
22E
  8
TEAM-DET3
 10
-111.778203
 20
543.998922
 30
0.0
 11
-110.778203
 21
543.998922
 31
0.0
  0
LINE
  5
22F
  8
TEAM-DET3
 10
-111.778203
 20
543.748922
 30
0.0
 11
-111.778203
 21
543.998922
 31
0.0
  0
ARC
  5
230
  8
TEAM-DET3
 10
-112.528203
 20
543.748922
 30
0.0
 40
0.75
 50
180.000005
 51
0.00001
  0
LINE
  5
231
  8
TEAM-DET3
 10
-113.278203
 20
543.998922
 30
0.0
 11
-113.278203
 21
543.748922
 31
0.0
  0
LINE
  5
232
  8
TEAM-DET3
 10
-114.278203
 20
543.998922
 30
0.0
 11
-113.278203
 21
543.998922
 31
0.0
  0
LINE
  5
233
  8
TEAM-DET3
 10
-114.278203
 20
543.748922
 30
0.0
 11
-114.278203
 21
543.998922
 31
0.0
  0
ARC
  5
234
  8
TEAM-DET3
 10
-115.028203
 20
543.748922
 30
0.0
 40
0.75
 50
180.000005
 51
0.00001
  0
LINE
  5
235
  8
TEAM-DET3
 10
-115.778203
 20
543.998922
 30
0.0
 11
-115.778203
 21
543.748922
 31
0.0
  0
LINE
  5
236
  8
TEAM-DET3
 10
-116.778203
 20
543.998922
 30
0.0
 11
-115.778203
 21
543.998922
 31
0.0
  0
LINE
  5
237
  8
TEAM-DET3
 10
-116.778203
 20
543.748922
 30
0.0
 11
-116.778203
 21
543.998922
 31
0.0
  0
ARC
  5
238
  8
TEAM-DET3
 10
-117.528203
 20
543.748922
 30
0.0
 40
0.75
 50
180.000005
 51
0.00001
  0
LINE
  5
239
  8
TEAM-DET3
 10
-118.278203
 20
543.998922
 30
0.0
 11
-118.278203
 21
543.748922
 31
0.0
  0
LINE
  5
23A
  8
TEAM-DET3
 10
-119.278203
 20
543.998922
 30
0.0
 11
-118.278203
 21
543.998922
 31
0.0
  0
LINE
  5
23B
  8
TEAM-DET3
 10
-119.278203
 20
543.748922
 30
0.0
 11
-119.278203
 21
543.998922
 31
0.0
  0
ARC
  5
23C
  8
TEAM-DET3
 10
-120.028203
 20
543.748922
 30
0.0
 40
0.75
 50
180.000005
 51
0.00001
  0
LINE
  5
23D
  8
TEAM-DET3
 10
-120.778203
 20
543.998922
 30
0.0
 11
-120.778203
 21
543.748922
 31
0.0
  0
LINE
  5
23E
  8
TEAM-DET3
 10
-121.778203
 20
543.998922
 30
0.0
 11
-120.778203
 21
543.998922
 31
0.0
  0
LINE
  5
23F
  8
TEAM-DET3
 10
-121.778203
 20
543.748922
 30
0.0
 11
-121.778203
 21
543.998922
 31
0.0
  0
ARC
  5
240
  8
TEAM-DET3
 10
-122.528203
 20
543.748922
 30
0.0
 40
0.75
 50
180.000005
 51
0.00001
  0
LINE
  5
241
  8
TEAM-DET3
 10
-123.278203
 20
543.998922
 30
0.0
 11
-123.278203
 21
543.748922
 31
0.0
  0
LINE
  5
242
  8
TEAM-DET3
 10
-124.278203
 20
543.998922
 30
0.0
 11
-123.278203
 21
543.998922
 31
0.0
  0
LINE
  5
243
  8
TEAM-DET3
 10
-124.278203
 20
543.748922
 30
0.0
 11
-124.278203
 21
543.998922
 31
0.0
  0
ARC
  5
244
  8
TEAM-DET3
 10
-125.028203
 20
543.748922
 30
0.0
 40
0.75
 50
180.000005
 51
0.00001
  0
LINE
  5
245
  8
TEAM-DET3
 10
-125.778203
 20
543.998922
 30
0.0
 11
-125.778203
 21
543.748922
 31
0.0
  0
LINE
  5
246
  8
TEAM-DET3
 10
-126.778203
 20
543.998922
 30
0.0
 11
-125.778203
 21
543.998922
 31
0.0
  0
LINE
  5
247
  8
TEAM-DET3
 10
-126.778203
 20
543.748922
 30
0.0
 11
-126.778203
 21
543.998922
 31
0.0
  0
ARC
  5
248
  8
TEAM-DET3
 10
-127.528203
 20
543.748922
 30
0.0
 40
0.75
 50
180.000005
 51
0.00001
  0
LINE
  5
249
  8
TEAM-DET3
 10
-128.278203
 20
543.998922
 30
0.0
 11
-128.278203
 21
543.748922
 31
0.0
  0
LINE
  5
24A
  8
TEAM-DET3
 10
-129.278203
 20
543.998922
 30
0.0
 11
-128.278203
 21
543.998922
 31
0.0
  0
LINE
  5
24B
  8
TEAM-DET3
 10
-129.278203
 20
543.748922
 30
0.0
 11
-129.278203
 21
543.998922
 31
0.0
  0
ARC
  5
24C
  8
TEAM-DET3
 10
-130.028203
 20
543.748922
 30
0.0
 40
0.75
 50
180.000005
 51
0.00001
  0
LINE
  5
24D
  8
TEAM-DET3
 10
-130.778203
 20
543.998922
 30
0.0
 11
-130.778203
 21
543.748922
 31
0.0
  0
LINE
  5
24E
  8
TEAM-DET3
 10
-131.778203
 20
543.998922
 30
0.0
 11
-130.778203
 21
543.998922
 31
0.0
  0
LINE
  5
24F
  8
TEAM-DET3
 10
-131.778203
 20
543.748922
 30
0.0
 11
-131.778203
 21
543.998922
 31
0.0
  0
ARC
  5
250
  8
TEAM-DET3
 10
-132.528203
 20
543.748922
 30
0.0
 40
0.75
 50
180.000005
 51
0.00001
  0
LINE
  5
251
  8
TEAM-DET3
 10
-133.278203
 20
543.998922
 30
0.0
 11
-133.278203
 21
543.748922
 31
0.0
  0
LINE
  5
252
  8
TEAM-DET3
 10
-134.278203
 20
543.998922
 30
0.0
 11
-133.278203
 21
543.998922
 31
0.0
  0
LINE
  5
253
  8
TEAM-DET3
 10
-134.278203
 20
543.748922
 30
0.0
 11
-134.278203
 21
543.998922
 31
0.0
  0
ARC
  5
254
  8
TEAM-DET3
 10
-135.028203
 20
543.748922
 30
0.0
 40
0.75
 50
180.000005
 51
0.00001
  0
LINE
  5
255
  8
TEAM-DET3
 10
-135.778203
 20
543.998922
 30
0.0
 11
-135.778203
 21
543.748922
 31
0.0
  0
LINE
  5
256
  8
TEAM-DET3
 10
-136.778203
 20
543.998922
 30
0.0
 11
-135.778203
 21
543.998922
 31
0.0
  0
LINE
  5
257
  8
TEAM-DET3
 10
-136.778203
 20
543.748922
 30
0.0
 11
-136.778203
 21
543.998922
 31
0.0
  0
ARC
  5
258
  8
TEAM-DET3
 10
-137.528203
 20
543.748922
 30
0.0
 40
0.75
 50
180.000005
 51
0.00001
  0
LINE
  5
259
  8
TEAM-DET3
 10
-138.278203
 20
543.998922
 30
0.0
 11
-138.278203
 21
543.748922
 31
0.0
  0
LINE
  5
25A
  8
TEAM-DET3
 10
-139.278203
 20
543.998922
 30
0.0
 11
-138.278203
 21
543.998922
 31
0.0
  0
LINE
  5
25B
  8
TEAM-DET3
 10
-139.278203
 20
543.748922
 30
0.0
 11
-139.278203
 21
543.998922
 31
0.0
  0
ARC
  5
25C
  8
TEAM-DET3
 10
-140.028203
 20
543.748922
 30
0.0
 40
0.75
 50
180.000005
 51
0.00001
  0
LINE
  5
25D
  8
TEAM-DET3
 10
-140.778203
 20
543.998922
 30
0.0
 11
-140.778203
 21
543.748922
 31
0.0
  0
LINE
  5
25E
  8
TEAM-DET3
 10
-141.778203
 20
543.998922
 30
0.0
 11
-140.778203
 21
543.998922
 31
0.0
  0
LINE
  5
25F
  8
TEAM-DET3
 10
-141.778203
 20
543.748922
 30
0.0
 11
-141.778203
 21
543.998922
 31
0.0
  0
ARC
  5
260
  8
TEAM-DET3
 10
-142.528203
 20
543.748922
 30
0.0
 40
0.75
 50
180.000005
 51
0.00001
  0
LINE
  5
261
  8
TEAM-DET3
 10
-143.278203
 20
543.998922
 30
0.0
 11
-143.278203
 21
543.748922
 31
0.0
  0
LINE
  5
262
  8
TEAM-DET3
 10
-144.278203
 20
543.998922
 30
0.0
 11
-143.278203
 21
543.998922
 31
0.0
  0
LINE
  5
263
  8
TEAM-DET3
 10
-144.278203
 20
543.748922
 30
0.0
 11
-144.278203
 21
543.998922
 31
0.0
  0
ARC
  5
264
  8
TEAM-DET3
 10
-145.028203
 20
543.748922
 30
0.0
 40
0.75
 50
180.000005
 51
0.00001
  0
LINE
  5
265
  8
TEAM-DET3
 10
-145.778203
 20
543.998922
 30
0.0
 11
-145.778203
 21
543.748922
 31
0.0
  0
LINE
  5
266
  8
TEAM-DET3
 10
-146.778203
 20
543.998922
 30
0.0
 11
-145.778203
 21
543.998922
 31
0.0
  0
LINE
  5
267
  8
TEAM-DET3
 10
-146.778203
 20
543.748922
 30
0.0
 11
-146.778203
 21
543.998922
 31
0.0
  0
ARC
  5
268
  8
TEAM-DET3
 10
-147.528203
 20
543.748922
 30
0.0
 40
0.75
 50
180.000005
 51
0.00001
  0
LINE
  5
269
  8
TEAM-DET3
 10
-148.278203
 20
543.998922
 30
0.0
 11
-148.278203
 21
543.748922
 31
0.0
  0
LINE
  5
26A
  8
TEAM-DET3
 10
-149.278203
 20
543.998922
 30
0.0
 11
-148.278203
 21
543.998922
 31
0.0
  0
LINE
  5
26B
  8
TEAM-DET3
 10
-149.278203
 20
543.748922
 30
0.0
 11
-149.278203
 21
543.998922
 31
0.0
  0
ARC
  5
26C
  8
TEAM-DET3
 10
-150.028203
 20
543.748922
 30
0.0
 40
0.75
 50
180.000005
 51
0.00001
  0
LINE
  5
26D
  8
TEAM-DET3
 10
-150.778203
 20
543.998922
 30
0.0
 11
-150.778203
 21
543.748922
 31
0.0
  0
LINE
  5
26E
  8
TEAM-DET3
 10
-151.778203
 20
543.998922
 30
0.0
 11
-150.778203
 21
543.998922
 31
0.0
  0
LINE
  5
26F
  8
TEAM-DET3
 10
-151.778203
 20
543.748922
 30
0.0
 11
-151.778203
 21
543.998922
 31
0.0
  0
ARC
  5
270
  8
TEAM-DET3
 10
-152.528203
 20
543.748922
 30
0.0
 40
0.75
 50
180.000005
 51
0.00001
  0
LINE
  5
271
  8
TEAM-DET3
 10
-153.278203
 20
543.998922
 30
0.0
 11
-153.278203
 21
543.748922
 31
0.0
  0
LINE
  5
272
  8
TEAM-DET3
 10
-154.278203
 20
543.998922
 30
0.0
 11
-153.278203
 21
543.998922
 31
0.0
  0
LINE
  5
273
  8
TEAM-DET3
 10
-154.278203
 20
543.748922
 30
0.0
 11
-154.278203
 21
543.998922
 31
0.0
  0
ARC
  5
274
  8
TEAM-DET3
 10
-155.028203
 20
543.748922
 30
0.0
 40
0.75
 50
180.000005
 51
0.00001
  0
LINE
  5
275
  8
TEAM-DET3
 10
-155.778203
 20
543.998922
 30
0.0
 11
-155.778203
 21
543.748922
 31
0.0
  0
LINE
  5
276
  8
TEAM-DET3
 10
-156.778203
 20
543.998922
 30
0.0
 11
-155.778203
 21
543.998922
 31
0.0
  0
LINE
  5
277
  8
TEAM-DET3
 10
-156.778203
 20
543.748922
 30
0.0
 11
-156.778203
 21
543.998922
 31
0.0
  0
ARC
  5
278
  8
TEAM-DET3
 10
-157.528203
 20
543.748922
 30
0.0
 40
0.75
 50
180.000005
 51
0.00001
  0
LINE
  5
279
  8
TEAM-DET3
 10
-158.278203
 20
543.998922
 30
0.0
 11
-158.278203
 21
543.748922
 31
0.0
  0
LINE
  5
27A
  8
TEAM-DET3
 10
-159.278203
 20
543.998922
 30
0.0
 11
-158.278203
 21
543.998922
 31
0.0
  0
LINE
  5
27B
  8
TEAM-DET3
 10
-159.278203
 20
543.748922
 30
0.0
 11
-159.278203
 21
543.998922
 31
0.0
  0
ARC
  5
27C
  8
TEAM-DET3
 10
-160.028203
 20
543.748922
 30
0.0
 40
0.75
 50
180.000005
 51
0.00001
  0
LINE
  5
27D
  8
TEAM-DET3
 10
-160.778203
 20
543.998922
 30
0.0
 11
-160.778203
 21
543.748922
 31
0.0
  0
LINE
  5
27E
  8
TEAM-DET3
 10
-161.778203
 20
543.998922
 30
0.0
 11
-160.778203
 21
543.998922
 31
0.0
  0
LINE
  5
27F
  8
TEAM-DET3
 10
-161.778203
 20
543.748922
 30
0.0
 11
-161.778203
 21
543.998922
 31
0.0
  0
ARC
  5
280
  8
TEAM-DET3
 10
-162.528203
 20
543.748922
 30
0.0
 40
0.75
 50
180.000005
 51
0.00001
  0
LINE
  5
281
  8
TEAM-DET3
 10
-163.278203
 20
543.998922
 30
0.0
 11
-163.278203
 21
543.748922
 31
0.0
  0
LINE
  5
282
  8
TEAM-DET3
 10
-164.278203
 20
543.998922
 30
0.0
 11
-163.278203
 21
543.998922
 31
0.0
  0
LINE
  5
283
  8
TEAM-DET3
 10
-164.278203
 20
543.748922
 30
0.0
 11
-164.278203
 21
543.998922
 31
0.0
  0
ARC
  5
284
  8
TEAM-DET3
 10
-165.028203
 20
543.748922
 30
0.0
 40
0.75
 50
180.000005
 51
0.00001
  0
LINE
  5
285
  8
TEAM-DET3
 10
-165.778203
 20
543.998922
 30
0.0
 11
-165.778203
 21
543.748922
 31
0.0
  0
LINE
  5
286
  8
TEAM-DET3
 10
-166.778203
 20
543.998922
 30
0.0
 11
-165.778203
 21
543.998922
 31
0.0
  0
LINE
  5
287
  8
TEAM-DET3
 10
-166.778203
 20
543.748922
 30
0.0
 11
-166.778203
 21
543.998922
 31
0.0
  0
ARC
  5
288
  8
TEAM-DET3
 10
-167.528203
 20
543.748922
 30
0.0
 40
0.75
 50
180.000005
 51
0.00001
  0
LINE
  5
289
  8
TEAM-DET3
 10
-168.278203
 20
543.998922
 30
0.0
 11
-168.278203
 21
543.748922
 31
0.0
  0
LINE
  5
28A
  8
TEAM-DET3
 10
-169.278203
 20
543.998922
 30
0.0
 11
-168.278203
 21
543.998922
 31
0.0
  0
LINE
  5
28B
  8
TEAM-DET3
 10
-169.278203
 20
543.748922
 30
0.0
 11
-169.278203
 21
543.998922
 31
0.0
  0
ARC
  5
28C
  8
TEAM-DET3
 10
-170.028203
 20
543.748922
 30
0.0
 40
0.75
 50
180.000005
 51
0.00001
  0
LINE
  5
28D
  8
TEAM-DET3
 10
-170.778203
 20
543.998922
 30
0.0
 11
-170.778203
 21
543.748922
 31
0.0
  0
LINE
  5
28E
  8
TEAM-DET3
 10
-171.778203
 20
543.998922
 30
0.0
 11
-170.778203
 21
543.998922
 31
0.0
  0
LINE
  5
28F
  8
TEAM-DET3
 10
-171.778203
 20
543.748922
 30
0.0
 11
-171.778203
 21
543.998922
 31
0.0
  0
ARC
  5
290
  8
TEAM-DET3
 10
-172.528203
 20
543.748922
 30
0.0
 40
0.75
 50
180.000005
 51
0.00001
  0
LINE
  5
291
  8
TEAM-DET3
 10
-173.278203
 20
543.998922
 30
0.0
 11
-173.278203
 21
543.748922
 31
0.0
  0
LINE
  5
292
  8
TEAM-DET3
 10
-173.528203
 20
543.998922
 30
0.0
 11
-173.278203
 21
543.998922
 31
0.0
  0
ARC
  5
293
  8
TEAM-DET3
 10
-173.528203
 20
545.998922
 30
0.0
 40
2.0
 50
180.000005
 51
270.000001
  0
LINE
  5
294
  8
TEAM-DET3
 10
-175.528203
 20
548.998922
 30
0.0
 11
-175.528203
 21
545.998922
 31
0.0
  0
LINE
  5
295
  8
TEAM-DET3
 10
-183.251865
 20
548.998922
 30
0.0
 11
-175.528203
 21
548.998922
 31
0.0
  0
LINE
  5
296
  8
TEAM-DET3
 10
-175.528203
 20
550.998922
 30
0.0
 11
-183.251865
 21
550.998922
 31
0.0
  0
LINE
  5
297
  8
TEAM-DET3
 10
-175.528203
 20
553.998922
 30
0.0
 11
-175.528203
 21
550.998922
 31
0.0
  0
ARC
  5
298
  8
TEAM-DET3
 10
-173.528203
 20
553.998922
 30
0.0
 40
2.0
 50
90.000003
 51
180.000005
  0
LINE
  5
299
  8
TEAM-DET3
 10
-173.278203
 20
555.998922
 30
0.0
 11
-173.528203
 21
555.998922
 31
0.0
  0
LINE
  5
29A
  8
TEAM-DET3
 10
-173.278203
 20
556.248922
 30
0.0
 11
-173.278203
 21
555.998922
 31
0.0
  0
ARC
  5
29B
  8
TEAM-DET3
 10
-172.528203
 20
556.248922
 30
0.0
 40
0.75
 50
0.0
 51
180.000005
  0
LINE
  5
29C
  8
TEAM-DET3
 10
-171.778203
 20
555.998922
 30
0.0
 11
-171.778203
 21
556.248922
 31
0.0
  0
LINE
  5
29D
  8
TEAM-DET3
 10
-170.778203
 20
555.998922
 30
0.0
 11
-171.778203
 21
555.998922
 31
0.0
  0
LINE
  5
29E
  8
TEAM-DET3
 10
-170.778203
 20
556.248922
 30
0.0
 11
-170.778203
 21
555.998922
 31
0.0
  0
ARC
  5
29F
  8
TEAM-DET3
 10
-170.028203
 20
556.248922
 30
0.0
 40
0.75
 50
0.0
 51
180.000005
  0
LINE
  5
2A0
  8
TEAM-DET3
 10
-169.278203
 20
555.998922
 30
0.0
 11
-169.278203
 21
556.248922
 31
0.0
  0
LINE
  5
2A1
  8
TEAM-DET3
 10
-168.278203
 20
555.998922
 30
0.0
 11
-169.278203
 21
555.998922
 31
0.0
  0
LINE
  5
2A2
  8
TEAM-DET3
 10
-168.278203
 20
556.248922
 30
0.0
 11
-168.278203
 21
555.998922
 31
0.0
  0
ARC
  5
2A3
  8
TEAM-DET3
 10
-167.528203
 20
556.248922
 30
0.0
 40
0.75
 50
0.0
 51
180.000005
  0
LINE
  5
2A4
  8
TEAM-DET3
 10
-166.778203
 20
555.998922
 30
0.0
 11
-166.778203
 21
556.248922
 31
0.0
  0
LINE
  5
2A5
  8
TEAM-DET3
 10
-165.778203
 20
555.998922
 30
0.0
 11
-166.778203
 21
555.998922
 31
0.0
  0
LINE
  5
2A6
  8
TEAM-DET3
 10
-165.778203
 20
556.248922
 30
0.0
 11
-165.778203
 21
555.998922
 31
0.0
  0
ARC
  5
2A7
  8
TEAM-DET3
 10
-165.028203
 20
556.248922
 30
0.0
 40
0.75
 50
0.0
 51
180.000005
  0
LINE
  5
2A8
  8
TEAM-DET3
 10
-164.278203
 20
555.998922
 30
0.0
 11
-164.278203
 21
556.248922
 31
0.0
  0
LINE
  5
2A9
  8
TEAM-DET3
 10
-163.278203
 20
555.998922
 30
0.0
 11
-164.278203
 21
555.998922
 31
0.0
  0
LINE
  5
2AA
  8
TEAM-DET3
 10
-163.278203
 20
556.248922
 30
0.0
 11
-163.278203
 21
555.998922
 31
0.0
  0
ARC
  5
2AB
  8
TEAM-DET3
 10
-162.528203
 20
556.248922
 30
0.0
 40
0.75
 50
0.0
 51
180.000005
  0
LINE
  5
2AC
  8
TEAM-DET3
 10
-161.778203
 20
555.998922
 30
0.0
 11
-161.778203
 21
556.248922
 31
0.0
  0
LINE
  5
2AD
  8
TEAM-DET3
 10
-160.778203
 20
555.998922
 30
0.0
 11
-161.778203
 21
555.998922
 31
0.0
  0
LINE
  5
2AE
  8
TEAM-DET3
 10
-160.778203
 20
556.248922
 30
0.0
 11
-160.778203
 21
555.998922
 31
0.0
  0
ARC
  5
2AF
  8
TEAM-DET3
 10
-160.028203
 20
556.248922
 30
0.0
 40
0.75
 50
0.0
 51
180.000005
  0
LINE
  5
2B0
  8
TEAM-DET3
 10
-159.278203
 20
555.998922
 30
0.0
 11
-159.278203
 21
556.248922
 31
0.0
  0
LINE
  5
2B1
  8
TEAM-DET3
 10
-158.278203
 20
555.998922
 30
0.0
 11
-159.278203
 21
555.998922
 31
0.0
  0
LINE
  5
2B2
  8
TEAM-DET3
 10
-158.278203
 20
556.248922
 30
0.0
 11
-158.278203
 21
555.998922
 31
0.0
  0
ARC
  5
2B3
  8
TEAM-DET3
 10
-157.528203
 20
556.248922
 30
0.0
 40
0.75
 50
0.0
 51
180.000005
  0
LINE
  5
2B4
  8
TEAM-DET3
 10
-156.778203
 20
555.998922
 30
0.0
 11
-156.778203
 21
556.248922
 31
0.0
  0
LINE
  5
2B5
  8
TEAM-DET3
 10
-155.778203
 20
555.998922
 30
0.0
 11
-156.778203
 21
555.998922
 31
0.0
  0
LINE
  5
2B6
  8
TEAM-DET3
 10
-155.778203
 20
556.248922
 30
0.0
 11
-155.778203
 21
555.998922
 31
0.0
  0
ARC
  5
2B7
  8
TEAM-DET3
 10
-155.028203
 20
556.248922
 30
0.0
 40
0.75
 50
0.0
 51
180.000005
  0
LINE
  5
2B8
  8
TEAM-DET3
 10
-154.278203
 20
555.998922
 30
0.0
 11
-154.278203
 21
556.248922
 31
0.0
  0
LINE
  5
2B9
  8
TEAM-DET3
 10
-153.278203
 20
555.998922
 30
0.0
 11
-154.278203
 21
555.998922
 31
0.0
  0
LINE
  5
2BA
  8
TEAM-DET3
 10
-153.278203
 20
556.248922
 30
0.0
 11
-153.278203
 21
555.998922
 31
0.0
  0
ARC
  5
2BB
  8
TEAM-DET3
 10
-152.528203
 20
556.248922
 30
0.0
 40
0.75
 50
0.0
 51
180.000005
  0
LINE
  5
2BC
  8
TEAM-DET3
 10
-151.778203
 20
555.998922
 30
0.0
 11
-151.778203
 21
556.248922
 31
0.0
  0
LINE
  5
2BD
  8
TEAM-DET3
 10
-150.778203
 20
555.998922
 30
0.0
 11
-151.778203
 21
555.998922
 31
0.0
  0
LINE
  5
2BE
  8
TEAM-DET3
 10
-150.778203
 20
556.248922
 30
0.0
 11
-150.778203
 21
555.998922
 31
0.0
  0
ARC
  5
2BF
  8
TEAM-DET3
 10
-150.028203
 20
556.248922
 30
0.0
 40
0.75
 50
0.0
 51
180.000005
  0
LINE
  5
2C0
  8
TEAM-DET3
 10
-149.278203
 20
555.998922
 30
0.0
 11
-149.278203
 21
556.248922
 31
0.0
  0
LINE
  5
2C1
  8
TEAM-DET3
 10
-148.278203
 20
555.998922
 30
0.0
 11
-149.278203
 21
555.998922
 31
0.0
  0
LINE
  5
2C2
  8
TEAM-DET3
 10
-148.278203
 20
556.248922
 30
0.0
 11
-148.278203
 21
555.998922
 31
0.0
  0
ARC
  5
2C3
  8
TEAM-DET3
 10
-147.528203
 20
556.248922
 30
0.0
 40
0.75
 50
0.0
 51
180.000005
  0
LINE
  5
2C4
  8
TEAM-DET3
 10
-146.778203
 20
555.998922
 30
0.0
 11
-146.778203
 21
556.248922
 31
0.0
  0
LINE
  5
2C5
  8
TEAM-DET3
 10
-145.778203
 20
555.998922
 30
0.0
 11
-146.778203
 21
555.998922
 31
0.0
  0
LINE
  5
2C6
  8
TEAM-DET3
 10
-145.778203
 20
556.248922
 30
0.0
 11
-145.778203
 21
555.998922
 31
0.0
  0
ARC
  5
2C7
  8
TEAM-DET3
 10
-145.028203
 20
556.248922
 30
0.0
 40
0.75
 50
0.0
 51
180.000005
  0
LINE
  5
2C8
  8
TEAM-DET3
 10
-144.278203
 20
555.998922
 30
0.0
 11
-144.278203
 21
556.248922
 31
0.0
  0
LINE
  5
2C9
  8
TEAM-DET3
 10
-143.278203
 20
555.998922
 30
0.0
 11
-144.278203
 21
555.998922
 31
0.0
  0
LINE
  5
2CA
  8
TEAM-DET3
 10
-143.278203
 20
556.248922
 30
0.0
 11
-143.278203
 21
555.998922
 31
0.0
  0
ARC
  5
2CB
  8
TEAM-DET3
 10
-142.528203
 20
556.248922
 30
0.0
 40
0.75
 50
0.0
 51
180.000005
  0
LINE
  5
2CC
  8
TEAM-DET3
 10
-141.778203
 20
555.998922
 30
0.0
 11
-141.778203
 21
556.248922
 31
0.0
  0
LINE
  5
2CD
  8
TEAM-DET3
 10
-140.778203
 20
555.998922
 30
0.0
 11
-141.778203
 21
555.998922
 31
0.0
  0
LINE
  5
2CE
  8
TEAM-DET3
 10
-140.778203
 20
556.248922
 30
0.0
 11
-140.778203
 21
555.998922
 31
0.0
  0
ARC
  5
2CF
  8
TEAM-DET3
 10
-140.028203
 20
556.248922
 30
0.0
 40
0.75
 50
0.0
 51
180.000005
  0
LINE
  5
2D0
  8
TEAM-DET3
 10
-139.278203
 20
555.998922
 30
0.0
 11
-139.278203
 21
556.248922
 31
0.0
  0
LINE
  5
2D1
  8
TEAM-DET3
 10
-138.278203
 20
555.998922
 30
0.0
 11
-139.278203
 21
555.998922
 31
0.0
  0
LINE
  5
2D2
  8
TEAM-DET3
 10
-138.278203
 20
556.248922
 30
0.0
 11
-138.278203
 21
555.998922
 31
0.0
  0
ARC
  5
2D3
  8
TEAM-DET3
 10
-137.528203
 20
556.248922
 30
0.0
 40
0.75
 50
0.0
 51
180.000005
  0
LINE
  5
2D4
  8
TEAM-DET3
 10
-136.778203
 20
555.998922
 30
0.0
 11
-136.778203
 21
556.248922
 31
0.0
  0
LINE
  5
2D5
  8
TEAM-DET3
 10
-135.778203
 20
555.998922
 30
0.0
 11
-136.778203
 21
555.998922
 31
0.0
  0
LINE
  5
2D6
  8
TEAM-DET3
 10
-135.778203
 20
556.248922
 30
0.0
 11
-135.778203
 21
555.998922
 31
0.0
  0
ARC
  5
2D7
  8
TEAM-DET3
 10
-135.028203
 20
556.248922
 30
0.0
 40
0.75
 50
0.0
 51
180.000005
  0
LINE
  5
2D8
  8
TEAM-DET3
 10
-134.278203
 20
555.998922
 30
0.0
 11
-134.278203
 21
556.248922
 31
0.0
  0
LINE
  5
2D9
  8
TEAM-DET3
 10
-133.278203
 20
555.998922
 30
0.0
 11
-134.278203
 21
555.998922
 31
0.0
  0
LINE
  5
2DA
  8
TEAM-DET3
 10
-133.278203
 20
556.248922
 30
0.0
 11
-133.278203
 21
555.998922
 31
0.0
  0
ARC
  5
2DB
  8
TEAM-DET3
 10
-132.528203
 20
556.248922
 30
0.0
 40
0.75
 50
0.0
 51
180.000005
  0
LINE
  5
2DC
  8
TEAM-DET3
 10
-131.778203
 20
555.998922
 30
0.0
 11
-131.778203
 21
556.248922
 31
0.0
  0
LINE
  5
2DD
  8
TEAM-DET3
 10
-130.778203
 20
555.998922
 30
0.0
 11
-131.778203
 21
555.998922
 31
0.0
  0
LINE
  5
2DE
  8
TEAM-DET3
 10
-130.778203
 20
556.248922
 30
0.0
 11
-130.778203
 21
555.998922
 31
0.0
  0
ARC
  5
2DF
  8
TEAM-DET3
 10
-130.028203
 20
556.248922
 30
0.0
 40
0.75
 50
0.0
 51
180.000005
  0
LINE
  5
2E0
  8
TEAM-DET3
 10
-129.278203
 20
555.998922
 30
0.0
 11
-129.278203
 21
556.248922
 31
0.0
  0
LINE
  5
2E1
  8
TEAM-DET3
 10
-128.278203
 20
555.998922
 30
0.0
 11
-129.278203
 21
555.998922
 31
0.0
  0
LINE
  5
2E2
  8
TEAM-DET3
 10
-128.278203
 20
556.248922
 30
0.0
 11
-128.278203
 21
555.998922
 31
0.0
  0
ARC
  5
2E3
  8
TEAM-DET3
 10
-127.528203
 20
556.248922
 30
0.0
 40
0.75
 50
0.0
 51
180.000005
  0
LINE
  5
2E4
  8
TEAM-DET3
 10
-126.778203
 20
555.998922
 30
0.0
 11
-126.778203
 21
556.248922
 31
0.0
  0
LINE
  5
2E5
  8
TEAM-DET3
 10
-125.778203
 20
555.998922
 30
0.0
 11
-126.778203
 21
555.998922
 31
0.0
  0
LINE
  5
2E6
  8
TEAM-DET3
 10
-125.778203
 20
556.248922
 30
0.0
 11
-125.778203
 21
555.998922
 31
0.0
  0
ARC
  5
2E7
  8
TEAM-DET3
 10
-125.028203
 20
556.248922
 30
0.0
 40
0.75
 50
0.0
 51
180.000005
  0
LINE
  5
2E8
  8
TEAM-DET3
 10
-124.278203
 20
555.998922
 30
0.0
 11
-124.278203
 21
556.248922
 31
0.0
  0
LINE
  5
2E9
  8
TEAM-DET3
 10
-123.278203
 20
555.998922
 30
0.0
 11
-124.278203
 21
555.998922
 31
0.0
  0
LINE
  5
2EA
  8
TEAM-DET3
 10
-123.278203
 20
556.248922
 30
0.0
 11
-123.278203
 21
555.998922
 31
0.0
  0
ARC
  5
2EB
  8
TEAM-DET3
 10
-122.528203
 20
556.248922
 30
0.0
 40
0.75
 50
0.0
 51
180.000005
  0
LINE
  5
2EC
  8
TEAM-DET3
 10
-121.778203
 20
555.998922
 30
0.0
 11
-121.778203
 21
556.248922
 31
0.0
  0
LINE
  5
2ED
  8
TEAM-DET3
 10
-120.778203
 20
555.998922
 30
0.0
 11
-121.778203
 21
555.998922
 31
0.0
  0
LINE
  5
2EE
  8
TEAM-DET3
 10
-120.778203
 20
556.248922
 30
0.0
 11
-120.778203
 21
555.998922
 31
0.0
  0
ARC
  5
2EF
  8
TEAM-DET3
 10
-120.028203
 20
556.248922
 30
0.0
 40
0.75
 50
0.0
 51
180.000005
  0
LINE
  5
2F0
  8
TEAM-DET3
 10
-119.278203
 20
555.998922
 30
0.0
 11
-119.278203
 21
556.248922
 31
0.0
  0
LINE
  5
2F1
  8
TEAM-DET3
 10
-118.278203
 20
555.998922
 30
0.0
 11
-119.278203
 21
555.998922
 31
0.0
  0
LINE
  5
2F2
  8
TEAM-DET3
 10
-118.278203
 20
556.248922
 30
0.0
 11
-118.278203
 21
555.998922
 31
0.0
  0
ARC
  5
2F3
  8
TEAM-DET3
 10
-117.528203
 20
556.248922
 30
0.0
 40
0.75
 50
0.0
 51
180.000005
  0
LINE
  5
2F4
  8
TEAM-DET3
 10
-116.778203
 20
555.998922
 30
0.0
 11
-116.778203
 21
556.248922
 31
0.0
  0
LINE
  5
2F5
  8
TEAM-DET3
 10
-115.778203
 20
555.998922
 30
0.0
 11
-116.778203
 21
555.998922
 31
0.0
  0
LINE
  5
2F6
  8
TEAM-DET3
 10
-115.778203
 20
556.248922
 30
0.0
 11
-115.778203
 21
555.998922
 31
0.0
  0
ARC
  5
2F7
  8
TEAM-DET3
 10
-115.028203
 20
556.248922
 30
0.0
 40
0.75
 50
0.0
 51
180.000005
  0
LINE
  5
2F8
  8
TEAM-DET3
 10
-114.278203
 20
555.998922
 30
0.0
 11
-114.278203
 21
556.248922
 31
0.0
  0
LINE
  5
2F9
  8
TEAM-DET3
 10
-113.278203
 20
555.998922
 30
0.0
 11
-114.278203
 21
555.998922
 31
0.0
  0
LINE
  5
2FA
  8
TEAM-DET3
 10
-113.278203
 20
556.248922
 30
0.0
 11
-113.278203
 21
555.998922
 31
0.0
  0
ARC
  5
2FB
  8
TEAM-DET3
 10
-112.528203
 20
556.248922
 30
0.0
 40
0.75
 50
0.0
 51
180.000005
  0
LINE
  5
2FC
  8
TEAM-DET3
 10
-111.778203
 20
555.998922
 30
0.0
 11
-111.778203
 21
556.248922
 31
0.0
  0
LINE
  5
2FD
  8
TEAM-DET3
 10
-110.778203
 20
555.998922
 30
0.0
 11
-111.778203
 21
555.998922
 31
0.0
  0
LINE
  5
2FE
  8
TEAM-DET3
 10
-110.778203
 20
556.248922
 30
0.0
 11
-110.778203
 21
555.998922
 31
0.0
  0
ARC
  5
2FF
  8
TEAM-DET3
 10
-110.028203
 20
556.248922
 30
0.0
 40
0.75
 50
0.0
 51
180.000005
  0
LINE
  5
300
  8
TEAM-DET3
 10
-109.278203
 20
555.998922
 30
0.0
 11
-109.278203
 21
556.248922
 31
0.0
  0
LINE
  5
301
  8
TEAM-DET3
 10
-108.278203
 20
555.998922
 30
0.0
 11
-109.278203
 21
555.998922
 31
0.0
  0
LINE
  5
302
  8
TEAM-DET3
 10
-108.278203
 20
556.248922
 30
0.0
 11
-108.278203
 21
555.998922
 31
0.0
  0
ARC
  5
303
  8
TEAM-DET3
 10
-107.528203
 20
556.248922
 30
0.0
 40
0.75
 50
0.0
 51
180.000005
  0
LINE
  5
304
  8
TEAM-DET3
 10
-106.778203
 20
555.998922
 30
0.0
 11
-106.778203
 21
556.248922
 31
0.0
  0
LINE
  5
305
  8
TEAM-DET3
 10
-105.778203
 20
555.998922
 30
0.0
 11
-106.778203
 21
555.998922
 31
0.0
  0
LINE
  5
306
  8
TEAM-DET3
 10
-105.778203
 20
556.248922
 30
0.0
 11
-105.778203
 21
555.998922
 31
0.0
  0
ARC
  5
307
  8
TEAM-DET3
 10
-105.028203
 20
556.248922
 30
0.0
 40
0.75
 50
0.0
 51
180.000005
  0
LINE
  5
308
  8
TEAM-DET3
 10
-104.278203
 20
555.998922
 30
0.0
 11
-104.278203
 21
556.248922
 31
0.0
  0
LINE
  5
309
  8
TEAM-DET3
 10
-103.278203
 20
555.998922
 30
0.0
 11
-104.278203
 21
555.998922
 31
0.0
  0
LINE
  5
30A
  8
TEAM-DET3
 10
-103.278203
 20
556.248922
 30
0.0
 11
-103.278203
 21
555.998922
 31
0.0
  0
ARC
  5
30B
  8
TEAM-DET3
 10
-102.528203
 20
556.248922
 30
0.0
 40
0.75
 50
0.0
 51
180.000005
  0
LINE
  5
30C
  8
TEAM-DET3
 10
-101.778203
 20
555.998922
 30
0.0
 11
-101.778203
 21
556.248922
 31
0.0
  0
LINE
  5
30D
  8
TEAM-DET3
 10
-100.778203
 20
555.998922
 30
0.0
 11
-101.778203
 21
555.998922
 31
0.0
  0
LINE
  5
30E
  8
TEAM-DET3
 10
-100.778203
 20
556.248922
 30
0.0
 11
-100.778203
 21
555.998922
 31
0.0
  0
ARC
  5
30F
  8
TEAM-DET3
 10
-100.028203
 20
556.248922
 30
0.0
 40
0.75
 50
0.0
 51
180.000005
  0
LINE
  5
310
  8
TEAM-DET3
 10
-99.278203
 20
555.998922
 30
0.0
 11
-99.278203
 21
556.248922
 31
0.0
  0
LINE
  5
311
  8
TEAM-DET3
 10
-98.278203
 20
555.998922
 30
0.0
 11
-99.278203
 21
555.998922
 31
0.0
  0
LINE
  5
312
  8
TEAM-DET3
 10
-98.278203
 20
556.248922
 30
0.0
 11
-98.278203
 21
555.998922
 31
0.0
  0
ARC
  5
313
  8
TEAM-DET3
 10
-97.528203
 20
556.248922
 30
0.0
 40
0.75
 50
0.0
 51
180.000005
  0
LINE
  5
314
  8
TEAM-DET3
 10
-96.778203
 20
555.998922
 30
0.0
 11
-96.778203
 21
556.248922
 31
0.0
  0
LINE
  5
315
  8
TEAM-DET3
 10
-95.778203
 20
555.998922
 30
0.0
 11
-96.778203
 21
555.998922
 31
0.0
  0
LINE
  5
316
  8
TEAM-DET3
 10
-95.778203
 20
556.248922
 30
0.0
 11
-95.778203
 21
555.998922
 31
0.0
  0
ARC
  5
317
  8
TEAM-DET3
 10
-95.028203
 20
556.248922
 30
0.0
 40
0.75
 50
0.0
 51
180.000005
  0
LINE
  5
318
  8
TEAM-DET3
 10
-94.278203
 20
555.998922
 30
0.0
 11
-94.278203
 21
556.248922
 31
0.0
  0
LINE
  5
319
  8
TEAM-DET3
 10
-93.278203
 20
555.998922
 30
0.0
 11
-94.278203
 21
555.998922
 31
0.0
  0
LINE
  5
31A
  8
TEAM-DET3
 10
-93.278203
 20
556.248922
 30
0.0
 11
-93.278203
 21
555.998922
 31
0.0
  0
ARC
  5
31B
  8
TEAM-DET3
 10
-92.528203
 20
556.248922
 30
0.0
 40
0.75
 50
0.0
 51
180.000005
  0
LINE
  5
31C
  8
TEAM-DET3
 10
-91.778203
 20
555.998922
 30
0.0
 11
-91.778203
 21
556.248922
 31
0.0
  0
LINE
  5
31D
  8
TEAM-DET3
 10
-90.778203
 20
555.998922
 30
0.0
 11
-91.778203
 21
555.998922
 31
0.0
  0
LINE
  5
31E
  8
TEAM-DET3
 10
-90.778203
 20
556.248922
 30
0.0
 11
-90.778203
 21
555.998922
 31
0.0
  0
ARC
  5
31F
  8
TEAM-DET3
 10
-90.028203
 20
556.248922
 30
0.0
 40
0.75
 50
0.0
 51
180.000005
  0
LINE
  5
320
  8
TEAM-DET3
 10
-89.278203
 20
555.998922
 30
0.0
 11
-89.278203
 21
556.248922
 31
0.0
  0
LINE
  5
321
  8
TEAM-DET3
 10
-88.278203
 20
555.998922
 30
0.0
 11
-89.278203
 21
555.998922
 31
0.0
  0
LINE
  5
322
  8
TEAM-DET3
 10
-88.278203
 20
556.248922
 30
0.0
 11
-88.278203
 21
555.998922
 31
0.0
  0
ARC
  5
323
  8
TEAM-DET3
 10
-87.528203
 20
556.248922
 30
0.0
 40
0.75
 50
0.0
 51
180.000005
  0
LINE
  5
324
  8
TEAM-DET3
 10
-86.778203
 20
555.998922
 30
0.0
 11
-86.778203
 21
556.248922
 31
0.0
  0
LINE
  5
325
  8
TEAM-DET3
 10
-85.778203
 20
555.998922
 30
0.0
 11
-86.778203
 21
555.998922
 31
0.0
  0
LINE
  5
326
  8
TEAM-DET3
 10
-85.778203
 20
556.248922
 30
0.0
 11
-85.778203
 21
555.998922
 31
0.0
  0
ARC
  5
327
  8
TEAM-DET3
 10
-85.028203
 20
556.248922
 30
0.0
 40
0.75
 50
0.0
 51
180.000005
  0
LINE
  5
328
  8
TEAM-DET3
 10
-84.278203
 20
555.998922
 30
0.0
 11
-84.278203
 21
556.248922
 31
0.0
  0
LINE
  5
329
  8
TEAM-DET3
 10
-83.278203
 20
555.998922
 30
0.0
 11
-84.278203
 21
555.998922
 31
0.0
  0
LINE
  5
32A
  8
TEAM-DET3
 10
-83.278203
 20
556.248922
 30
0.0
 11
-83.278203
 21
555.998922
 31
0.0
  0
ARC
  5
32B
  8
TEAM-DET3
 10
-82.528203
 20
556.248922
 30
0.0
 40
0.75
 50
0.0
 51
180.000005
  0
LINE
  5
32C
  8
TEAM-DET3
 10
-81.778203
 20
555.998922
 30
0.0
 11
-81.778203
 21
556.248922
 31
0.0
  0
LINE
  5
32D
  8
TEAM-DET3
 10
-80.778203
 20
555.998922
 30
0.0
 11
-81.778203
 21
555.998922
 31
0.0
  0
LINE
  5
32E
  8
TEAM-DET3
 10
-80.778203
 20
556.248922
 30
0.0
 11
-80.778203
 21
555.998922
 31
0.0
  0
ARC
  5
32F
  8
TEAM-DET3
 10
-80.028203
 20
556.248922
 30
0.0
 40
0.75
 50
0.0
 51
180.000005
  0
LINE
  5
330
  8
TEAM-DET3
 10
-79.278203
 20
555.998922
 30
0.0
 11
-79.278203
 21
556.248922
 31
0.0
  0
LINE
  5
331
  8
TEAM-DET3
 10
-78.278203
 20
555.998922
 30
0.0
 11
-79.278203
 21
555.998922
 31
0.0
  0
LINE
  5
332
  8
TEAM-DET3
 10
-78.278203
 20
556.248922
 30
0.0
 11
-78.278203
 21
555.998922
 31
0.0
  0
ARC
  5
333
  8
TEAM-DET3
 10
-77.528203
 20
556.248922
 30
0.0
 40
0.75
 50
0.0
 51
180.000005
  0
LINE
  5
334
  8
TEAM-DET3
 10
-76.778203
 20
555.998922
 30
0.0
 11
-76.778203
 21
556.248922
 31
0.0
  0
LINE
  5
335
  8
TEAM-DET3
 10
-75.778203
 20
555.998922
 30
0.0
 11
-76.778203
 21
555.998922
 31
0.0
  0
LINE
  5
336
  8
TEAM-DET3
 10
-75.778203
 20
556.248922
 30
0.0
 11
-75.778203
 21
555.998922
 31
0.0
  0
ARC
  5
337
  8
TEAM-DET3
 10
-75.028203
 20
556.248922
 30
0.0
 40
0.75
 50
0.0
 51
180.000005
  0
LINE
  5
338
  8
TEAM-DET3
 10
-74.278203
 20
555.998922
 30
0.0
 11
-74.278203
 21
556.248922
 31
0.0
  0
LINE
  5
339
  8
TEAM-DET3
 10
-73.278203
 20
555.998922
 30
0.0
 11
-74.278203
 21
555.998922
 31
0.0
  0
LINE
  5
33A
  8
TEAM-DET3
 10
-73.278203
 20
556.248922
 30
0.0
 11
-73.278203
 21
555.998922
 31
0.0
  0
ARC
  5
33B
  8
TEAM-DET3
 10
-72.528203
 20
556.248922
 30
0.0
 40
0.75
 50
0.0
 51
180.000005
  0
LINE
  5
33C
  8
TEAM-DET3
 10
-71.778203
 20
555.998922
 30
0.0
 11
-71.778203
 21
556.248922
 31
0.0
  0
LINE
  5
33D
  8
TEAM-DET3
 10
-70.778203
 20
555.998922
 30
0.0
 11
-71.778203
 21
555.998922
 31
0.0
  0
LINE
  5
33E
  8
TEAM-DET3
 10
-70.778203
 20
556.248922
 30
0.0
 11
-70.778203
 21
555.998922
 31
0.0
  0
ARC
  5
33F
  8
TEAM-DET3
 10
-70.028203
 20
556.248922
 30
0.0
 40
0.75
 50
0.0
 51
180.000005
  0
LINE
  5
340
  8
TEAM-DET3
 10
-69.278203
 20
555.998922
 30
0.0
 11
-69.278203
 21
556.248922
 31
0.0
  0
LINE
  5
341
  8
TEAM-DET3
 10
-68.278203
 20
555.998922
 30
0.0
 11
-69.278203
 21
555.998922
 31
0.0
  0
LINE
  5
342
  8
TEAM-DET3
 10
-68.278203
 20
556.248922
 30
0.0
 11
-68.278203
 21
555.998922
 31
0.0
  0
ARC
  5
343
  8
TEAM-DET3
 10
-67.528203
 20
556.248922
 30
0.0
 40
0.75
 50
0.0
 51
180.000005
  0
LINE
  5
344
  8
TEAM-DET3
 10
-66.778203
 20
555.998922
 30
0.0
 11
-66.778203
 21
556.248922
 31
0.0
  0
LINE
  5
345
  8
TEAM-DET3
 10
-65.778203
 20
555.998922
 30
0.0
 11
-66.778203
 21
555.998922
 31
0.0
  0
LINE
  5
346
  8
TEAM-DET3
 10
-65.778203
 20
556.248922
 30
0.0
 11
-65.778203
 21
555.998922
 31
0.0
  0
ARC
  5
347
  8
TEAM-DET3
 10
-65.028203
 20
556.248922
 30
0.0
 40
0.75
 50
0.0
 51
180.000005
  0
LINE
  5
348
  8
TEAM-DET3
 10
-64.278203
 20
555.998922
 30
0.0
 11
-64.278203
 21
556.248922
 31
0.0
  0
LINE
  5
349
  8
TEAM-DET3
 10
-63.278203
 20
555.998922
 30
0.0
 11
-64.278203
 21
555.998922
 31
0.0
  0
LINE
  5
34A
  8
TEAM-DET3
 10
-63.278203
 20
556.248922
 30
0.0
 11
-63.278203
 21
555.998922
 31
0.0
  0
ARC
  5
34B
  8
TEAM-DET3
 10
-62.528203
 20
556.248922
 30
0.0
 40
0.75
 50
0.0
 51
180.000005
  0
LINE
  5
34C
  8
TEAM-DET3
 10
-61.778203
 20
555.998922
 30
0.0
 11
-61.778203
 21
556.248922
 31
0.0
  0
LINE
  5
34D
  8
TEAM-DET3
 10
-60.778203
 20
555.998922
 30
0.0
 11
-61.778203
 21
555.998922
 31
0.0
  0
LINE
  5
34E
  8
TEAM-DET3
 10
-60.778203
 20
556.248922
 30
0.0
 11
-60.778203
 21
555.998922
 31
0.0
  0
ARC
  5
34F
  8
TEAM-DET3
 10
-60.028203
 20
556.248922
 30
0.0
 40
0.75
 50
0.0
 51
180.000005
  0
LINE
  5
350
  8
TEAM-DET3
 10
-59.278203
 20
555.998922
 30
0.0
 11
-59.278203
 21
556.248922
 31
0.0
  0
LINE
  5
351
  8
TEAM-DET3
 10
-58.278203
 20
555.998922
 30
0.0
 11
-59.278203
 21
555.998922
 31
0.0
  0
LINE
  5
352
  8
TEAM-DET3
 10
-58.278203
 20
556.248922
 30
0.0
 11
-58.278203
 21
555.998922
 31
0.0
  0
ARC
  5
353
  8
TEAM-DET3
 10
-57.528203
 20
556.248922
 30
0.0
 40
0.75
 50
0.0
 51
180.000005
  0
LINE
  5
354
  8
TEAM-DET3
 10
-56.778203
 20
555.998922
 30
0.0
 11
-56.778203
 21
556.248922
 31
0.0
  0
LINE
  5
355
  8
TEAM-DET3
 10
-55.778203
 20
555.998922
 30
0.0
 11
-56.778203
 21
555.998922
 31
0.0
  0
LINE
  5
356
  8
TEAM-DET3
 10
-55.778203
 20
556.248922
 30
0.0
 11
-55.778203
 21
555.998922
 31
0.0
  0
ARC
  5
357
  8
TEAM-DET3
 10
-55.028203
 20
556.248922
 30
0.0
 40
0.75
 50
0.0
 51
180.000005
  0
LINE
  5
358
  8
TEAM-DET3
 10
-54.278203
 20
555.998922
 30
0.0
 11
-54.278203
 21
556.248922
 31
0.0
  0
LINE
  5
359
  8
TEAM-DET3
 10
-53.278203
 20
555.998922
 30
0.0
 11
-54.278203
 21
555.998922
 31
0.0
  0
LINE
  5
35A
  8
TEAM-DET3
 10
-53.278203
 20
556.248922
 30
0.0
 11
-53.278203
 21
555.998922
 31
0.0
  0
ARC
  5
35B
  8
TEAM-DET3
 10
-52.528203
 20
556.248922
 30
0.0
 40
0.75
 50
0.0
 51
180.000005
  0
LINE
  5
35C
  8
TEAM-DET3
 10
-51.778203
 20
555.998922
 30
0.0
 11
-51.778203
 21
556.248922
 31
0.0
  0
LINE
  5
35D
  8
TEAM-DET3
 10
-50.778203
 20
555.998922
 30
0.0
 11
-51.778203
 21
555.998922
 31
0.0
  0
LINE
  5
35E
  8
TEAM-DET3
 10
-50.778203
 20
556.248922
 30
0.0
 11
-50.778203
 21
555.998922
 31
0.0
  0
ARC
  5
35F
  8
TEAM-DET3
 10
-50.028203
 20
556.248922
 30
0.0
 40
0.75
 50
0.0
 51
180.000005
  0
LINE
  5
360
  8
TEAM-DET3
 10
-49.278203
 20
555.998922
 30
0.0
 11
-49.278203
 21
556.248922
 31
0.0
  0
LINE
  5
361
  8
TEAM-DET3
 10
-48.278203
 20
555.998922
 30
0.0
 11
-49.278203
 21
555.998922
 31
0.0
  0
LINE
  5
362
  8
TEAM-DET3
 10
-48.278203
 20
556.248922
 30
0.0
 11
-48.278203
 21
555.998922
 31
0.0
  0
ARC
  5
363
  8
TEAM-DET3
 10
-47.528203
 20
556.248922
 30
0.0
 40
0.75
 50
0.0
 51
180.000005
  0
LINE
  5
364
  8
TEAM-DET3
 10
-46.778203
 20
555.998922
 30
0.0
 11
-46.778203
 21
556.248922
 31
0.0
  0
LINE
  5
365
  8
TEAM-DET3
 10
-45.778203
 20
555.998922
 30
0.0
 11
-46.778203
 21
555.998922
 31
0.0
  0
LINE
  5
366
  8
TEAM-DET3
 10
-45.778203
 20
556.248922
 30
0.0
 11
-45.778203
 21
555.998922
 31
0.0
  0
ARC
  5
367
  8
TEAM-DET3
 10
-45.028203
 20
556.248922
 30
0.0
 40
0.75
 50
0.0
 51
180.000005
  0
LINE
  5
368
  8
TEAM-DET3
 10
-44.278203
 20
555.998922
 30
0.0
 11
-44.278203
 21
556.248922
 31
0.0
  0
LINE
  5
369
  8
TEAM-DET3
 10
-43.278203
 20
555.998922
 30
0.0
 11
-44.278203
 21
555.998922
 31
0.0
  0
LINE
  5
36A
  8
TEAM-DET3
 10
-43.278203
 20
556.248922
 30
0.0
 11
-43.278203
 21
555.998922
 31
0.0
  0
ARC
  5
36B
  8
TEAM-DET3
 10
-42.528203
 20
556.248922
 30
0.0
 40
0.75
 50
0.0
 51
180.000005
  0
LINE
  5
36C
  8
TEAM-DET3
 10
-41.778203
 20
555.998922
 30
0.0
 11
-41.778203
 21
556.248922
 31
0.0
  0
LINE
  5
36D
  8
TEAM-DET3
 10
-40.778203
 20
555.998922
 30
0.0
 11
-41.778203
 21
555.998922
 31
0.0
  0
LINE
  5
36E
  8
TEAM-DET3
 10
-40.778203
 20
556.248922
 30
0.0
 11
-40.778203
 21
555.998922
 31
0.0
  0
ARC
  5
36F
  8
TEAM-DET3
 10
-40.028203
 20
556.248922
 30
0.0
 40
0.75
 50
0.0
 51
180.000005
  0
LINE
  5
370
  8
TEAM-DET3
 10
-39.278203
 20
555.998922
 30
0.0
 11
-39.278203
 21
556.248922
 31
0.0
  0
LINE
  5
371
  8
TEAM-DET3
 10
-38.278203
 20
555.998922
 30
0.0
 11
-39.278203
 21
555.998922
 31
0.0
  0
LINE
  5
372
  8
TEAM-DET3
 10
-38.278203
 20
556.248922
 30
0.0
 11
-38.278203
 21
555.998922
 31
0.0
  0
ARC
  5
373
  8
TEAM-DET3
 10
-37.528203
 20
556.248922
 30
0.0
 40
0.75
 50
0.0
 51
180.000005
  0
LINE
  5
374
  8
TEAM-DET3
 10
-36.778203
 20
555.998922
 30
0.0
 11
-36.778203
 21
556.248922
 31
0.0
  0
LINE
  5
375
  8
TEAM-DET3
 10
-35.778203
 20
555.998922
 30
0.0
 11
-36.778203
 21
555.998922
 31
0.0
  0
LINE
  5
376
  8
TEAM-DET3
 10
-35.778203
 20
556.248922
 30
0.0
 11
-35.778203
 21
555.998922
 31
0.0
  0
ARC
  5
377
  8
TEAM-DET3
 10
-35.028203
 20
556.248922
 30
0.0
 40
0.75
 50
0.0
 51
180.000005
  0
LINE
  5
378
  8
TEAM-DET3
 10
-34.278203
 20
555.998922
 30
0.0
 11
-34.278203
 21
556.248922
 31
0.0
  0
LINE
  5
379
  8
TEAM-DET3
 10
-33.278203
 20
555.998922
 30
0.0
 11
-34.278203
 21
555.998922
 31
0.0
  0
LINE
  5
37A
  8
TEAM-DET3
 10
-33.278203
 20
556.248922
 30
0.0
 11
-33.278203
 21
555.998922
 31
0.0
  0
ARC
  5
37B
  8
TEAM-DET3
 10
-32.528203
 20
556.248922
 30
0.0
 40
0.75
 50
0.0
 51
180.000005
  0
LINE
  5
37C
  8
TEAM-DET3
 10
-31.778203
 20
555.998922
 30
0.0
 11
-31.778203
 21
556.248922
 31
0.0
  0
LINE
  5
37D
  8
TEAM-DET3
 10
-30.778203
 20
555.998922
 30
0.0
 11
-31.778203
 21
555.998922
 31
0.0
  0
LINE
  5
37E
  8
TEAM-DET3
 10
-30.778203
 20
556.248922
 30
0.0
 11
-30.778203
 21
555.998922
 31
0.0
  0
ARC
  5
37F
  8
TEAM-DET3
 10
-30.028203
 20
556.248922
 30
0.0
 40
0.75
 50
0.0
 51
180.000005
  0
LINE
  5
380
  8
TEAM-DET3
 10
-29.278203
 20
555.998922
 30
0.0
 11
-29.278203
 21
556.248922
 31
0.0
  0
LINE
  5
381
  8
TEAM-DET3
 10
-29.028203
 20
555.998922
 30
0.0
 11
-29.278203
 21
555.998922
 31
0.0
  0
ARC
  5
382
  8
TEAM-DET3
 10
-29.028203
 20
553.998922
 30
0.0
 40
2.0
 50
0.0
 51
90.000003
  0
LINE
  5
383
  8
TEAM-DET3
 10
-27.028203
 20
545.998922
 30
0.0
 11
-27.028203
 21
553.998922
 31
0.0
  0
ARC
  5
384
  8
TEAM-DET3
 10
-29.028203
 20
545.998922
 30
0.0
 40
2.0
 50
270.000001
 51
0.00001
  0
LINE
  5
385
  8
TEAM-DET3
 10
-29.278203
 20
543.998922
 30
0.0
 11
-29.028203
 21
543.998922
 31
0.0
  0
LINE
  5
386
  8
TEAM-DET3
 10
-29.278203
 20
543.748922
 30
0.0
 11
-29.278203
 21
543.998922
 31
0.0
  0
ARC
  5
387
  8
TEAM-DET3
 10
-30.028203
 20
543.748922
 30
0.0
 40
0.75
 50
180.000005
 51
0.00001
  0
LINE
  5
388
  8
TEAM-DET3
 10
-30.778203
 20
543.998922
 30
0.0
 11
-30.778203
 21
543.748922
 31
0.0
  0
LINE
  5
389
  8
TEAM-DET3
 10
-31.778203
 20
543.998922
 30
0.0
 11
-30.778203
 21
543.998922
 31
0.0
  0
LINE
  5
38A
  8
TEAM-DET3
 10
-31.778203
 20
543.748922
 30
0.0
 11
-31.778203
 21
543.998922
 31
0.0
  0
ARC
  5
38B
  8
TEAM-DET3
 10
-32.528203
 20
543.748922
 30
0.0
 40
0.75
 50
180.000005
 51
0.00001
  0
LINE
  5
38C
  8
TEAM-DET3
 10
-33.278203
 20
543.998922
 30
0.0
 11
-33.278203
 21
543.748922
 31
0.0
  0
LINE
  5
38D
  8
TEAM-DET3
 10
-34.278203
 20
543.998922
 30
0.0
 11
-33.278203
 21
543.998922
 31
0.0
  0
LINE
  5
38E
  8
TEAM-DET3
 10
-34.278203
 20
543.748922
 30
0.0
 11
-34.278203
 21
543.998922
 31
0.0
  0
ARC
  5
38F
  8
TEAM-DET3
 10
-35.028203
 20
543.748922
 30
0.0
 40
0.75
 50
180.000005
 51
0.00001
  0
LINE
  5
390
  8
TEAM-DET3
 10
-35.778203
 20
543.998922
 30
0.0
 11
-35.778203
 21
543.748922
 31
0.0
  0
LINE
  5
391
  8
TEAM-DET3
 10
-36.778203
 20
543.998922
 30
0.0
 11
-35.778203
 21
543.998922
 31
0.0
  0
LINE
  5
392
  8
TEAM-DET3
 10
-36.778203
 20
543.748922
 30
0.0
 11
-36.778203
 21
543.998922
 31
0.0
  0
ARC
  5
393
  8
TEAM-DET3
 10
-37.528203
 20
543.748922
 30
0.0
 40
0.75
 50
180.000005
 51
0.00001
  0
LINE
  5
394
  8
TEAM-DET3
 10
-38.278203
 20
543.998922
 30
0.0
 11
-38.278203
 21
543.748922
 31
0.0
  0
LINE
  5
395
  8
TEAM-DET3
 10
-39.278203
 20
543.998922
 30
0.0
 11
-38.278203
 21
543.998922
 31
0.0
  0
LINE
  5
396
  8
TEAM-DET3
 10
-39.278203
 20
543.748922
 30
0.0
 11
-39.278203
 21
543.998922
 31
0.0
  0
ARC
  5
397
  8
TEAM-DET3
 10
-40.028203
 20
543.748922
 30
0.0
 40
0.75
 50
180.000005
 51
0.00001
  0
LINE
  5
398
  8
TEAM-DET3
 10
-40.778203
 20
543.998922
 30
0.0
 11
-40.778203
 21
543.748922
 31
0.0
  0
LINE
  5
399
  8
TEAM-DET3
 10
-41.778203
 20
543.998922
 30
0.0
 11
-40.778203
 21
543.998922
 31
0.0
  0
LINE
  5
39A
  8
TEAM-DET3
 10
-41.778203
 20
543.748922
 30
0.0
 11
-41.778203
 21
543.998922
 31
0.0
  0
ARC
  5
39B
  8
TEAM-DET3
 10
-42.528203
 20
543.748922
 30
0.0
 40
0.75
 50
180.000005
 51
0.00001
  0
LINE
  5
39C
  8
TEAM-DET3
 10
-43.278203
 20
543.998922
 30
0.0
 11
-43.278203
 21
543.748922
 31
0.0
  0
LINE
  5
39D
  8
TEAM-DET3
 10
-44.278203
 20
543.998922
 30
0.0
 11
-43.278203
 21
543.998922
 31
0.0
  0
LINE
  5
39E
  8
TEAM-DET3
 10
-44.278203
 20
543.748922
 30
0.0
 11
-44.278203
 21
543.998922
 31
0.0
  0
ARC
  5
39F
  8
TEAM-DET3
 10
-45.028203
 20
543.748922
 30
0.0
 40
0.75
 50
180.000005
 51
0.00001
  0
LINE
  5
3A0
  8
TEAM-DET3
 10
-45.778203
 20
543.998922
 30
0.0
 11
-45.778203
 21
543.748922
 31
0.0
  0
LINE
  5
3A1
  8
TEAM-DET3
 10
-46.778203
 20
543.998922
 30
0.0
 11
-45.778203
 21
543.998922
 31
0.0
  0
LINE
  5
3A2
  8
TEAM-DET3
 10
-46.778203
 20
543.748922
 30
0.0
 11
-46.778203
 21
543.998922
 31
0.0
  0
ARC
  5
3A3
  8
TEAM-DET3
 10
-47.528203
 20
543.748922
 30
0.0
 40
0.75
 50
180.000005
 51
0.00001
  0
LINE
  5
3A4
  8
TEAM-DET3
 10
-48.278203
 20
543.998922
 30
0.0
 11
-48.278203
 21
543.748922
 31
0.0
  0
LINE
  5
3A5
  8
TEAM-DET3
 10
-49.278203
 20
543.998922
 30
0.0
 11
-48.278203
 21
543.998922
 31
0.0
  0
LINE
  5
3A6
  8
TEAM-DET3
 10
-49.278203
 20
543.748922
 30
0.0
 11
-49.278203
 21
543.998922
 31
0.0
  0
ARC
  5
3A7
  8
TEAM-DET3
 10
-50.028203
 20
543.748922
 30
0.0
 40
0.75
 50
180.000005
 51
0.00001
  0
LINE
  5
3A8
  8
TEAM-DET3
 10
-50.778203
 20
543.998922
 30
0.0
 11
-50.778203
 21
543.748922
 31
0.0
  0
LINE
  5
3A9
  8
TEAM-DET3
 10
-51.778203
 20
543.998922
 30
0.0
 11
-50.778203
 21
543.998922
 31
0.0
  0
LINE
  5
3AA
  8
TEAM-DET3
 10
-51.778203
 20
543.748922
 30
0.0
 11
-51.778203
 21
543.998922
 31
0.0
  0
ARC
  5
3AB
  8
TEAM-DET3
 10
-52.528203
 20
543.748922
 30
0.0
 40
0.75
 50
180.000005
 51
0.00001
  0
LINE
  5
3AC
  8
TEAM-DET3
 10
-53.278203
 20
543.998922
 30
0.0
 11
-53.278203
 21
543.748922
 31
0.0
  0
LINE
  5
3AD
  8
TEAM-DET3
 10
-54.278203
 20
543.998922
 30
0.0
 11
-53.278203
 21
543.998922
 31
0.0
  0
LINE
  5
3AE
  8
TEAM-DET3
 10
-54.278203
 20
543.748922
 30
0.0
 11
-54.278203
 21
543.998922
 31
0.0
  0
ARC
  5
3AF
  8
TEAM-DET3
 10
-55.028203
 20
543.748922
 30
0.0
 40
0.75
 50
180.000005
 51
0.00001
  0
LINE
  5
3B0
  8
TEAM-DET3
 10
-55.778203
 20
543.998922
 30
0.0
 11
-55.778203
 21
543.748922
 31
0.0
  0
LINE
  5
3B1
  8
TEAM-DET3
 10
-56.778203
 20
543.998922
 30
0.0
 11
-55.778203
 21
543.998922
 31
0.0
  0
LINE
  5
3B2
  8
TEAM-DET3
 10
-56.778203
 20
543.748922
 30
0.0
 11
-56.778203
 21
543.998922
 31
0.0
  0
ARC
  5
3B3
  8
TEAM-DET3
 10
-57.528203
 20
543.748922
 30
0.0
 40
0.75
 50
180.000005
 51
0.00001
  0
LINE
  5
3B4
  8
TEAM-DET3
 10
-58.278203
 20
543.998922
 30
0.0
 11
-58.278203
 21
543.748922
 31
0.0
  0
LINE
  5
3B5
  8
TEAM-DET3
 10
-59.278203
 20
543.998922
 30
0.0
 11
-58.278203
 21
543.998922
 31
0.0
  0
LINE
  5
3B6
  8
TEAM-DET3
 10
-59.278203
 20
543.748922
 30
0.0
 11
-59.278203
 21
543.998922
 31
0.0
  0
ARC
  5
3B7
  8
TEAM-DET3
 10
-60.028203
 20
543.748922
 30
0.0
 40
0.75
 50
180.000005
 51
0.00001
  0
LINE
  5
3B8
  8
TEAM-DET3
 10
-60.778203
 20
543.998922
 30
0.0
 11
-60.778203
 21
543.748922
 31
0.0
  0
LINE
  5
3B9
  8
TEAM-DET3
 10
-61.778203
 20
543.998922
 30
0.0
 11
-60.778203
 21
543.998922
 31
0.0
  0
LINE
  5
3BA
  8
TEAM-DET3
 10
-61.778203
 20
543.748922
 30
0.0
 11
-61.778203
 21
543.998922
 31
0.0
  0
ARC
  5
3BB
  8
TEAM-DET3
 10
-62.528203
 20
543.748922
 30
0.0
 40
0.75
 50
180.000005
 51
0.00001
  0
LINE
  5
3BC
  8
TEAM-DET3
 10
-63.278203
 20
543.998922
 30
0.0
 11
-63.278203
 21
543.748922
 31
0.0
  0
LINE
  5
3BD
  8
TEAM-DET3
 10
-64.278203
 20
543.998922
 30
0.0
 11
-63.278203
 21
543.998922
 31
0.0
  0
LINE
  5
3BE
  8
TEAM-DET3
 10
-64.278203
 20
543.748922
 30
0.0
 11
-64.278203
 21
543.998922
 31
0.0
  0
ARC
  5
3BF
  8
TEAM-DET3
 10
-65.028203
 20
543.748922
 30
0.0
 40
0.75
 50
180.000005
 51
0.00001
  0
LINE
  5
3C0
  8
TEAM-DET3
 10
-65.778203
 20
543.998922
 30
0.0
 11
-65.778203
 21
543.748922
 31
0.0
  0
LINE
  5
3C1
  8
TEAM-DET3
 10
-66.778203
 20
543.998922
 30
0.0
 11
-65.778203
 21
543.998922
 31
0.0
  0
LINE
  5
3C2
  8
TEAM-DET3
 10
-66.778203
 20
543.748922
 30
0.0
 11
-66.778203
 21
543.998922
 31
0.0
  0
ARC
  5
3C3
  8
TEAM-DET3
 10
-67.528203
 20
543.748922
 30
0.0
 40
0.75
 50
180.000005
 51
0.00001
  0
LINE
  5
3C4
  8
TEAM-DET3
 10
-68.278203
 20
543.998922
 30
0.0
 11
-68.278203
 21
543.748922
 31
0.0
  0
LINE
  5
3C5
  8
TEAM-DET3
 10
-69.278203
 20
543.998922
 30
0.0
 11
-68.278203
 21
543.998922
 31
0.0
  0
LINE
  5
3C6
  8
TEAM-DET3
 10
-69.278203
 20
543.748922
 30
0.0
 11
-69.278203
 21
543.998922
 31
0.0
  0
ARC
  5
3C7
  8
TEAM-DET3
 10
-70.028203
 20
543.748922
 30
0.0
 40
0.75
 50
180.000005
 51
0.00001
  0
LINE
  5
3C8
  8
TEAM-DET3
 10
-70.778203
 20
543.998922
 30
0.0
 11
-70.778203
 21
543.748922
 31
0.0
  0
LINE
  5
3C9
  8
TEAM-DET3
 10
-71.778203
 20
543.998922
 30
0.0
 11
-70.778203
 21
543.998922
 31
0.0
  0
LINE
  5
3CA
  8
TEAM-DET3
 10
-71.778203
 20
543.748922
 30
0.0
 11
-71.778203
 21
543.998922
 31
0.0
  0
ARC
  5
3CB
  8
TEAM-DET3
 10
-72.528203
 20
543.748922
 30
0.0
 40
0.75
 50
180.000005
 51
0.00001
  0
LINE
  5
3CC
  8
TEAM-DET3
 10
-73.278203
 20
543.998922
 30
0.0
 11
-73.278203
 21
543.748922
 31
0.0
  0
LINE
  5
3CD
  8
TEAM-DET3
 10
-74.278203
 20
543.998922
 30
0.0
 11
-73.278203
 21
543.998922
 31
0.0
  0
LINE
  5
3CE
  8
TEAM-DET3
 10
-74.278203
 20
543.748922
 30
0.0
 11
-74.278203
 21
543.998922
 31
0.0
  0
ARC
  5
3CF
  8
TEAM-DET3
 10
-75.028203
 20
543.748922
 30
0.0
 40
0.75
 50
180.000005
 51
0.00001
  0
LINE
  5
3D0
  8
TEAM-DET3
 10
-75.778203
 20
543.998922
 30
0.0
 11
-75.778203
 21
543.748922
 31
0.0
  0
LINE
  5
3D1
  8
TEAM-DET3
 10
-76.778203
 20
543.998922
 30
0.0
 11
-75.778203
 21
543.998922
 31
0.0
  0
ARC
  5
3D2
  8
TEAM-DET3
 10
-7.748038
 20
556.510372
 30
0.0
 40
0.5
 50
90.000003
 51
180.000005
  0
ARC
  5
3D3
  8
TEAM-DET3
 10
-7.748038
 20
543.510372
 30
0.0
 40
0.5
 50
180.000005
 51
270.000001
  0
LINE
  5
3D4
  8
TEAM-DET3
 10
-8.248038
 20
543.510372
 30
0.0
 11
-8.248038
 21
556.510372
 31
0.0
  0
ARC
  5
3D5
  8
TEAM-DET3
 10
7.479858
 20
1186.864939
 30
0.0
 40
17.506662
 50
222.644063
 51
224.654228
  0
LINE
  5
3D6
  8
TEAM-DET3
 10
76.742351
 20
544.26831
 30
0.0
 11
75.742357
 21
544.2648
 31
0.0
  0
LINE
  5
3D7
  8
TEAM-DET3
 10
75.742357
 20
544.2648
 30
0.0
 11
75.743234
 21
544.014802
 31
0.0
  0
ARC
  5
3D8
  8
TEAM-DET3
 10
74.993239
 20
544.01217
 30
0.0
 40
0.75
 50
180.201067
 51
0.201072
  0
LINE
  5
3D9
  8
TEAM-DET3
 10
74.243243
 20
544.009537
 30
0.0
 11
74.242366
 21
544.259536
 31
0.0
  0
LINE
  5
3DA
  8
TEAM-DET3
 10
74.242366
 20
544.259536
 30
0.0
 11
73.242372
 21
544.256026
 31
0.0
  0
LINE
  5
3DB
  8
TEAM-DET3
 10
73.242372
 20
544.256026
 30
0.0
 11
73.24325
 21
544.006028
 31
0.0
  0
ARC
  5
3DC
  8
TEAM-DET3
 10
72.493254
 20
544.003396
 30
0.0
 40
0.75
 50
180.201067
 51
0.201072
  0
LINE
  5
3DD
  8
TEAM-DET3
 10
71.743259
 20
544.000764
 30
0.0
 11
71.742381
 21
544.250762
 31
0.0
  0
LINE
  5
3DE
  8
TEAM-DET3
 10
71.742381
 20
544.250762
 30
0.0
 11
70.742388
 21
544.247253
 31
0.0
  0
LINE
  5
3DF
  8
TEAM-DET3
 10
70.742388
 20
544.247253
 30
0.0
 11
70.743265
 21
543.997254
 31
0.0
  0
ARC
  5
3E0
  8
TEAM-DET3
 10
69.99327
 20
543.994622
 30
0.0
 40
0.75
 50
180.201067
 51
0.201072
  0
LINE
  5
3E1
  8
TEAM-DET3
 10
69.243274
 20
543.99199
 30
0.0
 11
69.242397
 21
544.241989
 31
0.0
  0
LINE
  5
3E2
  8
TEAM-DET3
 10
69.242397
 20
544.241989
 30
0.0
 11
68.242403
 21
544.238479
 31
0.0
  0
LINE
  5
3E3
  8
TEAM-DET3
 10
68.242403
 20
544.238479
 30
0.0
 11
68.24328
 21
543.988481
 31
0.0
  0
ARC
  5
3E4
  8
TEAM-DET3
 10
67.493285
 20
543.985849
 30
0.0
 40
0.75
 50
180.201067
 51
0.201072
  0
LINE
  5
3E5
  8
TEAM-DET3
 10
66.74329
 20
543.983217
 30
0.0
 11
66.742412
 21
544.233215
 31
0.0
  0
LINE
  5
3E6
  8
TEAM-DET3
 10
66.742412
 20
544.233215
 30
0.0
 11
65.742418
 21
544.229706
 31
0.0
  0
LINE
  5
3E7
  8
TEAM-DET3
 10
65.742418
 20
544.229706
 30
0.0
 11
65.743296
 21
543.979707
 31
0.0
  0
ARC
  5
3E8
  8
TEAM-DET3
 10
64.9933
 20
543.977075
 30
0.0
 40
0.75
 50
180.201067
 51
0.201072
  0
LINE
  5
3E9
  8
TEAM-DET3
 10
64.243305
 20
543.974443
 30
0.0
 11
64.242428
 21
544.224441
 31
0.0
  0
LINE
  5
3EA
  8
TEAM-DET3
 10
64.242428
 20
544.224441
 30
0.0
 11
63.242434
 21
544.220932
 31
0.0
  0
LINE
  5
3EB
  8
TEAM-DET3
 10
63.242434
 20
544.220932
 30
0.0
 11
63.243311
 21
543.970933
 31
0.0
  0
ARC
  5
3EC
  8
TEAM-DET3
 10
62.493316
 20
543.968301
 30
0.0
 40
0.75
 50
180.201067
 51
0.201072
  0
LINE
  5
3ED
  8
TEAM-DET3
 10
61.74332
 20
543.965669
 30
0.0
 11
61.742443
 21
544.215668
 31
0.0
  0
LINE
  5
3EE
  8
TEAM-DET3
 10
61.742443
 20
544.215668
 30
0.0
 11
60.742449
 21
544.212158
 31
0.0
  0
LINE
  5
3EF
  8
TEAM-DET3
 10
60.742449
 20
544.212158
 30
0.0
 11
60.743327
 21
543.96216
 31
0.0
  0
ARC
  5
3F0
  8
TEAM-DET3
 10
59.993331
 20
543.959528
 30
0.0
 40
0.75
 50
180.201067
 51
0.201072
  0
LINE
  5
3F1
  8
TEAM-DET3
 10
59.243336
 20
543.956896
 30
0.0
 11
59.242458
 21
544.206894
 31
0.0
  0
LINE
  5
3F2
  8
TEAM-DET3
 10
59.242458
 20
544.206894
 30
0.0
 11
58.242465
 21
544.203385
 31
0.0
  0
LINE
  5
3F3
  8
TEAM-DET3
 10
58.242465
 20
544.203385
 30
0.0
 11
58.243342
 21
543.953386
 31
0.0
  0
ARC
  5
3F4
  8
TEAM-DET3
 10
57.493347
 20
543.950754
 30
0.0
 40
0.75
 50
180.201067
 51
0.201072
  0
LINE
  5
3F5
  8
TEAM-DET3
 10
56.743351
 20
543.948122
 30
0.0
 11
56.742474
 21
544.19812
 31
0.0
  0
LINE
  5
3F6
  8
TEAM-DET3
 10
56.742474
 20
544.19812
 30
0.0
 11
55.74248
 21
544.194611
 31
0.0
  0
LINE
  5
3F7
  8
TEAM-DET3
 10
55.74248
 20
544.194611
 30
0.0
 11
55.743357
 21
543.944612
 31
0.0
  0
ARC
  5
3F8
  8
TEAM-DET3
 10
54.993362
 20
543.94198
 30
0.0
 40
0.75
 50
180.201067
 51
0.201072
  0
LINE
  5
3F9
  8
TEAM-DET3
 10
54.243367
 20
543.939348
 30
0.0
 11
54.242489
 21
544.189347
 31
0.0
  0
LINE
  5
3FA
  8
TEAM-DET3
 10
54.242489
 20
544.189347
 30
0.0
 11
53.242495
 21
544.185837
 31
0.0
  0
LINE
  5
3FB
  8
TEAM-DET3
 10
53.242495
 20
544.185837
 30
0.0
 11
53.243373
 21
543.935839
 31
0.0
  0
ARC
  5
3FC
  8
TEAM-DET3
 10
52.493377
 20
543.933207
 30
0.0
 40
0.75
 50
180.201067
 51
0.201072
  0
LINE
  5
3FD
  8
TEAM-DET3
 10
51.743382
 20
543.930575
 30
0.0
 11
51.742505
 21
544.180573
 31
0.0
  0
LINE
  5
3FE
  8
TEAM-DET3
 10
51.742505
 20
544.180573
 30
0.0
 11
50.742511
 21
544.177064
 31
0.0
  0
LINE
  5
3FF
  8
TEAM-DET3
 10
50.742511
 20
544.177064
 30
0.0
 11
50.743388
 21
543.927065
 31
0.0
  0
ARC
  5
400
  8
TEAM-DET3
 10
49.993393
 20
543.924433
 30
0.0
 40
0.75
 50
180.201067
 51
0.201072
  0
LINE
  5
401
  8
TEAM-DET3
 10
49.243397
 20
543.921801
 30
0.0
 11
49.24252
 21
544.171799
 31
0.0
  0
LINE
  5
402
  8
TEAM-DET3
 10
49.24252
 20
544.171799
 30
0.0
 11
48.242526
 21
544.16829
 31
0.0
  0
LINE
  5
403
  8
TEAM-DET3
 10
48.242526
 20
544.16829
 30
0.0
 11
48.243403
 21
543.918292
 31
0.0
  0
ARC
  5
404
  8
TEAM-DET3
 10
47.493408
 20
543.915659
 30
0.0
 40
0.75
 50
180.201067
 51
0.201072
  0
LINE
  5
405
  8
TEAM-DET3
 10
46.743413
 20
543.913027
 30
0.0
 11
46.742535
 21
544.163026
 31
0.0
  0
LINE
  5
406
  8
TEAM-DET3
 10
46.742535
 20
544.163026
 30
0.0
 11
45.742542
 21
544.159516
 31
0.0
  0
LINE
  5
407
  8
TEAM-DET3
 10
45.742542
 20
544.159516
 30
0.0
 11
45.743419
 21
543.909518
 31
0.0
  0
ARC
  5
408
  8
TEAM-DET3
 10
44.993424
 20
543.906886
 30
0.0
 40
0.75
 50
180.201067
 51
0.201072
  0
LINE
  5
409
  8
TEAM-DET3
 10
44.243428
 20
543.904254
 30
0.0
 11
44.242551
 21
544.154252
 31
0.0
  0
LINE
  5
40A
  8
TEAM-DET3
 10
44.242551
 20
544.154252
 30
0.0
 11
43.242557
 21
544.150743
 31
0.0
  0
LINE
  5
40B
  8
TEAM-DET3
 10
43.242557
 20
544.150743
 30
0.0
 11
43.243434
 21
543.900744
 31
0.0
  0
ARC
  5
40C
  8
TEAM-DET3
 10
42.493439
 20
543.898112
 30
0.0
 40
0.75
 50
180.201067
 51
0.201072
  0
LINE
  5
40D
  8
TEAM-DET3
 10
41.743444
 20
543.89548
 30
0.0
 11
41.742566
 21
544.145479
 31
0.0
  0
LINE
  5
40E
  8
TEAM-DET3
 10
41.742566
 20
544.145479
 30
0.0
 11
40.742572
 21
544.141969
 31
0.0
  0
LINE
  5
40F
  8
TEAM-DET3
 10
40.742572
 20
544.141969
 30
0.0
 11
40.74345
 21
543.891971
 31
0.0
  0
ARC
  5
410
  8
TEAM-DET3
 10
39.993454
 20
543.889339
 30
0.0
 40
0.75
 50
180.201067
 51
0.201072
  0
LINE
  5
411
  8
TEAM-DET3
 10
39.243459
 20
543.886706
 30
0.0
 11
39.242582
 21
544.136705
 31
0.0
  0
LINE
  5
412
  8
TEAM-DET3
 10
39.242582
 20
544.136705
 30
0.0
 11
38.242588
 21
544.133195
 31
0.0
  0
LINE
  5
413
  8
TEAM-DET3
 10
38.242588
 20
544.133195
 30
0.0
 11
38.243465
 21
543.883197
 31
0.0
  0
ARC
  5
414
  8
TEAM-DET3
 10
37.49347
 20
543.880565
 30
0.0
 40
0.75
 50
180.201067
 51
0.201072
  0
LINE
  5
415
  8
TEAM-DET3
 10
36.743474
 20
543.877933
 30
0.0
 11
36.742597
 21
544.127931
 31
0.0
  0
LINE
  5
416
  8
TEAM-DET3
 10
36.742597
 20
544.127931
 30
0.0
 11
35.742603
 21
544.124422
 31
0.0
  0
LINE
  5
417
  8
TEAM-DET3
 10
35.742603
 20
544.124422
 30
0.0
 11
35.74348
 21
543.874423
 31
0.0
  0
ARC
  5
418
  8
TEAM-DET3
 10
34.993485
 20
543.871791
 30
0.0
 40
0.75
 50
180.201067
 51
0.201072
  0
LINE
  5
419
  8
TEAM-DET3
 10
34.24349
 20
543.869159
 30
0.0
 11
34.242612
 21
544.119158
 31
0.0
  0
LINE
  5
41A
  8
TEAM-DET3
 10
34.242612
 20
544.119158
 30
0.0
 11
33.242619
 21
544.115648
 31
0.0
  0
LINE
  5
41B
  8
TEAM-DET3
 10
33.242619
 20
544.115648
 30
0.0
 11
33.243496
 21
543.86565
 31
0.0
  0
ARC
  5
41C
  8
TEAM-DET3
 10
32.4935
 20
543.863018
 30
0.0
 40
0.75
 50
180.201067
 51
0.201072
  0
LINE
  5
41D
  8
TEAM-DET3
 10
31.743505
 20
543.860386
 30
0.0
 11
31.742628
 21
544.110384
 31
0.0
  0
LINE
  5
41E
  8
TEAM-DET3
 10
31.742628
 20
544.110384
 30
0.0
 11
30.742634
 21
544.106875
 31
0.0
  0
LINE
  5
41F
  8
TEAM-DET3
 10
30.742634
 20
544.106875
 30
0.0
 11
30.743511
 21
543.856876
 31
0.0
  0
ARC
  5
420
  8
TEAM-DET3
 10
29.993516
 20
543.854244
 30
0.0
 40
0.75
 50
180.201067
 51
0.201072
  0
LINE
  5
421
  8
TEAM-DET3
 10
29.243521
 20
543.851612
 30
0.0
 11
29.242643
 21
544.10161
 31
0.0
  0
LINE
  5
422
  8
TEAM-DET3
 10
29.242643
 20
544.10161
 30
0.0
 11
28.992645
 21
544.100733
 31
0.0
  0
ARC
  5
423
  8
TEAM-DET3
 10
28.985626
 20
546.100721
 30
0.0
 40
2.0
 50
180.201067
 51
270.201076
  0
LINE
  5
424
  8
TEAM-DET3
 10
26.985638
 20
546.093702
 30
0.0
 11
26.957562
 21
554.093653
 31
0.0
  0
ARC
  5
425
  8
TEAM-DET3
 10
28.95755
 20
554.100671
 30
0.0
 40
2.0
 50
90.201074
 51
180.201077
  0
LINE
  5
426
  8
TEAM-DET3
 10
28.950531
 20
556.100659
 30
0.0
 11
29.20053
 21
556.101536
 31
0.0
  0
LINE
  5
427
  8
TEAM-DET3
 10
29.20053
 20
556.101536
 30
0.0
 11
29.199652
 21
556.351535
 31
0.0
  0
ARC
  5
428
  8
TEAM-DET3
 10
29.949648
 20
556.354167
 30
0.0
 40
0.75
 50
0.201072
 51
180.201077
  0
LINE
  5
429
  8
TEAM-DET3
 10
30.699643
 20
556.356799
 30
0.0
 11
30.70052
 21
556.106801
 31
0.0
  0
LINE
  5
42A
  8
TEAM-DET3
 10
30.70052
 20
556.106801
 30
0.0
 11
31.700514
 21
556.11031
 31
0.0
  0
LINE
  5
42B
  8
TEAM-DET3
 10
31.700514
 20
556.11031
 30
0.0
 11
31.699637
 21
556.360309
 31
0.0
  0
ARC
  5
42C
  8
TEAM-DET3
 10
32.449632
 20
556.362941
 30
0.0
 40
0.75
 50
0.201072
 51
180.201077
  0
LINE
  5
42D
  8
TEAM-DET3
 10
33.199628
 20
556.365573
 30
0.0
 11
33.200505
 21
556.115574
 31
0.0
  0
LINE
  5
42E
  8
TEAM-DET3
 10
33.200505
 20
556.115574
 30
0.0
 11
34.200499
 21
556.119084
 31
0.0
  0
LINE
  5
42F
  8
TEAM-DET3
 10
34.200499
 20
556.119084
 30
0.0
 11
34.199622
 21
556.369082
 31
0.0
  0
ARC
  5
430
  8
TEAM-DET3
 10
34.949617
 20
556.371714
 30
0.0
 40
0.75
 50
0.201072
 51
180.201077
  0
LINE
  5
431
  8
TEAM-DET3
 10
35.699612
 20
556.374346
 30
0.0
 11
35.70049
 21
556.124348
 31
0.0
  0
LINE
  5
432
  8
TEAM-DET3
 10
35.70049
 20
556.124348
 30
0.0
 11
36.700483
 21
556.127857
 31
0.0
  0
LINE
  5
433
  8
TEAM-DET3
 10
36.700483
 20
556.127857
 30
0.0
 11
36.699606
 21
556.377856
 31
0.0
  0
ARC
  5
434
  8
TEAM-DET3
 10
37.449601
 20
556.380488
 30
0.0
 40
0.75
 50
0.201072
 51
180.201077
  0
LINE
  5
435
  8
TEAM-DET3
 10
38.199597
 20
556.38312
 30
0.0
 11
38.200474
 21
556.133122
 31
0.0
  0
LINE
  5
436
  8
TEAM-DET3
 10
38.200474
 20
556.133122
 30
0.0
 11
39.200468
 21
556.136631
 31
0.0
  0
LINE
  5
437
  8
TEAM-DET3
 10
39.200468
 20
556.136631
 30
0.0
 11
39.199591
 21
556.386629
 31
0.0
  0
ARC
  5
438
  8
TEAM-DET3
 10
39.949586
 20
556.389262
 30
0.0
 40
0.75
 50
0.201072
 51
180.201077
  0
LINE
  5
439
  8
TEAM-DET3
 10
40.699581
 20
556.391894
 30
0.0
 11
40.700459
 21
556.141895
 31
0.0
  0
LINE
  5
43A
  8
TEAM-DET3
 10
40.700459
 20
556.141895
 30
0.0
 11
41.700453
 21
556.145405
 31
0.0
  0
LINE
  5
43B
  8
TEAM-DET3
 10
41.700453
 20
556.145405
 30
0.0
 11
41.699575
 21
556.395403
 31
0.0
  0
ARC
  5
43C
  8
TEAM-DET3
 10
42.449571
 20
556.398035
 30
0.0
 40
0.75
 50
0.201072
 51
180.201077
  0
LINE
  5
43D
  8
TEAM-DET3
 10
43.199566
 20
556.400667
 30
0.0
 11
43.200443
 21
556.150669
 31
0.0
  0
LINE
  5
43E
  8
TEAM-DET3
 10
43.200443
 20
556.150669
 30
0.0
 11
44.200437
 21
556.154178
 31
0.0
  0
LINE
  5
43F
  8
TEAM-DET3
 10
44.200437
 20
556.154178
 30
0.0
 11
44.19956
 21
556.404177
 31
0.0
  0
ARC
  5
440
  8
TEAM-DET3
 10
44.949555
 20
556.406809
 30
0.0
 40
0.75
 50
0.201072
 51
180.201077
  0
LINE
  5
441
  8
TEAM-DET3
 10
45.699551
 20
556.409441
 30
0.0
 11
45.700428
 21
556.159442
 31
0.0
  0
LINE
  5
442
  8
TEAM-DET3
 10
45.700428
 20
556.159442
 30
0.0
 11
46.700422
 21
556.162952
 31
0.0
  0
LINE
  5
443
  8
TEAM-DET3
 10
46.700422
 20
556.162952
 30
0.0
 11
46.699545
 21
556.41295
 31
0.0
  0
ARC
  5
444
  8
TEAM-DET3
 10
47.44954
 20
556.415583
 30
0.0
 40
0.75
 50
0.201072
 51
180.201077
  0
LINE
  5
445
  8
TEAM-DET3
 10
48.199535
 20
556.418215
 30
0.0
 11
48.200413
 21
556.168216
 31
0.0
  0
LINE
  5
446
  8
TEAM-DET3
 10
48.200413
 20
556.168216
 30
0.0
 11
49.200407
 21
556.171726
 31
0.0
  0
LINE
  5
447
  8
TEAM-DET3
 10
49.200407
 20
556.171726
 30
0.0
 11
49.199529
 21
556.421724
 31
0.0
  0
ARC
  5
448
  8
TEAM-DET3
 10
49.949525
 20
556.424356
 30
0.0
 40
0.75
 50
0.201072
 51
180.201077
  0
LINE
  5
449
  8
TEAM-DET3
 10
50.69952
 20
556.426988
 30
0.0
 11
50.700397
 21
556.17699
 31
0.0
  0
LINE
  5
44A
  8
TEAM-DET3
 10
50.700397
 20
556.17699
 30
0.0
 11
51.700391
 21
556.180499
 31
0.0
  0
LINE
  5
44B
  8
TEAM-DET3
 10
51.700391
 20
556.180499
 30
0.0
 11
51.699514
 21
556.430498
 31
0.0
  0
ARC
  5
44C
  8
TEAM-DET3
 10
52.449509
 20
556.43313
 30
0.0
 40
0.75
 50
0.201072
 51
180.201077
  0
LINE
  5
44D
  8
TEAM-DET3
 10
53.199505
 20
556.435762
 30
0.0
 11
53.200382
 21
556.185763
 31
0.0
  0
LINE
  5
44E
  8
TEAM-DET3
 10
53.200382
 20
556.185763
 30
0.0
 11
54.200376
 21
556.189273
 31
0.0
  0
LINE
  5
44F
  8
TEAM-DET3
 10
54.200376
 20
556.189273
 30
0.0
 11
54.199498
 21
556.439271
 31
0.0
  0
ARC
  5
450
  8
TEAM-DET3
 10
54.949494
 20
556.441903
 30
0.0
 40
0.75
 50
0.201072
 51
180.201077
  0
LINE
  5
451
  8
TEAM-DET3
 10
55.699489
 20
556.444536
 30
0.0
 11
55.700366
 21
556.194537
 31
0.0
  0
LINE
  5
452
  8
TEAM-DET3
 10
55.700366
 20
556.194537
 30
0.0
 11
56.70036
 21
556.198047
 31
0.0
  0
LINE
  5
453
  8
TEAM-DET3
 10
56.70036
 20
556.198047
 30
0.0
 11
56.699483
 21
556.448045
 31
0.0
  0
ARC
  5
454
  8
TEAM-DET3
 10
57.449478
 20
556.450677
 30
0.0
 40
0.75
 50
0.201072
 51
180.201077
  0
LINE
  5
455
  8
TEAM-DET3
 10
58.199474
 20
556.453309
 30
0.0
 11
58.200351
 21
556.203311
 31
0.0
  0
LINE
  5
456
  8
TEAM-DET3
 10
58.200351
 20
556.203311
 30
0.0
 11
59.200345
 21
556.20682
 31
0.0
  0
LINE
  5
457
  8
TEAM-DET3
 10
59.200345
 20
556.20682
 30
0.0
 11
59.199468
 21
556.456819
 31
0.0
  0
ARC
  5
458
  8
TEAM-DET3
 10
59.949463
 20
556.459451
 30
0.0
 40
0.75
 50
0.201072
 51
180.201077
  0
LINE
  5
459
  8
TEAM-DET3
 10
60.699458
 20
556.462083
 30
0.0
 11
60.700336
 21
556.212084
 31
0.0
  0
LINE
  5
45A
  8
TEAM-DET3
 10
60.700336
 20
556.212084
 30
0.0
 11
61.70033
 21
556.215594
 31
0.0
  0
LINE
  5
45B
  8
TEAM-DET3
 10
61.70033
 20
556.215594
 30
0.0
 11
61.699452
 21
556.465592
 31
0.0
  0
ARC
  5
45C
  8
TEAM-DET3
 10
62.449448
 20
556.468224
 30
0.0
 40
0.75
 50
0.201072
 51
180.201077
  0
LINE
  5
45D
  8
TEAM-DET3
 10
63.199443
 20
556.470856
 30
0.0
 11
63.20032
 21
556.220858
 31
0.0
  0
LINE
  5
45E
  8
TEAM-DET3
 10
63.20032
 20
556.220858
 30
0.0
 11
64.200314
 21
556.224367
 31
0.0
  0
LINE
  5
45F
  8
TEAM-DET3
 10
64.200314
 20
556.224367
 30
0.0
 11
64.199437
 21
556.474366
 31
0.0
  0
ARC
  5
460
  8
TEAM-DET3
 10
64.949432
 20
556.476998
 30
0.0
 40
0.75
 50
0.201072
 51
180.201077
  0
LINE
  5
461
  8
TEAM-DET3
 10
65.699428
 20
556.47963
 30
0.0
 11
65.700305
 21
556.229632
 31
0.0
  0
LINE
  5
462
  8
TEAM-DET3
 10
65.700305
 20
556.229632
 30
0.0
 11
66.700299
 21
556.233141
 31
0.0
  0
LINE
  5
463
  8
TEAM-DET3
 10
66.700299
 20
556.233141
 30
0.0
 11
66.699421
 21
556.48314
 31
0.0
  0
ARC
  5
464
  8
TEAM-DET3
 10
67.449417
 20
556.485772
 30
0.0
 40
0.75
 50
0.201072
 51
180.201077
  0
LINE
  5
465
  8
TEAM-DET3
 10
68.199412
 20
556.488404
 30
0.0
 11
68.20029
 21
556.238405
 31
0.0
  0
LINE
  5
466
  8
TEAM-DET3
 10
68.20029
 20
556.238405
 30
0.0
 11
69.200283
 21
556.241915
 31
0.0
  0
LINE
  5
467
  8
TEAM-DET3
 10
69.200283
 20
556.241915
 30
0.0
 11
69.199406
 21
556.491913
 31
0.0
  0
ARC
  5
468
  8
TEAM-DET3
 10
69.949401
 20
556.494545
 30
0.0
 40
0.75
 50
0.201072
 51
180.201077
  0
LINE
  5
469
  8
TEAM-DET3
 10
70.699397
 20
556.497177
 30
0.0
 11
70.700274
 21
556.247179
 31
0.0
  0
LINE
  5
46A
  8
TEAM-DET3
 10
70.700274
 20
556.247179
 30
0.0
 11
71.700268
 21
556.250688
 31
0.0
  0
LINE
  5
46B
  8
TEAM-DET3
 10
71.700268
 20
556.250688
 30
0.0
 11
71.699391
 21
556.500687
 31
0.0
  0
ARC
  5
46C
  8
TEAM-DET3
 10
72.449386
 20
556.503319
 30
0.0
 40
0.75
 50
0.201072
 51
180.201077
  0
LINE
  5
46D
  8
TEAM-DET3
 10
73.199381
 20
556.505951
 30
0.0
 11
73.200259
 21
556.255953
 31
0.0
  0
LINE
  5
46E
  8
TEAM-DET3
 10
73.200259
 20
556.255953
 30
0.0
 11
74.200253
 21
556.259462
 31
0.0
  0
LINE
  5
46F
  8
TEAM-DET3
 10
74.200253
 20
556.259462
 30
0.0
 11
74.199375
 21
556.50946
 31
0.0
  0
ARC
  5
470
  8
TEAM-DET3
 10
74.949371
 20
556.512093
 30
0.0
 40
0.75
 50
0.201072
 51
180.201077
  0
LINE
  5
471
  8
TEAM-DET3
 10
75.699366
 20
556.514725
 30
0.0
 11
75.700243
 21
556.264726
 31
0.0
  0
LINE
  5
472
  8
TEAM-DET3
 10
75.700243
 20
556.264726
 30
0.0
 11
76.700237
 21
556.268236
 31
0.0
  0
LINE
  5
473
  8
TEAM-DET3
 10
76.700237
 20
556.268236
 30
0.0
 11
76.69936
 21
556.518234
 31
0.0
  0
ARC
  5
474
  8
TEAM-DET3
 10
77.449355
 20
556.520866
 30
0.0
 40
0.75
 50
0.201072
 51
180.201077
  0
LINE
  5
475
  8
TEAM-DET3
 10
78.199351
 20
556.523498
 30
0.0
 11
78.200228
 21
556.2735
 31
0.0
  0
LINE
  5
476
  8
TEAM-DET3
 10
78.200228
 20
556.2735
 30
0.0
 11
79.200222
 21
556.277009
 31
0.0
  0
LINE
  5
477
  8
TEAM-DET3
 10
79.200222
 20
556.277009
 30
0.0
 11
79.199344
 21
556.527008
 31
0.0
  0
ARC
  5
478
  8
TEAM-DET3
 10
79.94934
 20
556.52964
 30
0.0
 40
0.75
 50
0.201072
 51
180.201077
  0
LINE
  5
479
  8
TEAM-DET3
 10
80.699335
 20
556.532272
 30
0.0
 11
80.700213
 21
556.282273
 31
0.0
  0
LINE
  5
47A
  8
TEAM-DET3
 10
80.700213
 20
556.282273
 30
0.0
 11
81.700206
 21
556.285783
 31
0.0
  0
LINE
  5
47B
  8
TEAM-DET3
 10
81.700206
 20
556.285783
 30
0.0
 11
81.699329
 21
556.535781
 31
0.0
  0
ARC
  5
47C
  8
TEAM-DET3
 10
82.449324
 20
556.538413
 30
0.0
 40
0.75
 50
0.201072
 51
180.201077
  0
LINE
  5
47D
  8
TEAM-DET3
 10
83.19932
 20
556.541046
 30
0.0
 11
83.200197
 21
556.291047
 31
0.0
  0
LINE
  5
47E
  8
TEAM-DET3
 10
83.200197
 20
556.291047
 30
0.0
 11
84.200191
 21
556.294557
 31
0.0
  0
LINE
  5
47F
  8
TEAM-DET3
 10
84.200191
 20
556.294557
 30
0.0
 11
84.199314
 21
556.544555
 31
0.0
  0
ARC
  5
480
  8
TEAM-DET3
 10
84.949309
 20
556.547187
 30
0.0
 40
0.75
 50
0.201072
 51
180.201077
  0
LINE
  5
481
  8
TEAM-DET3
 10
85.699304
 20
556.549819
 30
0.0
 11
85.700182
 21
556.299821
 31
0.0
  0
LINE
  5
482
  8
TEAM-DET3
 10
85.700182
 20
556.299821
 30
0.0
 11
86.700176
 21
556.30333
 31
0.0
  0
LINE
  5
483
  8
TEAM-DET3
 10
86.700176
 20
556.30333
 30
0.0
 11
86.699298
 21
556.553329
 31
0.0
  0
ARC
  5
484
  8
TEAM-DET3
 10
87.449294
 20
556.555961
 30
0.0
 40
0.75
 50
0.201072
 51
180.201077
  0
LINE
  5
485
  8
TEAM-DET3
 10
88.199289
 20
556.558593
 30
0.0
 11
88.200166
 21
556.308594
 31
0.0
  0
LINE
  5
486
  8
TEAM-DET3
 10
88.200166
 20
556.308594
 30
0.0
 11
89.20016
 21
556.312104
 31
0.0
  0
LINE
  5
487
  8
TEAM-DET3
 10
89.20016
 20
556.312104
 30
0.0
 11
89.199283
 21
556.562102
 31
0.0
  0
ARC
  5
488
  8
TEAM-DET3
 10
89.949278
 20
556.564734
 30
0.0
 40
0.75
 50
0.201072
 51
180.201077
  0
LINE
  5
489
  8
TEAM-DET3
 10
90.699274
 20
556.567366
 30
0.0
 11
90.700151
 21
556.317368
 31
0.0
  0
LINE
  5
48A
  8
TEAM-DET3
 10
90.700151
 20
556.317368
 30
0.0
 11
91.700145
 21
556.320877
 31
0.0
  0
LINE
  5
48B
  8
TEAM-DET3
 10
91.700145
 20
556.320877
 30
0.0
 11
91.699267
 21
556.570876
 31
0.0
  0
ARC
  5
48C
  8
TEAM-DET3
 10
92.449263
 20
556.573508
 30
0.0
 40
0.75
 50
0.201072
 51
180.201077
  0
LINE
  5
48D
  8
TEAM-DET3
 10
93.199258
 20
556.57614
 30
0.0
 11
93.200136
 21
556.326142
 31
0.0
  0
LINE
  5
48E
  8
TEAM-DET3
 10
93.200136
 20
556.326142
 30
0.0
 11
94.200129
 21
556.329651
 31
0.0
  0
LINE
  5
48F
  8
TEAM-DET3
 10
94.200129
 20
556.329651
 30
0.0
 11
94.199252
 21
556.57965
 31
0.0
  0
ARC
  5
490
  8
TEAM-DET3
 10
94.949247
 20
556.582282
 30
0.0
 40
0.75
 50
0.201072
 51
180.201077
  0
LINE
  5
491
  8
TEAM-DET3
 10
95.699243
 20
556.584914
 30
0.0
 11
95.70012
 21
556.334915
 31
0.0
  0
LINE
  5
492
  8
TEAM-DET3
 10
95.70012
 20
556.334915
 30
0.0
 11
96.700114
 21
556.338425
 31
0.0
  0
LINE
  5
493
  8
TEAM-DET3
 10
96.700114
 20
556.338425
 30
0.0
 11
96.699237
 21
556.588423
 31
0.0
  0
ARC
  5
494
  8
TEAM-DET3
 10
97.449232
 20
556.591055
 30
0.0
 40
0.75
 50
0.201072
 51
180.201077
  0
LINE
  5
495
  8
TEAM-DET3
 10
98.199227
 20
556.593687
 30
0.0
 11
98.200105
 21
556.343689
 31
0.0
  0
LINE
  5
496
  8
TEAM-DET3
 10
98.200105
 20
556.343689
 30
0.0
 11
99.200099
 21
556.347198
 31
0.0
  0
LINE
  5
497
  8
TEAM-DET3
 10
99.200099
 20
556.347198
 30
0.0
 11
99.199221
 21
556.597197
 31
0.0
  0
ARC
  5
498
  8
TEAM-DET3
 10
99.949217
 20
556.599829
 30
0.0
 40
0.75
 50
0.201072
 51
180.201077
  0
LINE
  5
499
  8
TEAM-DET3
 10
100.699212
 20
556.602461
 30
0.0
 11
100.700089
 21
556.352463
 31
0.0
  0
LINE
  5
49A
  8
TEAM-DET3
 10
100.700089
 20
556.352463
 30
0.0
 11
101.700083
 21
556.355972
 31
0.0
  0
LINE
  5
49B
  8
TEAM-DET3
 10
101.700083
 20
556.355972
 30
0.0
 11
101.699206
 21
556.60597
 31
0.0
  0
ARC
  5
49C
  8
TEAM-DET3
 10
102.449201
 20
556.608603
 30
0.0
 40
0.75
 50
0.201072
 51
180.201077
  0
LINE
  5
49D
  8
TEAM-DET3
 10
103.199197
 20
556.611235
 30
0.0
 11
103.200074
 21
556.361236
 31
0.0
  0
LINE
  5
49E
  8
TEAM-DET3
 10
103.200074
 20
556.361236
 30
0.0
 11
104.200068
 21
556.364746
 31
0.0
  0
LINE
  5
49F
  8
TEAM-DET3
 10
104.200068
 20
556.364746
 30
0.0
 11
104.19919
 21
556.614744
 31
0.0
  0
ARC
  5
4A0
  8
TEAM-DET3
 10
104.949186
 20
556.617376
 30
0.0
 40
0.75
 50
0.201072
 51
180.201077
  0
LINE
  5
4A1
  8
TEAM-DET3
 10
105.699181
 20
556.620008
 30
0.0
 11
105.700059
 21
556.37001
 31
0.0
  0
LINE
  5
4A2
  8
TEAM-DET3
 10
105.700059
 20
556.37001
 30
0.0
 11
106.700052
 21
556.373519
 31
0.0
  0
LINE
  5
4A3
  8
TEAM-DET3
 10
106.700052
 20
556.373519
 30
0.0
 11
106.699175
 21
556.623518
 31
0.0
  0
ARC
  5
4A4
  8
TEAM-DET3
 10
107.44917
 20
556.62615
 30
0.0
 40
0.75
 50
0.201072
 51
180.201077
  0
LINE
  5
4A5
  8
TEAM-DET3
 10
108.199166
 20
556.628782
 30
0.0
 11
108.200043
 21
556.378783
 31
0.0
  0
LINE
  5
4A6
  8
TEAM-DET3
 10
108.200043
 20
556.378783
 30
0.0
 11
109.200037
 21
556.382293
 31
0.0
  0
LINE
  5
4A7
  8
TEAM-DET3
 10
109.200037
 20
556.382293
 30
0.0
 11
109.19916
 21
556.632291
 31
0.0
  0
ARC
  5
4A8
  8
TEAM-DET3
 10
109.949155
 20
556.634923
 30
0.0
 40
0.75
 50
0.201072
 51
180.201077
  0
LINE
  5
4A9
  8
TEAM-DET3
 10
110.69915
 20
556.637556
 30
0.0
 11
110.700028
 21
556.387557
 31
0.0
  0
LINE
  5
4AA
  8
TEAM-DET3
 10
110.700028
 20
556.387557
 30
0.0
 11
111.700022
 21
556.391067
 31
0.0
  0
LINE
  5
4AB
  8
TEAM-DET3
 10
111.700022
 20
556.391067
 30
0.0
 11
111.699144
 21
556.641065
 31
0.0
  0
ARC
  5
4AC
  8
TEAM-DET3
 10
112.44914
 20
556.643697
 30
0.0
 40
0.75
 50
0.201072
 51
180.201077
  0
LINE
  5
4AD
  8
TEAM-DET3
 10
113.199135
 20
556.646329
 30
0.0
 11
113.200012
 21
556.396331
 31
0.0
  0
LINE
  5
4AE
  8
TEAM-DET3
 10
113.200012
 20
556.396331
 30
0.0
 11
114.200006
 21
556.39984
 31
0.0
  0
LINE
  5
4AF
  8
TEAM-DET3
 10
114.200006
 20
556.39984
 30
0.0
 11
114.199129
 21
556.649839
 31
0.0
  0
ARC
  5
4B0
  8
TEAM-DET3
 10
114.949124
 20
556.652471
 30
0.0
 40
0.75
 50
0.201072
 51
180.201077
  0
LINE
  5
4B1
  8
TEAM-DET3
 10
115.69912
 20
556.655103
 30
0.0
 11
115.699997
 21
556.405104
 31
0.0
  0
LINE
  5
4B2
  8
TEAM-DET3
 10
115.699997
 20
556.405104
 30
0.0
 11
116.699991
 21
556.408614
 31
0.0
  0
LINE
  5
4B3
  8
TEAM-DET3
 10
116.699991
 20
556.408614
 30
0.0
 11
116.699113
 21
556.658612
 31
0.0
  0
ARC
  5
4B4
  8
TEAM-DET3
 10
117.449109
 20
556.661244
 30
0.0
 40
0.75
 50
0.201072
 51
180.201077
  0
LINE
  5
4B5
  8
TEAM-DET3
 10
118.199104
 20
556.663877
 30
0.0
 11
118.199982
 21
556.413878
 31
0.0
  0
LINE
  5
4B6
  8
TEAM-DET3
 10
118.199982
 20
556.413878
 30
0.0
 11
119.199975
 21
556.417387
 31
0.0
  0
LINE
  5
4B7
  8
TEAM-DET3
 10
119.199975
 20
556.417387
 30
0.0
 11
119.199098
 21
556.667386
 31
0.0
  0
ARC
  5
4B8
  8
TEAM-DET3
 10
119.949093
 20
556.670018
 30
0.0
 40
0.75
 50
0.201072
 51
180.201077
  0
LINE
  5
4B9
  8
TEAM-DET3
 10
120.699089
 20
556.67265
 30
0.0
 11
120.699966
 21
556.422652
 31
0.0
  0
LINE
  5
4BA
  8
TEAM-DET3
 10
120.699966
 20
556.422652
 30
0.0
 11
121.69996
 21
556.426161
 31
0.0
  0
LINE
  5
4BB
  8
TEAM-DET3
 10
121.69996
 20
556.426161
 30
0.0
 11
121.699083
 21
556.67616
 31
0.0
  0
ARC
  5
4BC
  8
TEAM-DET3
 10
122.449078
 20
556.678792
 30
0.0
 40
0.75
 50
0.201072
 51
180.201077
  0
LINE
  5
4BD
  8
TEAM-DET3
 10
123.199073
 20
556.681424
 30
0.0
 11
123.199951
 21
556.431425
 31
0.0
  0
LINE
  5
4BE
  8
TEAM-DET3
 10
123.199951
 20
556.431425
 30
0.0
 11
124.199945
 21
556.434935
 31
0.0
  0
LINE
  5
4BF
  8
TEAM-DET3
 10
124.199945
 20
556.434935
 30
0.0
 11
124.199067
 21
556.684933
 31
0.0
  0
ARC
  5
4C0
  8
TEAM-DET3
 10
124.949063
 20
556.687565
 30
0.0
 40
0.75
 50
0.201072
 51
180.201077
  0
LINE
  5
4C1
  8
TEAM-DET3
 10
125.699058
 20
556.690197
 30
0.0
 11
125.699935
 21
556.440199
 31
0.0
  0
LINE
  5
4C2
  8
TEAM-DET3
 10
125.699935
 20
556.440199
 30
0.0
 11
126.699929
 21
556.443708
 31
0.0
  0
LINE
  5
4C3
  8
TEAM-DET3
 10
126.699929
 20
556.443708
 30
0.0
 11
126.699052
 21
556.693707
 31
0.0
  0
ARC
  5
4C4
  8
TEAM-DET3
 10
127.449047
 20
556.696339
 30
0.0
 40
0.75
 50
0.201072
 51
180.201077
  0
LINE
  5
4C5
  8
TEAM-DET3
 10
128.199043
 20
556.698971
 30
0.0
 11
128.19992
 21
556.448973
 31
0.0
  0
LINE
  5
4C6
  8
TEAM-DET3
 10
128.19992
 20
556.448973
 30
0.0
 11
129.199914
 21
556.452482
 31
0.0
  0
LINE
  5
4C7
  8
TEAM-DET3
 10
129.199914
 20
556.452482
 30
0.0
 11
129.199036
 21
556.702481
 31
0.0
  0
ARC
  5
4C8
  8
TEAM-DET3
 10
129.949032
 20
556.705113
 30
0.0
 40
0.75
 50
0.201072
 51
180.201077
  0
LINE
  5
4C9
  8
TEAM-DET3
 10
130.699027
 20
556.707745
 30
0.0
 11
130.699905
 21
556.457746
 31
0.0
  0
LINE
  5
4CA
  8
TEAM-DET3
 10
130.699905
 20
556.457746
 30
0.0
 11
131.699898
 21
556.461256
 31
0.0
  0
LINE
  5
4CB
  8
TEAM-DET3
 10
131.699898
 20
556.461256
 30
0.0
 11
131.699021
 21
556.711254
 31
0.0
  0
ARC
  5
4CC
  8
TEAM-DET3
 10
132.449016
 20
556.713886
 30
0.0
 40
0.75
 50
0.201072
 51
180.201077
  0
LINE
  5
4CD
  8
TEAM-DET3
 10
133.199012
 20
556.716518
 30
0.0
 11
133.199889
 21
556.46652
 31
0.0
  0
LINE
  5
4CE
  8
TEAM-DET3
 10
133.199889
 20
556.46652
 30
0.0
 11
134.199883
 21
556.470029
 31
0.0
  0
LINE
  5
4CF
  8
TEAM-DET3
 10
134.199883
 20
556.470029
 30
0.0
 11
134.199006
 21
556.720028
 31
0.0
  0
ARC
  5
4D0
  8
TEAM-DET3
 10
134.949001
 20
556.72266
 30
0.0
 40
0.75
 50
0.201072
 51
180.201077
  0
LINE
  5
4D1
  8
TEAM-DET3
 10
135.698996
 20
556.725292
 30
0.0
 11
135.699874
 21
556.475294
 31
0.0
  0
LINE
  5
4D2
  8
TEAM-DET3
 10
135.699874
 20
556.475294
 30
0.0
 11
136.699868
 21
556.478803
 31
0.0
  0
LINE
  5
4D3
  8
TEAM-DET3
 10
136.699868
 20
556.478803
 30
0.0
 11
136.69899
 21
556.728801
 31
0.0
  0
ARC
  5
4D4
  8
TEAM-DET3
 10
137.448986
 20
556.731434
 30
0.0
 40
0.75
 50
0.201072
 51
180.201077
  0
LINE
  5
4D5
  8
TEAM-DET3
 10
138.198981
 20
556.734066
 30
0.0
 11
138.199858
 21
556.484067
 31
0.0
  0
LINE
  5
4D6
  8
TEAM-DET3
 10
138.199858
 20
556.484067
 30
0.0
 11
139.199852
 21
556.487577
 31
0.0
  0
LINE
  5
4D7
  8
TEAM-DET3
 10
139.199852
 20
556.487577
 30
0.0
 11
139.198975
 21
556.737575
 31
0.0
  0
ARC
  5
4D8
  8
TEAM-DET3
 10
139.94897
 20
556.740207
 30
0.0
 40
0.75
 50
0.201072
 51
180.201077
  0
LINE
  5
4D9
  8
TEAM-DET3
 10
140.698966
 20
556.742839
 30
0.0
 11
140.699843
 21
556.492841
 31
0.0
  0
LINE
  5
4DA
  8
TEAM-DET3
 10
140.699843
 20
556.492841
 30
0.0
 11
141.699837
 21
556.49635
 31
0.0
  0
LINE
  5
4DB
  8
TEAM-DET3
 10
141.699837
 20
556.49635
 30
0.0
 11
141.69896
 21
556.746349
 31
0.0
  0
ARC
  5
4DC
  8
TEAM-DET3
 10
142.448955
 20
556.748981
 30
0.0
 40
0.75
 50
0.201072
 51
180.201077
  0
LINE
  5
4DD
  8
TEAM-DET3
 10
143.19895
 20
556.751613
 30
0.0
 11
143.199828
 21
556.501614
 31
0.0
  0
LINE
  5
4DE
  8
TEAM-DET3
 10
143.199828
 20
556.501614
 30
0.0
 11
144.199821
 21
556.505124
 31
0.0
  0
LINE
  5
4DF
  8
TEAM-DET3
 10
144.199821
 20
556.505124
 30
0.0
 11
144.198944
 21
556.755122
 31
0.0
  0
ARC
  5
4E0
  8
TEAM-DET3
 10
144.948939
 20
556.757754
 30
0.0
 40
0.75
 50
0.201072
 51
180.201077
  0
LINE
  5
4E1
  8
TEAM-DET3
 10
145.698935
 20
556.760387
 30
0.0
 11
145.699812
 21
556.510388
 31
0.0
  0
LINE
  5
4E2
  8
TEAM-DET3
 10
145.699812
 20
556.510388
 30
0.0
 11
146.699806
 21
556.513898
 31
0.0
  0
LINE
  5
4E3
  8
TEAM-DET3
 10
146.699806
 20
556.513898
 30
0.0
 11
146.698929
 21
556.763896
 31
0.0
  0
ARC
  5
4E4
  8
TEAM-DET3
 10
147.448924
 20
556.766528
 30
0.0
 40
0.75
 50
0.201072
 51
180.201077
  0
LINE
  5
4E5
  8
TEAM-DET3
 10
148.198919
 20
556.76916
 30
0.0
 11
148.199797
 21
556.519162
 31
0.0
  0
LINE
  5
4E6
  8
TEAM-DET3
 10
148.199797
 20
556.519162
 30
0.0
 11
149.199791
 21
556.522671
 31
0.0
  0
LINE
  5
4E7
  8
TEAM-DET3
 10
149.199791
 20
556.522671
 30
0.0
 11
149.198913
 21
556.77267
 31
0.0
  0
ARC
  5
4E8
  8
TEAM-DET3
 10
149.948909
 20
556.775302
 30
0.0
 40
0.75
 50
0.201072
 51
180.201077
  0
LINE
  5
4E9
  8
TEAM-DET3
 10
150.698904
 20
556.777934
 30
0.0
 11
150.699781
 21
556.527935
 31
0.0
  0
LINE
  5
4EA
  8
TEAM-DET3
 10
150.699781
 20
556.527935
 30
0.0
 11
151.699775
 21
556.531445
 31
0.0
  0
LINE
  5
4EB
  8
TEAM-DET3
 10
151.699775
 20
556.531445
 30
0.0
 11
151.698898
 21
556.781443
 31
0.0
  0
ARC
  5
4EC
  8
TEAM-DET3
 10
152.448893
 20
556.784075
 30
0.0
 40
0.75
 50
0.201072
 51
180.201077
  0
LINE
  5
4ED
  8
TEAM-DET3
 10
153.198889
 20
556.786707
 30
0.0
 11
153.199766
 21
556.536709
 31
0.0
  0
LINE
  5
4EE
  8
TEAM-DET3
 10
153.199766
 20
556.536709
 30
0.0
 11
154.19976
 21
556.540218
 31
0.0
  0
LINE
  5
4EF
  8
TEAM-DET3
 10
154.19976
 20
556.540218
 30
0.0
 11
154.198883
 21
556.790217
 31
0.0
  0
ARC
  5
4F0
  8
TEAM-DET3
 10
154.948878
 20
556.792849
 30
0.0
 40
0.75
 50
0.201072
 51
180.201077
  0
LINE
  5
4F1
  8
TEAM-DET3
 10
155.698873
 20
556.795481
 30
0.0
 11
155.699751
 21
556.545483
 31
0.0
  0
LINE
  5
4F2
  8
TEAM-DET3
 10
155.699751
 20
556.545483
 30
0.0
 11
156.699745
 21
556.548992
 31
0.0
  0
LINE
  5
4F3
  8
TEAM-DET3
 10
156.699745
 20
556.548992
 30
0.0
 11
156.698867
 21
556.798991
 31
0.0
  0
ARC
  5
4F4
  8
TEAM-DET3
 10
157.448863
 20
556.801623
 30
0.0
 40
0.75
 50
0.201072
 51
180.201077
  0
LINE
  5
4F5
  8
TEAM-DET3
 10
158.198858
 20
556.804255
 30
0.0
 11
158.199735
 21
556.554256
 31
0.0
  0
LINE
  5
4F6
  8
TEAM-DET3
 10
158.199735
 20
556.554256
 30
0.0
 11
159.199729
 21
556.557766
 31
0.0
  0
LINE
  5
4F7
  8
TEAM-DET3
 10
159.199729
 20
556.557766
 30
0.0
 11
159.198852
 21
556.807764
 31
0.0
  0
ARC
  5
4F8
  8
TEAM-DET3
 10
159.948847
 20
556.810396
 30
0.0
 40
0.75
 50
0.201072
 51
180.201077
  0
LINE
  5
4F9
  8
TEAM-DET3
 10
160.698843
 20
556.813028
 30
0.0
 11
160.69972
 21
556.56303
 31
0.0
  0
LINE
  5
4FA
  8
TEAM-DET3
 10
160.69972
 20
556.56303
 30
0.0
 11
161.699714
 21
556.566539
 31
0.0
  0
LINE
  5
4FB
  8
TEAM-DET3
 10
161.699714
 20
556.566539
 30
0.0
 11
161.698836
 21
556.816538
 31
0.0
  0
ARC
  5
4FC
  8
TEAM-DET3
 10
162.448832
 20
556.81917
 30
0.0
 40
0.75
 50
0.201072
 51
180.201077
  0
LINE
  5
4FD
  8
TEAM-DET3
 10
163.198827
 20
556.821802
 30
0.0
 11
163.199704
 21
556.571804
 31
0.0
  0
LINE
  5
4FE
  8
TEAM-DET3
 10
163.199704
 20
556.571804
 30
0.0
 11
164.199698
 21
556.575313
 31
0.0
  0
LINE
  5
4FF
  8
TEAM-DET3
 10
164.199698
 20
556.575313
 30
0.0
 11
164.198821
 21
556.825311
 31
0.0
  0
ARC
  5
500
  8
TEAM-DET3
 10
164.948816
 20
556.827944
 30
0.0
 40
0.75
 50
0.201072
 51
180.201077
  0
LINE
  5
501
  8
TEAM-DET3
 10
165.698812
 20
556.830576
 30
0.0
 11
165.699689
 21
556.580577
 31
0.0
  0
LINE
  5
502
  8
TEAM-DET3
 10
165.699689
 20
556.580577
 30
0.0
 11
166.699683
 21
556.584087
 31
0.0
  0
LINE
  5
503
  8
TEAM-DET3
 10
166.699683
 20
556.584087
 30
0.0
 11
166.698806
 21
556.834085
 31
0.0
  0
ARC
  5
504
  8
TEAM-DET3
 10
167.448801
 20
556.836717
 30
0.0
 40
0.75
 50
0.201072
 51
180.201077
  0
LINE
  5
505
  8
TEAM-DET3
 10
168.198796
 20
556.839349
 30
0.0
 11
168.199674
 21
556.589351
 31
0.0
  0
LINE
  5
506
  8
TEAM-DET3
 10
168.199674
 20
556.589351
 30
0.0
 11
169.199668
 21
556.59286
 31
0.0
  0
LINE
  5
507
  8
TEAM-DET3
 10
169.199668
 20
556.59286
 30
0.0
 11
169.19879
 21
556.842859
 31
0.0
  0
ARC
  5
508
  8
TEAM-DET3
 10
169.948786
 20
556.845491
 30
0.0
 40
0.75
 50
0.201072
 51
180.201077
  0
LINE
  5
509
  8
TEAM-DET3
 10
170.698781
 20
556.848123
 30
0.0
 11
170.699658
 21
556.598124
 31
0.0
  0
LINE
  5
50A
  8
TEAM-DET3
 10
170.699658
 20
556.598124
 30
0.0
 11
171.699652
 21
556.601634
 31
0.0
  0
LINE
  5
50B
  8
TEAM-DET3
 10
171.699652
 20
556.601634
 30
0.0
 11
171.698775
 21
556.851632
 31
0.0
  0
ARC
  5
50C
  8
TEAM-DET3
 10
172.44877
 20
556.854264
 30
0.0
 40
0.75
 50
0.201072
 51
180.201077
  0
LINE
  5
50D
  8
TEAM-DET3
 10
173.198766
 20
556.856897
 30
0.0
 11
173.199643
 21
556.606898
 31
0.0
  0
LINE
  5
50E
  8
TEAM-DET3
 10
173.199643
 20
556.606898
 30
0.0
 11
173.449641
 21
556.607775
 31
0.0
  0
ARC
  5
50F
  8
TEAM-DET3
 10
173.45666
 20
554.607788
 30
0.0
 40
2.0
 50
0.201072
 51
90.201074
  0
LINE
  5
510
  8
TEAM-DET3
 10
175.456648
 20
554.614807
 30
0.0
 11
175.467176
 21
551.614825
 31
0.0
  0
LINE
  5
511
  8
TEAM-DET3
 10
175.467176
 20
551.614825
 30
0.0
 11
183.243465
 21
551.642901
 31
0.0
  0
LINE
  5
512
  8
TEAM-DET3
 10
183.250484
 20
549.642913
 30
0.0
 11
175.474195
 21
549.614837
 31
0.0
  0
LINE
  5
513
  8
TEAM-DET3
 10
175.474195
 20
549.614837
 30
0.0
 11
175.484724
 21
546.614856
 31
0.0
  0
ARC
  5
514
  8
TEAM-DET3
 10
173.484736
 20
546.607837
 30
0.0
 40
2.0
 50
270.201076
 51
0.201072
  0
LINE
  5
515
  8
TEAM-DET3
 10
173.491755
 20
544.607849
 30
0.0
 11
173.241756
 21
544.606972
 31
0.0
  0
LINE
  5
516
  8
TEAM-DET3
 10
173.241756
 20
544.606972
 30
0.0
 11
173.242634
 21
544.356974
 31
0.0
  0
ARC
  5
517
  8
TEAM-DET3
 10
172.492638
 20
544.354341
 30
0.0
 40
0.75
 50
180.201067
 51
0.201072
  0
LINE
  5
518
  8
TEAM-DET3
 10
171.742643
 20
544.351709
 30
0.0
 11
171.741766
 21
544.601708
 31
0.0
  0
LINE
  5
519
  8
TEAM-DET3
 10
171.741766
 20
544.601708
 30
0.0
 11
170.741772
 21
544.598198
 31
0.0
  0
LINE
  5
51A
  8
TEAM-DET3
 10
170.741772
 20
544.598198
 30
0.0
 11
170.742649
 21
544.3482
 31
0.0
  0
ARC
  5
51B
  8
TEAM-DET3
 10
169.992654
 20
544.345568
 30
0.0
 40
0.75
 50
180.201067
 51
0.201072
  0
LINE
  5
51C
  8
TEAM-DET3
 10
169.242658
 20
544.342936
 30
0.0
 11
169.241781
 21
544.592934
 31
0.0
  0
LINE
  5
51D
  8
TEAM-DET3
 10
169.241781
 20
544.592934
 30
0.0
 11
168.241787
 21
544.589425
 31
0.0
  0
LINE
  5
51E
  8
TEAM-DET3
 10
168.241787
 20
544.589425
 30
0.0
 11
168.242665
 21
544.339426
 31
0.0
  0
ARC
  5
51F
  8
TEAM-DET3
 10
167.492669
 20
544.336794
 30
0.0
 40
0.75
 50
180.201067
 51
0.201072
  0
LINE
  5
520
  8
TEAM-DET3
 10
166.742674
 20
544.334162
 30
0.0
 11
166.741796
 21
544.584161
 31
0.0
  0
LINE
  5
521
  8
TEAM-DET3
 10
166.741796
 20
544.584161
 30
0.0
 11
165.741803
 21
544.580651
 31
0.0
  0
LINE
  5
522
  8
TEAM-DET3
 10
165.741803
 20
544.580651
 30
0.0
 11
165.74268
 21
544.330653
 31
0.0
  0
ARC
  5
523
  8
TEAM-DET3
 10
164.992685
 20
544.328021
 30
0.0
 40
0.75
 50
180.201067
 51
0.201072
  0
LINE
  5
524
  8
TEAM-DET3
 10
164.242689
 20
544.325388
 30
0.0
 11
164.241812
 21
544.575387
 31
0.0
  0
LINE
  5
525
  8
TEAM-DET3
 10
164.241812
 20
544.575387
 30
0.0
 11
163.241818
 21
544.571877
 31
0.0
  0
LINE
  5
526
  8
TEAM-DET3
 10
163.241818
 20
544.571877
 30
0.0
 11
163.242695
 21
544.321879
 31
0.0
  0
ARC
  5
527
  8
TEAM-DET3
 10
162.4927
 20
544.319247
 30
0.0
 40
0.75
 50
180.201067
 51
0.201072
  0
LINE
  5
528
  8
TEAM-DET3
 10
161.742705
 20
544.316615
 30
0.0
 11
161.741827
 21
544.566613
 31
0.0
  0
LINE
  5
529
  8
TEAM-DET3
 10
161.741827
 20
544.566613
 30
0.0
 11
160.741833
 21
544.563104
 31
0.0
  0
LINE
  5
52A
  8
TEAM-DET3
 10
160.741833
 20
544.563104
 30
0.0
 11
160.742711
 21
544.313105
 31
0.0
  0
ARC
  5
52B
  8
TEAM-DET3
 10
159.992715
 20
544.310473
 30
0.0
 40
0.75
 50
180.201067
 51
0.201072
  0
LINE
  5
52C
  8
TEAM-DET3
 10
159.24272
 20
544.307841
 30
0.0
 11
159.241843
 21
544.55784
 31
0.0
  0
LINE
  5
52D
  8
TEAM-DET3
 10
159.241843
 20
544.55784
 30
0.0
 11
158.241849
 21
544.55433
 31
0.0
  0
LINE
  5
52E
  8
TEAM-DET3
 10
158.241849
 20
544.55433
 30
0.0
 11
158.242726
 21
544.304332
 31
0.0
  0
ARC
  5
52F
  8
TEAM-DET3
 10
157.492731
 20
544.3017
 30
0.0
 40
0.75
 50
180.201067
 51
0.201072
  0
LINE
  5
530
  8
TEAM-DET3
 10
156.742735
 20
544.299068
 30
0.0
 11
156.741858
 21
544.549066
 31
0.0
  0
LINE
  5
531
  8
TEAM-DET3
 10
156.741858
 20
544.549066
 30
0.0
 11
155.741864
 21
544.545557
 31
0.0
  0
LINE
  5
532
  8
TEAM-DET3
 10
155.741864
 20
544.545557
 30
0.0
 11
155.742741
 21
544.295558
 31
0.0
  0
ARC
  5
533
  8
TEAM-DET3
 10
154.992746
 20
544.292926
 30
0.0
 40
0.75
 50
180.201067
 51
0.201072
  0
LINE
  5
534
  8
TEAM-DET3
 10
154.242751
 20
544.290294
 30
0.0
 11
154.241873
 21
544.540292
 31
0.0
  0
LINE
  5
535
  8
TEAM-DET3
 10
154.241873
 20
544.540292
 30
0.0
 11
153.24188
 21
544.536783
 31
0.0
  0
LINE
  5
536
  8
TEAM-DET3
 10
153.24188
 20
544.536783
 30
0.0
 11
153.242757
 21
544.286784
 31
0.0
  0
ARC
  5
537
  8
TEAM-DET3
 10
152.492762
 20
544.284152
 30
0.0
 40
0.75
 50
180.201067
 51
0.201072
  0
LINE
  5
538
  8
TEAM-DET3
 10
151.742766
 20
544.28152
 30
0.0
 11
151.741889
 21
544.531519
 31
0.0
  0
LINE
  5
539
  8
TEAM-DET3
 10
151.741889
 20
544.531519
 30
0.0
 11
150.741895
 21
544.528009
 31
0.0
  0
LINE
  5
53A
  8
TEAM-DET3
 10
150.741895
 20
544.528009
 30
0.0
 11
150.742772
 21
544.278011
 31
0.0
  0
ARC
  5
53B
  8
TEAM-DET3
 10
149.992777
 20
544.275379
 30
0.0
 40
0.75
 50
180.201067
 51
0.201072
  0
LINE
  5
53C
  8
TEAM-DET3
 10
149.242782
 20
544.272747
 30
0.0
 11
149.241904
 21
544.522745
 31
0.0
  0
LINE
  5
53D
  8
TEAM-DET3
 10
149.241904
 20
544.522745
 30
0.0
 11
148.24191
 21
544.519236
 31
0.0
  0
LINE
  5
53E
  8
TEAM-DET3
 10
148.24191
 20
544.519236
 30
0.0
 11
148.242788
 21
544.269237
 31
0.0
  0
ARC
  5
53F
  8
TEAM-DET3
 10
147.492792
 20
544.266605
 30
0.0
 40
0.75
 50
180.201067
 51
0.201072
  0
LINE
  5
540
  8
TEAM-DET3
 10
146.742797
 20
544.263973
 30
0.0
 11
146.74192
 21
544.513971
 31
0.0
  0
LINE
  5
541
  8
TEAM-DET3
 10
146.74192
 20
544.513971
 30
0.0
 11
145.741926
 21
544.510462
 31
0.0
  0
LINE
  5
542
  8
TEAM-DET3
 10
145.741926
 20
544.510462
 30
0.0
 11
145.742803
 21
544.260464
 31
0.0
  0
ARC
  5
543
  8
TEAM-DET3
 10
144.992808
 20
544.257831
 30
0.0
 40
0.75
 50
180.201067
 51
0.201072
  0
LINE
  5
544
  8
TEAM-DET3
 10
144.242812
 20
544.255199
 30
0.0
 11
144.241935
 21
544.505198
 31
0.0
  0
LINE
  5
545
  8
TEAM-DET3
 10
144.241935
 20
544.505198
 30
0.0
 11
143.241941
 21
544.501688
 31
0.0
  0
LINE
  5
546
  8
TEAM-DET3
 10
143.241941
 20
544.501688
 30
0.0
 11
143.242818
 21
544.25169
 31
0.0
  0
ARC
  5
547
  8
TEAM-DET3
 10
142.492823
 20
544.249058
 30
0.0
 40
0.75
 50
180.201067
 51
0.201072
  0
LINE
  5
548
  8
TEAM-DET3
 10
141.742828
 20
544.246426
 30
0.0
 11
141.74195
 21
544.496424
 31
0.0
  0
LINE
  5
549
  8
TEAM-DET3
 10
141.74195
 20
544.496424
 30
0.0
 11
140.741957
 21
544.492915
 31
0.0
  0
LINE
  5
54A
  8
TEAM-DET3
 10
140.741957
 20
544.492915
 30
0.0
 11
140.742834
 21
544.242916
 31
0.0
  0
ARC
  5
54B
  8
TEAM-DET3
 10
139.992838
 20
544.240284
 30
0.0
 40
0.75
 50
180.201067
 51
0.201072
  0
LINE
  5
54C
  8
TEAM-DET3
 10
139.242843
 20
544.237652
 30
0.0
 11
139.241966
 21
544.487651
 31
0.0
  0
LINE
  5
54D
  8
TEAM-DET3
 10
139.241966
 20
544.487651
 30
0.0
 11
138.241972
 21
544.484141
 31
0.0
  0
LINE
  5
54E
  8
TEAM-DET3
 10
138.241972
 20
544.484141
 30
0.0
 11
138.242849
 21
544.234143
 31
0.0
  0
ARC
  5
54F
  8
TEAM-DET3
 10
137.492854
 20
544.231511
 30
0.0
 40
0.75
 50
180.201067
 51
0.201072
  0
LINE
  5
550
  8
TEAM-DET3
 10
136.742859
 20
544.228878
 30
0.0
 11
136.741981
 21
544.478877
 31
0.0
  0
LINE
  5
551
  8
TEAM-DET3
 10
136.741981
 20
544.478877
 30
0.0
 11
135.741987
 21
544.475367
 31
0.0
  0
LINE
  5
552
  8
TEAM-DET3
 10
135.741987
 20
544.475367
 30
0.0
 11
135.742865
 21
544.225369
 31
0.0
  0
ARC
  5
553
  8
TEAM-DET3
 10
134.992869
 20
544.222737
 30
0.0
 40
0.75
 50
180.201067
 51
0.201072
  0
LINE
  5
554
  8
TEAM-DET3
 10
134.242874
 20
544.220105
 30
0.0
 11
134.241997
 21
544.470103
 31
0.0
  0
LINE
  5
555
  8
TEAM-DET3
 10
134.241997
 20
544.470103
 30
0.0
 11
133.242003
 21
544.466594
 31
0.0
  0
LINE
  5
556
  8
TEAM-DET3
 10
133.242003
 20
544.466594
 30
0.0
 11
133.24288
 21
544.216595
 31
0.0
  0
ARC
  5
557
  8
TEAM-DET3
 10
132.492885
 20
544.213963
 30
0.0
 40
0.75
 50
180.201067
 51
0.201072
  0
LINE
  5
558
  8
TEAM-DET3
 10
131.742889
 20
544.211331
 30
0.0
 11
131.742012
 21
544.46133
 31
0.0
  0
LINE
  5
559
  8
TEAM-DET3
 10
131.742012
 20
544.46133
 30
0.0
 11
130.742018
 21
544.45782
 31
0.0
  0
LINE
  5
55A
  8
TEAM-DET3
 10
130.742018
 20
544.45782
 30
0.0
 11
130.742895
 21
544.207822
 31
0.0
  0
ARC
  5
55B
  8
TEAM-DET3
 10
129.9929
 20
544.20519
 30
0.0
 40
0.75
 50
180.201067
 51
0.201072
  0
LINE
  5
55C
  8
TEAM-DET3
 10
129.242905
 20
544.202557
 30
0.0
 11
129.242027
 21
544.452556
 31
0.0
  0
LINE
  5
55D
  8
TEAM-DET3
 10
129.242027
 20
544.452556
 30
0.0
 11
128.242033
 21
544.449046
 31
0.0
  0
LINE
  5
55E
  8
TEAM-DET3
 10
128.242033
 20
544.449046
 30
0.0
 11
128.242911
 21
544.199048
 31
0.0
  0
ARC
  5
55F
  8
TEAM-DET3
 10
127.492915
 20
544.196416
 30
0.0
 40
0.75
 50
180.201067
 51
0.201072
  0
LINE
  5
560
  8
TEAM-DET3
 10
126.74292
 20
544.193784
 30
0.0
 11
126.742043
 21
544.443782
 31
0.0
  0
LINE
  5
561
  8
TEAM-DET3
 10
126.742043
 20
544.443782
 30
0.0
 11
125.742049
 21
544.440273
 31
0.0
  0
LINE
  5
562
  8
TEAM-DET3
 10
125.742049
 20
544.440273
 30
0.0
 11
125.742926
 21
544.190274
 31
0.0
  0
ARC
  5
563
  8
TEAM-DET3
 10
124.992931
 20
544.187642
 30
0.0
 40
0.75
 50
180.201067
 51
0.201072
  0
LINE
  5
564
  8
TEAM-DET3
 10
124.242935
 20
544.18501
 30
0.0
 11
124.242058
 21
544.435009
 31
0.0
  0
LINE
  5
565
  8
TEAM-DET3
 10
124.242058
 20
544.435009
 30
0.0
 11
123.242064
 21
544.431499
 31
0.0
  0
LINE
  5
566
  8
TEAM-DET3
 10
123.242064
 20
544.431499
 30
0.0
 11
123.242942
 21
544.181501
 31
0.0
  0
ARC
  5
567
  8
TEAM-DET3
 10
122.492946
 20
544.178869
 30
0.0
 40
0.75
 50
180.201067
 51
0.201072
  0
LINE
  5
568
  8
TEAM-DET3
 10
121.742951
 20
544.176237
 30
0.0
 11
121.742074
 21
544.426235
 31
0.0
  0
LINE
  5
569
  8
TEAM-DET3
 10
121.742074
 20
544.426235
 30
0.0
 11
120.74208
 21
544.422726
 31
0.0
  0
LINE
  5
56A
  8
TEAM-DET3
 10
120.74208
 20
544.422726
 30
0.0
 11
120.742957
 21
544.172727
 31
0.0
  0
ARC
  5
56B
  8
TEAM-DET3
 10
119.992962
 20
544.170095
 30
0.0
 40
0.75
 50
180.201067
 51
0.201072
  0
LINE
  5
56C
  8
TEAM-DET3
 10
119.242966
 20
544.167463
 30
0.0
 11
119.242089
 21
544.417461
 31
0.0
  0
LINE
  5
56D
  8
TEAM-DET3
 10
119.242089
 20
544.417461
 30
0.0
 11
118.242095
 21
544.413952
 31
0.0
  0
LINE
  5
56E
  8
TEAM-DET3
 10
118.242095
 20
544.413952
 30
0.0
 11
118.242972
 21
544.163953
 31
0.0
  0
ARC
  5
56F
  8
TEAM-DET3
 10
117.492977
 20
544.161321
 30
0.0
 40
0.75
 50
180.201067
 51
0.201072
  0
LINE
  5
570
  8
TEAM-DET3
 10
116.742982
 20
544.158689
 30
0.0
 11
116.742104
 21
544.408688
 31
0.0
  0
LINE
  5
571
  8
TEAM-DET3
 10
116.742104
 20
544.408688
 30
0.0
 11
115.74211
 21
544.405178
 31
0.0
  0
LINE
  5
572
  8
TEAM-DET3
 10
115.74211
 20
544.405178
 30
0.0
 11
115.742988
 21
544.15518
 31
0.0
  0
ARC
  5
573
  8
TEAM-DET3
 10
114.992992
 20
544.152548
 30
0.0
 40
0.75
 50
180.201067
 51
0.201072
  0
LINE
  5
574
  8
TEAM-DET3
 10
114.242997
 20
544.149916
 30
0.0
 11
114.24212
 21
544.399914
 31
0.0
  0
LINE
  5
575
  8
TEAM-DET3
 10
114.24212
 20
544.399914
 30
0.0
 11
113.242126
 21
544.396405
 31
0.0
  0
LINE
  5
576
  8
TEAM-DET3
 10
113.242126
 20
544.396405
 30
0.0
 11
113.243003
 21
544.146406
 31
0.0
  0
ARC
  5
577
  8
TEAM-DET3
 10
112.493008
 20
544.143774
 30
0.0
 40
0.75
 50
180.201067
 51
0.201072
  0
LINE
  5
578
  8
TEAM-DET3
 10
111.743012
 20
544.141142
 30
0.0
 11
111.742135
 21
544.39114
 31
0.0
  0
LINE
  5
579
  8
TEAM-DET3
 10
111.742135
 20
544.39114
 30
0.0
 11
110.742141
 21
544.387631
 31
0.0
  0
LINE
  5
57A
  8
TEAM-DET3
 10
110.742141
 20
544.387631
 30
0.0
 11
110.743019
 21
544.137633
 31
0.0
  0
ARC
  5
57B
  8
TEAM-DET3
 10
109.993023
 20
544.135
 30
0.0
 40
0.75
 50
180.201067
 51
0.201072
  0
LINE
  5
57C
  8
TEAM-DET3
 10
109.243028
 20
544.132368
 30
0.0
 11
109.24215
 21
544.382367
 31
0.0
  0
LINE
  5
57D
  8
TEAM-DET3
 10
109.24215
 20
544.382367
 30
0.0
 11
108.242157
 21
544.378857
 31
0.0
  0
LINE
  5
57E
  8
TEAM-DET3
 10
108.242157
 20
544.378857
 30
0.0
 11
108.243034
 21
544.128859
 31
0.0
  0
ARC
  5
57F
  8
TEAM-DET3
 10
107.493039
 20
544.126227
 30
0.0
 40
0.75
 50
180.201067
 51
0.201072
  0
LINE
  5
580
  8
TEAM-DET3
 10
106.743043
 20
544.123595
 30
0.0
 11
106.742166
 21
544.373593
 31
0.0
  0
LINE
  5
581
  8
TEAM-DET3
 10
106.742166
 20
544.373593
 30
0.0
 11
105.742172
 21
544.370084
 31
0.0
  0
LINE
  5
582
  8
TEAM-DET3
 10
105.742172
 20
544.370084
 30
0.0
 11
105.743049
 21
544.120085
 31
0.0
  0
ARC
  5
583
  8
TEAM-DET3
 10
104.993054
 20
544.117453
 30
0.0
 40
0.75
 50
180.201067
 51
0.201072
  0
LINE
  5
584
  8
TEAM-DET3
 10
104.243059
 20
544.114821
 30
0.0
 11
104.242181
 21
544.36482
 31
0.0
  0
LINE
  5
585
  8
TEAM-DET3
 10
104.242181
 20
544.36482
 30
0.0
 11
103.242187
 21
544.36131
 31
0.0
  0
LINE
  5
586
  8
TEAM-DET3
 10
103.242187
 20
544.36131
 30
0.0
 11
103.243065
 21
544.111312
 31
0.0
  0
ARC
  5
587
  8
TEAM-DET3
 10
102.493069
 20
544.10868
 30
0.0
 40
0.75
 50
180.201067
 51
0.201072
  0
LINE
  5
588
  8
TEAM-DET3
 10
101.743074
 20
544.106047
 30
0.0
 11
101.742197
 21
544.356046
 31
0.0
  0
LINE
  5
589
  8
TEAM-DET3
 10
101.742197
 20
544.356046
 30
0.0
 11
100.742203
 21
544.352536
 31
0.0
  0
LINE
  5
58A
  8
TEAM-DET3
 10
100.742203
 20
544.352536
 30
0.0
 11
100.74308
 21
544.102538
 31
0.0
  0
ARC
  5
58B
  8
TEAM-DET3
 10
99.993085
 20
544.099906
 30
0.0
 40
0.75
 50
180.201067
 51
0.201072
  0
LINE
  5
58C
  8
TEAM-DET3
 10
99.243089
 20
544.097274
 30
0.0
 11
99.242212
 21
544.347272
 31
0.0
  0
LINE
  5
58D
  8
TEAM-DET3
 10
99.242212
 20
544.347272
 30
0.0
 11
98.242218
 21
544.343763
 31
0.0
  0
LINE
  5
58E
  8
TEAM-DET3
 10
98.242218
 20
544.343763
 30
0.0
 11
98.243096
 21
544.093764
 31
0.0
  0
ARC
  5
58F
  8
TEAM-DET3
 10
97.4931
 20
544.091132
 30
0.0
 40
0.75
 50
180.201067
 51
0.201072
  0
LINE
  5
590
  8
TEAM-DET3
 10
96.743105
 20
544.0885
 30
0.0
 11
96.742227
 21
544.338499
 31
0.0
  0
LINE
  5
591
  8
TEAM-DET3
 10
96.742227
 20
544.338499
 30
0.0
 11
95.742234
 21
544.334989
 31
0.0
  0
LINE
  5
592
  8
TEAM-DET3
 10
95.742234
 20
544.334989
 30
0.0
 11
95.743111
 21
544.084991
 31
0.0
  0
ARC
  5
593
  8
TEAM-DET3
 10
94.993116
 20
544.082359
 30
0.0
 40
0.75
 50
180.201067
 51
0.201072
  0
LINE
  5
594
  8
TEAM-DET3
 10
94.24312
 20
544.079727
 30
0.0
 11
94.242243
 21
544.329725
 31
0.0
  0
LINE
  5
595
  8
TEAM-DET3
 10
94.242243
 20
544.329725
 30
0.0
 11
93.242249
 21
544.326216
 31
0.0
  0
LINE
  5
596
  8
TEAM-DET3
 10
93.242249
 20
544.326216
 30
0.0
 11
93.243126
 21
544.076217
 31
0.0
  0
ARC
  5
597
  8
TEAM-DET3
 10
92.493131
 20
544.073585
 30
0.0
 40
0.75
 50
180.201067
 51
0.201072
  0
LINE
  5
598
  8
TEAM-DET3
 10
91.743136
 20
544.070953
 30
0.0
 11
91.742258
 21
544.320951
 31
0.0
  0
LINE
  5
599
  8
TEAM-DET3
 10
91.742258
 20
544.320951
 30
0.0
 11
90.742264
 21
544.317442
 31
0.0
  0
LINE
  5
59A
  8
TEAM-DET3
 10
90.742264
 20
544.317442
 30
0.0
 11
90.743142
 21
544.067443
 31
0.0
  0
ARC
  5
59B
  8
TEAM-DET3
 10
89.993146
 20
544.064811
 30
0.0
 40
0.75
 50
180.201067
 51
0.201072
  0
LINE
  5
59C
  8
TEAM-DET3
 10
89.243151
 20
544.062179
 30
0.0
 11
89.242274
 21
544.312178
 31
0.0
  0
LINE
  5
59D
  8
TEAM-DET3
 10
89.242274
 20
544.312178
 30
0.0
 11
88.24228
 21
544.308668
 31
0.0
  0
LINE
  5
59E
  8
TEAM-DET3
 10
88.24228
 20
544.308668
 30
0.0
 11
88.243157
 21
544.05867
 31
0.0
  0
ARC
  5
59F
  8
TEAM-DET3
 10
87.493162
 20
544.056038
 30
0.0
 40
0.75
 50
180.201067
 51
0.201072
  0
LINE
  5
5A0
  8
TEAM-DET3
 10
86.743166
 20
544.053406
 30
0.0
 11
86.742289
 21
544.303404
 31
0.0
  0
LINE
  5
5A1
  8
TEAM-DET3
 10
86.742289
 20
544.303404
 30
0.0
 11
85.742295
 21
544.299895
 31
0.0
  0
LINE
  5
5A2
  8
TEAM-DET3
 10
85.742295
 20
544.299895
 30
0.0
 11
85.743173
 21
544.049896
 31
0.0
  0
ARC
  5
5A3
  8
TEAM-DET3
 10
84.993177
 20
544.047264
 30
0.0
 40
0.75
 50
180.201067
 51
0.201072
  0
LINE
  5
5A4
  8
TEAM-DET3
 10
84.243182
 20
544.044632
 30
0.0
 11
84.242304
 21
544.29463
 31
0.0
  0
LINE
  5
5A5
  8
TEAM-DET3
 10
84.242304
 20
544.29463
 30
0.0
 11
83.242311
 21
544.291121
 31
0.0
  0
LINE
  5
5A6
  8
TEAM-DET3
 10
83.242311
 20
544.291121
 30
0.0
 11
83.243188
 21
544.041123
 31
0.0
  0
ARC
  5
5A7
  8
TEAM-DET3
 10
82.493193
 20
544.03849
 30
0.0
 40
0.75
 50
180.201067
 51
0.201072
  0
LINE
  5
5A8
  8
TEAM-DET3
 10
81.743197
 20
544.035858
 30
0.0
 11
81.74232
 21
544.285857
 31
0.0
  0
LINE
  5
5A9
  8
TEAM-DET3
 10
81.74232
 20
544.285857
 30
0.0
 11
80.742326
 21
544.282347
 31
0.0
  0
LINE
  5
5AA
  8
TEAM-DET3
 10
80.742326
 20
544.282347
 30
0.0
 11
80.743203
 21
544.032349
 31
0.0
  0
ARC
  5
5AB
  8
TEAM-DET3
 10
79.993208
 20
544.029717
 30
0.0
 40
0.75
 50
180.201067
 51
0.201072
  0
LINE
  5
5AC
  8
TEAM-DET3
 10
79.243213
 20
544.027085
 30
0.0
 11
79.242335
 21
544.277083
 31
0.0
  0
LINE
  5
5AD
  8
TEAM-DET3
 10
79.242335
 20
544.277083
 30
0.0
 11
78.242341
 21
544.273574
 31
0.0
  0
LINE
  5
5AE
  8
TEAM-DET3
 10
78.242341
 20
544.273574
 30
0.0
 11
78.243219
 21
544.023575
 31
0.0
  0
ARC
  5
5AF
  8
TEAM-DET3
 10
77.493223
 20
544.020943
 30
0.0
 40
0.75
 50
180.201067
 51
0.201072
  0
LINE
  5
5B0
  8
TEAM-DET3
 10
76.743228
 20
544.018311
 30
0.0
 11
76.742351
 21
544.26831
 31
0.0
  0
LINE
  5
5B1
  8
TEAM-DET3
 10
-86.181764
 20
1209.005045
 30
0.0
 11
-86.181764
 21
1222.005045
 31
0.0
  0
LINE
  5
5B2
  8
TEAM-DET3
 10
86.129088
 20
1208.005045
 30
0.0
 11
86.129088
 21
1246.505045
 31
0.0
  0
LINE
  5
5B3
  8
TEAM-DET3
 10
-140.10308
 20
1044.093085
 30
0.0
 11
-100.585808
 21
1044.093085
 31
0.0
  0
POLYLINE
  5
5B4
  8
TEAM-DET3
 66
     1
 10
0.0
 20
0.0
 30
0.0
  0
VERTEX
  5
E50
  8
TEAM-DET3
 10
8.336404
 20
1052.299383
 30
0.0
  0
VERTEX
  5
E51
  8
TEAM-DET3
 10
8.564676
 20
1051.320867
 30
0.0
  0
VERTEX
  5
E52
  8
TEAM-DET3
 10
8.661538
 20
1050.251043
 30
0.0
  0
VERTEX
  5
E53
  8
TEAM-DET3
 10
8.622354
 20
1049.202703
 30
0.0
  0
VERTEX
  5
E54
  8
TEAM-DET3
 10
8.48005
 20
1048.242743
 30
0.0
  0
VERTEX
  5
E55
  8
TEAM-DET3
 10
8.211586
 20
1047.214911
 30
0.0
  0
VERTEX
  5
E56
  8
TEAM-DET3
 10
7.82386
 20
1046.221991
 30
0.0
  0
VERTEX
  5
E57
  8
TEAM-DET3
 10
7.319832
 20
1045.282049
 30
0.0
  0
VERTEX
  5
E58
  8
TEAM-DET3
 10
6.707466
 20
1044.408391
 30
0.0
  0
VERTEX
  5
E59
  8
TEAM-DET3
 10
5.996042
 20
1043.613103
 30
0.0
  0
VERTEX
  5
E5A
  8
TEAM-DET3
 10
5.195564
 20
1042.908025
 30
0.0
  0
VERTEX
  5
E5B
  8
TEAM-DET3
 10
4.317574
 20
1042.302069
 30
0.0
  0
VERTEX
  5
E5C
  8
TEAM-DET3
 10
3.374002
 20
1041.804631
 30
0.0
  0
VERTEX
  5
E5D
  8
TEAM-DET3
 10
2.37809
 20
1041.422429
 30
0.0
  0
VERTEX
  5
E5E
  8
TEAM-DET3
 10
1.343942
 20
1041.160223
 30
0.0
  0
VERTEX
  5
E5F
  8
TEAM-DET3
 10
0.285836
 20
1041.022527
 30
0.0
  0
VERTEX
  5
E60
  8
TEAM-DET3
 10
-0.780966
 20
1041.010809
 30
0.0
  0
VERTEX
  5
E61
  8
TEAM-DET3
 10
-1.840996
 20
1041.126287
 30
0.0
  0
VERTEX
  5
E62
  8
TEAM-DET3
 10
-2.879478
 20
1041.367255
 30
0.0
  0
VERTEX
  5
E63
  8
TEAM-DET3
 10
-3.865562
 20
1041.719549
 30
0.0
  0
VERTEX
  5
E64
  8
TEAM-DET3
 10
-4.739432
 20
1042.141913
 30
0.0
  0
VERTEX
  5
E65
  8
TEAM-DET3
 10
-5.640678
 20
1042.711005
 30
0.0
  0
VERTEX
  5
E66
  8
TEAM-DET3
 10
-6.268486
 20
1043.216497
 30
0.0
  0
VERTEX
  5
E67
  8
TEAM-DET3
 10
-6.969168
 20
1043.937811
 30
0.0
  0
SEQEND
  5
E68
  8
TEAM-DET3
  0
LINE
  5
5B5
  8
TEAM-DET3
 10
7.655922
 20
1054.079169
 30
0.0
 11
7.55378
 21
1054.315253
 31
0.0
  0
LINE
  5
5B6
  8
TEAM-DET3
 10
-8.099204
 20
1045.472113
 30
0.0
 11
-8.242698
 21
1045.685613
 31
0.0
  0
POLYLINE
  5
5B7
  8
TEAM-DET3
 66
     1
 10
0.0
 20
0.0
 30
0.0
  0
VERTEX
  5
E69
  8
TEAM-DET3
 10
6.280252
 20
1056.063055
 30
0.0
  0
VERTEX
  5
E6A
  8
TEAM-DET3
 10
5.58024
 20
1056.783757
 30
0.0
  0
VERTEX
  5
E6B
  8
TEAM-DET3
 10
4.732308
 20
1057.443425
 30
0.0
  0
VERTEX
  5
E6C
  8
TEAM-DET3
 10
3.82911
 20
1057.976751
 30
0.0
  0
VERTEX
  5
E6D
  8
TEAM-DET3
 10
2.944406
 20
1058.375677
 30
0.0
  0
VERTEX
  5
E6E
  8
TEAM-DET3
 10
1.934518
 20
1058.705145
 30
0.0
  0
VERTEX
  5
E6F
  8
TEAM-DET3
 10
0.889444
 20
1058.915349
 30
0.0
  0
VERTEX
  5
E70
  8
TEAM-DET3
 10
-0.173758
 20
1058.999089
 30
0.0
  0
VERTEX
  5
E71
  8
TEAM-DET3
 10
-1.23983
 20
1058.955877
 30
0.0
  0
VERTEX
  5
E72
  8
TEAM-DET3
 10
-2.293326
 20
1058.786809
 30
0.0
  0
VERTEX
  5
E73
  8
TEAM-DET3
 10
-3.319266
 20
1058.494207
 30
0.0
  0
VERTEX
  5
E74
  8
TEAM-DET3
 10
-4.303458
 20
1058.082831
 30
0.0
  0
VERTEX
  5
E75
  8
TEAM-DET3
 10
-5.231864
 20
1057.557683
 30
0.0
  0
VERTEX
  5
E76
  8
TEAM-DET3
 10
-6.091636
 20
1056.926091
 30
0.0
  0
VERTEX
  5
E77
  8
TEAM-DET3
 10
-6.870994
 20
1056.197577
 30
0.0
  0
VERTEX
  5
E78
  8
TEAM-DET3
 10
-7.558586
 20
1055.381659
 30
0.0
  0
VERTEX
  5
E79
  8
TEAM-DET3
 10
-8.144858
 20
1054.490301
 30
0.0
  0
VERTEX
  5
E7A
  8
TEAM-DET3
 10
-8.620414
 20
1053.535955
 30
0.0
  0
VERTEX
  5
E7B
  8
TEAM-DET3
 10
-8.97869
 20
1052.531805
 30
0.0
  0
VERTEX
  5
E7C
  8
TEAM-DET3
 10
-9.21508
 20
1051.511785
 30
0.0
  0
VERTEX
  5
E7D
  8
TEAM-DET3
 10
-9.33184
 20
1050.548163
 30
0.0
  0
VERTEX
  5
E7E
  8
TEAM-DET3
 10
-9.339866
 20
1049.482245
 30
0.0
  0
VERTEX
  5
E7F
  8
TEAM-DET3
 10
-9.253714
 20
1048.680975
 30
0.0
  0
VERTEX
  5
E80
  8
TEAM-DET3
 10
-9.025322
 20
1047.701483
 30
0.0
  0
SEQEND
  5
E81
  8
TEAM-DET3
  0
LINE
  5
5B8
  8
TEAM-DET3
 10
7.55378
 20
1054.315253
 30
0.0
 11
7.410318
 21
1054.528753
 31
0.0
  0
LINE
  5
5B9
  8
TEAM-DET3
 10
-8.242698
 20
1045.685613
 30
0.0
 11
-8.34481
 21
1045.921697
 31
0.0
  0
LINE
  5
5BA
  8
TEAM-DET3
 10
-100.344474
 20
1058.750433
 30
0.0
 11
-140.344474
 21
1058.750433
 31
0.0
  0
LINE
  5
5BB
  8
TEAM-DET3
 10
6.501962
 20
460.000372
 30
0.0
 11
6.501962
 21
461.000372
 31
0.0
  0
LINE
  5
5BC
  8
TEAM-DET3
 10
-6.498038
 20
460.000372
 30
0.0
 11
-6.498038
 21
461.000372
 31
0.0
  0
LINE
  5
5BD
  8
TEAM-DET3
 10
5.001962
 20
461.923468
 30
0.0
 11
6.501962
 21
461.000372
 31
0.0
  0
LINE
  5
5BE
  8
TEAM-DET3
 10
-4.998038
 20
461.923468
 30
0.0
 11
-6.498038
 21
461.000372
 31
0.0
  0
LINE
  5
5BF
  8
TEAM-DET3
 10
0.001962
 20
466.000372
 30
0.0
 11
-4.998038
 21
466.000372
 31
0.0
  0
LINE
  5
5C0
  8
TEAM-DET3
 10
5.001962
 20
466.000372
 30
0.0
 11
0.001962
 21
466.000372
 31
0.0
  0
LINE
  5
5C1
  8
TEAM-DET3
 10
5.001962
 20
461.447454
 30
0.0
 11
5.001962
 21
466.000372
 31
0.0
  0
LINE
  5
5C2
  8
TEAM-DET3
 10
6.501962
 20
461.000372
 30
0.0
 11
3.118234
 21
461.000372
 31
0.0
  0
POLYLINE
  5
5C3
  8
TEAM-DET3
 66
     1
 10
0.0
 20
0.0
 30
0.0
  0
VERTEX
  5
E82
  8
TEAM-DET3
 10
2.39976
 20
461.922612
 30
0.0
  0
VERTEX
  5
E83
  8
TEAM-DET3
 10
3.080454
 20
461.896124
 30
0.0
  0
VERTEX
  5
E84
  8
TEAM-DET3
 10
3.790232
 20
461.790166
 30
0.0
  0
VERTEX
  5
E85
  8
TEAM-DET3
 10
4.56965
 20
461.590642
 30
0.0
  0
VERTEX
  5
E86
  8
TEAM-DET3
 10
5.001962
 20
461.447454
 30
0.0
  0
SEQEND
  5
E87
  8
TEAM-DET3
  0
LINE
  5
5C4
  8
TEAM-DET3
 10
3.118234
 20
461.000372
 30
0.0
 11
-6.498038
 21
461.000372
 31
0.0
  0
POLYLINE
  5
5C5
  8
TEAM-DET3
 66
     1
 10
0.0
 20
0.0
 30
0.0
  0
VERTEX
  5
E88
  8
TEAM-DET3
 10
2.39976
 20
461.922612
 30
0.0
  0
VERTEX
  5
E89
  8
TEAM-DET3
 10
1.599436
 20
461.857306
 30
0.0
  0
VERTEX
  5
E8A
  8
TEAM-DET3
 10
0.735606
 20
461.677252
 30
0.0
  0
VERTEX
  5
E8B
  8
TEAM-DET3
 10
0.001962
 20
461.447454
 30
0.0
  0
SEQEND
  5
E8C
  8
TEAM-DET3
  0
POLYLINE
  5
5C6
  8
TEAM-DET3
 66
     1
 10
0.0
 20
0.0
 30
0.0
  0
VERTEX
  5
E8D
  8
TEAM-DET3
 10
0.001962
 20
461.447454
 30
0.0
  0
VERTEX
  5
E8E
  8
TEAM-DET3
 10
-0.876364
 20
461.714728
 30
0.0
  0
VERTEX
  5
E8F
  8
TEAM-DET3
 10
-1.65212
 20
461.86524
 30
0.0
  0
VERTEX
  5
E90
  8
TEAM-DET3
 10
-2.617392
 20
461.922246
 30
0.0
  0
VERTEX
  5
E91
  8
TEAM-DET3
 10
-3.595022
 20
461.826238
 30
0.0
  0
VERTEX
  5
E92
  8
TEAM-DET3
 10
-4.397818
 20
461.640386
 30
0.0
  0
VERTEX
  5
E93
  8
TEAM-DET3
 10
-4.998038
 20
461.447454
 30
0.0
  0
SEQEND
  5
E94
  8
TEAM-DET3
  0
LINE
  5
5C7
  8
TEAM-DET3
 10
-4.998038
 20
461.447454
 30
0.0
 11
-4.998038
 21
466.000372
 31
0.0
  0
LINE
  5
5C8
  8
TEAM-DET3
 10
7.501962
 20
439.000372
 30
0.0
 11
-7.498038
 21
439.000372
 31
0.0
  0
LINE
  5
5C9
  8
TEAM-DET3
 10
7.501962
 20
441.000372
 30
0.0
 11
-7.498038
 21
441.000372
 31
0.0
  0
LINE
  5
5CA
  8
TEAM-DET3
 10
7.501962
 20
443.000372
 30
0.0
 11
7.501962
 21
439.000372
 31
0.0
  0
LINE
  5
5CB
  8
TEAM-DET3
 10
-7.498038
 20
443.000372
 30
0.0
 11
-7.498038
 21
439.000372
 31
0.0
  0
LINE
  5
5CC
  8
TEAM-DET3
 10
17.501962
 20
443.000372
 30
0.0
 11
17.501962
 21
443.500372
 31
0.0
  0
LINE
  5
5CD
  8
TEAM-DET3
 10
17.501962
 20
443.000372
 30
0.0
 11
7.501962
 21
443.000372
 31
0.0
  0
LINE
  5
5CE
  8
TEAM-DET3
 10
-7.498038
 20
443.000372
 30
0.0
 11
-17.498038
 21
443.000372
 31
0.0
  0
LINE
  5
5CF
  8
TEAM-DET3
 10
-17.498038
 20
443.000372
 30
0.0
 11
-17.498038
 21
443.500372
 31
0.0
  0
LINE
  5
5D0
  8
TEAM-DET3
 10
-17.498038
 20
456.500372
 30
0.0
 11
-17.498038
 21
456.000372
 31
0.0
  0
LINE
  5
5D1
  8
TEAM-DET3
 10
17.501962
 20
456.500372
 30
0.0
 11
17.501962
 21
456.000372
 31
0.0
  0
LINE
  5
5D2
  8
TEAM-DET3
 10
-17.498038
 20
456.500372
 30
0.0
 11
-17.498038
 21
458.500372
 31
0.0
  0
LINE
  5
5D3
  8
TEAM-DET3
 10
17.501962
 20
456.500372
 30
0.0
 11
17.501962
 21
458.500372
 31
0.0
  0
LINE
  5
5D4
  8
TEAM-DET3
 10
17.501962
 20
458.500372
 30
0.0
 11
-17.498038
 21
458.500372
 31
0.0
  0
LINE
  5
5D5
  8
TEAM-DET3
 10
17.501962
 20
456.500372
 30
0.0
 11
-17.498038
 21
456.500372
 31
0.0
  0
LINE
  5
5D6
  8
TEAM-DET3
 10
37.673074
 20
389.906438
 30
0.0
 11
30.9116
 21
391.718146
 31
0.0
  0
ARC
  5
5D7
  8
TEAM-DET3
 10
0.001962
 20
400.000372
 30
0.0
 40
32.0
 50
15.0
 51
345.0
  0
LINE
  5
5D8
  8
TEAM-DET3
 10
37.673074
 20
410.094304
 30
0.0
 11
30.9116
 21
408.282598
 31
0.0
  0
ARC
  5
5D9
  8
TEAM-DET3
 10
0.001962
 20
400.000372
 30
0.0
 40
39.0
 50
15.0
 51
345.0
  0
LINE
  5
5DA
  8
TEAM-DET3
 10
48.001962
 20
414.000372
 30
0.0
 11
48.001962
 21
417.500372
 31
0.0
  0
LINE
  5
5DB
  8
TEAM-DET3
 10
42.001962
 20
414.000372
 30
0.0
 11
42.001962
 21
417.500372
 31
0.0
  0
LINE
  5
5DC
  8
TEAM-DET3
 10
46.751962
 20
410.000372
 30
0.0
 11
46.751962
 21
414.000372
 31
0.0
  0
LINE
  5
5DD
  8
TEAM-DET3
 10
43.251962
 20
410.000372
 30
0.0
 11
43.251962
 21
414.000372
 31
0.0
  0
LINE
  5
5DE
  8
TEAM-DET3
 10
48.001962
 20
406.500372
 30
0.0
 11
48.001962
 21
410.000372
 31
0.0
  0
LINE
  5
5DF
  8
TEAM-DET3
 10
48.001962
 20
397.000372
 30
0.0
 11
48.001962
 21
403.000372
 31
0.0
  0
LINE
  5
5E0
  8
TEAM-DET3
 10
48.001962
 20
382.500372
 30
0.0
 11
48.001962
 21
395.500372
 31
0.0
  0
LINE
  5
5E1
  8
TEAM-DET3
 10
42.001962
 20
406.500372
 30
0.0
 11
42.001962
 21
410.000372
 31
0.0
  0
LINE
  5
5E2
  8
TEAM-DET3
 10
42.001962
 20
397.000372
 30
0.0
 11
42.001962
 21
403.000372
 31
0.0
  0
LINE
  5
5E3
  8
TEAM-DET3
 10
42.001962
 20
382.500372
 30
0.0
 11
42.001962
 21
395.500372
 31
0.0
  0
LINE
  5
5E4
  8
TEAM-DET3
 10
50.001962
 20
379.500372
 30
0.0
 11
50.001962
 21
382.500372
 31
0.0
  0
LINE
  5
5E5
  8
TEAM-DET3
 10
40.001962
 20
379.500372
 30
0.0
 11
40.001962
 21
382.500372
 31
0.0
  0
ARC
  5
5E6
  8
TEAM-DET3
 10
45.002268
 20
387.082892
 30
0.0
 40
9.082458
 50
269.931901
 51
303.399838
  0
ARC
  5
5E7
  8
TEAM-DET3
 10
45.001658
 20
387.082892
 30
0.0
 40
9.082458
 50
236.600161
 51
270.068101
  0
LINE
  5
5E8
  8
TEAM-DET3
 10
48.001962
 20
417.500372
 30
0.0
 11
42.36921
 21
417.500372
 31
0.0
  0
LINE
  5
5E9
  8
TEAM-DET3
 10
48.001962
 20
414.000372
 30
0.0
 11
42.36921
 21
414.000372
 31
0.0
  0
LINE
  5
5EA
  8
TEAM-DET3
 10
42.36921
 20
417.500372
 30
0.0
 11
42.001962
 21
417.500372
 31
0.0
  0
LINE
  5
5EB
  8
TEAM-DET3
 10
42.36921
 20
414.000372
 30
0.0
 11
42.001962
 21
414.000372
 31
0.0
  0
LINE
  5
5EC
  8
TEAM-DET3
 10
48.001962
 20
410.000372
 30
0.0
 11
42.36921
 21
410.000372
 31
0.0
  0
LINE
  5
5ED
  8
TEAM-DET3
 10
42.36921
 20
410.000372
 30
0.0
 11
42.001962
 21
410.000372
 31
0.0
  0
LINE
  5
5EE
  8
TEAM-DET3
 10
50.001962
 20
382.500372
 30
0.0
 11
40.614054
 21
382.500372
 31
0.0
  0
LINE
  5
5EF
  8
TEAM-DET3
 10
40.614054
 20
382.500372
 30
0.0
 11
40.001962
 21
382.500372
 31
0.0
  0
LINE
  5
5F0
  8
TEAM-DET3
 10
50.001962
 20
379.500372
 30
0.0
 11
40.614054
 21
379.500372
 31
0.0
  0
LINE
  5
5F1
  8
TEAM-DET3
 10
40.614054
 20
379.500372
 30
0.0
 11
40.001962
 21
379.500372
 31
0.0
  0
LINE
  5
5F2
  8
TEAM-DET3
 10
38.96348
 20
395.500372
 30
0.0
 11
51.001962
 21
395.500372
 31
0.0
  0
ARC
  5
5F3
  8
TEAM-DET3
 10
38.96348
 20
393.500372
 30
0.0
 40
3.5
 50
90.000003
 51
170.5285
  0
ARC
  5
5F4
  8
TEAM-DET3
 10
0.001962
 20
400.000372
 30
0.0
 40
36.0
 50
345.000005
 51
350.528502
  0
LINE
  5
5F5
  8
TEAM-DET3
 10
-45.998038
 20
399.900396
 30
0.0
 11
-45.998038
 21
398.400396
 31
0.0
  0
LINE
  5
5F6
  8
TEAM-DET3
 10
-45.998038
 20
398.400396
 30
0.0
 11
-38.9652
 21
398.400396
 31
0.0
  0
ARC
  5
5F7
  8
TEAM-DET3
 10
0.001962
 20
400.000372
 30
0.0
 40
37.501622
 50
345.000005
 51
350.648374
  0
ARC
  5
5F8
  8
TEAM-DET3
 10
38.96348
 20
393.500372
 30
0.0
 40
2.0
 50
90.000003
 51
168.280234
  0
LINE
  5
5F9
  8
TEAM-DET3
 10
51.001962
 20
397.000372
 30
0.0
 11
51.001962
 21
395.500372
 31
0.0
  0
LINE
  5
5FA
  8
TEAM-DET3
 10
38.96348
 20
397.000372
 30
0.0
 11
51.001962
 21
397.000372
 31
0.0
  0
ARC
  5
5FB
  8
TEAM-DET3
 10
0.001962
 20
400.000372
 30
0.0
 40
37.5
 50
9.471498
 51
15.000007
  0
ARC
  5
5FC
  8
TEAM-DET3
 10
38.96348
 20
406.500372
 30
0.0
 40
3.5
 50
189.4715
 51
269.999997
  0
LINE
  5
5FD
  8
TEAM-DET3
 10
38.96348
 20
403.000372
 30
0.0
 11
51.001962
 21
403.000372
 31
0.0
  0
LINE
  5
5FE
  8
TEAM-DET3
 10
51.001962
 20
404.500372
 30
0.0
 11
51.001962
 21
403.000372
 31
0.0
  0
LINE
  5
5FF
  8
TEAM-DET3
 10
-45.998038
 20
401.600348
 30
0.0
 11
-38.9652
 21
401.600348
 31
0.0
  0
LINE
  5
600
  8
TEAM-DET3
 10
-45.998038
 20
400.100348
 30
0.0
 11
-45.998038
 21
401.600348
 31
0.0
  0
ARC
  5
601
  8
TEAM-DET3
 10
0.001962
 20
400.000372
 30
0.0
 40
36.0
 50
9.471498
 51
15.000007
  0
ARC
  5
602
  8
TEAM-DET3
 10
42.001962
 20
406.000372
 30
0.0
 40
0.5
 50
90.000003
 51
179.999995
  0
ARC
  5
603
  8
TEAM-DET3
 10
48.001962
 20
406.000372
 30
0.0
 40
0.5
 50
0.0
 51
90.000003
  0
LINE
  5
604
  8
TEAM-DET3
 10
47.634714
 20
406.500372
 30
0.0
 11
42.001962
 21
406.500372
 31
0.0
  0
LINE
  5
605
  8
TEAM-DET3
 10
48.001962
 20
406.500372
 30
0.0
 11
47.634714
 21
406.500372
 31
0.0
  0
LINE
  5
606
  8
TEAM-DET3
 10
48.501962
 20
405.000372
 30
0.0
 11
48.501962
 21
406.000372
 31
0.0
  0
LINE
  5
607
  8
TEAM-DET3
 10
41.501962
 20
405.000372
 30
0.0
 11
41.501962
 21
406.000372
 31
0.0
  0
ARC
  5
608
  8
TEAM-DET3
 10
41.001962
 20
405.000372
 30
0.0
 40
0.5
 50
269.999997
 51
0.0
  0
ARC
  5
609
  8
TEAM-DET3
 10
49.001962
 20
405.000372
 30
0.0
 40
0.5
 50
179.999995
 51
269.999997
  0
LINE
  5
60A
  8
TEAM-DET3
 10
38.96348
 20
404.500372
 30
0.0
 11
51.001962
 21
404.500372
 31
0.0
  0
ARC
  5
60B
  8
TEAM-DET3
 10
38.96348
 20
406.500372
 30
0.0
 40
2.0
 50
189.4715
 51
269.999997
  0
LINE
  5
60C
  8
TEAM-DET3
 10
-0.171256
 20
456.000372
 30
0.0
 11
-20.498038
 21
456.000372
 31
0.0
  0
LINE
  5
60D
  8
TEAM-DET3
 10
20.501962
 20
456.000372
 30
0.0
 11
0.17515
 21
456.000372
 31
0.0
  0
LINE
  5
60E
  8
TEAM-DET3
 10
-29.998038
 20
443.500372
 30
0.0
 11
30.001962
 21
443.500372
 31
0.0
  0
LINE
  5
60F
  8
TEAM-DET3
 10
-80.998038
 20
398.000372
 30
0.0
 11
-183.498038
 21
398.000372
 31
0.0
  0
LINE
  5
610
  8
TEAM-DET3
 10
-80.998038
 20
401.000372
 30
0.0
 11
-57.998038
 21
424.000372
 31
0.0
  0
LINE
  5
611
  8
TEAM-DET3
 10
-40.998038
 20
424.000372
 30
0.0
 11
-57.998038
 21
424.000372
 31
0.0
  0
LINE
  5
612
  8
TEAM-DET3
 10
-31.998038
 20
433.000372
 30
0.0
 11
-40.998038
 21
424.000372
 31
0.0
  0
LINE
  5
613
  8
TEAM-DET3
 10
-31.998038
 20
446.500372
 30
0.0
 11
-31.998038
 21
433.000372
 31
0.0
  0
LINE
  5
614
  8
TEAM-DET3
 10
-29.998038
 20
446.500372
 30
0.0
 11
-31.998038
 21
446.500372
 31
0.0
  0
LINE
  5
615
  8
TEAM-DET3
 10
183.501992
 20
460.000372
 30
0.0
 11
-183.498038
 21
460.000372
 31
0.0
  0
LINE
  5
616
  8
TEAM-DET3
 10
-20.498038
 20
457.000372
 30
0.0
 11
-20.498038
 21
456.000372
 31
0.0
  0
LINE
  5
617
  8
TEAM-DET3
 10
-174.998038
 20
442.000372
 30
0.0
 11
-171.998038
 21
442.000372
 31
0.0
  0
LINE
  5
618
  8
TEAM-DET3
 10
-183.498038
 20
442.000372
 30
0.0
 11
-177.998038
 21
442.000372
 31
0.0
  0
LINE
  5
619
  8
TEAM-DET3
 10
30.001962
 20
443.500372
 30
0.0
 11
30.001962
 21
446.500372
 31
0.0
  0
LINE
  5
61A
  8
TEAM-DET3
 10
-17.498038
 20
458.500372
 30
0.0
 11
-20.498038
 21
458.500372
 31
0.0
  0
LINE
  5
61B
  8
TEAM-DET3
 10
-174.998038
 20
444.598456
 30
0.0
 11
-174.998038
 21
442.000372
 31
0.0
  0
LINE
  5
61C
  8
TEAM-DET3
 10
-174.998038
 20
444.598456
 30
0.0
 11
-174.998038
 21
445.000372
 31
0.0
  0
LINE
  5
61D
  8
TEAM-DET3
 10
-177.998038
 20
445.000372
 30
0.0
 11
-174.998038
 21
445.000372
 31
0.0
  0
LINE
  5
61E
  8
TEAM-DET3
 10
-177.998038
 20
445.000372
 30
0.0
 11
-177.998038
 21
442.000372
 31
0.0
  0
LINE
  5
61F
  8
TEAM-DET3
 10
-153.947196
 20
410.827154
 30
0.0
 11
-166.04891
 21
410.827154
 31
0.0
  0
LINE
  5
620
  8
TEAM-DET3
 10
-80.998038
 20
401.000372
 30
0.0
 11
-80.998038
 21
398.000372
 31
0.0
  0
LINE
  5
621
  8
TEAM-DET3
 10
17.501962
 20
458.500372
 30
0.0
 11
-17.498038
 21
458.500372
 31
0.0
  0
LINE
  5
622
  8
TEAM-DET3
 10
-17.498038
 20
460.000372
 30
0.0
 11
-17.498038
 21
458.500372
 31
0.0
  0
LINE
  5
623
  8
TEAM-DET3
 10
17.501962
 20
460.000372
 30
0.0
 11
17.501962
 21
458.500372
 31
0.0
  0
LINE
  5
624
  8
TEAM-DET3
 10
20.501962
 20
458.500372
 30
0.0
 11
17.501962
 21
458.500372
 31
0.0
  0
LINE
  5
625
  8
TEAM-DET3
 10
-29.998038
 20
443.500372
 30
0.0
 11
-29.998038
 21
446.500372
 31
0.0
  0
LINE
  5
626
  8
TEAM-DET3
 10
-20.498038
 20
460.000372
 30
0.0
 11
-20.498038
 21
457.000372
 31
0.0
  0
LINE
  5
627
  8
TEAM-DET3
 10
20.501962
 20
457.000372
 30
0.0
 11
20.501962
 21
456.000372
 31
0.0
  0
LINE
  5
628
  8
TEAM-DET3
 10
20.501962
 20
460.000372
 30
0.0
 11
20.501962
 21
457.000372
 31
0.0
  0
LINE
  5
629
  8
TEAM-DET3
 10
183.501992
 20
398.000372
 30
0.0
 11
81.001992
 21
398.000372
 31
0.0
  0
LINE
  5
62A
  8
TEAM-DET3
 10
81.001992
 20
401.000372
 30
0.0
 11
81.001992
 21
398.000372
 31
0.0
  0
LINE
  5
62B
  8
TEAM-DET3
 10
81.001992
 20
401.000372
 30
0.0
 11
58.001962
 21
424.000372
 31
0.0
  0
LINE
  5
62C
  8
TEAM-DET3
 10
58.001962
 20
424.000372
 30
0.0
 11
41.001962
 21
424.000372
 31
0.0
  0
LINE
  5
62D
  8
TEAM-DET3
 10
32.001962
 20
433.000372
 30
0.0
 11
41.001962
 21
424.000372
 31
0.0
  0
LINE
  5
62E
  8
TEAM-DET3
 10
32.001962
 20
446.500372
 30
0.0
 11
32.001962
 21
433.000372
 31
0.0
  0
LINE
  5
62F
  8
TEAM-DET3
 10
32.001962
 20
446.500372
 30
0.0
 11
30.001962
 21
446.500372
 31
0.0
  0
CIRCLE
  5
630
  8
TEAM-DET3
 10
-0.344444
 20
1050.000433
 30
0.0
 40
15.5
  0
CIRCLE
  5
631
  8
TEAM-DET3
 10
-0.344444
 20
1050.000433
 30
0.0
 40
17.8
  0
CIRCLE
  5
632
  8
TEAM-DET3
 10
-0.344444
 20
1050.000433
 30
0.0
 40
22.25
  0
POLYLINE
  5
633
  8
TEAM-DET3
 66
     1
 10
0.0
 20
0.0
 30
0.0
  0
VERTEX
  5
E95
  8
TEAM-DET3
 10
-4.788322
 20
1057.564763
 30
0.0
  0
VERTEX
  5
E96
  8
TEAM-DET3
 10
-4.797996
 20
1057.562811
 30
0.0
  0
VERTEX
  5
E97
  8
TEAM-DET3
 10
-4.816032
 20
1057.552679
 30
0.0
  0
VERTEX
  5
E98
  8
TEAM-DET3
 10
-4.984276
 20
1057.459051
 30
0.0
  0
VERTEX
  5
E99
  8
TEAM-DET3
 10
-5.8218
 20
1056.888617
 30
0.0
  0
VERTEX
  5
E9A
  8
TEAM-DET3
 10
-6.636954
 20
1056.168523
 30
0.0
  0
VERTEX
  5
E9B
  8
TEAM-DET3
 10
-7.232628
 20
1055.506781
 30
0.0
  0
VERTEX
  5
E9C
  8
TEAM-DET3
 10
-7.777702
 20
1054.756537
 30
0.0
  0
VERTEX
  5
E9D
  8
TEAM-DET3
 10
-8.250876
 20
1053.931463
 30
0.0
  0
VERTEX
  5
E9E
  8
TEAM-DET3
 10
-8.389884
 20
1053.641913
 30
0.0
  0
SEQEND
  5
E9F
  8
TEAM-DET3
  0
POLYLINE
  5
634
  8
TEAM-DET3
 66
     1
 10
0.0
 20
0.0
 30
0.0
  0
VERTEX
  5
EA0
  8
TEAM-DET3
 10
-4.788322
 20
1042.436101
 30
0.0
  0
VERTEX
  5
EA1
  8
TEAM-DET3
 10
-4.799918
 20
1042.438421
 30
0.0
  0
VERTEX
  5
EA2
  8
TEAM-DET3
 10
-4.821372
 20
1042.450873
 30
0.0
  0
VERTEX
  5
EA3
  8
TEAM-DET3
 10
-4.901786
 20
1042.494451
 30
0.0
  0
VERTEX
  5
EA4
  8
TEAM-DET3
 10
-5.178672
 20
1042.660223
 30
0.0
  0
VERTEX
  5
EA5
  8
TEAM-DET3
 10
-5.772696
 20
1043.074407
 30
0.0
  0
VERTEX
  5
EA6
  8
TEAM-DET3
 10
-6.447318
 20
1043.647893
 30
0.0
  0
VERTEX
  5
EA7
  8
TEAM-DET3
 10
-7.115836
 20
1044.353215
 30
0.0
  0
VERTEX
  5
EA8
  8
TEAM-DET3
 10
-7.729178
 20
1045.170233
 30
0.0
  0
VERTEX
  5
EA9
  8
TEAM-DET3
 10
-8.091758
 20
1045.768133
 30
0.0
  0
SEQEND
  5
EAA
  8
TEAM-DET3
  0
ARC
  5
635
  8
TEAM-DET3
 10
-0.435692
 20
1050.000433
 30
0.0
 40
8.748128
 50
155.401024
 51
208.934589
  0
LINE
  5
636
  8
TEAM-DET3
 10
-140.10308
 20
1044.500433
 30
0.0
 11
-100.585808
 21
1044.500433
 31
0.0
  0
LINE
  5
637
  8
TEAM-DET3
 10
-126.344444
 20
1041.500433
 30
0.0
 11
-114.344444
 21
1041.500433
 31
0.0
  0
LINE
  5
638
  8
TEAM-DET3
 10
174.239022
 20
1051.000433
 30
0.0
 11
174.239022
 21
1049.000433
 31
0.0
  0
LINE
  5
639
  8
TEAM-DET3
 10
174.155586
 20
1049.000433
 30
0.0
 11
174.155586
 21
1051.000433
 31
0.0
  0
LINE
  5
63A
  8
TEAM-DET3
 10
-175.344444
 20
1085.000433
 30
0.0
 11
-183.844444
 21
1085.000433
 31
0.0
  0
LINE
  5
63B
  8
TEAM-DET3
 10
-126.344444
 20
1040.000433
 30
0.0
 11
-114.344444
 21
1040.000433
 31
0.0
  0
LINE
  5
63C
  8
TEAM-DET3
 10
-172.344444
 20
1085.000433
 30
0.0
 11
-175.344444
 21
1085.000433
 31
0.0
  0
LINE
  5
63D
  8
TEAM-DET3
 10
-175.344444
 20
1023.000433
 30
0.0
 11
-183.844444
 21
1023.000433
 31
0.0
  0
LINE
  5
63E
  8
TEAM-DET3
 10
-172.344444
 20
1023.000433
 30
0.0
 11
-175.344444
 21
1023.000433
 31
0.0
  0
LINE
  5
63F
  8
TEAM-DET3
 10
-126.344444
 20
1038.500433
 30
0.0
 11
-126.344444
 21
1041.500433
 31
0.0
  0
LINE
  5
640
  8
TEAM-DET3
 10
-137.344444
 20
1038.500433
 30
0.0
 11
-137.344444
 21
1041.500433
 31
0.0
  0
LINE
  5
641
  8
TEAM-DET3
 10
-137.344444
 20
1041.500433
 30
0.0
 11
-126.344444
 21
1041.500433
 31
0.0
  0
LINE
  5
642
  8
TEAM-DET3
 10
-114.344444
 20
1041.500433
 30
0.0
 11
-114.344444
 21
1038.500433
 31
0.0
  0
LINE
  5
643
  8
TEAM-DET3
 10
-114.344444
 20
1041.500433
 30
0.0
 11
-103.344444
 21
1041.500433
 31
0.0
  0
LINE
  5
644
  8
TEAM-DET3
 10
-103.344444
 20
1038.500433
 30
0.0
 11
-103.344444
 21
1041.500433
 31
0.0
  0
LINE
  5
645
  8
TEAM-DET3
 10
-160.044456
 20
1050.173651
 30
0.0
 11
-160.344444
 21
1050.000433
 31
0.0
  0
LINE
  5
646
  8
TEAM-DET3
 10
-160.644462
 20
1050.173651
 30
0.0
 11
-160.344444
 21
1050.000433
 31
0.0
  0
LINE
  5
647
  8
TEAM-DET3
 10
-160.44445
 20
1049.827215
 30
0.0
 11
-160.344444
 21
1050.000433
 31
0.0
  0
LINE
  5
648
  8
TEAM-DET3
 10
-160.244438
 20
1049.827215
 30
0.0
 11
-160.344444
 21
1050.000433
 31
0.0
  0
LINE
  5
649
  8
TEAM-DET3
 10
-0.517662
 20
1023.000433
 30
0.0
 11
-172.344444
 21
1023.000433
 31
0.0
  0
LINE
  5
64A
  8
TEAM-DET3
 10
-175.344444
 20
1040.402411
 30
0.0
 11
-175.344444
 21
1043.000433
 31
0.0
  0
LINE
  5
64B
  8
TEAM-DET3
 10
-175.344444
 20
1040.000433
 30
0.0
 11
-175.344444
 21
1040.402411
 31
0.0
  0
LINE
  5
64C
  8
TEAM-DET3
 10
-178.344444
 20
1040.000433
 30
0.0
 11
-175.344444
 21
1040.000433
 31
0.0
  0
LINE
  5
64D
  8
TEAM-DET3
 10
-178.344444
 20
1043.000433
 30
0.0
 11
-178.344444
 21
1040.000433
 31
0.0
  0
LINE
  5
64E
  8
TEAM-DET3
 10
-178.344444
 20
1070.000433
 30
0.0
 11
-178.344444
 21
1067.000433
 31
0.0
  0
LINE
  5
64F
  8
TEAM-DET3
 10
-178.344444
 20
1070.000433
 30
0.0
 11
-175.344444
 21
1070.000433
 31
0.0
  0
LINE
  5
650
  8
TEAM-DET3
 10
-175.344444
 20
1067.000433
 30
0.0
 11
-175.344444
 21
1069.598455
 31
0.0
  0
LINE
  5
651
  8
TEAM-DET3
 10
-0.517662
 20
1085.000433
 30
0.0
 11
-172.344444
 21
1085.000433
 31
0.0
  0
LINE
  5
652
  8
TEAM-DET3
 10
-165.844444
 20
1050.173651
 30
0.0
 11
-165.844444
 21
1050.000433
 31
0.0
  0
LINE
  5
653
  8
TEAM-DET3
 10
-165.844444
 20
1049.827215
 30
0.0
 11
-165.844444
 21
1050.000433
 31
0.0
  0
LINE
  5
654
  8
TEAM-DET3
 10
-172.344444
 20
1082.000433
 30
0.0
 11
-172.344444
 21
1085.000433
 31
0.0
  0
LINE
  5
655
  8
TEAM-DET3
 10
-172.344444
 20
1023.000433
 30
0.0
 11
-172.344444
 21
1026.000433
 31
0.0
  0
LINE
  5
656
  8
TEAM-DET3
 10
-100.344444
 20
1038.500433
 30
0.0
 11
-103.344444
 21
1038.500433
 31
0.0
  0
LINE
  5
657
  8
TEAM-DET3
 10
-100.344444
 20
1038.500433
 30
0.0
 11
-100.344444
 21
1062.000433
 31
0.0
  0
LINE
  5
658
  8
TEAM-DET3
 10
-140.344444
 20
1062.000433
 30
0.0
 11
-100.344444
 21
1062.000433
 31
0.0
  0
LINE
  5
659
  8
TEAM-DET3
 10
-140.344444
 20
1062.000433
 30
0.0
 11
-140.344444
 21
1038.500433
 31
0.0
  0
LINE
  5
65A
  8
TEAM-DET3
 10
-137.344444
 20
1038.500433
 30
0.0
 11
-140.344444
 21
1038.500433
 31
0.0
  0
LINE
  5
65B
  8
TEAM-DET3
 10
-114.344444
 20
1038.500433
 30
0.0
 11
-126.344444
 21
1038.500433
 31
0.0
  0
LINE
  5
65C
  8
TEAM-DET3
 10
-160.244438
 20
1049.827215
 30
0.0
 11
-153.99346
 21
1049.827215
 31
0.0
  0
LINE
  5
65D
  8
TEAM-DET3
 10
-153.99346
 20
1050.173651
 30
0.0
 11
-153.99346
 21
1049.827215
 31
0.0
  0
LINE
  5
65E
  8
TEAM-DET3
 10
-160.044456
 20
1050.173651
 30
0.0
 11
-153.99346
 21
1050.173651
 31
0.0
  0
LINE
  5
65F
  8
TEAM-DET3
 10
-160.044456
 20
1050.173651
 30
0.0
 11
-153.693596
 21
1061.173651
 31
0.0
  0
LINE
  5
660
  8
TEAM-DET3
 10
-153.693596
 20
1061.173651
 30
0.0
 11
-166.995292
 21
1061.173651
 31
0.0
  0
LINE
  5
661
  8
TEAM-DET3
 10
-166.995292
 20
1061.173651
 30
0.0
 11
-160.644462
 21
1050.173651
 31
0.0
  0
LINE
  5
662
  8
TEAM-DET3
 10
-165.844444
 20
1050.173651
 30
0.0
 11
-160.644462
 21
1050.173651
 31
0.0
  0
LINE
  5
663
  8
TEAM-DET3
 10
-165.844444
 20
1051.000433
 30
0.0
 11
-165.844444
 21
1050.173651
 31
0.0
  0
LINE
  5
664
  8
TEAM-DET3
 10
-183.844444
 20
1051.000433
 30
0.0
 11
-165.844444
 21
1051.000433
 31
0.0
  0
LINE
  5
665
  8
TEAM-DET3
 10
-165.844444
 20
1049.000433
 30
0.0
 11
-183.844444
 21
1049.000433
 31
0.0
  0
LINE
  5
666
  8
TEAM-DET3
 10
-165.844444
 20
1049.827215
 30
0.0
 11
-165.844444
 21
1049.000433
 31
0.0
  0
LINE
  5
667
  8
TEAM-DET3
 10
-165.844444
 20
1049.827215
 30
0.0
 11
-160.44445
 21
1049.827215
 31
0.0
  0
LINE
  5
668
  8
TEAM-DET3
 10
-160.44445
 20
1049.827215
 30
0.0
 11
-160.344444
 21
1049.653997
 31
0.0
  0
LINE
  5
669
  8
TEAM-DET3
 10
-160.344444
 20
1049.653997
 30
0.0
 11
-160.244438
 21
1049.827215
 31
0.0
  0
LINE
  5
66A
  8
TEAM-DET3
 10
-172.344444
 20
1043.000433
 30
0.0
 11
-172.344444
 21
1026.000433
 31
0.0
  0
LINE
  5
66B
  8
TEAM-DET3
 10
-175.344444
 20
1043.000433
 30
0.0
 11
-172.344444
 21
1043.000433
 31
0.0
  0
LINE
  5
66C
  8
TEAM-DET3
 10
-183.844444
 20
1043.000433
 30
0.0
 11
-178.344444
 21
1043.000433
 31
0.0
  0
LINE
  5
66D
  8
TEAM-DET3
 10
-183.844444
 20
1067.000433
 30
0.0
 11
-178.344444
 21
1067.000433
 31
0.0
  0
LINE
  5
66E
  8
TEAM-DET3
 10
-175.344444
 20
1067.000433
 30
0.0
 11
-172.344444
 21
1067.000433
 31
0.0
  0
LINE
  5
66F
  8
TEAM-DET3
 10
-172.344444
 20
1067.000433
 30
0.0
 11
-172.344444
 21
1082.000433
 31
0.0
  0
LINE
  5
670
  8
TEAM-DET3
 10
183.155586
 20
1085.000433
 30
0.0
 11
174.655586
 21
1085.000433
 31
0.0
  0
LINE
  5
671
  8
TEAM-DET3
 10
174.655586
 20
1085.000433
 30
0.0
 11
171.655586
 21
1085.000433
 31
0.0
  0
LINE
  5
672
  8
TEAM-DET3
 10
174.655586
 20
1023.000433
 30
0.0
 11
171.655586
 21
1023.000433
 31
0.0
  0
LINE
  5
673
  8
TEAM-DET3
 10
183.155586
 20
1023.000433
 30
0.0
 11
174.655586
 21
1023.000433
 31
0.0
  0
LINE
  5
674
  8
TEAM-DET3
 10
159.55555
 20
1049.827215
 30
0.0
 11
159.655586
 21
1050.000433
 31
0.0
  0
LINE
  5
675
  8
TEAM-DET3
 10
159.755562
 20
1049.827215
 30
0.0
 11
159.655586
 21
1050.000433
 31
0.0
  0
LINE
  5
676
  8
TEAM-DET3
 10
165.155586
 20
1049.827215
 30
0.0
 11
165.155586
 21
1050.000433
 31
0.0
  0
LINE
  5
677
  8
TEAM-DET3
 10
171.655586
 20
1085.000433
 30
0.0
 11
-0.171256
 21
1085.000433
 31
0.0
  0
LINE
  5
678
  8
TEAM-DET3
 10
171.655586
 20
1082.000433
 30
0.0
 11
171.655586
 21
1085.000433
 31
0.0
  0
LINE
  5
679
  8
TEAM-DET3
 10
174.655586
 20
1067.000433
 30
0.0
 11
174.655586
 21
1069.598455
 31
0.0
  0
LINE
  5
67A
  8
TEAM-DET3
 10
174.655586
 20
1069.598455
 30
0.0
 11
174.655586
 21
1070.000433
 31
0.0
  0
LINE
  5
67B
  8
TEAM-DET3
 10
174.655586
 20
1070.000433
 30
0.0
 11
177.655586
 21
1070.000433
 31
0.0
  0
LINE
  5
67C
  8
TEAM-DET3
 10
177.655586
 20
1070.000433
 30
0.0
 11
177.655586
 21
1067.000433
 31
0.0
  0
LINE
  5
67D
  8
TEAM-DET3
 10
177.655586
 20
1043.000433
 30
0.0
 11
177.655586
 21
1040.000433
 31
0.0
  0
LINE
  5
67E
  8
TEAM-DET3
 10
174.655586
 20
1040.000433
 30
0.0
 11
177.655586
 21
1040.000433
 31
0.0
  0
LINE
  5
67F
  8
TEAM-DET3
 10
174.655586
 20
1040.000433
 30
0.0
 11
174.655586
 21
1040.402411
 31
0.0
  0
LINE
  5
680
  8
TEAM-DET3
 10
174.655586
 20
1040.402411
 30
0.0
 11
174.655586
 21
1043.000433
 31
0.0
  0
LINE
  5
681
  8
TEAM-DET3
 10
171.655586
 20
1023.000433
 30
0.0
 11
171.655586
 21
1026.000433
 31
0.0
  0
LINE
  5
682
  8
TEAM-DET3
 10
171.655586
 20
1023.000433
 30
0.0
 11
-0.171256
 21
1023.000433
 31
0.0
  0
LINE
  5
683
  8
TEAM-DET3
 10
153.304574
 20
1050.000433
 30
0.0
 11
159.655586
 21
1050.000433
 31
0.0
  0
LINE
  5
684
  8
TEAM-DET3
 10
159.655586
 20
1050.000433
 30
0.0
 11
165.155586
 21
1050.000433
 31
0.0
  0
LINE
  5
685
  8
TEAM-DET3
 10
165.155586
 20
1050.173651
 30
0.0
 11
165.155586
 21
1050.000433
 31
0.0
  0
LINE
  5
686
  8
TEAM-DET3
 10
153.304574
 20
1050.173651
 30
0.0
 11
159.355538
 21
1050.173651
 31
0.0
  0
LINE
  5
687
  8
TEAM-DET3
 10
153.304574
 20
1050.173651
 30
0.0
 11
153.304574
 21
1049.827215
 31
0.0
  0
LINE
  5
688
  8
TEAM-DET3
 10
153.304574
 20
1049.827215
 30
0.0
 11
159.55555
 21
1049.827215
 31
0.0
  0
LINE
  5
689
  8
TEAM-DET3
 10
159.55555
 20
1049.827215
 30
0.0
 11
159.655586
 21
1049.653997
 31
0.0
  0
LINE
  5
68A
  8
TEAM-DET3
 10
159.655586
 20
1049.653997
 30
0.0
 11
159.755562
 21
1049.827215
 31
0.0
  0
LINE
  5
68B
  8
TEAM-DET3
 10
159.755562
 20
1049.827215
 30
0.0
 11
165.155586
 21
1049.827215
 31
0.0
  0
LINE
  5
68C
  8
TEAM-DET3
 10
165.155586
 20
1049.827215
 30
0.0
 11
165.155586
 21
1049.000433
 31
0.0
  0
LINE
  5
68D
  8
TEAM-DET3
 10
183.155586
 20
1049.000433
 30
0.0
 11
165.155586
 21
1049.000433
 31
0.0
  0
LINE
  5
68E
  8
TEAM-DET3
 10
165.155586
 20
1051.000433
 30
0.0
 11
183.155586
 21
1051.000433
 31
0.0
  0
LINE
  5
68F
  8
TEAM-DET3
 10
165.155586
 20
1051.000433
 30
0.0
 11
165.155586
 21
1050.173651
 31
0.0
  0
LINE
  5
690
  8
TEAM-DET3
 10
159.955514
 20
1050.173651
 30
0.0
 11
165.155586
 21
1050.173651
 31
0.0
  0
LINE
  5
691
  8
TEAM-DET3
 10
171.655586
 20
1067.000433
 30
0.0
 11
171.655586
 21
1082.000433
 31
0.0
  0
LINE
  5
692
  8
TEAM-DET3
 10
171.655586
 20
1067.000433
 30
0.0
 11
174.655586
 21
1067.000433
 31
0.0
  0
LINE
  5
693
  8
TEAM-DET3
 10
177.655586
 20
1067.000433
 30
0.0
 11
183.155586
 21
1067.000433
 31
0.0
  0
LINE
  5
694
  8
TEAM-DET3
 10
177.655586
 20
1043.000433
 30
0.0
 11
183.155586
 21
1043.000433
 31
0.0
  0
LINE
  5
695
  8
TEAM-DET3
 10
171.655586
 20
1043.000433
 30
0.0
 11
174.655586
 21
1043.000433
 31
0.0
  0
LINE
  5
696
  8
TEAM-DET3
 10
171.655586
 20
1043.000433
 30
0.0
 11
171.655586
 21
1026.000433
 31
0.0
  0
LINE
  5
697
  8
TEAM-DET3
 10
159.355538
 20
1050.173651
 30
0.0
 11
159.655586
 21
1050.000433
 31
0.0
  0
LINE
  5
698
  8
TEAM-DET3
 10
153.004708
 20
1061.173651
 30
0.0
 11
159.355538
 21
1050.173651
 31
0.0
  0
LINE
  5
699
  8
TEAM-DET3
 10
166.306404
 20
1061.173651
 30
0.0
 11
153.004708
 21
1061.173651
 31
0.0
  0
LINE
  5
69A
  8
TEAM-DET3
 10
159.955514
 20
1050.173651
 30
0.0
 11
159.655586
 21
1050.000433
 31
0.0
  0
LINE
  5
69B
  8
TEAM-DET3
 10
159.955514
 20
1050.173651
 30
0.0
 11
166.306404
 21
1061.173651
 31
0.0
  0
LINE
  5
69C
  8
TEAM-DET3
 10
78.289062
 20
1254.505045
 30
0.0
 11
79.703308
 21
1254.505045
 31
0.0
  0
LINE
  5
69D
  8
TEAM-DET3
 10
83.945922
 20
1246.505045
 30
0.0
 11
78.289062
 21
1254.505045
 31
0.0
  0
LINE
  5
69E
  8
TEAM-DET3
 10
83.945922
 20
1246.505045
 30
0.0
 11
84.957518
 21
1246.505045
 31
0.0
  0
LINE
  5
69F
  8
TEAM-DET3
 10
72.973692
 20
1208.005045
 30
0.0
 11
84.957518
 21
1208.005045
 31
0.0
  0
LINE
  5
6A0
  8
TEAM-DET3
 10
85.360168
 20
1246.505045
 30
0.0
 11
79.703308
 21
1254.505045
 31
0.0
  0
LINE
  5
6A1
  8
TEAM-DET3
 10
183.473632
 20
1175.005045
 30
0.0
 11
0.14685
 21
1175.005045
 31
0.0
  0
LINE
  5
6A2
  8
TEAM-DET3
 10
177.973692
 20
1246.505045
 30
0.0
 11
177.973692
 21
1250.497355
 31
0.0
  0
LINE
  5
6A3
  8
TEAM-DET3
 10
89.973632
 20
1250.505045
 30
0.0
 11
89.973632
 21
1246.505045
 31
0.0
  0
LINE
  5
6A4
  8
TEAM-DET3
 10
89.973632
 20
1250.505045
 30
0.0
 11
183.473632
 21
1250.505045
 31
0.0
  0
LINE
  5
6A5
  8
TEAM-DET3
 10
84.957518
 20
1208.005045
 30
0.0
 11
87.785948
 21
1208.005045
 31
0.0
  0
LINE
  5
6A6
  8
TEAM-DET3
 10
87.785948
 20
1246.505045
 30
0.0
 11
84.957518
 21
1246.505045
 31
0.0
  0
LINE
  5
6A7
  8
TEAM-DET3
 10
183.473692
 20
1246.505045
 30
0.0
 11
177.973692
 21
1246.505045
 31
0.0
  0
LINE
  5
6A8
  8
TEAM-DET3
 10
87.785948
 20
1246.505045
 30
0.0
 11
89.973632
 21
1246.505045
 31
0.0
  0
LINE
  5
6A9
  8
TEAM-DET3
 10
87.785948
 20
1208.005045
 30
0.0
 11
87.785948
 21
1204.005045
 31
0.0
  0
LINE
  5
6AA
  8
TEAM-DET3
 10
87.785948
 20
1204.005045
 30
0.0
 11
86.973632
 21
1204.005045
 31
0.0
  0
LINE
  5
6AB
  8
TEAM-DET3
 10
-85.010194
 20
1208.005045
 30
0.0
 11
-73.026308
 21
1208.005045
 31
0.0
  0
LINE
  5
6AC
  8
TEAM-DET3
 10
-83.896332
 20
1223.005045
 30
0.0
 11
-85.010194
 21
1223.005045
 31
0.0
  0
LINE
  5
6AD
  8
TEAM-DET3
 10
86.973632
 20
1204.005045
 30
0.0
 11
0.14685
 21
1204.005045
 31
0.0
  0
LINE
  5
6AE
  8
TEAM-DET3
 10
-87.838624
 20
1208.005045
 30
0.0
 11
-85.010194
 21
1208.005045
 31
0.0
  0
LINE
  5
6AF
  8
TEAM-DET3
 10
-87.838624
 20
1223.005045
 30
0.0
 11
-85.010194
 21
1223.005045
 31
0.0
  0
LINE
  5
6B0
  8
TEAM-DET3
 10
-0.199556
 20
1175.005045
 30
0.0
 11
-183.526368
 21
1175.005045
 31
0.0
  0
LINE
  5
6B1
  8
TEAM-DET3
 10
-0.199556
 20
1204.005045
 30
0.0
 11
-87.026338
 21
1204.005045
 31
0.0
  0
LINE
  5
6B2
  8
TEAM-DET3
 10
-87.026338
 20
1204.005045
 30
0.0
 11
-87.838624
 21
1204.005045
 31
0.0
  0
LINE
  5
6B3
  8
TEAM-DET3
 10
-87.838624
 20
1204.005045
 30
0.0
 11
-87.838624
 21
1208.005045
 31
0.0
  0
LINE
  5
6B4
  8
TEAM-DET3
 10
-87.838624
 20
1223.005045
 30
0.0
 11
-89.896332
 21
1223.005045
 31
0.0
  0
LINE
  5
6B5
  8
TEAM-DET3
 10
-183.251865
 20
564.998922
 30
0.0
 11
183.471827
 21
564.998922
 31
0.0
  0
LINE
  5
6B6
  8
TEAM-DET3
 10
176.227321
 20
558.17214
 30
0.0
 11
178.971827
 21
551.546286
 31
0.0
  0
LINE
  5
6B7
  8
TEAM-DET3
 10
181.716273
 20
558.17214
 30
0.0
 11
176.227321
 21
558.17214
 31
0.0
  0
LINE
  5
6B8
  8
TEAM-DET3
 10
178.971827
 20
551.546286
 30
0.0
 11
181.716273
 21
558.17214
 31
0.0
  0
LINE
  5
6B9
  8
TEAM-DET3
 10
-179.028203
 20
551.546286
 30
0.0
 11
-176.283727
 21
558.17214
 31
0.0
  0
LINE
  5
6BA
  8
TEAM-DET3
 10
-176.283727
 20
558.17214
 30
0.0
 11
-181.772709
 21
558.17214
 31
0.0
  0
LINE
  5
6BB
  8
TEAM-DET3
 10
-181.772709
 20
558.17214
 30
0.0
 11
-179.028203
 21
551.546286
 31
0.0
  0
LINE
  5
6BC
  8
TEAM-AXE
 10
-47.977928
 20
452.388523
 30
0.0
 11
-47.977928
 21
425.088475
 31
0.0
  0
LINE
  5
6BD
  8
TEAM-AXE
 10
-34.327934
 20
438.738499
 30
0.0
 11
-61.627922
 21
438.738499
 31
0.0
  0
LINE
  5
6BE
  8
TEAM-AXE
 10
50.701944
 20
400.000372
 30
0.0
 11
-50.69805
 21
400.000372
 31
0.0
  0
LINE
  5
6BF
  8
TEAM-AXE
 10
45.001962
 20
421.450444
 30
0.0
 11
45.001962
 21
374.04981
 31
0.0
  0
LINE
  5
6C0
  8
TEAM-DET3
 10
-153.947196
 20
410.827154
 30
0.0
 11
-159.998037
 21
400.231378
 31
0.0
  0
LINE
  5
6C1
  8
TEAM-DET3
 10
-159.998037
 20
400.231378
 30
0.0
 11
-166.04891
 21
410.827154
 31
0.0
  0
LINE
  5
6C2
  8
TEAM-DET3
 10
160.022813
 20
400.146236
 30
0.0
 11
166.079323
 21
410.738791
 31
0.0
  0
LINE
  5
6C3
  8
TEAM-DET3
 10
153.977611
 20
410.74523
 30
0.0
 11
160.022813
 21
400.146236
 31
0.0
  0
LINE
  5
6C4
  8
TEAM-DET3
 10
153.977611
 20
410.74523
 30
0.0
 11
166.079323
 21
410.738791
 31
0.0
  0
LINE
  5
6C5
  8
TEAM-AXE
 10
53.37453
 20
438.943595
 30
0.0
 11
80.674502
 21
438.914542
 31
0.0
  0
LINE
  5
6C6
  8
TEAM-AXE
 10
67.039043
 20
452.579085
 30
0.0
 11
67.00999
 21
425.279052
 31
0.0
  0
LINE
  5
6C7
  8
TEAM-DET3
 10
-171.998038
 20
442.000372
 30
0.0
 11
-171.998038
 21
460.000372
 31
0.0
  0
LINE
  5
6C8
  8
TEAM-DET3
 10
-171.998038
 20
416.000372
 30
0.0
 11
-171.998038
 21
398.000372
 31
0.0
  0
LINE
  5
6C9
  8
TEAM-DET3
 10
-177.998038
 20
413.000372
 30
0.0
 11
-177.998038
 21
416.000372
 31
0.0
  0
LINE
  5
6CA
  8
TEAM-DET3
 10
-177.998038
 20
413.000372
 30
0.0
 11
-174.998038
 21
413.000372
 31
0.0
  0
LINE
  5
6CB
  8
TEAM-DET3
 10
-174.998038
 20
413.402288
 30
0.0
 11
-174.998038
 21
413.000372
 31
0.0
  0
LINE
  5
6CC
  8
TEAM-DET3
 10
-174.998038
 20
413.402288
 30
0.0
 11
-174.998038
 21
416.000372
 31
0.0
  0
LINE
  5
6CD
  8
TEAM-DET3
 10
-183.498038
 20
416.000372
 30
0.0
 11
-177.998038
 21
416.000372
 31
0.0
  0
LINE
  5
6CE
  8
TEAM-DET3
 10
-174.998038
 20
416.000372
 30
0.0
 11
-171.998038
 21
416.000372
 31
0.0
  0
LINE
  5
6CF
  8
TEAM-DET3
 10
175.002022
 20
416.000372
 30
0.0
 11
172.002022
 21
416.000372
 31
0.0
  0
LINE
  5
6D0
  8
TEAM-DET3
 10
183.502022
 20
416.000372
 30
0.0
 11
178.002022
 21
416.000372
 31
0.0
  0
LINE
  5
6D1
  8
TEAM-DET3
 10
175.002022
 20
413.402288
 30
0.0
 11
175.002022
 21
416.000372
 31
0.0
  0
LINE
  5
6D2
  8
TEAM-DET3
 10
175.002022
 20
413.402288
 30
0.0
 11
175.002022
 21
413.000372
 31
0.0
  0
LINE
  5
6D3
  8
TEAM-DET3
 10
178.002022
 20
413.000372
 30
0.0
 11
175.002022
 21
413.000372
 31
0.0
  0
LINE
  5
6D4
  8
TEAM-DET3
 10
178.002022
 20
413.000372
 30
0.0
 11
178.002022
 21
416.000372
 31
0.0
  0
LINE
  5
6D5
  8
TEAM-DET3
 10
172.002022
 20
416.000372
 30
0.0
 11
172.002022
 21
398.000372
 31
0.0
  0
LINE
  5
6D6
  8
TEAM-DET3
 10
172.002022
 20
442.000372
 30
0.0
 11
172.002022
 21
460.000372
 31
0.0
  0
LINE
  5
6D7
  8
TEAM-DET3
 10
178.002022
 20
445.000372
 30
0.0
 11
178.002022
 21
442.000372
 31
0.0
  0
LINE
  5
6D8
  8
TEAM-DET3
 10
178.002022
 20
445.000372
 30
0.0
 11
175.002022
 21
445.000372
 31
0.0
  0
LINE
  5
6D9
  8
TEAM-DET3
 10
175.002022
 20
444.598456
 30
0.0
 11
175.002022
 21
445.000372
 31
0.0
  0
LINE
  5
6DA
  8
TEAM-DET3
 10
175.002022
 20
444.598456
 30
0.0
 11
175.002022
 21
442.000372
 31
0.0
  0
LINE
  5
6DB
  8
TEAM-DET3
 10
183.502022
 20
442.000372
 30
0.0
 11
178.002022
 21
442.000372
 31
0.0
  0
LINE
  5
6DC
  8
TEAM-DET3
 10
175.002022
 20
442.000372
 30
0.0
 11
172.002022
 21
442.000372
 31
0.0
  0
LINE
  5
6DD
  8
TEAM-DET3
 10
1.723692
 20
1202.92118
 30
0.0
 11
1.723692
 21
1223.671119
 31
0.0
  0
LINE
  5
6DE
  8
TEAM-DET3
 10
-53.051309
 20
1225.571174
 30
0.0
 11
-52.681009
 21
1225.571174
 31
0.0
  0
LINE
  5
6DF
  8
TEAM-DET3
 10
-51.526308
 20
1224.41648
 30
0.0
 11
-51.526308
 21
1224.021186
 31
0.0
  0
LINE
  5
6E0
  8
TEAM-DET3
 10
51.323683
 20
1223.896186
 30
0.0
 11
51.323683
 21
1224.266487
 31
0.0
  0
LINE
  5
6E1
  8
TEAM-DET3
 10
52.478392
 20
1225.42118
 30
0.0
 11
52.873701
 21
1225.42118
 31
0.0
  0
LINE
  5
6E2
  8
TEAM-DET3
 10
-52.423426
 20
1226.084144
 30
0.0
 11
-52.264696
 21
1226.242866
 31
0.0
  0
LINE
  5
6E3
  8
TEAM-DET3
 10
-50.993738
 20
1224.595603
 30
0.0
 11
-50.862367
 21
1224.726982
 31
0.0
  0
LINE
  5
6E4
  8
TEAM-DET3
 10
50.810743
 20
1224.524055
 30
0.0
 11
50.652006
 21
1224.682792
 31
0.0
  0
LINE
  5
6E5
  8
TEAM-DET3
 10
52.299269
 20
1225.953742
 30
0.0
 11
52.167891
 21
1226.085121
 31
0.0
  0
POLYLINE
  5
6E6
  8
TEAM-DET3
 66
     1
 10
0.0
 20
0.0
 30
0.0
  0
VERTEX
  5
EAB
  8
TEAM-DET3
 10
-33.6579
 20
1247.172599
 30
0.0
  0
VERTEX
  5
EAC
  8
TEAM-DET3
 10
-33.492952
 20
1246.888954
 30
0.0
  0
VERTEX
  5
EAD
  8
TEAM-DET3
 10
-33.036661
 20
1246.200508
 30
0.0
  0
VERTEX
  5
EAE
  8
TEAM-DET3
 10
-32.730547
 20
1245.797996
 30
0.0
  0
VERTEX
  5
EAF
  8
TEAM-DET3
 10
-32.038042
 20
1245.016929
 30
0.0
  0
VERTEX
  5
EB0
  8
TEAM-DET3
 10
-31.536821
 20
1244.541114
 30
0.0
  0
VERTEX
  5
EB1
  8
TEAM-DET3
 10
-30.742945
 20
1243.908393
 30
0.0
  0
VERTEX
  5
EB2
  8
TEAM-DET3
 10
-29.761484
 20
1243.291755
 30
0.0
  0
VERTEX
  5
EB3
  8
TEAM-DET3
 10
-28.716097
 20
1242.795905
 30
0.0
  0
VERTEX
  5
EB4
  8
TEAM-DET3
 10
-27.620989
 20
1242.426536
 30
0.0
  0
VERTEX
  5
EB5
  8
TEAM-DET3
 10
-26.488977
 20
1242.187812
 30
0.0
  0
VERTEX
  5
EB6
  8
TEAM-DET3
 10
-25.334452
 20
1242.083122
 30
0.0
  0
VERTEX
  5
EB7
  8
TEAM-DET3
 10
-24.13833
 20
1242.118568
 30
0.0
  0
VERTEX
  5
EB8
  8
TEAM-DET3
 10
-22.952959
 20
1242.299369
 30
0.0
  0
VERTEX
  5
EB9
  8
TEAM-DET3
 10
-21.800325
 20
1242.62191
 30
0.0
  0
VERTEX
  5
EBA
  8
TEAM-DET3
 10
-21.005297
 20
1242.936988
 30
0.0
  0
VERTEX
  5
EBB
  8
TEAM-DET3
 10
-20.24064
 20
1243.319724
 30
0.0
  0
VERTEX
  5
EBC
  8
TEAM-DET3
 10
-19.512361
 20
1243.767402
 30
0.0
  0
VERTEX
  5
EBD
  8
TEAM-DET3
 10
-19.095247
 20
1244.066169
 30
0.0
  0
VERTEX
  5
EBE
  8
TEAM-DET3
 10
-18.292833
 20
1244.744621
 30
0.0
  0
VERTEX
  5
EBF
  8
TEAM-DET3
 10
-17.781481
 20
1245.262184
 30
0.0
  0
VERTEX
  5
EC0
  8
TEAM-DET3
 10
-17.313967
 20
1245.808143
 30
0.0
  0
VERTEX
  5
EC1
  8
TEAM-DET3
 10
-16.869676
 20
1246.40821
 30
0.0
  0
VERTEX
  5
EC2
  8
TEAM-DET3
 10
-16.41453
 20
1247.137321
 30
0.0
  0
VERTEX
  5
EC3
  8
TEAM-DET3
 10
-16.394716
 20
1247.172599
 30
0.0
  0
SEQEND
  5
EC4
  8
TEAM-DET3
  0
POLYLINE
  5
6E7
  8
TEAM-DET3
 66
     1
 10
0.0
 20
0.0
 30
0.0
  0
VERTEX
  5
EC5
  8
TEAM-DET3
 10
-34.869219
 20
1251.92118
 30
0.0
  0
VERTEX
  5
EC6
  8
TEAM-DET3
 10
-34.76639
 20
1250.881675
 30
0.0
  0
VERTEX
  5
EC7
  8
TEAM-DET3
 10
-34.62858
 20
1249.912727
 30
0.0
  0
VERTEX
  5
EC8
  8
TEAM-DET3
 10
-34.532472
 20
1249.434699
 30
0.0
  0
VERTEX
  5
EC9
  8
TEAM-DET3
 10
-34.238542
 20
1248.431678
 30
0.0
  0
VERTEX
  5
ECA
  8
TEAM-DET3
 10
-34.221178
 20
1248.384544
 30
0.0
  0
SEQEND
  5
ECB
  8
TEAM-DET3
  0
POLYLINE
  5
6E8
  8
TEAM-DET3
 66
     1
 10
0.0
 20
0.0
 30
0.0
  0
VERTEX
  5
ECC
  8
TEAM-DET3
 10
-15.831438
 20
1248.384544
 30
0.0
  0
VERTEX
  5
ECD
  8
TEAM-DET3
 10
-15.720888
 20
1248.701026
 30
0.0
  0
VERTEX
  5
ECE
  8
TEAM-DET3
 10
-15.45212
 20
1249.76081
 30
0.0
  0
VERTEX
  5
ECF
  8
TEAM-DET3
 10
-15.289965
 20
1250.849098
 30
0.0
  0
VERTEX
  5
ED0
  8
TEAM-DET3
 10
-15.18339
 20
1251.92118
 30
0.0
  0
SEQEND
  5
ED1
  8
TEAM-DET3
  0
LINE
  5
6E9
  8
TEAM-DET3
 10
-35.026308
 20
1251.92118
 30
0.0
 11
-34.994325
 21
1252.267845
 31
0.0
  0
LINE
  5
6EA
  8
TEAM-DET3
 10
-15.05829
 20
1252.267845
 30
0.0
 11
-15.026308
 21
1251.92118
 31
0.0
  0
POLYLINE
  5
6EB
  8
TEAM-DET3
 66
     1
 10
0.0
 20
0.0
 30
0.0
  0
VERTEX
  5
ED2
  8
TEAM-DET3
 10
-15.313944
 20
1249.651466
 30
0.0
  0
VERTEX
  5
ED3
  8
TEAM-DET3
 10
-15.356623
 20
1249.447883
 30
0.0
  0
VERTEX
  5
ED4
  8
TEAM-DET3
 10
-15.562723
 20
1248.679435
 30
0.0
  0
VERTEX
  5
ED5
  8
TEAM-DET3
 10
-15.891489
 20
1247.823966
 30
0.0
  0
VERTEX
  5
ED6
  8
TEAM-DET3
 10
-16.306116
 20
1247.00991
 30
0.0
  0
VERTEX
  5
ED7
  8
TEAM-DET3
 10
-16.679743
 20
1246.408332
 30
0.0
  0
VERTEX
  5
ED8
  8
TEAM-DET3
 10
-17.360994
 20
1245.502845
 30
0.0
  0
VERTEX
  5
ED9
  8
TEAM-DET3
 10
-17.685488
 20
1245.134712
 30
0.0
  0
VERTEX
  5
EDA
  8
TEAM-DET3
 10
-18.393602
 20
1244.439521
 30
0.0
  0
VERTEX
  5
EDB
  8
TEAM-DET3
 10
-19.163874
 20
1243.819816
 30
0.0
  0
VERTEX
  5
EDC
  8
TEAM-DET3
 10
-19.992494
 20
1243.280158
 30
0.0
  0
VERTEX
  5
EDD
  8
TEAM-DET3
 10
-20.874132
 20
1242.82389
 30
0.0
  0
VERTEX
  5
EDE
  8
TEAM-DET3
 10
-21.999788
 20
1242.390235
 30
0.0
  0
VERTEX
  5
EDF
  8
TEAM-DET3
 10
-23.169008
 20
1242.095451
 30
0.0
  0
VERTEX
  5
EE0
  8
TEAM-DET3
 10
-24.365465
 20
1241.943168
 30
0.0
  0
VERTEX
  5
EE1
  8
TEAM-DET3
 10
-25.527422
 20
1241.933814
 30
0.0
  0
VERTEX
  5
EE2
  8
TEAM-DET3
 10
-26.685808
 20
1242.060157
 30
0.0
  0
VERTEX
  5
EE3
  8
TEAM-DET3
 10
-27.821848
 20
1242.320014
 30
0.0
  0
VERTEX
  5
EE4
  8
TEAM-DET3
 10
-28.917055
 20
1242.709068
 30
0.0
  0
VERTEX
  5
EE5
  8
TEAM-DET3
 10
-29.847872
 20
1243.15998
 30
0.0
  0
VERTEX
  5
EE6
  8
TEAM-DET3
 10
-30.723909
 20
1243.702857
 30
0.0
  0
VERTEX
  5
EE7
  8
TEAM-DET3
 10
-31.538317
 20
1244.3339
 30
0.0
  0
VERTEX
  5
EE8
  8
TEAM-DET3
 10
-32.285921
 20
1245.047859
 30
0.0
  0
VERTEX
  5
EE9
  8
TEAM-DET3
 10
-32.630274
 20
1245.430519
 30
0.0
  0
VERTEX
  5
EEA
  8
TEAM-DET3
 10
-33.232851
 20
1246.204917
 30
0.0
  0
VERTEX
  5
EEB
  8
TEAM-DET3
 10
-33.748934
 20
1247.014167
 30
0.0
  0
VERTEX
  5
EEC
  8
TEAM-DET3
 10
-34.171236
 20
1247.846626
 30
0.0
  0
VERTEX
  5
EED
  8
TEAM-DET3
 10
-34.503054
 20
1248.720817
 30
0.0
  0
VERTEX
  5
EEE
  8
TEAM-DET3
 10
-34.730379
 20
1249.610237
 30
0.0
  0
VERTEX
  5
EEF
  8
TEAM-DET3
 10
-34.738672
 20
1249.651466
 30
0.0
  0
SEQEND
  5
EF0
  8
TEAM-DET3
  0
LINE
  5
6EC
  8
TEAM-DET3
 10
-15.026308
 20
1251.92118
 30
0.0
 11
-15.05829
 21
1251.574516
 31
0.0
  0
LINE
  5
6ED
  8
TEAM-DET3
 10
-34.994325
 20
1251.574516
 30
0.0
 11
-35.026308
 21
1251.92118
 31
0.0
  0
LINE
  5
6EE
  8
TEAM-DET3
 10
-40.026308
 20
1223.67118
 30
0.0
 11
-40.026308
 21
1234.67118
 31
0.0
  0
LINE
  5
6EF
  8
TEAM-DET3
 10
39.973692
 20
1234.67118
 30
0.0
 11
-40.026308
 21
1234.67118
 31
0.0
  0
LINE
  5
6F0
  8
TEAM-DET3
 10
39.973692
 20
1223.67118
 30
0.0
 11
39.973692
 21
1234.67118
 31
0.0
  0
LINE
  5
6F1
  8
TEAM-DET3
 10
39.973692
 20
1223.67118
 30
0.0
 11
-40.026308
 21
1223.67118
 31
0.0
  0
LINE
  5
6F2
  8
TEAM-DET3
 10
52.123701
 20
1225.478279
 30
0.0
 11
50.355925
 21
1227.246055
 31
0.0
  0
LINE
  5
6F3
  8
TEAM-DET3
 10
51.416578
 20
1224.771186
 30
0.0
 11
49.648817
 21
1226.538947
 31
0.0
  0
LINE
  5
6F4
  8
TEAM-DET3
 10
52.123701
 20
1226.864555
 30
0.0
 11
52.123701
 21
1233.771186
 31
0.0
  0
LINE
  5
6F5
  8
TEAM-DET3
 10
52.123701
 20
1226.353233
 30
0.0
 11
52.123701
 21
1225.875465
 31
0.0
  0
LINE
  5
6F6
  8
TEAM-DET3
 10
52.123701
 20
1224.771186
 30
0.0
 11
50.942885
 21
1224.771186
 31
0.0
  0
LINE
  5
6F7
  8
TEAM-DET3
 10
52.123701
 20
1225.875465
 30
0.0
 11
52.123701
 21
1224.771186
 31
0.0
  0
LINE
  5
6F8
  8
TEAM-DET3
 10
49.880324
 20
1224.771186
 30
0.0
 11
42.973692
 21
1224.771186
 31
0.0
  0
LINE
  5
6F9
  8
TEAM-DET3
 10
50.942885
 20
1224.771186
 30
0.0
 11
50.241636
 21
1224.771186
 31
0.0
  0
LINE
  5
6FA
  8
TEAM-DET3
 10
-51.469202
 20
1224.771186
 30
0.0
 11
-49.701433
 21
1226.538947
 31
0.0
  0
LINE
  5
6FB
  8
TEAM-DET3
 10
-52.176309
 20
1225.478279
 30
0.0
 11
-50.408541
 21
1227.246055
 31
0.0
  0
LINE
  5
6FC
  8
TEAM-DET3
 10
-50.082933
 20
1224.771186
 30
0.0
 11
-43.176309
 21
1224.771186
 31
0.0
  0
LINE
  5
6FD
  8
TEAM-DET3
 10
-50.594255
 20
1224.771186
 30
0.0
 11
-51.072023
 21
1224.771186
 31
0.0
  0
LINE
  5
6FE
  8
TEAM-DET3
 10
-52.176309
 20
1224.771186
 30
0.0
 11
-52.176309
 21
1225.951988
 31
0.0
  0
LINE
  5
6FF
  8
TEAM-DET3
 10
-51.072023
 20
1224.771186
 30
0.0
 11
-52.176309
 21
1224.771186
 31
0.0
  0
LINE
  5
700
  8
TEAM-DET3
 10
-52.176309
 20
1227.014564
 30
0.0
 11
-52.176309
 21
1233.92118
 31
0.0
  0
LINE
  5
701
  8
TEAM-DET3
 10
-52.176309
 20
1225.951988
 30
0.0
 11
-52.176309
 21
1226.653236
 31
0.0
  0
LINE
  5
702
  8
TEAM-DET3
 10
53.123701
 20
1226.864555
 30
0.0
 11
52.123701
 21
1226.864555
 31
0.0
  0
LINE
  5
703
  8
TEAM-DET3
 10
52.123701
 20
1226.353233
 30
0.0
 11
52.123701
 21
1226.864555
 31
0.0
  0
LINE
  5
704
  8
TEAM-DET3
 10
50.241636
 20
1224.771186
 30
0.0
 11
49.880324
 21
1224.771186
 31
0.0
  0
LINE
  5
705
  8
TEAM-DET3
 10
49.880324
 20
1223.771186
 30
0.0
 11
49.880324
 21
1224.771186
 31
0.0
  0
LINE
  5
706
  8
TEAM-DET3
 10
-50.082933
 20
1223.771186
 30
0.0
 11
-50.082933
 21
1224.771186
 31
0.0
  0
LINE
  5
707
  8
TEAM-DET3
 10
-50.594255
 20
1224.771186
 30
0.0
 11
-50.082933
 21
1224.771186
 31
0.0
  0
LINE
  5
708
  8
TEAM-DET3
 10
-52.176309
 20
1226.653236
 30
0.0
 11
-52.176309
 21
1227.014564
 31
0.0
  0
LINE
  5
709
  8
TEAM-DET3
 10
-53.176309
 20
1227.014564
 30
0.0
 11
-52.176309
 21
1227.014564
 31
0.0
  0
LINE
  5
70A
  8
TEAM-DET3
 10
-53.176309
 20
1227.014564
 30
0.0
 11
-53.176309
 21
1233.92118
 31
0.0
  0
LINE
  5
70B
  8
TEAM-DET3
 10
-53.176309
 20
1226.148536
 30
0.0
 11
-53.176309
 21
1227.014564
 31
0.0
  0
LINE
  5
70C
  8
TEAM-DET3
 10
-53.176309
 20
1224.41648
 30
0.0
 11
-53.176309
 21
1226.148536
 31
0.0
  0
LINE
  5
70D
  8
TEAM-DET3
 10
-53.176309
 20
1223.771186
 30
0.0
 11
-53.176309
 21
1224.41648
 31
0.0
  0
LINE
  5
70E
  8
TEAM-DET3
 10
-53.176309
 20
1223.771186
 30
0.0
 11
-52.681009
 21
1223.771186
 31
0.0
  0
LINE
  5
70F
  8
TEAM-DET3
 10
-50.948961
 20
1223.771186
 30
0.0
 11
-52.681009
 21
1223.771186
 31
0.0
  0
LINE
  5
710
  8
TEAM-DET3
 10
-50.948961
 20
1223.771186
 30
0.0
 11
-50.082933
 21
1223.771186
 31
0.0
  0
LINE
  5
711
  8
TEAM-DET3
 10
-50.082933
 20
1223.771186
 30
0.0
 11
-43.176309
 21
1223.771186
 31
0.0
  0
LINE
  5
712
  8
TEAM-DET3
 10
49.880324
 20
1223.771186
 30
0.0
 11
42.973692
 21
1223.771186
 31
0.0
  0
LINE
  5
713
  8
TEAM-DET3
 10
50.746336
 20
1223.771186
 30
0.0
 11
49.880324
 21
1223.771186
 31
0.0
  0
LINE
  5
714
  8
TEAM-DET3
 10
52.478392
 20
1223.771186
 30
0.0
 11
50.746336
 21
1223.771186
 31
0.0
  0
LINE
  5
715
  8
TEAM-DET3
 10
53.123701
 20
1223.771186
 30
0.0
 11
52.478392
 21
1223.771186
 31
0.0
  0
LINE
  5
716
  8
TEAM-DET3
 10
53.123701
 20
1223.771186
 30
0.0
 11
53.123701
 21
1224.266487
 31
0.0
  0
LINE
  5
717
  8
TEAM-DET3
 10
53.123701
 20
1225.998527
 30
0.0
 11
53.123701
 21
1224.266487
 31
0.0
  0
LINE
  5
718
  8
TEAM-DET3
 10
53.123701
 20
1225.998527
 30
0.0
 11
53.123701
 21
1226.864555
 31
0.0
  0
LINE
  5
719
  8
TEAM-DET3
 10
53.123701
 20
1226.864555
 30
0.0
 11
53.123701
 21
1233.771186
 31
0.0
  0
LINE
  5
71A
  8
TEAM-DET3
 10
-53.176309
 20
1233.92118
 30
0.0
 11
-52.176309
 21
1233.92118
 31
0.0
  0
LINE
  5
71B
  8
TEAM-DET3
 10
-49.701433
 20
1226.538947
 30
0.0
 11
-50.408541
 21
1227.246055
 31
0.0
  0
LINE
  5
71C
  8
TEAM-DET3
 10
-43.176309
 20
1223.771186
 30
0.0
 11
-43.176309
 21
1224.771186
 31
0.0
  0
LINE
  5
71D
  8
TEAM-DET3
 10
-43.176309
 20
1223.771186
 30
0.0
 11
-40.026308
 21
1223.771186
 31
0.0
  0
LINE
  5
71E
  8
TEAM-DET3
 10
39.973692
 20
1223.771186
 30
0.0
 11
42.973692
 21
1223.771186
 31
0.0
  0
LINE
  5
71F
  8
TEAM-DET3
 10
42.973692
 20
1223.771186
 30
0.0
 11
42.973692
 21
1224.771186
 31
0.0
  0
LINE
  5
720
  8
TEAM-DET3
 10
50.355925
 20
1227.246055
 30
0.0
 11
49.648817
 21
1226.538947
 31
0.0
  0
LINE
  5
721
  8
TEAM-DET3
 10
53.123701
 20
1233.771186
 30
0.0
 11
52.123701
 21
1233.771186
 31
0.0
  0
ARC
  5
722
  8
TEAM-DET3
 10
1.523695
 20
1202.92118
 30
0.0
 40
0.2
 50
269.999997
 51
0.0
  0
ARC
  5
723
  8
TEAM-DET3
 10
-1.576311
 20
1202.92118
 30
0.0
 40
0.2
 50
180.000005
 51
269.999997
  0
LINE
  5
724
  8
TEAM-DET3
 10
-1.576311
 20
1202.721183
 30
0.0
 11
1.523695
 21
1202.721183
 31
0.0
  0
LINE
  5
725
  8
TEAM-DET3
 10
1.723692
 20
1202.92118
 30
0.0
 11
1.723692
 21
1223.671119
 31
0.0
  0
LINE
  5
726
  8
TEAM-DET3
 10
-1.776308
 20
1202.92118
 30
0.0
 11
-1.776308
 21
1223.671119
 31
0.0
  0
LINE
  5
727
  8
TEAM-DET3
 10
-1.776308
 20
1202.721183
 30
0.0
 11
-61.271524
 21
1202.721183
 31
0.0
  0
LINE
  5
728
  8
TEAM-DET3
 10
-1.576311
 20
1202.721183
 30
0.0
 11
-1.776308
 21
1202.721183
 31
0.0
  0
LINE
  5
729
  8
TEAM-DET3
 10
61.218916
 20
1202.721183
 30
0.0
 11
1.723692
 21
1202.721183
 31
0.0
  0
LINE
  5
72A
  8
TEAM-DET3
 10
1.723692
 20
1202.721183
 30
0.0
 11
1.523695
 21
1202.721183
 31
0.0
  0
ARC
  5
72B
  8
TEAM-DET3
 10
66.973692
 20
1209.92118
 30
0.0
 40
5.5
 50
91.999998
 51
178.000003
  0
LINE
  5
72C
  8
TEAM-DET3
 10
74.173689
 20
1215.675971
 30
0.0
 11
66.781752
 21
1215.417823
 31
0.0
  0
LINE
  5
72D
  8
TEAM-DET3
 10
61.218916
 20
1202.721183
 30
0.0
 11
61.477034
 21
1210.113128
 31
0.0
  0
CIRCLE
  5
72E
  8
TEAM-DET3
 10
66.973692
 20
1209.92118
 30
0.0
 40
1.5
  0
LINE
  5
72F
  8
TEAM-DET3
 10
61.218916
 20
1202.721183
 30
0.0
 11
66.973692
 21
1202.721183
 31
0.0
  0
LINE
  5
730
  8
TEAM-DET3
 10
74.173689
 20
1215.675971
 30
0.0
 11
74.173689
 21
1209.92118
 31
0.0
  0
ARC
  5
731
  8
TEAM-DET3
 10
66.973692
 20
1209.92118
 30
0.0
 40
7.2
 50
269.999997
 51
0.0
  0
LINE
  5
732
  8
TEAM-DET3
 10
-61.271524
 20
1202.721183
 30
0.0
 11
-61.529657
 21
1210.113128
 31
0.0
  0
ARC
  5
733
  8
TEAM-DET3
 10
-67.026308
 20
1209.92118
 30
0.0
 40
5.5
 50
2.0
 51
88.0
  0
LINE
  5
734
  8
TEAM-DET3
 10
-74.226305
 20
1215.675971
 30
0.0
 11
-66.83436
 21
1215.417823
 31
0.0
  0
CIRCLE
  5
735
  8
TEAM-DET3
 10
-67.026308
 20
1209.92118
 30
0.0
 40
1.5
  0
LINE
  5
736
  8
TEAM-DET3
 10
-61.271524
 20
1202.721183
 30
0.0
 11
-67.026308
 21
1202.721183
 31
0.0
  0
ARC
  5
737
  8
TEAM-DET3
 10
-67.026308
 20
1209.92118
 30
0.0
 40
7.2
 50
180.000005
 51
269.999997
  0
LINE
  5
738
  8
TEAM-DET3
 10
-74.226305
 20
1215.675971
 30
0.0
 11
-74.226305
 21
1209.92118
 31
0.0
  0
LINE
  5
739
  8
TEAM-DET3
 10
39.973692
 20
1238.67118
 30
0.0
 11
-10.026308
 21
1238.67118
 31
0.0
  0
LINE
  5
73A
  8
TEAM-AXE
 10
-8.160196
 20
1251.92118
 30
0.0
 11
-41.892427
 21
1251.92118
 31
0.0
  0
LINE
  5
73B
  8
TEAM-AXE
 10
66.973692
 20
1211.871177
 30
0.0
 11
66.973692
 21
1207.971183
 31
0.0
  0
LINE
  5
73C
  8
TEAM-AXE
 10
68.923689
 20
1209.92118
 30
0.0
 11
65.023695
 21
1209.92118
 31
0.0
  0
LINE
  5
73D
  8
TEAM-AXE
 10
-67.026308
 20
1211.871177
 30
0.0
 11
-67.026308
 21
1207.971183
 31
0.0
  0
LINE
  5
73E
  8
TEAM-AXE
 10
-65.076311
 20
1209.92118
 30
0.0
 11
-68.976305
 21
1209.92118
 31
0.0
  0
ARC
  5
73F
  8
TEAM-HIDE
 10
26.308624
 20
1247.936227
 30
0.0
 40
0.500106
 50
179.931157
 51
214.642004
  0
LINE
  5
740
  8
TEAM-HIDE
 10
25.80896
 20
1248.300729
 30
0.0
 11
25.808624
 21
1248.036967
 31
0.0
  0
ARC
  5
741
  8
TEAM-HIDE
 10
35.816406
 20
1254.505685
 30
0.0
 40
12.056734
 50
214.642687
 51
269.931252
  0
ARC
  5
742
  8
TEAM-HIDE
 10
26.30896
 20
1248.300119
 30
0.0
 40
0.500018
 50
106.101415
 51
179.932031
  0
ARC
  5
743
  8
TEAM-HIDE
 10
44.308564
 20
1243.995493
 30
0.0
 40
1.49842
 50
289.23062
 51
359.931184
  0
ARC
  5
744
  8
TEAM-HIDE
 10
46.140683
 20
1236.910502
 30
0.0
 40
5.826038
 50
103.282815
 51
108.397492
  0
LINE
  5
745
  8
TEAM-HIDE
 10
35.801942
 20
1242.448953
 30
0.0
 11
44.301942
 21
1242.438761
 31
0.0
  0
LINE
  5
746
  8
TEAM-HIDE
 10
-57.903564
 20
1206.005075
 30
0.0
 11
60.023316
 21
1206.005075
 31
0.0
  0
LINE
  5
747
  8
TEAM-HIDE
 10
-57.903564
 20
1206.005075
 30
0.0
 11
-60.269562
 21
1206.005075
 31
0.0
  0
LINE
  5
748
  8
TEAM-HIDE
 10
-66.976684
 20
1206.005075
 30
0.0
 11
-60.269562
 21
1206.005075
 31
0.0
  0
ARC
  5
749
  8
TEAM-HIDE
 10
-66.976684
 20
1210.005075
 30
0.0
 40
4.0
 50
180.000005
 51
269.999997
  0
LINE
  5
74A
  8
TEAM-HIDE
 10
71.023316
 20
1217.005075
 30
0.0
 11
71.023316
 21
1210.005075
 31
0.0
  0
ARC
  5
74B
  8
TEAM-HIDE
 10
67.023316
 20
1210.005075
 30
0.0
 40
4.0
 50
269.999997
 51
0.0
  0
LINE
  5
74C
  8
TEAM-HIDE
 10
60.023316
 20
1206.005075
 30
0.0
 11
67.023316
 21
1206.005075
 31
0.0
  0
CIRCLE
  5
74D
  8
TEAM-HIDE
 10
55.023316
 20
1222.005075
 30
0.0
 40
4.491348
  0
CIRCLE
  5
74E
  8
TEAM-HIDE
 10
-54.976684
 20
1222.005075
 30
0.0
 40
4.491348
  0
LINE
  5
74F
  8
TEAM-HIDE
 10
73.523316
 20
1235.354073
 30
0.0
 11
73.523316
 21
1217.305063
 31
0.0
  0
LINE
  5
750
  8
TEAM-HIDE
 10
73.223298
 20
1235.497873
 30
0.0
 11
73.223298
 21
1217.005075
 31
0.0
  0
LINE
  5
751
  8
TEAM-HIDE
 10
71.023316
 20
1217.005075
 30
0.0
 11
73.223298
 21
1217.005075
 31
0.0
  0
LINE
  5
752
  8
TEAM-HIDE
 10
73.523316
 20
1241.705087
 30
0.0
 11
73.523316
 21
1235.354073
 31
0.0
  0
LINE
  5
753
  8
TEAM-HIDE
 10
73.223298
 20
1242.005075
 30
0.0
 11
73.223298
 21
1235.497873
 31
0.0
  0
LINE
  5
754
  8
TEAM-HIDE
 10
71.023316
 20
1242.005075
 30
0.0
 11
73.223298
 21
1242.005075
 31
0.0
  0
LINE
  5
755
  8
TEAM-DET3
 10
-183.302674
 20
819.580372
 30
0.0
 11
183.421018
 21
819.580372
 31
0.0
  0
LINE
  5
756
  8
TEAM-DET2
 10
209.75
 20
314.995187
 30
0.0
 11
188.75
 21
314.995187
 31
0.0
  0
LINE
  5
757
  8
TEAM-DET2
 10
-209.75
 20
314.995187
 30
0.0
 11
-188.75
 21
314.995187
 31
0.0
  0
LINE
  5
758
  8
TEAM-DET3
 10
249.5
 20
-20.0
 30
0.0
 11
249.5
 21
-12.0
 31
0.0
  0
LINE
  5
759
  8
TEAM-DET3
 10
247.5
 20
-12.0
 30
0.0
 11
247.5
 21
272.489
 31
0.0
  0
LINE
  5
75A
  8
TEAM-HIDE
 10
247.5
 20
272.489
 30
0.0
 11
247.5
 21
636.995203
 31
0.0
  0
LINE
  5
75B
  8
TEAM-DET3
 10
206.0
 20
294.489
 30
0.0
 11
210.0
 21
294.489
 31
0.0
  0
LINE
  5
75C
  8
TEAM-DET3
 10
198.5
 20
287.239
 30
0.0
 11
204.0
 21
287.239
 31
0.0
  0
LINE
  5
75D
  8
TEAM-DET3
 10
198.5
 20
290.989
 30
0.0
 11
204.0
 21
290.989
 31
0.0
  0
LINE
  5
75E
  8
TEAM-DET3
 10
204.0
 20
293.489
 30
0.0
 11
206.0
 21
293.489
 31
0.0
  0
LINE
  5
75F
  8
TEAM-DET3
 10
206.0
 20
272.489
 30
0.0
 11
210.0
 21
272.489
 31
0.0
  0
LINE
  5
760
  8
TEAM-DET3
 10
198.5
 20
275.989
 30
0.0
 11
204.0
 21
275.989
 31
0.0
  0
LINE
  5
761
  8
TEAM-DET3
 10
198.5
 20
279.739
 30
0.0
 11
204.0
 21
279.739
 31
0.0
  0
LINE
  5
762
  8
TEAM-DET3
 10
204.0
 20
273.489
 30
0.0
 11
206.0
 21
273.489
 31
0.0
  0
LINE
  5
763
  8
TEAM-DET3
 10
212.5
 20
-12.0
 30
0.0
 11
212.5
 21
272.489
 31
0.0
  0
LINE
  5
764
  8
TEAM-HIDE
 10
193.0
 20
-20.0
 30
0.0
 11
193.0
 21
-12.0
 31
0.0
  0
LINE
  5
765
  8
TEAM-AXE
 10
187.5
 20
-23.160154
 30
0.0
 11
187.5
 21
-8.705836
 31
0.0
  0
LINE
  5
766
  8
TEAM-HIDE
 10
182.0
 20
-20.0
 30
0.0
 11
182.0
 21
-12.0
 31
0.0
  0
LINE
  5
767
  8
TEAM-DET3
 10
206.0
 20
272.489
 30
0.0
 11
206.0
 21
294.489
 31
0.0
  0
LINE
  5
768
  8
TEAM-DET3
 10
210.0
 20
272.489
 30
0.0
 11
210.0
 21
294.489
 31
0.0
  0
LINE
  5
769
  8
TEAM-DET3
 10
198.5
 20
275.989
 30
0.0
 11
198.5
 21
290.989
 31
0.0
  0
LINE
  5
76A
  8
TEAM-DET3
 10
204.0
 20
273.489
 30
0.0
 11
204.0
 21
293.489
 31
0.0
  0
LINE
  5
76B
  8
TEAM-DET3
 10
176.5
 20
-20.0
 30
0.0
 11
176.5
 21
-12.0
 31
0.0
  0
LINE
  5
76C
  8
TEAM-HIDE
 10
212.5
 20
272.489
 30
0.0
 11
212.5
 21
636.995203
 31
0.0
  0
LINE
  5
76D
  8
TEAM-DET2
 10
210.0
 20
272.489
 30
0.0
 11
250.0
 21
272.489
 31
0.0
  0
LINE
  5
76E
  8
TEAM-DET3
 10
176.5
 20
-20.0
 30
0.0
 11
249.5
 21
-20.0
 31
0.0
  0
LINE
  5
76F
  8
TEAM-DET3
 10
176.5
 20
-12.0
 30
0.0
 11
249.5
 21
-12.0
 31
0.0
  0
LINE
  5
770
  8
TEAM-HIDE
 10
212.5
 20
636.995203
 30
0.0
 11
247.5
 21
636.995203
 31
0.0
  0
LINE
  5
771
  8
TEAM-HIDE
 10
-247.5
 20
636.995203
 30
0.0
 11
-212.5
 21
636.995203
 31
0.0
  0
LINE
  5
772
  8
TEAM-DET3
 10
-176.5
 20
-20.0
 30
0.0
 11
-176.5
 21
-12.0
 31
0.0
  0
LINE
  5
773
  8
TEAM-HIDE
 10
-182.0
 20
-20.0
 30
0.0
 11
-182.0
 21
-12.0
 31
0.0
  0
LINE
  5
774
  8
TEAM-AXE
 10
-187.5
 20
-23.160154
 30
0.0
 11
-187.5
 21
-8.705836
 31
0.0
  0
LINE
  5
775
  8
TEAM-HIDE
 10
-193.0
 20
-20.0
 30
0.0
 11
-193.0
 21
-12.0
 31
0.0
  0
LINE
  5
776
  8
TEAM-DET3
 10
-198.5
 20
275.989
 30
0.0
 11
-198.5
 21
290.989
 31
0.0
  0
LINE
  5
777
  8
TEAM-DET3
 10
-206.0
 20
293.489
 30
0.0
 11
-204.0
 21
293.489
 31
0.0
  0
LINE
  5
778
  8
TEAM-DET3
 10
-210.0
 20
294.489
 30
0.0
 11
-206.0
 21
294.489
 31
0.0
  0
LINE
  5
779
  8
TEAM-DET3
 10
-206.0
 20
273.489
 30
0.0
 11
-204.0
 21
273.489
 31
0.0
  0
LINE
  5
77A
  8
TEAM-DET3
 10
-210.0
 20
272.489
 30
0.0
 11
-206.0
 21
272.489
 31
0.0
  0
LINE
  5
77B
  8
TEAM-DET3
 10
-212.5
 20
-12.0
 30
0.0
 11
-212.5
 21
272.489
 31
0.0
  0
LINE
  5
77C
  8
TEAM-DET3
 10
-206.0
 20
272.489
 30
0.0
 11
-206.0
 21
294.489
 31
0.0
  0
LINE
  5
77D
  8
TEAM-DET3
 10
-204.0
 20
273.489
 30
0.0
 11
-204.0
 21
293.489
 31
0.0
  0
LINE
  5
77E
  8
TEAM-DET3
 10
-249.5
 20
-12.0
 30
0.0
 11
-176.5
 21
-12.0
 31
0.0
  0
LINE
  5
77F
  8
TEAM-DET3
 10
-204.0
 20
275.989
 30
0.0
 11
-198.5
 21
275.989
 31
0.0
  0
LINE
  5
780
  8
TEAM-DET3
 10
-204.0
 20
279.739
 30
0.0
 11
-198.5
 21
279.739
 31
0.0
  0
LINE
  5
781
  8
TEAM-DET3
 10
-204.0
 20
287.239
 30
0.0
 11
-198.5
 21
287.239
 31
0.0
  0
LINE
  5
782
  8
TEAM-DET3
 10
-204.0
 20
290.989
 30
0.0
 11
-198.5
 21
290.989
 31
0.0
  0
LINE
  5
783
  8
TEAM-DET3
 10
-249.5
 20
-20.0
 30
0.0
 11
-249.5
 21
-12.0
 31
0.0
  0
LINE
  5
784
  8
TEAM-DET3
 10
-247.5
 20
-12.0
 30
0.0
 11
-247.5
 21
272.489
 31
0.0
  0
LINE
  5
785
  8
TEAM-DET2
 10
-250.0
 20
272.489
 30
0.0
 11
-210.0
 21
272.489
 31
0.0
  0
LINE
  5
786
  8
TEAM-DET3
 10
-249.5
 20
-20.0
 30
0.0
 11
-176.5
 21
-20.0
 31
0.0
  0
LINE
  5
787
  8
TEAM-HIDE
 10
-247.5
 20
272.489
 30
0.0
 11
-247.5
 21
636.995203
 31
0.0
  0
LINE
  5
788
  8
TEAM-HIDE
 10
-212.5
 20
272.489
 30
0.0
 11
-212.5
 21
636.995203
 31
0.0
  0
TEXT
  5
789
  8
TEAM-TXT
 10
-134.163739
 20
1113.308098
 30
0.0
 40
30.0
  1
team 871108
 41
0.8
 51
15.0
  7
TEAM
  0
CIRCLE
  5
78C
  8
TEAM-INSP
 10
0.0
 20
0.0
 30
0.0
 40
10.0
  0
ARC
  5
78E
  8
TEAM-DET3
 10
149.992384
 20
1355.001057
 30
0.0
 40
5.253094
 50
0.0
 51
180.0
  0
ARC
  5
78F
  8
TEAM-DET3
 10
149.992384
 20
1345.003693
 30
0.0
 40
5.253094
 50
180.0
 51
0.0
  0
ARC
  5
790
  8
TEAM-DET3
 10
-154.999897
 20
1350.001514
 30
0.0
 40
5.253094
 50
90.0
 51
270.0
  0
ARC
  5
791
  8
TEAM-DET3
 10
-145.002878
 20
1350.001514
 30
0.0
 40
5.253094
 50
270.0
 51
90.0
  0
DIMENSION
  5
792
  8
TEAM-MAS
  2
*D9
 10
250.0
 20
1470.354781
 30
0.0
 11
0.0
 21
1470.354781
 31
0.0
 12
-12000.0
 22
-112000.0
 32
0.0
 13
-250.0
 23
1440.002174
 33
0.0
 14
250.0
 24
1440.002174
 34
0.0
1001
ACAD
1000
DSTYLE
1002
{
1070
    40
1040
1.0
1002
}
  0
LINE
  5
7A0
  8
TEAM-DET2
 10
-209.526308
 20
1370.031761
 30
0.0
 11
209.473692
 21
1370.009109
 31
0.0
  0
POLYLINE
  5
7A1
  8
TEAM-AXE
 66
     1
 10
0.0
 20
0.0
 30
0.0
  0
VERTEX
  5
EF1
  8
TEAM-AXE
 10
-153.997749
 20
1350.00582
 30
0.0
  0
VERTEX
  5
EF2
  8
TEAM-AXE
 10
-156.000667
 20
1350.00582
 30
0.0
  0
SEQEND
  5
EF3
  8
TEAM-AXE
  0
POLYLINE
  5
7A5
  8
TEAM-AXE
 66
     1
 10
0.0
 20
0.0
 30
0.0
  0
VERTEX
  5
EF4
  8
TEAM-AXE
 10
-157.998761
 20
1350.00582
 30
0.0
  0
VERTEX
  5
EF5
  8
TEAM-AXE
 10
-161.822357
 20
1350.00582
 30
0.0
  0
SEQEND
  5
EF6
  8
TEAM-AXE
  0
POLYLINE
  5
7A9
  8
TEAM-AXE
 66
     1
 10
0.0
 20
0.0
 30
0.0
  0
VERTEX
  5
EF7
  8
TEAM-AXE
 10
-152.001032
 20
1350.00582
 30
0.0
  0
VERTEX
  5
EF8
  8
TEAM-AXE
 10
-148.177781
 20
1350.00582
 30
0.0
  0
SEQEND
  5
EF9
  8
TEAM-AXE
  0
POLYLINE
  5
7AD
  8
TEAM-AXE
 66
     1
 10
0.0
 20
0.0
 30
0.0
  0
VERTEX
  5
EFA
  8
TEAM-AXE
 10
-154.999897
 20
1350.9997
 30
0.0
  0
VERTEX
  5
EFB
  8
TEAM-AXE
 10
-154.999897
 20
1349.003328
 30
0.0
  0
SEQEND
  5
EFC
  8
TEAM-AXE
  0
POLYLINE
  5
7B1
  8
TEAM-AXE
 66
     1
 10
0.0
 20
0.0
 30
0.0
  0
VERTEX
  5
EFD
  8
TEAM-AXE
 10
-154.999897
 20
1347.000065
 30
0.0
  0
VERTEX
  5
EFE
  8
TEAM-AXE
 10
-154.999897
 20
1343.17647
 30
0.0
  0
SEQEND
  5
EFF
  8
TEAM-AXE
  0
POLYLINE
  5
7B5
  8
TEAM-AXE
 66
     1
 10
0.0
 20
0.0
 30
0.0
  0
VERTEX
  5
F00
  8
TEAM-AXE
 10
-154.999897
 20
1353.00434
 30
0.0
  0
VERTEX
  5
F01
  8
TEAM-AXE
 10
-154.999897
 20
1356.827935
 30
0.0
  0
SEQEND
  5
F02
  8
TEAM-AXE
  0
POLYLINE
  5
7B9
  8
TEAM-AXE
 66
     1
 10
0.0
 20
0.0
 30
0.0
  0
VERTEX
  5
F03
  8
TEAM-AXE
 10
-144.000385
 20
1350.00582
 30
0.0
  0
VERTEX
  5
F04
  8
TEAM-AXE
 10
-145.996758
 20
1350.00582
 30
0.0
  0
SEQEND
  5
F05
  8
TEAM-AXE
  0
POLYLINE
  5
7BD
  8
TEAM-AXE
 66
     1
 10
0.0
 20
0.0
 30
0.0
  0
VERTEX
  5
F06
  8
TEAM-AXE
 10
-148.00002
 20
1350.00582
 30
0.0
  0
VERTEX
  5
F07
  8
TEAM-AXE
 10
-151.824993
 20
1350.00582
 30
0.0
  0
SEQEND
  5
F08
  8
TEAM-AXE
  0
POLYLINE
  5
7C1
  8
TEAM-AXE
 66
     1
 10
0.0
 20
0.0
 30
0.0
  0
VERTEX
  5
F09
  8
TEAM-AXE
 10
-141.997468
 20
1350.00582
 30
0.0
  0
VERTEX
  5
F0A
  8
TEAM-AXE
 10
-138.17215
 20
1350.00582
 30
0.0
  0
SEQEND
  5
F0B
  8
TEAM-AXE
  0
POLYLINE
  5
7C5
  8
TEAM-AXE
 66
     1
 10
0.0
 20
0.0
 30
0.0
  0
VERTEX
  5
F0C
  8
TEAM-AXE
 10
-145.002878
 20
1350.9997
 30
0.0
  0
VERTEX
  5
F0D
  8
TEAM-AXE
 10
-145.002878
 20
1349.003328
 30
0.0
  0
SEQEND
  5
F0E
  8
TEAM-AXE
  0
POLYLINE
  5
7C9
  8
TEAM-AXE
 66
     1
 10
0.0
 20
0.0
 30
0.0
  0
VERTEX
  5
F0F
  8
TEAM-AXE
 10
-145.002878
 20
1347.000065
 30
0.0
  0
VERTEX
  5
F10
  8
TEAM-AXE
 10
-145.002878
 20
1343.17647
 30
0.0
  0
SEQEND
  5
F11
  8
TEAM-AXE
  0
POLYLINE
  5
7CD
  8
TEAM-AXE
 66
     1
 10
0.0
 20
0.0
 30
0.0
  0
VERTEX
  5
F12
  8
TEAM-AXE
 10
-145.002878
 20
1353.00434
 30
0.0
  0
VERTEX
  5
F13
  8
TEAM-AXE
 10
-145.002878
 20
1356.827935
 30
0.0
  0
SEQEND
  5
F14
  8
TEAM-AXE
  0
POLYLINE
  5
7D1
  8
TEAM-AXE
 66
     1
 10
0.0
 20
0.0
 30
0.0
  0
VERTEX
  5
F15
  8
TEAM-AXE
 10
150.991431
 20
1355.001057
 30
0.0
  0
VERTEX
  5
F16
  8
TEAM-AXE
 10
148.993337
 20
1355.001057
 30
0.0
  0
SEQEND
  5
F17
  8
TEAM-AXE
  0
POLYLINE
  5
7D5
  8
TEAM-AXE
 66
     1
 10
0.0
 20
0.0
 30
0.0
  0
VERTEX
  5
F18
  8
TEAM-AXE
 10
146.990074
 20
1355.001057
 30
0.0
  0
VERTEX
  5
F19
  8
TEAM-AXE
 10
143.166479
 20
1355.001057
 30
0.0
  0
SEQEND
  5
F1A
  8
TEAM-AXE
  0
POLYLINE
  5
7D9
  8
TEAM-AXE
 66
     1
 10
0.0
 20
0.0
 30
0.0
  0
VERTEX
  5
F1B
  8
TEAM-AXE
 10
152.994349
 20
1355.001057
 30
0.0
  0
VERTEX
  5
F1C
  8
TEAM-AXE
 10
156.817945
 20
1355.001057
 30
0.0
  0
SEQEND
  5
F1D
  8
TEAM-AXE
  0
POLYLINE
  5
7DD
  8
TEAM-AXE
 66
     1
 10
0.0
 20
0.0
 30
0.0
  0
VERTEX
  5
F1E
  8
TEAM-AXE
 10
149.988939
 20
1356.003205
 30
0.0
  0
VERTEX
  5
F1F
  8
TEAM-AXE
 10
149.988939
 20
1353.998564
 30
0.0
  0
SEQEND
  5
F20
  8
TEAM-AXE
  0
POLYLINE
  5
7E1
  8
TEAM-AXE
 66
     1
 10
0.0
 20
0.0
 30
0.0
  0
VERTEX
  5
F21
  8
TEAM-AXE
 10
149.988939
 20
1352.001848
 30
0.0
  0
VERTEX
  5
F22
  8
TEAM-AXE
 10
149.988939
 20
1348.178597
 30
0.0
  0
SEQEND
  5
F23
  8
TEAM-AXE
  0
POLYLINE
  5
7E5
  8
TEAM-AXE
 66
     1
 10
0.0
 20
0.0
 30
0.0
  0
VERTEX
  5
F24
  8
TEAM-AXE
 10
149.988939
 20
1357.999577
 30
0.0
  0
VERTEX
  5
F25
  8
TEAM-AXE
 10
149.988939
 20
1361.829718
 30
0.0
  0
SEQEND
  5
F26
  8
TEAM-AXE
  0
POLYLINE
  5
7E9
  8
TEAM-AXE
 66
     1
 10
0.0
 20
0.0
 30
0.0
  0
VERTEX
  5
F27
  8
TEAM-AXE
 10
150.991431
 20
1345.003693
 30
0.0
  0
VERTEX
  5
F28
  8
TEAM-AXE
 10
148.993337
 20
1345.003693
 30
0.0
  0
SEQEND
  5
F29
  8
TEAM-AXE
  0
POLYLINE
  5
7ED
  8
TEAM-AXE
 66
     1
 10
0.0
 20
0.0
 30
0.0
  0
VERTEX
  5
F2A
  8
TEAM-AXE
 10
146.990074
 20
1345.003693
 30
0.0
  0
VERTEX
  5
F2B
  8
TEAM-AXE
 10
143.166479
 20
1345.003693
 30
0.0
  0
SEQEND
  5
F2C
  8
TEAM-AXE
  0
POLYLINE
  5
7F1
  8
TEAM-AXE
 66
     1
 10
0.0
 20
0.0
 30
0.0
  0
VERTEX
  5
F2D
  8
TEAM-AXE
 10
152.994349
 20
1345.003693
 30
0.0
  0
VERTEX
  5
F2E
  8
TEAM-AXE
 10
156.817945
 20
1345.003693
 30
0.0
  0
SEQEND
  5
F2F
  8
TEAM-AXE
  0
POLYLINE
  5
7F5
  8
TEAM-AXE
 66
     1
 10
0.0
 20
0.0
 30
0.0
  0
VERTEX
  5
F30
  8
TEAM-AXE
 10
149.988939
 20
1346.004463
 30
0.0
  0
VERTEX
  5
F31
  8
TEAM-AXE
 10
149.988939
 20
1344.001201
 30
0.0
  0
SEQEND
  5
F32
  8
TEAM-AXE
  0
POLYLINE
  5
7F9
  8
TEAM-AXE
 66
     1
 10
0.0
 20
0.0
 30
0.0
  0
VERTEX
  5
F33
  8
TEAM-AXE
 10
149.988939
 20
1342.004829
 30
0.0
  0
VERTEX
  5
F34
  8
TEAM-AXE
 10
149.988939
 20
1338.181233
 30
0.0
  0
SEQEND
  5
F35
  8
TEAM-AXE
  0
POLYLINE
  5
7FD
  8
TEAM-AXE
 66
     1
 10
0.0
 20
0.0
 30
0.0
  0
VERTEX
  5
F36
  8
TEAM-AXE
 10
149.988939
 20
1348.002558
 30
0.0
  0
VERTEX
  5
F37
  8
TEAM-AXE
 10
149.988939
 20
1351.826153
 30
0.0
  0
SEQEND
  5
F38
  8
TEAM-AXE
  0
POLYLINE
  5
801
  8
TEAM-AXE
 66
     1
 10
0.0
 20
0.0
 30
0.0
  0
VERTEX
  5
F39
  8
TEAM-AXE
 10
230.990322
 20
1419.967999
 30
0.0
  0
VERTEX
  5
F3A
  8
TEAM-AXE
 10
228.987404
 20
1419.967999
 30
0.0
  0
SEQEND
  5
F3B
  8
TEAM-AXE
  0
POLYLINE
  5
805
  8
TEAM-AXE
 66
     1
 10
0.0
 20
0.0
 30
0.0
  0
VERTEX
  5
F3C
  8
TEAM-AXE
 10
226.990687
 20
1419.967999
 30
0.0
  0
VERTEX
  5
F3D
  8
TEAM-AXE
 10
214.389599
 20
1419.967999
 30
0.0
  0
SEQEND
  5
F3E
  8
TEAM-AXE
  0
POLYLINE
  5
809
  8
TEAM-AXE
 66
     1
 10
0.0
 20
0.0
 30
0.0
  0
VERTEX
  5
F3F
  8
TEAM-AXE
 10
232.988416
 20
1419.967999
 30
0.0
  0
VERTEX
  5
F40
  8
TEAM-AXE
 10
245.588126
 20
1419.967999
 30
0.0
  0
SEQEND
  5
F41
  8
TEAM-AXE
  0
POLYLINE
  5
80D
  8
TEAM-AXE
 66
     1
 10
0.0
 20
0.0
 30
0.0
  0
VERTEX
  5
F42
  8
TEAM-AXE
 10
229.989896
 20
1420.970492
 30
0.0
  0
VERTEX
  5
F43
  8
TEAM-AXE
 10
229.989896
 20
1418.973775
 30
0.0
  0
SEQEND
  5
F44
  8
TEAM-AXE
  0
POLYLINE
  5
811
  8
TEAM-AXE
 66
     1
 10
0.0
 20
0.0
 30
0.0
  0
VERTEX
  5
F45
  8
TEAM-AXE
 10
229.989896
 20
1416.970857
 30
0.0
  0
VERTEX
  5
F46
  8
TEAM-AXE
 10
229.989896
 20
1404.36908
 30
0.0
  0
SEQEND
  5
F47
  8
TEAM-AXE
  0
POLYLINE
  5
815
  8
TEAM-AXE
 66
     1
 10
0.0
 20
0.0
 30
0.0
  0
VERTEX
  5
F48
  8
TEAM-AXE
 10
229.989896
 20
1422.973409
 30
0.0
  0
VERTEX
  5
F49
  8
TEAM-AXE
 10
229.989896
 20
1435.574842
 30
0.0
  0
SEQEND
  5
F4A
  8
TEAM-AXE
  0
POLYLINE
  5
819
  8
TEAM-AXE
 66
     1
 10
0.0
 20
0.0
 30
0.0
  0
VERTEX
  5
F4B
  8
TEAM-AXE
 10
-228.99589
 20
1419.967999
 30
0.0
  0
VERTEX
  5
F4C
  8
TEAM-AXE
 10
-231.000186
 20
1419.967999
 30
0.0
  0
SEQEND
  5
F4D
  8
TEAM-AXE
  0
POLYLINE
  5
81D
  8
TEAM-AXE
 66
     1
 10
0.0
 20
0.0
 30
0.0
  0
VERTEX
  5
F4E
  8
TEAM-AXE
 10
-232.996214
 20
1419.967999
 30
0.0
  0
VERTEX
  5
F4F
  8
TEAM-AXE
 10
-245.597302
 20
1419.967999
 30
0.0
  0
SEQEND
  5
F50
  8
TEAM-AXE
  0
POLYLINE
  5
821
  8
TEAM-AXE
 66
     1
 10
0.0
 20
0.0
 30
0.0
  0
VERTEX
  5
F51
  8
TEAM-AXE
 10
-226.999863
 20
1419.967999
 30
0.0
  0
VERTEX
  5
F52
  8
TEAM-AXE
 10
-214.398775
 20
1419.967999
 30
0.0
  0
SEQEND
  5
F53
  8
TEAM-AXE
  0
POLYLINE
  5
825
  8
TEAM-AXE
 66
     1
 10
0.0
 20
0.0
 30
0.0
  0
VERTEX
  5
F54
  8
TEAM-AXE
 10
-229.998038
 20
1420.970492
 30
0.0
  0
VERTEX
  5
F55
  8
TEAM-AXE
 10
-229.998038
 20
1418.973775
 30
0.0
  0
SEQEND
  5
F56
  8
TEAM-AXE
  0
POLYLINE
  5
829
  8
TEAM-AXE
 66
     1
 10
0.0
 20
0.0
 30
0.0
  0
VERTEX
  5
F57
  8
TEAM-AXE
 10
-229.998038
 20
1416.970857
 30
0.0
  0
VERTEX
  5
F58
  8
TEAM-AXE
 10
-229.998038
 20
1404.36908
 30
0.0
  0
SEQEND
  5
F59
  8
TEAM-AXE
  0
POLYLINE
  5
82D
  8
TEAM-AXE
 66
     1
 10
0.0
 20
0.0
 30
0.0
  0
VERTEX
  5
F5A
  8
TEAM-AXE
 10
-229.998038
 20
1422.973409
 30
0.0
  0
VERTEX
  5
F5B
  8
TEAM-AXE
 10
-229.998038
 20
1435.574842
 30
0.0
  0
SEQEND
  5
F5C
  8
TEAM-AXE
  0
POLYLINE
  5
831
  8
TEAM-DET3
 66
     1
 10
0.0
 20
0.0
 30
0.0
  0
VERTEX
  5
F5D
  8
TEAM-DET3
 10
155.238072
 20
1345.003693
 30
0.0
  0
VERTEX
  5
F5E
  8
TEAM-DET3
 10
155.238072
 20
1355.001057
 30
0.0
  0
SEQEND
  5
F5F
  8
TEAM-DET3
  0
POLYLINE
  5
835
  8
TEAM-DET3
 66
     1
 10
0.0
 20
0.0
 30
0.0
  0
VERTEX
  5
F60
  8
TEAM-DET3
 10
144.739806
 20
1355.001057
 30
0.0
  0
VERTEX
  5
F61
  8
TEAM-DET3
 10
144.739806
 20
1345.003693
 30
0.0
  0
SEQEND
  5
F62
  8
TEAM-DET3
  0
POLYLINE
  5
839
  8
TEAM-DET3
 66
     1
 10
0.0
 20
0.0
 30
0.0
  0
VERTEX
  5
F63
  8
TEAM-DET3
 10
-145.002878
 20
1355.254608
 30
0.0
  0
VERTEX
  5
F64
  8
TEAM-DET3
 10
-154.999897
 20
1355.254608
 30
0.0
  0
SEQEND
  5
F65
  8
TEAM-DET3
  0
POLYLINE
  5
83D
  8
TEAM-DET3
 66
     1
 10
0.0
 20
0.0
 30
0.0
  0
VERTEX
  5
F66
  8
TEAM-DET3
 10
-154.999897
 20
1344.748075
 30
0.0
  0
VERTEX
  5
F67
  8
TEAM-DET3
 10
-145.002878
 20
1344.748075
 30
0.0
  0
SEQEND
  5
F68
  8
TEAM-DET3
  0
LINE
  5
841
  8
TEAM-AXE
 10
39.973692
 20
1277.005075
 30
0.0
 11
-40.026308
 21
1277.005075
 31
0.0
  0
ARC
  5
842
  8
TEAM-DET2
 10
188.473692
 20
1365.005075
 30
0.0
 40
5.0
 50
90.000008
 51
179.99999
  0
LINE
  5
843
  8
TEAM-DET3
 10
-200.026308
 20
1280.031382
 30
0.0
 11
-185.026308
 21
1280.031382
 31
0.0
  0
LINE
  5
844
  8
TEAM-DET3
 10
-60.276308
 20
1350.92118
 30
0.0
 11
-60.276308
 21
1351.505075
 31
0.0
  0
LINE
  5
845
  8
TEAM-DET3
 10
-38.276308
 20
1350.92118
 30
0.0
 11
-38.276308
 21
1351.505075
 31
0.0
  0
LINE
  5
846
  8
TEAM-DET3
 10
-55.34955
 20
1351.505075
 30
0.0
 11
-60.276308
 21
1351.505075
 31
0.0
  0
LINE
  5
847
  8
TEAM-DET3
 10
-38.276308
 20
1351.505075
 30
0.0
 11
-55.34955
 21
1351.505075
 31
0.0
  0
ARC
  5
848
  8
TEAM-DET3
 10
-57.626314
 20
1352.005075
 30
0.0
 40
0.5
 50
90.000003
 51
180.000005
  0
ARC
  5
849
  8
TEAM-DET3
 10
-40.926332
 20
1352.005075
 30
0.0
 40
0.5
 50
0.0
 51
90.000003
  0
LINE
  5
84A
  8
TEAM-DET3
 10
-58.126314
 20
1352.005075
 30
0.0
 11
-58.126314
 21
1351.505075
 31
0.0
  0
LINE
  5
84B
  8
TEAM-DET3
 10
-40.426332
 20
1352.005075
 30
0.0
 11
-40.426332
 21
1351.505075
 31
0.0
  0
LINE
  5
84C
  8
TEAM-DET3
 10
-57.626314
 20
1352.505075
 30
0.0
 11
-49.276308
 21
1352.505075
 31
0.0
  0
LINE
  5
84D
  8
TEAM-DET3
 10
-49.276308
 20
1352.505075
 30
0.0
 11
-40.926332
 21
1352.505075
 31
0.0
  0
ARC
  5
84E
  8
TEAM-DET3
 10
-173.526308
 20
1261.005075
 30
0.0
 40
1.0
 50
0.0
 51
90.000003
  0
LINE
  5
84F
  8
TEAM-DET3
 10
-183.526308
 20
1262.005075
 30
0.0
 11
-173.526308
 21
1262.005075
 31
0.0
  0
LINE
  5
850
  8
TEAM-DET3
 10
-183.526308
 20
1281.005075
 30
0.0
 11
-166.026308
 21
1281.005075
 31
0.0
  0
LINE
  5
851
  8
TEAM-DET3
 10
-166.026308
 20
1279.005075
 30
0.0
 11
-183.526308
 21
1279.005075
 31
0.0
  0
LINE
  5
852
  8
TEAM-DET3
 10
-166.026308
 20
1281.005075
 30
0.0
 11
-166.026308
 21
1279.005075
 31
0.0
  0
LINE
  5
853
  8
TEAM-DET3
 10
-76.776308
 20
1306.505075
 30
0.0
 11
-183.526308
 21
1306.505075
 31
0.0
  0
LINE
  5
854
  8
TEAM-DET3
 10
76.455748
 20
1288.505075
 30
0.0
 11
76.455748
 21
1303.505075
 31
0.0
  0
LINE
  5
855
  8
TEAM-DET3
 10
76.723692
 20
1288.505075
 30
0.0
 11
72.973692
 21
1288.505075
 31
0.0
  0
LINE
  5
856
  8
TEAM-DET3
 10
72.973692
 20
1303.505075
 30
0.0
 11
76.723692
 21
1303.505075
 31
0.0
  0
LINE
  5
857
  8
TEAM-DET3
 10
76.723692
 20
1303.505075
 30
0.0
 11
76.723692
 21
1306.505075
 31
0.0
  0
LINE
  5
858
  8
TEAM-DET3
 10
39.723692
 20
1367.005075
 30
0.0
 11
39.723692
 21
1352.505075
 31
0.0
  0
LINE
  5
859
  8
TEAM-DET3
 10
24.723692
 20
1367.005075
 30
0.0
 11
24.723692
 21
1350.92118
 31
0.0
  0
LINE
  5
85A
  8
TEAM-DET3
 10
-25.276308
 20
1367.005075
 30
0.0
 11
-25.276308
 21
1350.92118
 31
0.0
  0
LINE
  5
85B
  8
TEAM-DET3
 10
-40.276308
 20
1367.005075
 30
0.0
 11
-40.276308
 21
1351.505075
 31
0.0
  0
LINE
  5
85C
  8
TEAM-DET3
 10
24.723692
 20
1367.005075
 30
0.0
 11
24.723692
 21
1370.009075
 31
0.0
  0
LINE
  5
85D
  8
TEAM-DET3
 10
39.723692
 20
1367.005075
 30
0.0
 11
24.723692
 21
1367.005075
 31
0.0
  0
LINE
  5
85E
  8
TEAM-DET3
 10
39.723692
 20
1367.005075
 30
0.0
 11
39.723692
 21
1370.009075
 31
0.0
  0
LINE
  5
85F
  8
TEAM-DET3
 10
39.723692
 20
1370.009075
 30
0.0
 11
24.723692
 21
1370.009075
 31
0.0
  0
LINE
  5
860
  8
TEAM-DET3
 10
72.973692
 20
1330.005075
 30
0.0
 11
182.973632
 21
1330.005075
 31
0.0
  0
LINE
  5
861
  8
TEAM-DET3
 10
-183.526308
 20
1330.005075
 30
0.0
 11
-73.026308
 21
1330.005075
 31
0.0
  0
LINE
  5
862
  8
TEAM-DET3
 10
-25.276308
 20
1367.005075
 30
0.0
 11
-25.276308
 21
1370.009075
 31
0.0
  0
LINE
  5
863
  8
TEAM-DET3
 10
-40.276308
 20
1367.005075
 30
0.0
 11
-25.276308
 21
1367.005075
 31
0.0
  0
LINE
  5
864
  8
TEAM-DET3
 10
-40.276308
 20
1367.005075
 30
0.0
 11
-40.276308
 21
1370.009075
 31
0.0
  0
LINE
  5
865
  8
TEAM-DET3
 10
-40.276308
 20
1370.009075
 30
0.0
 11
-25.276308
 21
1370.009075
 31
0.0
  0
ARC
  5
866
  8
TEAM-DET2
 10
-188.529724
 20
1365.00566
 30
0.0
 40
5.003416
 50
359.993304
 51
89.960879
  0
LINE
  5
867
  8
TEAM-DET3
 10
45.473692
 20
1352.505075
 30
0.0
 11
36.373686
 21
1352.505075
 31
0.0
  0
LINE
  5
868
  8
TEAM-DET3
 10
53.073668
 20
1352.505075
 30
0.0
 11
45.473692
 21
1352.505075
 31
0.0
  0
LINE
  5
869
  8
TEAM-DET3
 10
35.873686
 20
1352.005075
 30
0.0
 11
35.873686
 21
1351.505075
 31
0.0
  0
LINE
  5
86A
  8
TEAM-DET3
 10
53.573668
 20
1352.005075
 30
0.0
 11
53.573668
 21
1351.505075
 31
0.0
  0
ARC
  5
86B
  8
TEAM-DET3
 10
36.373686
 20
1352.005075
 30
0.0
 40
0.5
 50
89.999997
 51
180.0
  0
ARC
  5
86C
  8
TEAM-DET3
 10
53.073668
 20
1352.005075
 30
0.0
 40
0.5
 50
359.999995
 51
89.999997
  0
LINE
  5
86D
  8
TEAM-DET3
 10
34.473692
 20
1351.505075
 30
0.0
 11
50.046934
 21
1351.505075
 31
0.0
  0
LINE
  5
86E
  8
TEAM-DET3
 10
50.046934
 20
1351.505075
 30
0.0
 11
54.973692
 21
1351.505075
 31
0.0
  0
LINE
  5
86F
  8
TEAM-DET3
 10
34.473692
 20
1350.92118
 30
0.0
 11
34.473692
 21
1351.505075
 31
0.0
  0
LINE
  5
870
  8
TEAM-DET3
 10
54.973692
 20
1350.92118
 30
0.0
 11
54.973692
 21
1351.505075
 31
0.0
  0
LINE
  5
871
  8
TEAM-DET3
 10
-73.026308
 20
1303.505075
 30
0.0
 11
-76.776308
 21
1303.505075
 31
0.0
  0
LINE
  5
872
  8
TEAM-DET3
 10
-76.508364
 20
1288.505075
 30
0.0
 11
-73.026308
 21
1288.505075
 31
0.0
  0
LINE
  5
873
  8
TEAM-DET3
 10
-76.508364
 20
1288.505075
 30
0.0
 11
-76.508364
 21
1302.505045
 31
0.0
  0
LINE
  5
874
  8
TEAM-DET3
 10
-76.776308
 20
1303.505075
 30
0.0
 11
-76.776308
 21
1306.505075
 31
0.0
  0
ARC
  5
875
  8
TEAM-DET3
 10
213.673704
 20
1324.288645
 30
0.0
 40
0.6
 50
359.999999
 51
90.000003
  0
LINE
  5
876
  8
TEAM-DET3
 10
211.573668
 20
1324.888621
 30
0.0
 11
213.673704
 21
1324.888621
 31
0.0
  0
LINE
  5
877
  8
TEAM-DET3
 10
210.973692
 20
1323.605051
 30
0.0
 11
209.473692
 21
1323.605051
 31
0.0
  0
ARC
  5
878
  8
TEAM-DET3
 10
211.573668
 20
1324.288645
 30
0.0
 40
0.6
 50
90.000003
 51
180.000005
  0
LINE
  5
879
  8
TEAM-DET3
 10
206.473692
 20
1276.506051
 30
0.0
 11
203.473692
 21
1276.506051
 31
0.0
  0
LINE
  5
87A
  8
TEAM-DET3
 10
208.473692
 20
1331.755075
 30
0.0
 11
205.473692
 21
1331.755075
 31
0.0
  0
ARC
  5
87B
  8
TEAM-DET3
 10
213.673766
 20
1310.504953
 30
0.0
 40
0.599894
 50
269.990722
 51
0.013898
  0
POLYLINE
  5
87C
  8
TEAM-DET3
 66
     1
 10
0.0
 20
0.0
 30
0.0
 70
   128
  0
VERTEX
  5
F69
  8
TEAM-DET3
 10
213.673704
 20
1310.716575
 30
0.0
  0
VERTEX
  5
F6A
  8
TEAM-DET3
 10
213.777894
 20
1310.725483
 30
0.0
  0
VERTEX
  5
F6B
  8
TEAM-DET3
 10
213.878918
 20
1310.751936
 30
0.0
  0
VERTEX
  5
F6C
  8
TEAM-DET3
 10
213.973707
 20
1310.795131
 30
0.0
  0
VERTEX
  5
F6D
  8
TEAM-DET3
 10
214.059381
 20
1310.853755
 30
0.0
  0
VERTEX
  5
F6E
  8
TEAM-DET3
 10
214.133335
 20
1310.926027
 30
0.0
  0
VERTEX
  5
F6F
  8
TEAM-DET3
 10
214.193325
 20
1311.009751
 30
0.0
  0
VERTEX
  5
F70
  8
TEAM-DET3
 10
214.237525
 20
1311.102383
 30
0.0
  0
VERTEX
  5
F71
  8
TEAM-DET3
 10
214.264595
 20
1311.201108
 30
0.0
  0
VERTEX
  5
F72
  8
TEAM-DET3
 10
214.27371
 20
1311.302927
 30
0.0
  0
SEQEND
  5
F73
  8
TEAM-DET3
  0
LINE
  5
87D
  8
TEAM-DET3
 10
213.673704
 20
1309.905099
 30
0.0
 11
209.473692
 21
1309.905099
 31
0.0
  0
LINE
  5
87E
  8
TEAM-DET3
 10
213.673704
 20
1310.716623
 30
0.0
 11
211.573668
 21
1310.716623
 31
0.0
  0
LINE
  5
87F
  8
TEAM-DET3
 10
214.27368
 20
1310.647287
 30
0.0
 11
214.27368
 21
1310.505075
 31
0.0
  0
LINE
  5
880
  8
TEAM-DET3
 10
214.27368
 20
1311.082591
 30
0.0
 11
214.27368
 21
1310.647287
 31
0.0
  0
LINE
  5
881
  8
TEAM-DET3
 10
214.27368
 20
1311.082591
 30
0.0
 11
214.27368
 21
1311.302927
 31
0.0
  0
LINE
  5
882
  8
TEAM-DET3
 10
214.27368
 20
1316.091135
 30
0.0
 11
214.27368
 21
1311.302927
 31
0.0
  0
LINE
  5
883
  8
TEAM-DET3
 10
214.27368
 20
1316.091135
 30
0.0
 11
214.27368
 21
1322.888499
 31
0.0
  0
LINE
  5
884
  8
TEAM-DET3
 10
214.27368
 20
1324.288645
 30
0.0
 11
214.27368
 21
1322.888499
 31
0.0
  0
LINE
  5
885
  8
TEAM-DET3
 10
211.490172
 20
1309.905099
 30
0.0
 11
211.573668
 21
1309.905099
 31
0.0
  0
LINE
  5
886
  8
TEAM-DET3
 10
210.973669
 20
1311.560312
 30
0.0
 11
211.063495
 21
1310.994354
 31
0.0
  0
POLYLINE
  5
887
  8
TEAM-DET3
 66
     1
 10
0.0
 20
0.0
 30
0.0
 70
   128
  0
VERTEX
  5
F74
  8
TEAM-DET3
 10
211.063489
 20
1310.994322
 30
0.0
  0
VERTEX
  5
F75
  8
TEAM-DET3
 10
211.12404
 20
1310.914675
 30
0.0
  0
VERTEX
  5
F76
  8
TEAM-DET3
 10
211.197467
 20
1310.846146
 30
0.0
  0
VERTEX
  5
F77
  8
TEAM-DET3
 10
211.281666
 20
1310.790697
 30
0.0
  0
VERTEX
  5
F78
  8
TEAM-DET3
 10
211.374227
 20
1310.749916
 30
0.0
  0
VERTEX
  5
F79
  8
TEAM-DET3
 10
211.472499
 20
1310.72497
 30
0.0
  0
VERTEX
  5
F7A
  8
TEAM-DET3
 10
211.573668
 20
1310.716575
 30
0.0
  0
SEQEND
  5
F7B
  8
TEAM-DET3
  0
LINE
  5
888
  8
TEAM-DET3
 10
210.973692
 20
1311.560373
 30
0.0
 11
210.973692
 21
1316.091135
 31
0.0
  0
LINE
  5
889
  8
TEAM-DET3
 10
210.973692
 20
1322.888499
 30
0.0
 11
210.973692
 21
1316.091135
 31
0.0
  0
LINE
  5
88A
  8
TEAM-DET3
 10
210.973692
 20
1322.888499
 30
0.0
 11
210.973692
 21
1324.288645
 31
0.0
  0
ARC
  5
88B
  8
TEAM-DET3
 10
205.348448
 20
1305.482127
 30
0.0
 40
3.125128
 50
330.626703
 51
0.038691
  0
LINE
  5
88C
  8
TEAM-DET3
 10
208.071776
 20
1303.949289
 30
0.0
 11
206.875608
 21
1301.829295
 31
0.0
  0
LINE
  5
88D
  8
TEAM-DET3
 10
208.071776
 20
1298.882883
 30
0.0
 11
206.875608
 21
1296.953561
 31
0.0
  0
ARC
  5
88E
  8
TEAM-DET3
 10
205.826658
 20
1300.286203
 30
0.0
 40
2.64731
 50
327.991258
 51
359.85767
  0
LINE
  5
88F
  8
TEAM-DET3
 10
208.473692
 20
1305.484201
 30
0.0
 11
208.473692
 21
1305.267161
 31
0.0
  0
ARC
  5
890
  8
TEAM-DET3
 10
209.120726
 20
1295.550241
 30
0.0
 40
2.64731
 50
147.99128
 51
179.857691
  0
ARC
  5
891
  8
TEAM-DET3
 10
209.598936
 20
1300.296457
 30
0.0
 40
3.125126
 50
150.626722
 51
180.038705
  0
LINE
  5
892
  8
TEAM-DET3
 10
206.473692
 20
1276.506051
 30
0.0
 11
206.473692
 21
1300.294381
 31
0.0
  0
ARC
  5
893
  8
TEAM-DET3
 10
202.348448
 20
1307.733347
 30
0.0
 40
3.125128
 50
330.626703
 51
0.038691
  0
LINE
  5
894
  8
TEAM-DET3
 10
203.875608
 20
1304.080515
 30
0.0
 11
205.071776
 21
1306.200509
 31
0.0
  0
ARC
  5
895
  8
TEAM-DET3
 10
206.598936
 20
1302.547677
 30
0.0
 40
3.125126
 50
150.626722
 51
180.038705
  0
LINE
  5
896
  8
TEAM-DET3
 10
203.473692
 20
1284.506051
 30
0.0
 11
203.473692
 21
1302.545603
 31
0.0
  0
LINE
  5
897
  8
TEAM-DET3
 10
203.473692
 20
1284.506051
 30
0.0
 11
203.473692
 21
1276.506051
 31
0.0
  0
LINE
  5
898
  8
TEAM-DET3
 10
205.473692
 20
1331.755075
 30
0.0
 11
205.473575
 21
1307.735457
 31
0.0
  0
LINE
  5
899
  8
TEAM-DET3
 10
201.473692
 20
1274.755075
 30
0.0
 11
201.473692
 21
1332.728709
 31
0.0
  0
LINE
  5
89A
  8
TEAM-DET3
 10
201.473692
 20
1274.755075
 30
0.0
 11
209.473692
 21
1274.755075
 31
0.0
  0
LINE
  5
89B
  8
TEAM-DET3
 10
211.473692
 20
1297.512399
 30
0.0
 11
211.473692
 21
1287.997629
 31
0.0
  0
ARC
  5
89C
  8
TEAM-DET3
 10
209.473692
 20
1287.997629
 30
0.0
 40
2.0
 50
314.999992
 51
0.00001
  0
LINE
  5
89D
  8
TEAM-DET3
 10
210.887878
 20
1286.583445
 30
0.0
 11
209.76654
 21
1285.462107
 31
0.0
  0
ARC
  5
89E
  8
TEAM-DET3
 10
210.473692
 20
1284.755075
 30
0.0
 40
1.0
 50
135.0
 51
180.000005
  0
LINE
  5
89F
  8
TEAM-DET3
 10
209.473692
 20
1286.583445
 30
0.0
 11
210.180784
 21
1287.290597
 31
0.0
  0
ARC
  5
8A0
  8
TEAM-DET3
 10
209.473692
 20
1287.997629
 30
0.0
 40
1.0
 50
314.999992
 51
0.00001
  0
LINE
  5
8A1
  8
TEAM-DET3
 10
210.473692
 20
1297.512399
 30
0.0
 11
210.473692
 21
1287.997629
 31
0.0
  0
ARC
  5
8A2
  8
TEAM-DET3
 10
209.473692
 20
1297.512399
 30
0.0
 40
1.0
 50
0.0
 51
45.000001
  0
LINE
  5
8A3
  8
TEAM-DET3
 10
209.473692
 20
1298.926585
 30
0.0
 11
210.180784
 21
1298.219553
 31
0.0
  0
ARC
  5
8A4
  8
TEAM-DET3
 10
210.473692
 20
1300.755075
 30
0.0
 40
1.0
 50
180.000005
 51
224.999996
  0
LINE
  5
8A5
  8
TEAM-DET3
 10
209.76654
 20
1300.047923
 30
0.0
 11
210.887878
 21
1298.926585
 31
0.0
  0
ARC
  5
8A6
  8
TEAM-DET3
 10
209.473692
 20
1297.512399
 30
0.0
 40
2.0
 50
0.0
 51
45.000001
  0
LINE
  5
8A7
  8
TEAM-DET3
 10
209.473692
 20
1324.528635
 30
0.0
 11
208.473692
 21
1324.528635
 31
0.0
  0
LINE
  5
8A8
  8
TEAM-DET3
 10
209.473692
 20
1309.905099
 30
0.0
 11
209.473692
 21
1274.755075
 31
0.0
  0
LINE
  5
8A9
  8
TEAM-DET3
 10
209.473692
 20
1332.755075
 30
0.0
 11
209.473692
 21
1323.605051
 31
0.0
  0
LINE
  5
8AA
  8
TEAM-DET3
 10
208.473692
 20
1324.528635
 30
0.0
 11
208.473692
 21
1332.755075
 31
0.0
  0
LINE
  5
8AB
  8
TEAM-DET3
 10
208.473692
 20
1308.981515
 30
0.0
 11
208.473692
 21
1310.079049
 31
0.0
  0
LINE
  5
8AC
  8
TEAM-DET3
 10
208.473692
 20
1274.755075
 30
0.0
 11
208.473692
 21
1308.981515
 31
0.0
  0
LINE
  5
8AD
  8
TEAM-DET3
 10
201.473692
 20
1332.755075
 30
0.0
 11
209.473692
 21
1332.755075
 31
0.0
  0
LINE
  5
8AE
  8
TEAM-DET2
 10
209.473692
 20
1332.755075
 30
0.0
 11
209.473692
 21
1370.005109
 31
0.0
  0
LINE
  5
8AF
  8
TEAM-DET3
 10
-208.526308
 20
1332.728709
 30
0.0
 11
-208.526308
 21
1298.502269
 31
0.0
  0
LINE
  5
8B0
  8
TEAM-DET3
 10
-208.526308
 20
1298.502269
 30
0.0
 11
-208.526308
 21
1297.404735
 31
0.0
  0
LINE
  5
8B1
  8
TEAM-DET3
 10
-208.526308
 20
1282.955149
 30
0.0
 11
-208.526308
 21
1274.728709
 31
0.0
  0
LINE
  5
8B2
  8
TEAM-DET3
 10
-209.526308
 20
1274.728709
 30
0.0
 11
-209.526308
 21
1283.878733
 31
0.0
  0
LINE
  5
8B3
  8
TEAM-DET3
 10
-209.526308
 20
1297.578685
 30
0.0
 11
-209.526308
 21
1332.728709
 31
0.0
  0
LINE
  5
8B4
  8
TEAM-DET3
 10
-209.526308
 20
1282.955149
 30
0.0
 11
-208.526308
 21
1282.955149
 31
0.0
  0
ARC
  5
8B5
  8
TEAM-DET3
 10
-209.526308
 20
1309.971385
 30
0.0
 40
2.0
 50
180.0
 51
225.000001
  0
LINE
  5
8B6
  8
TEAM-DET3
 10
-209.819156
 20
1307.435861
 30
0.0
 11
-210.940494
 21
1308.557199
 31
0.0
  0
ARC
  5
8B7
  8
TEAM-DET3
 10
-210.526308
 20
1306.728709
 30
0.0
 40
1.0
 50
0.000005
 51
44.999996
  0
LINE
  5
8B8
  8
TEAM-DET3
 10
-209.526308
 20
1308.557199
 30
0.0
 11
-210.2334
 21
1309.264231
 31
0.0
  0
ARC
  5
8B9
  8
TEAM-DET3
 10
-209.526308
 20
1309.971385
 30
0.0
 40
1.0
 50
180.0
 51
225.000001
  0
LINE
  5
8BA
  8
TEAM-DET3
 10
-210.526308
 20
1309.971385
 30
0.0
 11
-210.526308
 21
1319.486155
 31
0.0
  0
ARC
  5
8BB
  8
TEAM-DET3
 10
-209.526308
 20
1319.486155
 30
0.0
 40
1.0
 50
134.999992
 51
180.00001
  0
LINE
  5
8BC
  8
TEAM-DET3
 10
-209.526308
 20
1320.900339
 30
0.0
 11
-210.2334
 21
1320.193187
 31
0.0
  0
ARC
  5
8BD
  8
TEAM-DET3
 10
-210.526308
 20
1322.728709
 30
0.0
 40
1.0
 50
315.0
 51
0.000005
  0
LINE
  5
8BE
  8
TEAM-DET3
 10
-210.940494
 20
1320.900339
 30
0.0
 11
-209.819156
 21
1322.021677
 31
0.0
  0
ARC
  5
8BF
  8
TEAM-DET3
 10
-209.526308
 20
1319.486155
 30
0.0
 40
2.0
 50
134.999992
 51
180.00001
  0
LINE
  5
8C0
  8
TEAM-DET3
 10
-211.526308
 20
1309.971385
 30
0.0
 11
-211.526308
 21
1319.486155
 31
0.0
  0
LINE
  5
8C1
  8
TEAM-DET3
 10
-201.526308
 20
1332.728709
 30
0.0
 11
-209.526308
 21
1332.728709
 31
0.0
  0
LINE
  5
8C2
  8
TEAM-DET3
 10
-205.526308
 20
1275.728709
 30
0.0
 11
-205.526191
 21
1299.748326
 31
0.0
  0
LINE
  5
8C3
  8
TEAM-DET3
 10
-203.526308
 20
1322.977733
 30
0.0
 11
-203.526308
 21
1330.977733
 31
0.0
  0
LINE
  5
8C4
  8
TEAM-DET3
 10
-203.526308
 20
1322.977733
 30
0.0
 11
-203.526308
 21
1304.938181
 31
0.0
  0
ARC
  5
8C5
  8
TEAM-DET3
 10
-206.651552
 20
1304.936107
 30
0.0
 40
3.125126
 50
330.626722
 51
0.038705
  0
LINE
  5
8C6
  8
TEAM-DET3
 10
-203.928224
 20
1303.403269
 30
0.0
 11
-205.124392
 21
1301.283275
 31
0.0
  0
ARC
  5
8C7
  8
TEAM-DET3
 10
-202.401064
 20
1299.750437
 30
0.0
 40
3.125128
 50
150.626703
 51
180.038691
  0
LINE
  5
8C8
  8
TEAM-DET3
 10
-206.526308
 20
1330.977733
 30
0.0
 11
-206.526308
 21
1307.189403
 31
0.0
  0
ARC
  5
8C9
  8
TEAM-DET3
 10
-209.651552
 20
1307.187327
 30
0.0
 40
3.125126
 50
330.626722
 51
0.038705
  0
ARC
  5
8CA
  8
TEAM-DET3
 10
-209.173342
 20
1311.933543
 30
0.0
 40
2.64731
 50
327.99128
 51
359.857691
  0
LINE
  5
8CB
  8
TEAM-DET3
 10
-208.526308
 20
1301.999583
 30
0.0
 11
-208.526308
 21
1302.216623
 31
0.0
  0
ARC
  5
8CC
  8
TEAM-DET3
 10
-205.879274
 20
1307.197581
 30
0.0
 40
2.64731
 50
147.991258
 51
179.85767
  0
LINE
  5
8CD
  8
TEAM-DET3
 10
-208.124392
 20
1308.600901
 30
0.0
 11
-206.928224
 21
1310.530223
 31
0.0
  0
LINE
  5
8CE
  8
TEAM-DET3
 10
-208.124392
 20
1303.534495
 30
0.0
 11
-206.928224
 21
1305.654489
 31
0.0
  0
ARC
  5
8CF
  8
TEAM-DET3
 10
-205.401064
 20
1302.001657
 30
0.0
 40
3.125128
 50
150.626703
 51
180.038691
  0
LINE
  5
8D0
  8
TEAM-DET3
 10
-211.026308
 20
1284.595285
 30
0.0
 11
-211.026308
 21
1283.195139
 31
0.0
  0
LINE
  5
8D1
  8
TEAM-DET3
 10
-211.026308
 20
1284.595285
 30
0.0
 11
-211.026308
 21
1291.392649
 31
0.0
  0
LINE
  5
8D2
  8
TEAM-DET3
 10
-211.026308
 20
1295.923411
 30
0.0
 11
-211.026308
 21
1291.392649
 31
0.0
  0
POLYLINE
  5
8D3
  8
TEAM-DET3
 66
     1
 10
0.0
 20
0.0
 30
0.0
 70
   128
  0
VERTEX
  5
F7C
  8
TEAM-DET3
 10
-211.116105
 20
1296.489462
 30
0.0
  0
VERTEX
  5
F7D
  8
TEAM-DET3
 10
-211.176656
 20
1296.569109
 30
0.0
  0
VERTEX
  5
F7E
  8
TEAM-DET3
 10
-211.250083
 20
1296.637638
 30
0.0
  0
VERTEX
  5
F7F
  8
TEAM-DET3
 10
-211.334282
 20
1296.693087
 30
0.0
  0
VERTEX
  5
F80
  8
TEAM-DET3
 10
-211.426843
 20
1296.733868
 30
0.0
  0
VERTEX
  5
F81
  8
TEAM-DET3
 10
-211.525115
 20
1296.758813
 30
0.0
  0
VERTEX
  5
F82
  8
TEAM-DET3
 10
-211.626284
 20
1296.767209
 30
0.0
  0
SEQEND
  5
F83
  8
TEAM-DET3
  0
LINE
  5
8D4
  8
TEAM-DET3
 10
-211.026285
 20
1295.923471
 30
0.0
 11
-211.116111
 21
1296.48943
 31
0.0
  0
LINE
  5
8D5
  8
TEAM-DET3
 10
-211.542788
 20
1297.578685
 30
0.0
 11
-211.626284
 21
1297.578685
 31
0.0
  0
LINE
  5
8D6
  8
TEAM-DET3
 10
-214.326296
 20
1283.195139
 30
0.0
 11
-214.326296
 21
1284.595285
 31
0.0
  0
LINE
  5
8D7
  8
TEAM-DET3
 10
-214.326296
 20
1291.392649
 30
0.0
 11
-214.326296
 21
1284.595285
 31
0.0
  0
LINE
  5
8D8
  8
TEAM-DET3
 10
-214.326296
 20
1291.392649
 30
0.0
 11
-214.326296
 21
1296.180857
 31
0.0
  0
LINE
  5
8D9
  8
TEAM-DET3
 10
-214.326296
 20
1296.401193
 30
0.0
 11
-214.326296
 21
1296.180857
 31
0.0
  0
LINE
  5
8DA
  8
TEAM-DET3
 10
-214.326296
 20
1296.401193
 30
0.0
 11
-214.326296
 21
1296.836497
 31
0.0
  0
LINE
  5
8DB
  8
TEAM-DET3
 10
-214.326296
 20
1296.836497
 30
0.0
 11
-214.326296
 21
1296.978709
 31
0.0
  0
LINE
  5
8DC
  8
TEAM-DET3
 10
-213.72632
 20
1296.767161
 30
0.0
 11
-211.626284
 21
1296.767161
 31
0.0
  0
LINE
  5
8DD
  8
TEAM-DET3
 10
-213.72632
 20
1297.578685
 30
0.0
 11
-209.526308
 21
1297.578685
 31
0.0
  0
POLYLINE
  5
8DE
  8
TEAM-DET3
 66
     1
 10
0.0
 20
0.0
 30
0.0
 70
   128
  0
VERTEX
  5
F84
  8
TEAM-DET3
 10
-213.72632
 20
1296.767209
 30
0.0
  0
VERTEX
  5
F85
  8
TEAM-DET3
 10
-213.83051
 20
1296.758301
 30
0.0
  0
VERTEX
  5
F86
  8
TEAM-DET3
 10
-213.931534
 20
1296.731847
 30
0.0
  0
VERTEX
  5
F87
  8
TEAM-DET3
 10
-214.026323
 20
1296.688652
 30
0.0
  0
VERTEX
  5
F88
  8
TEAM-DET3
 10
-214.111997
 20
1296.630028
 30
0.0
  0
VERTEX
  5
F89
  8
TEAM-DET3
 10
-214.185951
 20
1296.557756
 30
0.0
  0
VERTEX
  5
F8A
  8
TEAM-DET3
 10
-214.245941
 20
1296.474033
 30
0.0
  0
VERTEX
  5
F8B
  8
TEAM-DET3
 10
-214.290141
 20
1296.381401
 30
0.0
  0
VERTEX
  5
F8C
  8
TEAM-DET3
 10
-214.317211
 20
1296.282676
 30
0.0
  0
VERTEX
  5
F8D
  8
TEAM-DET3
 10
-214.326326
 20
1296.180857
 30
0.0
  0
SEQEND
  5
F8E
  8
TEAM-DET3
  0
ARC
  5
8DF
  8
TEAM-DET3
 10
-213.726382
 20
1296.978831
 30
0.0
 40
0.599894
 50
89.990722
 51
180.013898
  0
LINE
  5
8E0
  8
TEAM-DET3
 10
-208.526308
 20
1275.728709
 30
0.0
 11
-205.526308
 21
1275.728709
 31
0.0
  0
LINE
  5
8E1
  8
TEAM-DET3
 10
-206.526308
 20
1330.977733
 30
0.0
 11
-203.526308
 21
1330.977733
 31
0.0
  0
ARC
  5
8E2
  8
TEAM-DET3
 10
-211.626284
 20
1283.195139
 30
0.0
 40
0.6
 50
270.000003
 51
0.000005
  0
LINE
  5
8E3
  8
TEAM-DET3
 10
-211.026308
 20
1283.878733
 30
0.0
 11
-209.526308
 21
1283.878733
 31
0.0
  0
LINE
  5
8E4
  8
TEAM-DET3
 10
-211.626284
 20
1282.595163
 30
0.0
 11
-213.72632
 21
1282.595163
 31
0.0
  0
ARC
  5
8E5
  8
TEAM-DET3
 10
-213.72632
 20
1283.195139
 30
0.0
 40
0.6
 50
179.999999
 51
270.000003
  0
LINE
  5
8E6
  8
TEAM-DET2
 10
-209.526308
 20
1332.728709
 30
0.0
 11
-209.526308
 21
1370.031761
 31
0.0
  0
LINE
  5
8E7
  8
TEAM-DET3
 10
-86.181764
 20
1288.005045
 30
0.0
 11
-86.181764
 21
1301.505045
 31
0.0
  0
LINE
  5
8E8
  8
TEAM-DET3
 10
-76.526338
 20
1310.637735
 30
0.0
 11
-76.526338
 21
1310.828409
 31
0.0
  0
POLYLINE
  5
8E9
  8
TEAM-DET3
 66
     1
 10
0.0
 20
0.0
 30
0.0
  0
VERTEX
  5
F8F
  8
TEAM-DET3
 10
-76.526338
 20
1310.953409
 30
0.0
  0
VERTEX
  5
F90
  8
TEAM-DET3
 10
-76.560182
 20
1310.943887
 30
0.0
  0
VERTEX
  5
F91
  8
TEAM-DET3
 10
-76.595186
 20
1310.914347
 30
0.0
  0
VERTEX
  5
F92
  8
TEAM-DET3
 10
-76.645142
 20
1310.798867
 30
0.0
  0
VERTEX
  5
F93
  8
TEAM-DET3
 10
-76.624024
 20
1310.693521
 30
0.0
  0
VERTEX
  5
F94
  8
TEAM-DET3
 10
-76.578554
 20
1310.650431
 30
0.0
  0
VERTEX
  5
F95
  8
TEAM-DET3
 10
-76.526368
 20
1310.637735
 30
0.0
  0
SEQEND
  5
F96
  8
TEAM-DET3
  0
POLYLINE
  5
8EA
  8
TEAM-DET3
 66
     1
 10
0.0
 20
0.0
 30
0.0
  0
VERTEX
  5
F97
  8
TEAM-DET3
 10
-76.526368
 20
1310.637735
 30
0.0
  0
VERTEX
  5
F98
  8
TEAM-DET3
 10
-76.578248
 20
1310.620279
 30
0.0
  0
VERTEX
  5
F99
  8
TEAM-DET3
 10
-76.62195
 20
1310.564737
 30
0.0
  0
VERTEX
  5
F9A
  8
TEAM-DET3
 10
-76.646302
 20
1310.428507
 30
0.0
  0
VERTEX
  5
F9B
  8
TEAM-DET3
 10
-76.590882
 20
1310.164591
 30
0.0
  0
VERTEX
  5
F9C
  8
TEAM-DET3
 10
-76.559572
 20
1310.095255
 30
0.0
  0
VERTEX
  5
F9D
  8
TEAM-DET3
 10
-76.547914
 20
1310.077921
 30
0.0
  0
VERTEX
  5
F9E
  8
TEAM-DET3
 10
-76.539826
 20
1310.069743
 30
0.0
  0
VERTEX
  5
F9F
  8
TEAM-DET3
 10
-76.53119
 20
1310.065225
 30
0.0
  0
VERTEX
  5
FA0
  8
TEAM-DET3
 10
-76.526338
 20
1310.064493
 30
0.0
  0
SEQEND
  5
FA1
  8
TEAM-DET3
  0
ARC
  5
8EB
  8
TEAM-DET3
 10
76.473632
 20
1305.505045
 30
0.0
 40
0.5
 50
269.999997
 51
0.000001
  0
ARC
  5
8EC
  8
TEAM-DET3
 10
76.473632
 20
1310.505045
 30
0.0
 40
0.5
 50
0.0
 51
90.000003
  0
ARC
  5
8ED
  8
TEAM-DET3
 10
-76.526338
 20
1305.505045
 30
0.0
 40
0.5
 50
179.999995
 51
269.999997
  0
ARC
  5
8EE
  8
TEAM-DET3
 10
-76.526338
 20
1310.505045
 30
0.0
 40
0.5
 50
90.000003
 51
179.999995
  0
LINE
  5
8EF
  8
TEAM-DET3
 10
72.973632
 20
1305.005045
 30
0.0
 11
76.473632
 21
1305.005045
 31
0.0
  0
LINE
  5
8F0
  8
TEAM-DET3
 10
72.973632
 20
1311.005045
 30
0.0
 11
76.473632
 21
1311.005045
 31
0.0
  0
LINE
  5
8F1
  8
TEAM-DET3
 10
-76.526338
 20
1305.005045
 30
0.0
 11
-73.026368
 21
1305.005045
 31
0.0
  0
LINE
  5
8F2
  8
TEAM-DET3
 10
-76.526338
 20
1311.005045
 30
0.0
 11
-73.026368
 21
1311.005045
 31
0.0
  0
LINE
  5
8F3
  8
TEAM-DET3
 10
-88.026338
 20
1259.074869
 30
0.0
 11
-85.310578
 21
1259.065347
 31
0.0
  0
LINE
  5
8F4
  8
TEAM-DET3
 10
76.973632
 20
1305.505045
 30
0.0
 11
76.973632
 21
1310.199015
 31
0.0
  0
LINE
  5
8F5
  8
TEAM-DET3
 10
76.973632
 20
1310.199015
 30
0.0
 11
76.973632
 21
1310.505045
 31
0.0
  0
LINE
  5
8F6
  8
TEAM-DET3
 10
-77.026338
 20
1305.505045
 30
0.0
 11
-77.026338
 21
1310.199015
 31
0.0
  0
LINE
  5
8F7
  8
TEAM-DET3
 10
-77.026338
 20
1310.199015
 30
0.0
 11
-77.026338
 21
1310.505045
 31
0.0
  0
LINE
  5
8F8
  8
TEAM-DET3
 10
-88.026338
 20
1261.269327
 30
0.0
 11
-85.310578
 21
1261.260659
 31
0.0
  0
LINE
  5
8F9
  8
TEAM-DET3
 10
-88.026338
 20
1261.269327
 30
0.0
 11
-88.026338
 21
1263.180215
 31
0.0
  0
LINE
  5
8FA
  8
TEAM-DET3
 10
-88.026338
 20
1261.269327
 30
0.0
 11
-88.026338
 21
1260.810831
 31
0.0
  0
LINE
  5
8FB
  8
TEAM-DET3
 10
-88.026338
 20
1260.810831
 30
0.0
 11
-85.310578
 21
1260.802041
 31
0.0
  0
LINE
  5
8FC
  8
TEAM-DET3
 10
-88.026338
 20
1259.074869
 30
0.0
 11
-88.026338
 21
1260.810831
 31
0.0
  0
LINE
  5
8FD
  8
TEAM-DET3
 10
-88.026338
 20
1263.180215
 30
0.0
 11
-88.026338
 21
1287.005045
 31
0.0
  0
LINE
  5
8FE
  8
TEAM-DET3
 10
-85.310578
 20
1263.172525
 30
0.0
 11
-88.026338
 21
1263.180215
 31
0.0
  0
LINE
  5
8FF
  8
TEAM-DET3
 10
72.973632
 20
1312.005045
 30
0.0
 11
72.973632
 21
1302.505045
 31
0.0
  0
LINE
  5
900
  8
TEAM-DET3
 10
-73.026338
 20
1312.005045
 30
0.0
 11
-73.026338
 21
1302.505045
 31
0.0
  0
LINE
  5
901
  8
TEAM-DET3
 10
-73.026338
 20
1314.005045
 30
0.0
 11
-73.026338
 21
1312.005045
 31
0.0
  0
POLYLINE
  5
902
  8
TEAM-DET3
 66
     1
 10
0.0
 20
0.0
 30
0.0
 70
   128
  0
VERTEX
  5
FA2
  8
TEAM-DET3
 10
78.289075
 20
1297.505045
 30
0.0
  0
VERTEX
  5
FA3
  8
TEAM-DET3
 10
78.221141
 20
1298.480496
 30
0.0
  0
VERTEX
  5
FA4
  8
TEAM-DET3
 10
78.019948
 20
1299.418462
 30
0.0
  0
VERTEX
  5
FA5
  8
TEAM-DET3
 10
77.69323
 20
1300.282896
 30
0.0
  0
VERTEX
  5
FA6
  8
TEAM-DET3
 10
77.253541
 20
1301.040579
 30
0.0
  0
VERTEX
  5
FA7
  8
TEAM-DET3
 10
76.717778
 20
1301.662393
 30
0.0
  0
VERTEX
  5
FA8
  8
TEAM-DET3
 10
76.106531
 20
1302.124442
 30
0.0
  0
VERTEX
  5
FA9
  8
TEAM-DET3
 10
75.443289
 20
1302.408971
 30
0.0
  0
VERTEX
  5
FAA
  8
TEAM-DET3
 10
74.75354
 20
1302.505045
 30
0.0
  0
SEQEND
  5
FAB
  8
TEAM-DET3
  0
POLYLINE
  5
903
  8
TEAM-DET3
 66
     1
 10
0.0
 20
0.0
 30
0.0
 70
   128
  0
VERTEX
  5
FAC
  8
TEAM-DET3
 10
79.703319
 20
1297.505045
 30
0.0
  0
VERTEX
  5
FAD
  8
TEAM-DET3
 10
79.635385
 20
1298.480496
 30
0.0
  0
VERTEX
  5
FAE
  8
TEAM-DET3
 10
79.434192
 20
1299.418462
 30
0.0
  0
VERTEX
  5
FAF
  8
TEAM-DET3
 10
79.107474
 20
1300.282896
 30
0.0
  0
VERTEX
  5
FB0
  8
TEAM-DET3
 10
78.667785
 20
1301.040579
 30
0.0
  0
VERTEX
  5
FB1
  8
TEAM-DET3
 10
78.132022
 20
1301.662393
 30
0.0
  0
VERTEX
  5
FB2
  8
TEAM-DET3
 10
77.520775
 20
1302.124442
 30
0.0
  0
VERTEX
  5
FB3
  8
TEAM-DET3
 10
76.857533
 20
1302.408971
 30
0.0
  0
VERTEX
  5
FB4
  8
TEAM-DET3
 10
76.167784
 20
1302.505045
 30
0.0
  0
SEQEND
  5
FB5
  8
TEAM-DET3
  0
LINE
  5
904
  8
TEAM-DET3
 10
-73.026308
 20
1302.505045
 30
0.0
 11
-73.026308
 21
1302.505045
 31
0.0
  0
LINE
  5
905
  8
TEAM-DET3
 10
-85.010194
 20
1302.505045
 30
0.0
 11
-73.026308
 21
1302.505045
 31
0.0
  0
LINE
  5
906
  8
TEAM-DET3
 10
-85.010194
 20
1287.005045
 30
0.0
 11
-83.896364
 21
1287.005045
 31
0.0
  0
LINE
  5
907
  8
TEAM-DET3
 10
-87.838624
 20
1287.005045
 30
0.0
 11
-85.010194
 21
1287.005045
 31
0.0
  0
LINE
  5
908
  8
TEAM-DET3
 10
-85.010194
 20
1302.505045
 30
0.0
 11
-87.838624
 21
1302.505045
 31
0.0
  0
LINE
  5
909
  8
TEAM-DET3
 10
-89.026338
 20
1306.505075
 30
0.0
 11
-89.026338
 21
1303.005045
 31
0.0
  0
LINE
  5
90A
  8
TEAM-DET3
 10
-87.838624
 20
1287.005045
 30
0.0
 11
-89.896364
 21
1287.005045
 31
0.0
  0
LINE
  5
90B
  8
TEAM-DET3
 10
-89.026338
 20
1302.505045
 30
0.0
 11
-87.838624
 21
1302.505045
 31
0.0
  0
LINE
  5
90C
  8
TEAM-DET3
 10
-89.026338
 20
1302.505045
 30
0.0
 11
-89.026338
 21
1303.005045
 31
0.0
  0
LINE
  5
90D
  8
TEAM-DET3
 10
52.822706
 20
1275.17118
 30
0.0
 11
73.973692
 21
1275.17118
 31
0.0
  0
LINE
  5
90E
  8
TEAM-DET3
 10
1.723692
 20
1329.770194
 30
0.0
 11
1.723692
 21
1350.92118
 31
0.0
  0
LINE
  5
90F
  8
TEAM-DET3
 10
52.998701
 20
1328.271186
 30
0.0
 11
52.628401
 21
1328.271186
 31
0.0
  0
LINE
  5
910
  8
TEAM-DET3
 10
51.473692
 20
1329.821174
 30
0.0
 11
51.473692
 21
1329.42588
 31
0.0
  0
LINE
  5
911
  8
TEAM-DET3
 10
-52.926309
 20
1328.42118
 30
0.0
 11
-52.531008
 21
1328.42118
 31
0.0
  0
LINE
  5
912
  8
TEAM-DET3
 10
-51.376306
 20
1329.946174
 30
0.0
 11
-51.376306
 21
1329.575874
 31
0.0
  0
LINE
  5
913
  8
TEAM-DET3
 10
52.370802
 20
1327.758216
 30
0.0
 11
52.21208
 21
1327.599494
 31
0.0
  0
LINE
  5
914
  8
TEAM-DET3
 10
50.941115
 20
1329.246757
 30
0.0
 11
50.809752
 21
1329.115379
 31
0.0
  0
LINE
  5
915
  8
TEAM-DET3
 10
-52.351885
 20
1327.888618
 30
0.0
 11
-52.220507
 21
1327.75724
 31
0.0
  0
LINE
  5
916
  8
TEAM-DET3
 10
-50.863352
 20
1329.318305
 30
0.0
 11
-50.704622
 21
1329.159568
 31
0.0
  0
POLYLINE
  5
917
  8
TEAM-DET3
 66
     1
 10
0.0
 20
0.0
 30
0.0
  0
VERTEX
  5
FB6
  8
TEAM-DET3
 10
16.3421
 20
1297.172599
 30
0.0
  0
VERTEX
  5
FB7
  8
TEAM-DET3
 10
16.507048
 20
1296.888954
 30
0.0
  0
VERTEX
  5
FB8
  8
TEAM-DET3
 10
16.963347
 20
1296.200508
 30
0.0
  0
VERTEX
  5
FB9
  8
TEAM-DET3
 10
17.269453
 20
1295.797996
 30
0.0
  0
VERTEX
  5
FBA
  8
TEAM-DET3
 10
17.961958
 20
1295.016929
 30
0.0
  0
VERTEX
  5
FBB
  8
TEAM-DET3
 10
18.463179
 20
1294.541114
 30
0.0
  0
VERTEX
  5
FBC
  8
TEAM-DET3
 10
19.257063
 20
1293.908393
 30
0.0
  0
VERTEX
  5
FBD
  8
TEAM-DET3
 10
20.238524
 20
1293.291755
 30
0.0
  0
VERTEX
  5
FBE
  8
TEAM-DET3
 10
21.283903
 20
1292.795905
 30
0.0
  0
VERTEX
  5
FBF
  8
TEAM-DET3
 10
22.379011
 20
1292.426536
 30
0.0
  0
VERTEX
  5
FC0
  8
TEAM-DET3
 10
23.51103
 20
1292.187812
 30
0.0
  0
VERTEX
  5
FC1
  8
TEAM-DET3
 10
24.665541
 20
1292.083122
 30
0.0
  0
VERTEX
  5
FC2
  8
TEAM-DET3
 10
25.861677
 20
1292.118568
 30
0.0
  0
VERTEX
  5
FC3
  8
TEAM-DET3
 10
27.047041
 20
1292.299369
 30
0.0
  0
VERTEX
  5
FC4
  8
TEAM-DET3
 10
28.199675
 20
1292.62191
 30
0.0
  0
VERTEX
  5
FC5
  8
TEAM-DET3
 10
28.994703
 20
1292.936988
 30
0.0
  0
VERTEX
  5
FC6
  8
TEAM-DET3
 10
29.759367
 20
1293.319724
 30
0.0
  0
VERTEX
  5
FC7
  8
TEAM-DET3
 10
30.487639
 20
1293.767402
 30
0.0
  0
VERTEX
  5
FC8
  8
TEAM-DET3
 10
30.904753
 20
1294.066169
 30
0.0
  0
VERTEX
  5
FC9
  8
TEAM-DET3
 10
31.707167
 20
1294.744621
 30
0.0
  0
VERTEX
  5
FCA
  8
TEAM-DET3
 10
32.218519
 20
1295.262184
 30
0.0
  0
VERTEX
  5
FCB
  8
TEAM-DET3
 10
32.686033
 20
1295.808143
 30
0.0
  0
VERTEX
  5
FCC
  8
TEAM-DET3
 10
33.130324
 20
1296.408225
 30
0.0
  0
VERTEX
  5
FCD
  8
TEAM-DET3
 10
33.585463
 20
1297.137321
 30
0.0
  0
VERTEX
  5
FCE
  8
TEAM-DET3
 10
33.605284
 20
1297.172599
 30
0.0
  0
SEQEND
  5
FCF
  8
TEAM-DET3
  0
POLYLINE
  5
918
  8
TEAM-DET3
 66
     1
 10
0.0
 20
0.0
 30
0.0
  0
VERTEX
  5
FD0
  8
TEAM-DET3
 10
15.130781
 20
1301.92118
 30
0.0
  0
VERTEX
  5
FD1
  8
TEAM-DET3
 10
15.23361
 20
1300.881675
 30
0.0
  0
VERTEX
  5
FD2
  8
TEAM-DET3
 10
15.371428
 20
1299.912727
 30
0.0
  0
VERTEX
  5
FD3
  8
TEAM-DET3
 10
15.467528
 20
1299.434699
 30
0.0
  0
VERTEX
  5
FD4
  8
TEAM-DET3
 10
15.761458
 20
1298.431678
 30
0.0
  0
VERTEX
  5
FD5
  8
TEAM-DET3
 10
15.778822
 20
1298.384544
 30
0.0
  0
SEQEND
  5
FD6
  8
TEAM-DET3
  0
POLYLINE
  5
919
  8
TEAM-DET3
 66
     1
 10
0.0
 20
0.0
 30
0.0
  0
VERTEX
  5
FD7
  8
TEAM-DET3
 10
34.168562
 20
1298.384544
 30
0.0
  0
VERTEX
  5
FD8
  8
TEAM-DET3
 10
34.279112
 20
1298.701026
 30
0.0
  0
VERTEX
  5
FD9
  8
TEAM-DET3
 10
34.54788
 20
1299.76081
 30
0.0
  0
VERTEX
  5
FDA
  8
TEAM-DET3
 10
34.710035
 20
1300.849098
 30
0.0
  0
VERTEX
  5
FDB
  8
TEAM-DET3
 10
34.816603
 20
1301.92118
 30
0.0
  0
SEQEND
  5
FDC
  8
TEAM-DET3
  0
POLYLINE
  5
91A
  8
TEAM-DET3
 66
     1
 10
0.0
 20
0.0
 30
0.0
  0
VERTEX
  5
FDD
  8
TEAM-DET3
 10
33.605284
 20
1306.669761
 30
0.0
  0
VERTEX
  5
FDE
  8
TEAM-DET3
 10
33.440336
 20
1306.953407
 30
0.0
  0
VERTEX
  5
FDF
  8
TEAM-DET3
 10
32.984053
 20
1307.641853
 30
0.0
  0
VERTEX
  5
FE0
  8
TEAM-DET3
 10
32.677931
 20
1308.044364
 30
0.0
  0
VERTEX
  5
FE1
  8
TEAM-DET3
 10
31.985426
 20
1308.825431
 30
0.0
  0
VERTEX
  5
FE2
  8
TEAM-DET3
 10
31.484205
 20
1309.301246
 30
0.0
  0
VERTEX
  5
FE3
  8
TEAM-DET3
 10
30.690321
 20
1309.933967
 30
0.0
  0
VERTEX
  5
FE4
  8
TEAM-DET3
 10
29.708861
 20
1310.550605
 30
0.0
  0
VERTEX
  5
FE5
  8
TEAM-DET3
 10
28.663481
 20
1311.046455
 30
0.0
  0
VERTEX
  5
FE6
  8
TEAM-DET3
 10
27.568373
 20
1311.415824
 30
0.0
  0
VERTEX
  5
FE7
  8
TEAM-DET3
 10
26.436354
 20
1311.654548
 30
0.0
  0
VERTEX
  5
FE8
  8
TEAM-DET3
 10
25.281843
 20
1311.759239
 30
0.0
  0
VERTEX
  5
FE9
  8
TEAM-DET3
 10
24.085707
 20
1311.723792
 30
0.0
  0
VERTEX
  5
FEA
  8
TEAM-DET3
 10
22.900343
 20
1311.542991
 30
0.0
  0
VERTEX
  5
FEB
  8
TEAM-DET3
 10
21.747709
 20
1311.220451
 30
0.0
  0
VERTEX
  5
FEC
  8
TEAM-DET3
 10
20.952681
 20
1310.905372
 30
0.0
  0
VERTEX
  5
FED
  8
TEAM-DET3
 10
20.188017
 20
1310.522636
 30
0.0
  0
VERTEX
  5
FEE
  8
TEAM-DET3
 10
19.459746
 20
1310.074958
 30
0.0
  0
VERTEX
  5
FEF
  8
TEAM-DET3
 10
19.042631
 20
1309.776191
 30
0.0
  0
VERTEX
  5
FF0
  8
TEAM-DET3
 10
18.240217
 20
1309.09774
 30
0.0
  0
VERTEX
  5
FF1
  8
TEAM-DET3
 10
17.728865
 20
1308.580177
 30
0.0
  0
VERTEX
  5
FF2
  8
TEAM-DET3
 10
17.261351
 20
1308.034217
 30
0.0
  0
VERTEX
  5
FF3
  8
TEAM-DET3
 10
16.817061
 20
1307.43415
 30
0.0
  0
VERTEX
  5
FF4
  8
TEAM-DET3
 10
16.361906
 20
1306.705039
 30
0.0
  0
VERTEX
  5
FF5
  8
TEAM-DET3
 10
16.3421
 20
1306.669761
 30
0.0
  0
SEQEND
  5
FF6
  8
TEAM-DET3
  0
POLYLINE
  5
91B
  8
TEAM-DET3
 66
     1
 10
0.0
 20
0.0
 30
0.0
  0
VERTEX
  5
FF7
  8
TEAM-DET3
 10
34.816603
 20
1301.92118
 30
0.0
  0
VERTEX
  5
FF8
  8
TEAM-DET3
 10
34.713774
 20
1302.960685
 30
0.0
  0
VERTEX
  5
FF9
  8
TEAM-DET3
 10
34.575972
 20
1303.929634
 30
0.0
  0
VERTEX
  5
FFA
  8
TEAM-DET3
 10
34.479857
 20
1304.407661
 30
0.0
  0
VERTEX
  5
FFB
  8
TEAM-DET3
 10
34.185927
 20
1305.410682
 30
0.0
  0
VERTEX
  5
FFC
  8
TEAM-DET3
 10
34.168562
 20
1305.457816
 30
0.0
  0
SEQEND
  5
FFD
  8
TEAM-DET3
  0
POLYLINE
  5
91C
  8
TEAM-DET3
 66
     1
 10
0.0
 20
0.0
 30
0.0
  0
VERTEX
  5
FFE
  8
TEAM-DET3
 10
15.778822
 20
1305.457816
 30
0.0
  0
VERTEX
  5
FFF
  8
TEAM-DET3
 10
15.668272
 20
1305.141334
 30
0.0
  0
VERTEX
  5
1000
  8
TEAM-DET3
 10
15.399504
 20
1304.08155
 30
0.0
  0
VERTEX
  5
1001
  8
TEAM-DET3
 10
15.237349
 20
1302.993263
 30
0.0
  0
VERTEX
  5
1002
  8
TEAM-DET3
 10
15.130781
 20
1301.92118
 30
0.0
  0
SEQEND
  5
1003
  8
TEAM-DET3
  0
POLYLINE
  5
91D
  8
TEAM-DET3
 66
     1
 10
0.0
 20
0.0
 30
0.0
  0
VERTEX
  5
1004
  8
TEAM-DET3
 10
-16.394716
 20
1256.669761
 30
0.0
  0
VERTEX
  5
1005
  8
TEAM-DET3
 10
-16.559664
 20
1256.953407
 30
0.0
  0
VERTEX
  5
1006
  8
TEAM-DET3
 10
-17.015955
 20
1257.641853
 30
0.0
  0
VERTEX
  5
1007
  8
TEAM-DET3
 10
-17.322069
 20
1258.044364
 30
0.0
  0
VERTEX
  5
1008
  8
TEAM-DET3
 10
-18.014574
 20
1258.825431
 30
0.0
  0
VERTEX
  5
1009
  8
TEAM-DET3
 10
-18.515795
 20
1259.301246
 30
0.0
  0
VERTEX
  5
100A
  8
TEAM-DET3
 10
-19.309671
 20
1259.933967
 30
0.0
  0
VERTEX
  5
100B
  8
TEAM-DET3
 10
-20.291132
 20
1260.550605
 30
0.0
  0
VERTEX
  5
100C
  8
TEAM-DET3
 10
-21.336519
 20
1261.046455
 30
0.0
  0
VERTEX
  5
100D
  8
TEAM-DET3
 10
-22.431627
 20
1261.415824
 30
0.0
  0
VERTEX
  5
100E
  8
TEAM-DET3
 10
-23.563646
 20
1261.654548
 30
0.0
  0
VERTEX
  5
100F
  8
TEAM-DET3
 10
-24.718164
 20
1261.759239
 30
0.0
  0
VERTEX
  5
1010
  8
TEAM-DET3
 10
-25.914286
 20
1261.723792
 30
0.0
  0
VERTEX
  5
1011
  8
TEAM-DET3
 10
-27.099657
 20
1261.542991
 30
0.0
  0
VERTEX
  5
1012
  8
TEAM-DET3
 10
-28.252291
 20
1261.220451
 30
0.0
  0
VERTEX
  5
1013
  8
TEAM-DET3
 10
-29.047319
 20
1260.905372
 30
0.0
  0
VERTEX
  5
1014
  8
TEAM-DET3
 10
-29.811975
 20
1260.522636
 30
0.0
  0
VERTEX
  5
1015
  8
TEAM-DET3
 10
-30.540254
 20
1260.074958
 30
0.0
  0
VERTEX
  5
1016
  8
TEAM-DET3
 10
-30.957376
 20
1259.776191
 30
0.0
  0
VERTEX
  5
1017
  8
TEAM-DET3
 10
-31.759783
 20
1259.09774
 30
0.0
  0
VERTEX
  5
1018
  8
TEAM-DET3
 10
-32.271135
 20
1258.580177
 30
0.0
  0
VERTEX
  5
1019
  8
TEAM-DET3
 10
-32.738649
 20
1258.034217
 30
0.0
  0
VERTEX
  5
101A
  8
TEAM-DET3
 10
-33.182939
 20
1257.43415
 30
0.0
  0
VERTEX
  5
101B
  8
TEAM-DET3
 10
-33.638086
 20
1256.705039
 30
0.0
  0
VERTEX
  5
101C
  8
TEAM-DET3
 10
-33.6579
 20
1256.669761
 30
0.0
  0
SEQEND
  5
101D
  8
TEAM-DET3
  0
POLYLINE
  5
91E
  8
TEAM-DET3
 66
     1
 10
0.0
 20
0.0
 30
0.0
  0
VERTEX
  5
101E
  8
TEAM-DET3
 10
34.686049
 20
1299.651466
 30
0.0
  0
VERTEX
  5
101F
  8
TEAM-DET3
 10
34.64337
 20
1299.447883
 30
0.0
  0
VERTEX
  5
1020
  8
TEAM-DET3
 10
34.437269
 20
1298.679435
 30
0.0
  0
VERTEX
  5
1021
  8
TEAM-DET3
 10
34.108519
 20
1297.823966
 30
0.0
  0
VERTEX
  5
1022
  8
TEAM-DET3
 10
33.693892
 20
1297.00991
 30
0.0
  0
VERTEX
  5
1023
  8
TEAM-DET3
 10
33.32025
 20
1296.408332
 30
0.0
  0
VERTEX
  5
1024
  8
TEAM-DET3
 10
32.639006
 20
1295.502845
 30
0.0
  0
VERTEX
  5
1025
  8
TEAM-DET3
 10
32.314512
 20
1295.134712
 30
0.0
  0
VERTEX
  5
1026
  8
TEAM-DET3
 10
31.606398
 20
1294.439521
 30
0.0
  0
VERTEX
  5
1027
  8
TEAM-DET3
 10
30.836134
 20
1293.819816
 30
0.0
  0
VERTEX
  5
1028
  8
TEAM-DET3
 10
30.007506
 20
1293.280158
 30
0.0
  0
VERTEX
  5
1029
  8
TEAM-DET3
 10
29.125868
 20
1292.82389
 30
0.0
  0
VERTEX
  5
102A
  8
TEAM-DET3
 10
28.000212
 20
1292.390235
 30
0.0
  0
VERTEX
  5
102B
  8
TEAM-DET3
 10
26.830992
 20
1292.095451
 30
0.0
  0
VERTEX
  5
102C
  8
TEAM-DET3
 10
25.634535
 20
1291.943168
 30
0.0
  0
VERTEX
  5
102D
  8
TEAM-DET3
 10
24.472578
 20
1291.933814
 30
0.0
  0
VERTEX
  5
102E
  8
TEAM-DET3
 10
23.314192
 20
1292.060142
 30
0.0
  0
VERTEX
  5
102F
  8
TEAM-DET3
 10
22.178145
 20
1292.320014
 30
0.0
  0
VERTEX
  5
1030
  8
TEAM-DET3
 10
21.082945
 20
1292.709068
 30
0.0
  0
VERTEX
  5
1031
  8
TEAM-DET3
 10
20.152128
 20
1293.15998
 30
0.0
  0
VERTEX
  5
1032
  8
TEAM-DET3
 10
19.276091
 20
1293.702857
 30
0.0
  0
VERTEX
  5
1033
  8
TEAM-DET3
 10
18.461683
 20
1294.3339
 30
0.0
  0
VERTEX
  5
1034
  8
TEAM-DET3
 10
17.714079
 20
1295.047859
 30
0.0
  0
VERTEX
  5
1035
  8
TEAM-DET3
 10
17.369719
 20
1295.430519
 30
0.0
  0
VERTEX
  5
1036
  8
TEAM-DET3
 10
16.767149
 20
1296.204917
 30
0.0
  0
VERTEX
  5
1037
  8
TEAM-DET3
 10
16.251066
 20
1297.014167
 30
0.0
  0
VERTEX
  5
1038
  8
TEAM-DET3
 10
15.828764
 20
1297.846626
 30
0.0
  0
VERTEX
  5
1039
  8
TEAM-DET3
 10
15.496946
 20
1298.720817
 30
0.0
  0
VERTEX
  5
103A
  8
TEAM-DET3
 10
15.269621
 20
1299.610237
 30
0.0
  0
VERTEX
  5
103B
  8
TEAM-DET3
 10
15.261336
 20
1299.651466
 30
0.0
  0
SEQEND
  5
103C
  8
TEAM-DET3
  0
LINE
  5
91F
  8
TEAM-DET3
 10
34.973692
 20
1301.92118
 30
0.0
 11
34.94171
 21
1301.574516
 31
0.0
  0
LINE
  5
920
  8
TEAM-DET3
 10
15.005675
 20
1301.574516
 30
0.0
 11
14.973692
 21
1301.92118
 31
0.0
  0
POLYLINE
  5
921
  8
TEAM-DET3
 66
     1
 10
0.0
 20
0.0
 30
0.0
  0
VERTEX
  5
103D
  8
TEAM-DET3
 10
15.261336
 20
1304.190894
 30
0.0
  0
VERTEX
  5
103E
  8
TEAM-DET3
 10
15.304014
 20
1304.394477
 30
0.0
  0
VERTEX
  5
103F
  8
TEAM-DET3
 10
15.510115
 20
1305.162925
 30
0.0
  0
VERTEX
  5
1040
  8
TEAM-DET3
 10
15.838865
 20
1306.018394
 30
0.0
  0
VERTEX
  5
1041
  8
TEAM-DET3
 10
16.253492
 20
1306.83245
 30
0.0
  0
VERTEX
  5
1042
  8
TEAM-DET3
 10
16.627134
 20
1307.434028
 30
0.0
  0
VERTEX
  5
1043
  8
TEAM-DET3
 10
17.308378
 20
1308.339515
 30
0.0
  0
VERTEX
  5
1044
  8
TEAM-DET3
 10
17.632872
 20
1308.707649
 30
0.0
  0
VERTEX
  5
1045
  8
TEAM-DET3
 10
18.340986
 20
1309.402839
 30
0.0
  0
VERTEX
  5
1046
  8
TEAM-DET3
 10
19.11125
 20
1310.02256
 30
0.0
  0
VERTEX
  5
1047
  8
TEAM-DET3
 10
19.939879
 20
1310.562202
 30
0.0
  0
VERTEX
  5
1048
  8
TEAM-DET3
 10
20.821516
 20
1311.01847
 30
0.0
  0
VERTEX
  5
1049
  8
TEAM-DET3
 10
21.947172
 20
1311.452125
 30
0.0
  0
VERTEX
  5
104A
  8
TEAM-DET3
 10
23.116392
 20
1311.74691
 30
0.0
  0
VERTEX
  5
104B
  8
TEAM-DET3
 10
24.312849
 20
1311.899192
 30
0.0
  0
VERTEX
  5
104C
  8
TEAM-DET3
 10
25.474806
 20
1311.908546
 30
0.0
  0
VERTEX
  5
104D
  8
TEAM-DET3
 10
26.633192
 20
1311.782203
 30
0.0
  0
VERTEX
  5
104E
  8
TEAM-DET3
 10
27.76924
 20
1311.522346
 30
0.0
  0
VERTEX
  5
104F
  8
TEAM-DET3
 10
28.864439
 20
1311.133293
 30
0.0
  0
VERTEX
  5
1050
  8
TEAM-DET3
 10
29.795256
 20
1310.68238
 30
0.0
  0
VERTEX
  5
1051
  8
TEAM-DET3
 10
30.671293
 20
1310.139503
 30
0.0
  0
VERTEX
  5
1052
  8
TEAM-DET3
 10
31.485701
 20
1309.50846
 30
0.0
  0
VERTEX
  5
1053
  8
TEAM-DET3
 10
32.233305
 20
1308.794502
 30
0.0
  0
VERTEX
  5
1054
  8
TEAM-DET3
 10
32.577665
 20
1308.411842
 30
0.0
  0
VERTEX
  5
1055
  8
TEAM-DET3
 10
33.180235
 20
1307.637443
 30
0.0
  0
VERTEX
  5
1056
  8
TEAM-DET3
 10
33.696318
 20
1306.828193
 30
0.0
  0
VERTEX
  5
1057
  8
TEAM-DET3
 10
34.118635
 20
1305.995735
 30
0.0
  0
VERTEX
  5
1058
  8
TEAM-DET3
 10
34.450438
 20
1305.121543
 30
0.0
  0
VERTEX
  5
1059
  8
TEAM-DET3
 10
34.677763
 20
1304.232124
 30
0.0
  0
VERTEX
  5
105A
  8
TEAM-DET3
 10
34.686049
 20
1304.190894
 30
0.0
  0
SEQEND
  5
105B
  8
TEAM-DET3
  0
LINE
  5
922
  8
TEAM-DET3
 10
14.973692
 20
1301.92118
 30
0.0
 11
15.005675
 21
1302.267845
 31
0.0
  0
LINE
  5
923
  8
TEAM-DET3
 10
34.94171
 20
1302.267845
 30
0.0
 11
34.973692
 21
1301.92118
 31
0.0
  0
LINE
  5
924
  8
TEAM-DET3
 10
50.305311
 20
1280.92118
 30
0.0
 11
50.223692
 21
1280.92118
 31
0.0
  0
LINE
  5
925
  8
TEAM-DET3
 10
-50.357927
 20
1272.92118
 30
0.0
 11
-50.276308
 21
1272.92118
 31
0.0
  0
LINE
  5
926
  8
TEAM-DET3
 10
-50.357927
 20
1280.92118
 30
0.0
 11
-50.276308
 21
1280.92118
 31
0.0
  0
LINE
  5
927
  8
TEAM-DET3
 10
3.973692
 20
1327.252799
 30
0.0
 11
3.973692
 21
1327.17118
 31
0.0
  0
LINE
  5
928
  8
TEAM-DET3
 10
-49.932932
 20
1329.071174
 30
0.0
 11
-43.026308
 21
1329.071174
 31
0.0
  0
LINE
  5
929
  8
TEAM-DET3
 10
-50.9955
 20
1329.071174
 30
0.0
 11
-50.294252
 21
1329.071174
 31
0.0
  0
LINE
  5
92A
  8
TEAM-DET3
 10
-51.469202
 20
1329.071174
 30
0.0
 11
-49.701433
 21
1327.303413
 31
0.0
  0
LINE
  5
92B
  8
TEAM-DET3
 10
-52.176309
 20
1329.071174
 30
0.0
 11
-50.9955
 21
1329.071174
 31
0.0
  0
LINE
  5
92C
  8
TEAM-DET3
 10
-52.176309
 20
1327.966895
 30
0.0
 11
-52.176309
 21
1329.071174
 31
0.0
  0
LINE
  5
92D
  8
TEAM-DET3
 10
-52.176309
 20
1326.977805
 30
0.0
 11
-52.176309
 21
1320.071174
 31
0.0
  0
LINE
  5
92E
  8
TEAM-DET3
 10
-52.176309
 20
1328.364082
 30
0.0
 11
-50.408541
 21
1326.596305
 31
0.0
  0
LINE
  5
92F
  8
TEAM-DET3
 10
-52.176309
 20
1327.489128
 30
0.0
 11
-52.176309
 21
1327.966895
 31
0.0
  0
LINE
  5
930
  8
TEAM-DET3
 10
51.416578
 20
1329.071174
 30
0.0
 11
49.648817
 21
1327.303413
 31
0.0
  0
LINE
  5
931
  8
TEAM-DET3
 10
52.123701
 20
1328.364082
 30
0.0
 11
50.355925
 21
1326.596305
 31
0.0
  0
LINE
  5
932
  8
TEAM-DET3
 10
50.030317
 20
1329.071174
 30
0.0
 11
43.123701
 21
1329.071174
 31
0.0
  0
LINE
  5
933
  8
TEAM-DET3
 10
50.541639
 20
1329.071174
 30
0.0
 11
51.019407
 21
1329.071174
 31
0.0
  0
LINE
  5
934
  8
TEAM-DET3
 10
52.123701
 20
1329.071174
 30
0.0
 11
52.123701
 21
1327.890373
 31
0.0
  0
LINE
  5
935
  8
TEAM-DET3
 10
51.019407
 20
1329.071174
 30
0.0
 11
52.123701
 21
1329.071174
 31
0.0
  0
LINE
  5
936
  8
TEAM-DET3
 10
52.123701
 20
1326.827796
 30
0.0
 11
52.123701
 21
1319.92118
 31
0.0
  0
LINE
  5
937
  8
TEAM-DET3
 10
52.123701
 20
1327.890373
 30
0.0
 11
52.123701
 21
1327.189124
 31
0.0
  0
LINE
  5
938
  8
TEAM-DET3
 10
-50.294252
 20
1329.071174
 30
0.0
 11
-49.932932
 21
1329.071174
 31
0.0
  0
LINE
  5
939
  8
TEAM-DET3
 10
-49.932932
 20
1330.071174
 30
0.0
 11
-49.932932
 21
1329.071174
 31
0.0
  0
LINE
  5
93A
  8
TEAM-DET3
 10
-53.176309
 20
1326.977805
 30
0.0
 11
-52.176309
 21
1326.977805
 31
0.0
  0
LINE
  5
93B
  8
TEAM-DET3
 10
-52.176309
 20
1327.489128
 30
0.0
 11
-52.176309
 21
1326.977805
 31
0.0
  0
LINE
  5
93C
  8
TEAM-DET3
 10
50.030317
 20
1330.071174
 30
0.0
 11
50.030317
 21
1329.071174
 31
0.0
  0
LINE
  5
93D
  8
TEAM-DET3
 10
50.541639
 20
1329.071174
 30
0.0
 11
50.030317
 21
1329.071174
 31
0.0
  0
LINE
  5
93E
  8
TEAM-DET3
 10
52.123701
 20
1327.189124
 30
0.0
 11
52.123701
 21
1326.827796
 31
0.0
  0
LINE
  5
93F
  8
TEAM-DET3
 10
53.123701
 20
1326.827796
 30
0.0
 11
52.123701
 21
1326.827796
 31
0.0
  0
LINE
  5
940
  8
TEAM-DET3
 10
53.123701
 20
1330.071174
 30
0.0
 11
52.628401
 21
1330.071174
 31
0.0
  0
LINE
  5
941
  8
TEAM-DET3
 10
50.896345
 20
1330.071174
 30
0.0
 11
52.628401
 21
1330.071174
 31
0.0
  0
LINE
  5
942
  8
TEAM-DET3
 10
50.896345
 20
1330.071174
 30
0.0
 11
50.030317
 21
1330.071174
 31
0.0
  0
LINE
  5
943
  8
TEAM-DET3
 10
50.030317
 20
1330.071174
 30
0.0
 11
43.123701
 21
1330.071174
 31
0.0
  0
LINE
  5
944
  8
TEAM-DET3
 10
-49.932932
 20
1330.071174
 30
0.0
 11
-43.026308
 21
1330.071174
 31
0.0
  0
LINE
  5
945
  8
TEAM-DET3
 10
-50.798952
 20
1330.071174
 30
0.0
 11
-49.932932
 21
1330.071174
 31
0.0
  0
LINE
  5
946
  8
TEAM-DET3
 10
-52.531008
 20
1330.071174
 30
0.0
 11
-50.798952
 21
1330.071174
 31
0.0
  0
LINE
  5
947
  8
TEAM-DET3
 10
-53.176309
 20
1330.071174
 30
0.0
 11
-52.531008
 21
1330.071174
 31
0.0
  0
LINE
  5
948
  8
TEAM-DET3
 10
-53.176309
 20
1330.071174
 30
0.0
 11
-53.176309
 21
1329.575874
 31
0.0
  0
LINE
  5
949
  8
TEAM-DET3
 10
-53.176309
 20
1327.843833
 30
0.0
 11
-53.176309
 21
1329.575874
 31
0.0
  0
LINE
  5
94A
  8
TEAM-DET3
 10
-53.176309
 20
1327.843833
 30
0.0
 11
-53.176309
 21
1326.977805
 31
0.0
  0
LINE
  5
94B
  8
TEAM-DET3
 10
-53.176309
 20
1326.977805
 30
0.0
 11
-53.176309
 21
1320.071174
 31
0.0
  0
LINE
  5
94C
  8
TEAM-DET3
 10
53.123701
 20
1326.827796
 30
0.0
 11
53.123701
 21
1319.92118
 31
0.0
  0
LINE
  5
94D
  8
TEAM-DET3
 10
53.123701
 20
1327.693824
 30
0.0
 11
53.123701
 21
1326.827796
 31
0.0
  0
LINE
  5
94E
  8
TEAM-DET3
 10
53.123701
 20
1329.42588
 30
0.0
 11
53.123701
 21
1327.693824
 31
0.0
  0
LINE
  5
94F
  8
TEAM-DET3
 10
53.123701
 20
1330.071174
 30
0.0
 11
53.123701
 21
1329.42588
 31
0.0
  0
LINE
  5
950
  8
TEAM-DET3
 10
53.123701
 20
1319.92118
 30
0.0
 11
52.123701
 21
1319.92118
 31
0.0
  0
LINE
  5
951
  8
TEAM-DET3
 10
49.648817
 20
1327.303413
 30
0.0
 11
50.355925
 21
1326.596305
 31
0.0
  0
LINE
  5
952
  8
TEAM-DET3
 10
43.123701
 20
1330.071174
 30
0.0
 11
43.123701
 21
1329.071174
 31
0.0
  0
LINE
  5
953
  8
TEAM-DET3
 10
43.123701
 20
1330.071174
 30
0.0
 11
5.973692
 21
1330.071174
 31
0.0
  0
LINE
  5
954
  8
TEAM-DET3
 10
5.973692
 20
1327.17118
 30
0.0
 11
5.973692
 21
1330.071174
 31
0.0
  0
LINE
  5
955
  8
TEAM-DET3
 10
-6.026308
 20
1327.17118
 30
0.0
 11
5.973692
 21
1327.17118
 31
0.0
  0
LINE
  5
956
  8
TEAM-DET3
 10
-6.026308
 20
1327.17118
 30
0.0
 11
-6.026308
 21
1330.071174
 31
0.0
  0
LINE
  5
957
  8
TEAM-DET3
 10
-6.026308
 20
1330.071174
 30
0.0
 11
-43.026308
 21
1330.071174
 31
0.0
  0
LINE
  5
958
  8
TEAM-DET3
 10
-43.026308
 20
1330.071174
 30
0.0
 11
-43.026308
 21
1329.071174
 31
0.0
  0
LINE
  5
959
  8
TEAM-DET3
 10
-50.408541
 20
1326.596305
 30
0.0
 11
-49.701433
 21
1327.303413
 31
0.0
  0
LINE
  5
95A
  8
TEAM-DET3
 10
-53.176309
 20
1320.071174
 30
0.0
 11
-52.176309
 21
1320.071174
 31
0.0
  0
LINE
  5
95B
  8
TEAM-DET3
 10
-53.176309
 20
1320.071174
 30
0.0
 11
-53.176309
 21
1282.92118
 31
0.0
  0
LINE
  5
95C
  8
TEAM-DET3
 10
-50.276308
 20
1282.92118
 30
0.0
 11
-53.176309
 21
1282.92118
 31
0.0
  0
LINE
  5
95D
  8
TEAM-DET3
 10
-50.276308
 20
1270.92118
 30
0.0
 11
-50.276308
 21
1282.92118
 31
0.0
  0
LINE
  5
95E
  8
TEAM-DET3
 10
-50.276308
 20
1270.92118
 30
0.0
 11
-53.176309
 21
1270.92118
 31
0.0
  0
LINE
  5
95F
  8
TEAM-DET3
 10
50.223692
 20
1270.92118
 30
0.0
 11
53.123701
 21
1270.92118
 31
0.0
  0
LINE
  5
960
  8
TEAM-DET3
 10
50.223692
 20
1282.92118
 30
0.0
 11
50.223692
 21
1270.92118
 31
0.0
  0
LINE
  5
961
  8
TEAM-DET3
 10
50.223692
 20
1282.92118
 30
0.0
 11
53.123701
 21
1282.92118
 31
0.0
  0
LINE
  5
962
  8
TEAM-DET3
 10
53.123701
 20
1282.92118
 30
0.0
 11
53.123701
 21
1319.92118
 31
0.0
  0
ARC
  5
963
  8
TEAM-DET3
 10
1.523695
 20
1350.92118
 30
0.0
 40
0.2
 50
0.0
 51
90.000003
  0
ARC
  5
964
  8
TEAM-DET3
 10
-1.576311
 20
1350.92118
 30
0.0
 40
0.2
 50
90.000003
 51
180.000005
  0
LINE
  5
965
  8
TEAM-DET3
 10
-1.576311
 20
1351.121162
 30
0.0
 11
1.523695
 21
1351.121162
 31
0.0
  0
LINE
  5
966
  8
TEAM-DET3
 10
1.723692
 20
1329.770194
 30
0.0
 11
1.723692
 21
1350.92118
 31
0.0
  0
LINE
  5
967
  8
TEAM-DET3
 10
-1.776308
 20
1329.770194
 30
0.0
 11
-1.776308
 21
1350.92118
 31
0.0
  0
LINE
  5
968
  8
TEAM-DET3
 10
1.723692
 20
1351.121162
 30
0.0
 11
61.218916
 21
1351.121162
 31
0.0
  0
LINE
  5
969
  8
TEAM-DET3
 10
1.523695
 20
1351.121162
 30
0.0
 11
1.723692
 21
1351.121162
 31
0.0
  0
LINE
  5
96A
  8
TEAM-DET3
 10
-61.271524
 20
1351.121162
 30
0.0
 11
-1.776308
 21
1351.121162
 31
0.0
  0
LINE
  5
96B
  8
TEAM-DET3
 10
-1.776308
 20
1351.121162
 30
0.0
 11
-1.576311
 21
1351.121162
 31
0.0
  0
LINE
  5
96C
  8
TEAM-DET3
 10
-6.026308
 20
1327.227775
 30
0.0
 11
-5.529352
 21
1327.226615
 31
0.0
  0
LINE
  5
96D
  8
TEAM-DET3
 10
-5.53087
 20
1327.252799
 30
0.0
 11
-6.026308
 21
1327.251655
 31
0.0
  0
LINE
  5
96E
  8
TEAM-DET3
 10
-5.53087
 20
1327.252799
 30
0.0
 11
5.478254
 21
1327.252799
 31
0.0
  0
LINE
  5
96F
  8
TEAM-DET3
 10
5.478254
 20
1327.252799
 30
0.0
 11
5.973692
 21
1327.251655
 31
0.0
  0
LINE
  5
970
  8
TEAM-DET3
 10
5.973692
 20
1327.227775
 30
0.0
 11
5.476736
 21
1327.226615
 31
0.0
  0
LINE
  5
971
  8
TEAM-DET3
 10
-5.529352
 20
1327.226615
 30
0.0
 11
-4.026308
 21
1327.226615
 31
0.0
  0
LINE
  5
972
  8
TEAM-DET3
 10
3.973692
 20
1327.226615
 30
0.0
 11
5.476736
 21
1327.226615
 31
0.0
  0
LINE
  5
973
  8
TEAM-DET3
 10
50.280287
 20
1270.92118
 30
0.0
 11
50.279127
 21
1271.418128
 31
0.0
  0
LINE
  5
974
  8
TEAM-DET3
 10
50.279127
 20
1282.424232
 30
0.0
 11
50.279127
 21
1280.92118
 31
0.0
  0
LINE
  5
975
  8
TEAM-DET3
 10
50.279127
 20
1272.92118
 30
0.0
 11
50.279127
 21
1271.418128
 31
0.0
  0
LINE
  5
976
  8
TEAM-DET3
 10
50.280287
 20
1282.92118
 30
0.0
 11
50.279127
 21
1282.424232
 31
0.0
  0
LINE
  5
977
  8
TEAM-DET3
 10
50.305311
 20
1282.425743
 30
0.0
 11
50.304167
 21
1282.92118
 31
0.0
  0
LINE
  5
978
  8
TEAM-DET3
 10
50.305311
 20
1271.416618
 30
0.0
 11
50.305311
 21
1282.425743
 31
0.0
  0
LINE
  5
979
  8
TEAM-DET3
 10
50.305311
 20
1271.416618
 30
0.0
 11
50.304167
 21
1270.92118
 31
0.0
  0
LINE
  5
97A
  8
TEAM-DET3
 10
-50.332903
 20
1282.92118
 30
0.0
 11
-50.331743
 21
1282.424232
 31
0.0
  0
LINE
  5
97B
  8
TEAM-DET3
 10
-50.331743
 20
1272.92118
 30
0.0
 11
-50.331743
 21
1271.418128
 31
0.0
  0
LINE
  5
97C
  8
TEAM-DET3
 10
-50.331743
 20
1282.424232
 30
0.0
 11
-50.331743
 21
1280.92118
 31
0.0
  0
LINE
  5
97D
  8
TEAM-DET3
 10
-50.332903
 20
1270.92118
 30
0.0
 11
-50.331743
 21
1271.418128
 31
0.0
  0
LINE
  5
97E
  8
TEAM-DET3
 10
-50.357927
 20
1271.416618
 30
0.0
 11
-50.356783
 21
1270.92118
 31
0.0
  0
LINE
  5
97F
  8
TEAM-DET3
 10
-50.357927
 20
1271.416618
 30
0.0
 11
-50.357927
 21
1282.425743
 31
0.0
  0
LINE
  5
980
  8
TEAM-DET3
 10
-50.357927
 20
1282.425743
 30
0.0
 11
-50.356783
 21
1282.92118
 31
0.0
  0
ARC
  5
981
  8
TEAM-DET3
 10
66.973692
 20
1343.92118
 30
0.0
 40
5.5
 50
181.999997
 51
268.000002
  0
LINE
  5
982
  8
TEAM-DET3
 10
-6.026308
 20
1327.270255
 30
0.0
 11
5.973692
 21
1327.270255
 31
0.0
  0
LINE
  5
983
  8
TEAM-DET3
 10
-50.375383
 20
1282.92118
 30
0.0
 11
-50.375383
 21
1270.92118
 31
0.0
  0
LINE
  5
984
  8
TEAM-DET3
 10
50.322767
 20
1282.92118
 30
0.0
 11
50.322767
 21
1270.92118
 31
0.0
  0
LINE
  5
985
  8
TEAM-DET3
 10
-6.026308
 20
1329.770255
 30
0.0
 11
5.973692
 21
1329.770255
 31
0.0
  0
LINE
  5
986
  8
TEAM-DET3
 10
52.822767
 20
1282.92118
 30
0.0
 11
52.822767
 21
1270.92118
 31
0.0
  0
LINE
  5
987
  8
TEAM-DET3
 10
-52.875383
 20
1282.92118
 30
0.0
 11
-52.875383
 21
1270.92118
 31
0.0
  0
LINE
  5
988
  8
TEAM-DET3
 10
52.822706
 20
1278.67118
 30
0.0
 11
73.973692
 21
1278.67118
 31
0.0
  0
LINE
  5
989
  8
TEAM-DET3
 10
52.822706
 20
1275.17118
 30
0.0
 11
73.973692
 21
1275.17118
 31
0.0
  0
LINE
  5
98A
  8
TEAM-DET3
 10
74.173689
 20
1338.166389
 30
0.0
 11
66.781752
 21
1338.424537
 31
0.0
  0
ARC
  5
98B
  8
TEAM-DET3
 10
73.973692
 20
1275.371177
 30
0.0
 40
0.2
 50
269.999997
 51
0.0
  0
ARC
  5
98C
  8
TEAM-DET3
 10
73.973692
 20
1278.471183
 30
0.0
 40
0.2
 50
0.0
 51
90.000003
  0
CIRCLE
  5
98D
  8
TEAM-DET3
 10
66.973692
 20
1343.92118
 30
0.0
 40
1.5
  0
LINE
  5
98E
  8
TEAM-DET3
 10
61.218916
 20
1351.121162
 30
0.0
 11
66.973692
 21
1351.121162
 31
0.0
  0
LINE
  5
98F
  8
TEAM-DET3
 10
61.218916
 20
1351.121162
 30
0.0
 11
61.477034
 21
1343.729225
 31
0.0
  0
LINE
  5
990
  8
TEAM-DET3
 10
74.173689
 20
1275.371177
 30
0.0
 11
74.173689
 21
1278.471183
 31
0.0
  0
LINE
  5
991
  8
TEAM-DET3
 10
74.173689
 20
1338.166389
 30
0.0
 11
74.173689
 21
1343.92118
 31
0.0
  0
LINE
  5
992
  8
TEAM-DET3
 10
74.173689
 20
1338.166389
 30
0.0
 11
74.173689
 21
1278.471183
 31
0.0
  0
ARC
  5
993
  8
TEAM-DET3
 10
66.973692
 20
1343.92118
 30
0.0
 40
7.2
 50
0.0
 51
90.000003
  0
ARC
  5
994
  8
TEAM-DET3
 10
-67.026308
 20
1343.92118
 30
0.0
 40
5.5
 50
272.0
 51
358.0
  0
LINE
  5
995
  8
TEAM-DET3
 10
-61.271524
 20
1351.121162
 30
0.0
 11
-61.529657
 21
1343.729225
 31
0.0
  0
LINE
  5
996
  8
TEAM-DET3
 10
-74.026308
 20
1278.67118
 30
0.0
 11
-52.875444
 21
1278.67118
 31
0.0
  0
CIRCLE
  5
997
  8
TEAM-DET3
 10
-67.026308
 20
1343.92118
 30
0.0
 40
1.5
  0
LINE
  5
998
  8
TEAM-DET3
 10
-61.271524
 20
1351.121162
 30
0.0
 11
-67.026308
 21
1351.121162
 31
0.0
  0
ARC
  5
999
  8
TEAM-DET3
 10
-67.026308
 20
1343.92118
 30
0.0
 40
7.2
 50
90.000003
 51
179.999995
  0
LINE
  5
99A
  8
TEAM-DET3
 10
-74.226305
 20
1338.166389
 30
0.0
 11
-66.83436
 21
1338.424537
 31
0.0
  0
ARC
  5
99B
  8
TEAM-DET3
 10
-74.026308
 20
1278.471183
 30
0.0
 40
0.2
 50
90.000003
 51
180.000005
  0
LINE
  5
99C
  8
TEAM-DET3
 10
-74.226305
 20
1275.371177
 30
0.0
 11
-74.226305
 21
1278.471183
 31
0.0
  0
LINE
  5
99D
  8
TEAM-DET3
 10
-74.226305
 20
1278.471183
 30
0.0
 11
-74.226305
 21
1338.166389
 31
0.0
  0
LINE
  5
99E
  8
TEAM-DET3
 10
-74.226305
 20
1338.166389
 30
0.0
 11
-74.226305
 21
1343.92118
 31
0.0
  0
LINE
  5
99F
  8
TEAM-DET3
 10
-74.026308
 20
1275.17118
 30
0.0
 11
-52.875444
 21
1275.17118
 31
0.0
  0
ARC
  5
9A0
  8
TEAM-DET3
 10
-74.026308
 20
1275.371177
 30
0.0
 40
0.2
 50
180.000005
 51
269.999997
  0
LINE
  5
9A1
  8
TEAM-DET3
 10
-10.026308
 20
1288.67118
 30
0.0
 11
39.973692
 21
1288.67118
 31
0.0
  0
LINE
  5
9A2
  8
TEAM-AXE
 10
24.973692
 20
1318.7873
 30
0.0
 11
24.973692
 21
1285.055061
 31
0.0
  0
LINE
  5
9A3
  8
TEAM-AXE
 10
41.839811
 20
1301.92118
 30
0.0
 11
8.10758
 21
1301.92118
 31
0.0
  0
LINE
  5
9A4
  8
TEAM-AXE
 10
66.973692
 20
1345.871162
 30
0.0
 11
66.973692
 21
1341.971198
 31
0.0
  0
LINE
  5
9A5
  8
TEAM-AXE
 10
68.923689
 20
1343.92118
 30
0.0
 11
65.023695
 21
1343.92118
 31
0.0
  0
LINE
  5
9A6
  8
TEAM-AXE
 10
-67.026308
 20
1345.871162
 30
0.0
 11
-67.026308
 21
1341.971198
 31
0.0
  0
LINE
  5
9A7
  8
TEAM-AXE
 10
-65.076311
 20
1343.92118
 30
0.0
 11
-68.976305
 21
1343.92118
 31
0.0
  0
LINE
  5
9A8
  8
TEAM-HIDE
 10
-15.627014
 20
1270.505075
 30
0.0
 11
8.223328
 21
1270.505075
 31
0.0
  0
LINE
  5
9A9
  8
TEAM-HIDE
 10
-15.627014
 20
1283.505075
 30
0.0
 11
8.223328
 21
1283.505075
 31
0.0
  0
LINE
  5
9AA
  8
TEAM-HIDE
 10
17.523316
 20
1348.005075
 30
0.0
 11
17.523316
 21
1350.205087
 31
0.0
  0
LINE
  5
9AB
  8
TEAM-HIDE
 10
-7.476684
 20
1348.005075
 30
0.0
 11
-7.476684
 21
1350.205087
 31
0.0
  0
ARC
  5
9AC
  8
TEAM-HIDE
 10
17.223328
 20
1350.205087
 30
0.0
 40
0.3
 50
359.999999
 51
90.000003
  0
ARC
  5
9AD
  8
TEAM-HIDE
 10
-7.176696
 20
1350.205087
 30
0.0
 40
0.3
 50
89.999996
 51
179.999995
  0
LINE
  5
9AE
  8
TEAM-HIDE
 10
17.523316
 20
1350.205087
 30
0.0
 11
11.016144
 21
1350.205087
 31
0.0
  0
LINE
  5
9AF
  8
TEAM-HIDE
 10
11.016144
 20
1350.205087
 30
0.0
 11
-7.476684
 21
1350.205087
 31
0.0
  0
LINE
  5
9B0
  8
TEAM-HIDE
 10
10.872314
 20
1350.505075
 30
0.0
 11
-7.176696
 21
1350.505075
 31
0.0
  0
LINE
  5
9B1
  8
TEAM-HIDE
 10
17.223328
 20
1350.505075
 30
0.0
 11
10.872314
 21
1350.505075
 31
0.0
  0
LINE
  5
9B2
  8
TEAM-HIDE
 10
71.023316
 20
1312.005075
 30
0.0
 11
73.223298
 21
1312.005075
 31
0.0
  0
LINE
  5
9B3
  8
TEAM-HIDE
 10
71.023316
 20
1337.005075
 30
0.0
 11
73.223298
 21
1337.005075
 31
0.0
  0
ARC
  5
9B4
  8
TEAM-HIDE
 10
73.223298
 20
1312.305063
 30
0.0
 40
0.3
 50
269.999997
 51
0.000002
  0
ARC
  5
9B5
  8
TEAM-HIDE
 10
73.223298
 20
1336.705087
 30
0.0
 40
0.3
 50
359.999998
 51
90.000003
  0
LINE
  5
9B6
  8
TEAM-HIDE
 10
73.223298
 20
1312.005075
 30
0.0
 11
73.223298
 21
1318.512277
 31
0.0
  0
LINE
  5
9B7
  8
TEAM-HIDE
 10
73.223298
 20
1318.512277
 30
0.0
 11
73.223298
 21
1337.005075
 31
0.0
  0
LINE
  5
9B8
  8
TEAM-HIDE
 10
71.023316
 20
1312.005075
 30
0.0
 11
71.023316
 21
1337.005075
 31
0.0
  0
LINE
  5
9B9
  8
TEAM-HIDE
 10
73.523316
 20
1318.656077
 30
0.0
 11
73.523316
 21
1336.705087
 31
0.0
  0
LINE
  5
9BA
  8
TEAM-HIDE
 10
73.523316
 20
1312.305063
 30
0.0
 11
73.523316
 21
1318.656077
 31
0.0
  0
LINE
  5
9BB
  8
TEAM-HIDE
 10
49.523316
 20
1262.755075
 30
0.0
 11
71.023316
 21
1262.755075
 31
0.0
  0
LINE
  5
9BC
  8
TEAM-HIDE
 10
49.523316
 20
1291.255075
 30
0.0
 11
71.023316
 21
1291.255075
 31
0.0
  0
LINE
  5
9BD
  8
TEAM-HIDE
 10
49.523316
 20
1262.755075
 30
0.0
 11
49.523316
 21
1291.255075
 31
0.0
  0
LINE
  5
9BE
  8
TEAM-HIDE
 10
8.223328
 20
1291.505075
 30
0.0
 11
22.033326
 21
1291.505075
 31
0.0
  0
LINE
  5
9BF
  8
TEAM-HIDE
 10
8.223328
 20
1262.505075
 30
0.0
 11
19.823304
 21
1262.505075
 31
0.0
  0
LINE
  5
9C0
  8
TEAM-HIDE
 10
22.033326
 20
1261.005075
 30
0.0
 11
20.323304
 21
1261.028299
 31
0.0
  0
LINE
  5
9C1
  8
TEAM-HIDE
 10
8.223328
 20
1291.505075
 30
0.0
 11
8.223328
 21
1262.505075
 31
0.0
  0
LINE
  5
9C2
  8
TEAM-HIDE
 10
12.323304
 20
1262.505137
 30
0.0
 11
12.323304
 21
1259.198129
 31
0.0
  0
LINE
  5
9C3
  8
TEAM-HIDE
 10
20.323304
 20
1261.028299
 30
0.0
 11
20.323304
 21
1259.198129
 31
0.0
  0
LINE
  5
9C4
  8
TEAM-HIDE
 10
12.323304
 20
1259.198129
 30
0.0
 11
20.323304
 21
1259.198129
 31
0.0
  0
ARC
  5
9C5
  8
TEAM-HIDE
 10
22.033326
 20
1262.005075
 30
0.0
 40
1.0
 50
269.999997
 51
0.0
  0
ARC
  5
9C6
  8
TEAM-HIDE
 10
22.033326
 20
1290.505075
 30
0.0
 40
1.0
 50
0.0
 51
90.000003
  0
LINE
  5
9C7
  8
TEAM-HIDE
 10
23.033326
 20
1290.505075
 30
0.0
 11
23.033326
 21
1285.030898
 31
0.0
  0
LINE
  5
9C8
  8
TEAM-HIDE
 10
23.033326
 20
1269.003581
 30
0.0
 11
23.033326
 21
1262.005075
 31
0.0
  0
LINE
  5
9C9
  8
TEAM-HIDE
 10
20.851776
 20
1284.671031
 30
0.0
 11
14.83255
 21
1282.543161
 31
0.0
  0
LINE
  5
9CA
  8
TEAM-HIDE
 10
20.851776
 20
1284.671031
 30
0.0
 11
34.215272
 21
1286.875467
 31
0.0
  0
LINE
  5
9CB
  8
TEAM-HIDE
 10
14.848724
 20
1281.468913
 30
0.0
 11
14.846802
 21
1282.533091
 31
0.0
  0
LINE
  5
9CC
  8
TEAM-HIDE
 10
14.83255
 20
1282.543161
 30
0.0
 11
14.819336
 21
1271.519235
 31
0.0
  0
ARC
  5
9CD
  8
TEAM-HIDE
 10
35.843384
 20
1277.005655
 30
0.0
 40
10.056726
 50
359.931294
 51
99.367033
  0
LINE
  5
9CE
  8
TEAM-HIDE
 10
20.830292
 20
1269.006205
 30
0.0
 11
14.819336
 21
1271.519235
 31
0.0
  0
ARC
  5
9CF
  8
TEAM-HIDE
 10
26.902862
 20
1264.016367
 30
0.0
 40
4.982546
 50
6.931266
 51
89.931257
  0
LINE
  5
9D0
  8
TEAM-HIDE
 10
20.830292
 20
1269.006205
 30
0.0
 11
26.908844
 21
1268.998911
 31
0.0
  0
LINE
  5
9D1
  8
TEAM-HIDE
 10
31.849
 20
1264.617655
 30
0.0
 11
32.591308
 21
1258.511545
 31
0.0
  0
CIRCLE
  5
9D2
  8
TEAM-HIDE
 10
35.843384
 20
1277.005655
 30
0.0
 40
5.0
  0
ARC
  5
9D3
  8
TEAM-HIDE
 10
-16.62564
 20
1265.505075
 30
0.0
 40
1.0
 50
270.000004
 51
356.999997
  0
ARC
  5
9D4
  8
TEAM-HIDE
 10
-16.62564
 20
1288.505075
 30
0.0
 40
1.0
 50
3.000004
 51
89.999989
  0
ARC
  5
9D5
  8
TEAM-HIDE
 10
-16.727722
 20
1265.505075
 30
0.0
 40
1.0
 50
183.000005
 51
269.999991
  0
ARC
  5
9D6
  8
TEAM-HIDE
 10
-16.727722
 20
1288.505075
 30
0.0
 40
1.0
 50
90.000003
 51
176.999995
  0
LINE
  5
9D7
  8
TEAM-HIDE
 10
-70.976684
 20
1283.505075
 30
0.0
 11
-17.726348
 21
1283.505075
 31
0.0
  0
LINE
  5
9D8
  8
TEAM-HIDE
 10
-70.976684
 20
1270.505075
 30
0.0
 11
-17.726348
 21
1270.505075
 31
0.0
  0
LINE
  5
9D9
  8
TEAM-HIDE
 10
-15.627011
 20
1265.452739
 30
0.0
 11
-15.627014
 21
1288.557413
 31
0.0
  0
LINE
  5
9DA
  8
TEAM-HIDE
 10
-17.726352
 20
1265.452739
 30
0.0
 11
-17.726348
 21
1288.557413
 31
0.0
  0
LINE
  5
9DB
  8
TEAM-HIDE
 10
71.023316
 20
1338.255075
 30
0.0
 11
71.023316
 21
1340.704569
 31
0.0
  0
ARC
  5
9DC
  8
TEAM-HIDE
 10
-66.976684
 20
1344.005075
 30
0.0
 40
4.0
 50
90.000003
 51
180.000005
  0
LINE
  5
9DD
  8
TEAM-HIDE
 10
-66.976684
 20
1348.005075
 30
0.0
 11
60.316192
 21
1348.005075
 31
0.0
  0
CIRCLE
  5
9DE
  8
TEAM-HIDE
 10
55.023316
 20
1332.005075
 30
0.0
 40
4.491348
  0
CIRCLE
  5
9DF
  8
TEAM-HIDE
 10
-54.976684
 20
1332.005075
 30
0.0
 40
4.491348
  0
LINE
  5
9E0
  8
TEAM-HIDE
 10
67.023316
 20
1348.005075
 30
0.0
 11
60.316192
 21
1348.005075
 31
0.0
  0
ARC
  5
9E1
  8
TEAM-HIDE
 10
67.023316
 20
1344.005075
 30
0.0
 40
4.0
 50
0.0
 51
90.000003
  0
LINE
  5
9E2
  8
TEAM-HIDE
 10
71.023316
 20
1337.297983
 30
0.0
 11
71.023316
 21
1344.005075
 31
0.0
  0
LINE
  5
9E3
  8
TEAM-HIDE
 10
71.023316
 20
1312.005075
 30
0.0
 11
71.023316
 21
1277.755075
 31
0.0
  0
LINE
  5
9E4
  8
TEAM-AXE
 10
47.644256
 20
1277.005075
 30
0.0
 11
70.192932
 21
1277.005075
 31
0.0
  0
LINE
  5
9E5
  8
TEAM-AXE
 10
-79.556946
 20
1277.005075
 30
0.0
 11
-13.429474
 21
1277.005075
 31
0.0
  0
LINE
  5
9E6
  8
TEAM-DET2
 10
-209.526308
 20
1410.002538
 30
0.0
 11
209.473692
 21
1409.979886
 31
0.0
  0
CIRCLE
  5
9E7
  8
TEAM-DET3
 10
230.0
 20
1420.020433
 30
0.0
 40
12.0
  0
CIRCLE
  5
9E8
  8
TEAM-DET3
 10
230.0
 20
1420.020433
 30
0.0
 40
6.5
  0
CIRCLE
  5
9E9
  8
TEAM-DET3
 10
-229.996742
 20
1420.000639
 30
0.0
 40
12.0
  0
CIRCLE
  5
9EA
  8
TEAM-DET3
 10
-229.996742
 20
1420.000639
 30
0.0
 40
6.5
  0
LINE
  5
9EB
  8
TEAM-DET2
 10
-250.0
 20
1440.002174
 30
0.0
 11
250.0
 21
1440.002174
 31
0.0
  0
ENDSEC
  0
EOF
