  0
SECTION
  2
HEADER
  9
$ACADVER
  1
AC1009
  9
$INSBASE
 10
0.0
 20
0.0
 30
0.0
  9
$EXTMIN
 10
-834.397255
 20
-10.018614
 30
-0.001526
  9
$EXTMAX
 10
773.424914
 20
602.112886
 30
0.0
  9
$LIMMIN
 10
-834.397255
 20
-10.018614
  9
$LIMMAX
 10
770.861609
 20
598.539377
  9
$ORTHOMODE
 70
     1
  9
$REGENMODE
 70
     1
  9
$FILLMODE
 70
     1
  9
$QTEXTMODE
 70
     0
  9
$MIRRTEXT
 70
     0
  9
$DRAGMODE
 70
     2
  9
$LTSCALE
 40
50.0
  9
$OSMODE
 70
     7
  9
$ATTMODE
 70
     1
  9
$TEXTSIZE
 40
200.0
  9
$TRACEWID
 40
1.0
  9
$TEXTSTYLE
  7
STANDARD
  9
$CLAYER
  8
TEAM-MAS
  9
$CELTYPE
  6
BYLAYER
  9
$CECOLOR
 62
   256
  9
$DIMSCALE
 40
0.0
  9
$DIMASZ
 40
20.0
  9
$DIMEXO
 40
10.0
  9
$DIMDLI
 40
1.0
  9
$DIMRND
 40
0.0
  9
$DIMDLE
 40
0.0
  9
$DIMEXE
 40
1.0
  9
$DIMTP
 40
0.0
  9
$DIMTM
 40
0.0
  9
$DIMTXT
 40
35.0
  9
$DIMCEN
 40
1.0
  9
$DIMTSZ
 40
0.0
  9
$DIMTOL
 70
     0
  9
$DIMLIM
 70
     0
  9
$DIMTIH
 70
     0
  9
$DIMTOH
 70
     0
  9
$DIMSE1
 70
     0
  9
$DIMSE2
 70
     0
  9
$DIMTAD
 70
     0
  9
$DIMZIN
 70
     0
  9
$DIMBLK
  1

  9
$DIMASO
 70
     1
  9
$DIMSHO
 70
     0
  9
$DIMPOST
  1

  9
$DIMAPOST
  1

  9
$DIMALT
 70
     0
  9
$DIMALTD
 70
     2
  9
$DIMALTF
 40
25.4
  9
$DIMLFAC
 40
1.0
  9
$DIMTOFL
 70
     0
  9
$DIMTVP
 40
0.0
  9
$DIMTIX
 70
     0
  9
$DIMSOXD
 70
     0
  9
$DIMSAH
 70
     0
  9
$DIMBLK1
  1

  9
$DIMBLK2
  1

  9
$DIMSTYLE
  2
TEAM
  9
$DIMCLRD
 70
     9
  9
$DIMCLRE
 70
     9
  9
$DIMCLRT
 70
    11
  9
$DIMTFAC
 40
1.0
  9
$DIMGAP
 40
7.0
  9
$LUNITS
 70
     2
  9
$LUPREC
 70
     1
  9
$SKETCHINC
 40
1.0
  9
$FILLETRAD
 40
9.5
  9
$AUNITS
 70
     0
  9
$AUPREC
 70
     0
  9
$MENU
  1
ROPLANS
  9
$ELEVATION
 40
0.0
  9
$PELEVATION
 40
0.0
  9
$THICKNESS
 40
0.0
  9
$LIMCHECK
 70
     0
  9
$BLIPMODE
 70
     1
  9
$CHAMFERA
 40
0.0
  9
$CHAMFERB
 40
0.0
  9
$SKPOLY
 70
     0
  9
$TDCREATE
 40
2450392.957851
  9
$TDUPDATE
 40
2455944.717343
  9
$TDINDWG
 40
3.569992
  9
$TDUSRTIMER
 40
3.569992
  9
$USRTIMER
 70
     1
  9
$ANGBASE
 50
0.0
  9
$ANGDIR
 70
     0
  9
$PDMODE
 70
     0
  9
$PDSIZE
 40
0.0
  9
$PLINEWID
 40
0.0
  9
$COORDS
 70
     2
  9
$SPLFRAME
 70
     0
  9
$SPLINETYPE
 70
     6
  9
$SPLINESEGS
 70
     8
  9
$ATTDIA
 70
     0
  9
$ATTREQ
 70
     0
  9
$HANDLING
 70
     1
  9
$HANDSEED
  5
B6
  9
$SURFTAB1
 70
    24
  9
$SURFTAB2
 70
    24
  9
$SURFTYPE
 70
     6
  9
$SURFU
 70
     6
  9
$SURFV
 70
     6
  9
$UCSNAME
  2

  9
$UCSORG
 10
0.0
 20
0.0
 30
0.0
  9
$UCSXDIR
 10
1.0
 20
0.0
 30
0.0
  9
$UCSYDIR
 10
0.0
 20
1.0
 30
0.0
  9
$PUCSNAME
  2

  9
$PUCSORG
 10
0.0
 20
0.0
 30
0.0
  9
$PUCSXDIR
 10
1.0
 20
0.0
 30
0.0
  9
$PUCSYDIR
 10
0.0
 20
1.0
 30
0.0
  9
$USERI1
 70
     0
  9
$USERI2
 70
     0
  9
$USERI3
 70
     0
  9
$USERI4
 70
     0
  9
$USERI5
 70
     0
  9
$USERR1
 40
0.0
  9
$USERR2
 40
0.0
  9
$USERR3
 40
0.0
  9
$USERR4
 40
0.0
  9
$USERR5
 40
0.0
  9
$WORLDVIEW
 70
     1
  9
$SHADEDGE
 70
     0
  9
$SHADEDIF
 70
    70
  9
$TILEMODE
 70
     1
  9
$MAXACTVP
 70
    16
  9
$PLIMCHECK
 70
     0
  9
$PEXTMIN
 10
-0.805942
 20
0.005011
 30
0.0
  9
$PEXTMAX
 10
20.250094
 20
11.356329
 30
0.0
  9
$PLIMMIN
 10
0.0
 20
0.0
  9
$PLIMMAX
 10
12.0
 20
9.0
  9
$UNITMODE
 70
     0
  9
$VISRETAIN
 70
     0
  9
$PLINEGEN
 70
     0
  9
$PSLTSCALE
 70
     0
  0
ENDSEC
  0
SECTION
  2
TABLES
  0
TABLE
  2
VPORT
 70
     2
  0
VPORT
  2
*ACTIVE
 70
     0
 10
0.0
 20
0.0
 11
1.0
 21
1.0
 12
-30.48617
 22
296.047136
 13
0.0
 23
0.0
 14
1.0
 24
1.0
 15
50.0
 25
50.0
 16
0.0
 26
0.0
 36
1.0
 17
0.0
 27
0.0
 37
0.0
 40
847.329664
 41
1.903766
 42
50.0
 43
0.0
 44
0.0
 50
0.0
 51
0.0
 71
     0
 72
   100
 73
     1
 74
     1
 75
     0
 76
     0
 77
     0
 78
     0
  0
ENDTAB
  0
TABLE
  2
LTYPE
 70
     3
  0
LTYPE
  2
CONTINUOUS
 70
     0
  3
Solid Line
 72
    65
 73
     0
 40
0.0
  0
LTYPE
  2
31
 70
     0
  3

 72
    65
 73
     4
 40
2.1
 49
1.5
 49
-0.3
 49
0.0
 49
-0.3
  0
LTYPE
  2
22
 70
     0
  3

 72
    65
 73
     2
 40
1.4
 49
1.2
 49
-0.2
  0
ENDTAB
  0
TABLE
  2
LAYER
 70
    11
  0
LAYER
  2
0
 70
     0
 62
     7
  6
CONTINUOUS
  0
LAYER
  2
DEFPOINTS
 70
     0
 62
     7
  6
CONTINUOUS
  0
LAYER
  2
TEAM-BODY
 70
     0
 62
     2
  6
CONTINUOUS
  0
LAYER
  2
TEAM-AXE
 70
     0
 62
    10
  6
31
  0
LAYER
  2
TEAM-MAS
 70
     0
 62
     9
  6
CONTINUOUS
  0
LAYER
  2
TEAM-TXT
 70
     0
 62
    11
  6
CONTINUOUS
  0
LAYER
  2
TEAM-DET1
 70
     0
 62
     4
  6
CONTINUOUS
  0
LAYER
  2
TEAM-HIDE
 70
     0
 62
     8
  6
22
  0
LAYER
  2
TEAM-KAN
 70
     0
 62
     6
  6
CONTINUOUS
  0
LAYER
  2
TEAM-DET3
 70
     0
 62
    14
  6
CONTINUOUS
  0
LAYER
  2
TEAM-INSP
 70
     0
 62
     5
  6
CONTINUOUS
  0
ENDTAB
  0
TABLE
  2
STYLE
 70
     2
  0
STYLE
  2
STANDARD
 70
     0
 40
0.0
 41
1.0
 50
0.0
 71
     0
 42
200.0
  3
txt
  4

  0
STYLE
  2
TEAM
 70
     0
 40
0.0
 41
0.8
 50
15.0
 71
     0
 42
7.0
  3
ROMANS.shx
  4

  0
ENDTAB
  0
TABLE
  2
VIEW
 70
     0
  0
ENDTAB
  0
TABLE
  2
UCS
 70
     0
  0
ENDTAB
  0
TABLE
  2
APPID
 70
     1
  0
APPID
  2
ACAD
 70
     0
  0
ENDTAB
  0
TABLE
  2
DIMSTYLE
 70
     1
  0
DIMSTYLE
  2
TEAM
 70
     0
  3

  4

  5

  6

  7

 40
0.0
 41
20.0
 42
10.0
 43
1.0
 44
1.0
 45
0.0
 46
0.0
 47
0.0
 48
0.0
140
35.0
141
1.0
142
0.0
143
25.4
144
1.0
145
0.0
146
1.0
147
7.0
 71
     0
 72
     0
 73
     0
 74
     0
 75
     0
 76
     0
 77
     0
 78
     0
170
     0
171
     2
172
     0
173
     0
174
     0
175
     0
176
     9
177
     9
178
    11
  0
ENDTAB
  0
ENDSEC
  0
SECTION
  2
BLOCKS
  0
BLOCK
  8
0
  2
$MODEL_SPACE
 70
     0
 10
0.0
 20
0.0
 30
0.0
  3
$MODEL_SPACE
  1

  0
ENDBLK
  5
AF
  8
0
  0
BLOCK
 67
     1
  8
0
  2
$PAPER_SPACE
 70
     0
 10
0.0
 20
0.0
 30
0.0
  3
$PAPER_SPACE
  1

  0
ENDBLK
  5
AD
 67
     1
  8
0
  0
BLOCK
  8
0
  2
*D0
 70
     1
 10
0.0
 20
0.0
 30
0.0
  3
*D0
  1

  0
LINE
  5
56
  8
0
  6
BYBLOCK
 62
     9
 10
3560.545001
 20
188120.0
 30
0.0
 11
3560.545001
 21
188055.52582
 31
0.0
  0
LINE
  5
57
  8
0
  6
BYBLOCK
 62
     9
 10
3508.545001
 20
188120.0
 30
0.0
 11
3508.545001
 21
188055.52582
 31
0.0
  0
LINE
  5
58
  8
0
  6
BYBLOCK
 62
     9
 10
3580.545001
 20
188056.52582
 30
0.0
 11
3600.545001
 21
188056.52582
 31
0.0
  0
LINE
  5
59
  8
0
  6
BYBLOCK
 62
     9
 10
3488.545001
 20
188056.52582
 30
0.0
 11
3468.545001
 21
188056.52582
 31
0.0
  0
TEXT
  5
5A
  8
0
  6
BYBLOCK
 62
    11
 10
3376.048797
 20
188039.02582
 30
0.0
 40
35.0
  1
52
  0
LINE
  5
5B
  8
0
  6
BYBLOCK
 62
     9
 10
3560.545001
 20
188056.52582
 30
0.0
 11
3508.545001
 21
188056.52582
 31
0.0
  0
SOLID
  5
5C
  8
0
  6
BYBLOCK
 62
     9
 10
3580.545001
 20
188059.859154
 30
0.0
 11
3580.545001
 21
188053.192487
 31
0.0
 12
3560.545001
 22
188056.52582
 32
0.0
 13
3560.545001
 23
188056.52582
 33
0.0
  0
SOLID
  5
5D
  8
0
  6
BYBLOCK
 62
     9
 10
3488.545001
 20
188059.859154
 30
0.0
 11
3488.545001
 21
188053.192487
 31
0.0
 12
3508.545001
 22
188056.52582
 32
0.0
 13
3508.545001
 23
188056.52582
 33
0.0
  0
POINT
  5
5E
  8
DEFPOINTS
  6
BYBLOCK
 62
     0
 10
3560.545001
 20
188130.0
 30
0.0
  0
POINT
  5
5F
  8
DEFPOINTS
  6
BYBLOCK
 62
     0
 10
3508.545001
 20
188130.0
 30
0.0
  0
POINT
  5
60
  8
DEFPOINTS
  6
BYBLOCK
 62
     0
 10
3508.545001
 20
188056.52582
 30
0.0
  0
ENDBLK
  5
62
  8
0
  0
BLOCK
  8
0
  2
*D1
 70
     1
 10
0.0
 20
0.0
 30
0.0
  3
*D1
  1

  0
LINE
  5
31
  8
0
  6
BYBLOCK
 62
     9
 10
3222.670077
 20
188600.0
 30
0.0
 11
3182.151776
 21
188600.0
 31
0.0
  0
LINE
  5
32
  8
0
  6
BYBLOCK
 62
     9
 10
3550.545001
 20
188130.0
 30
0.0
 11
3182.151776
 21
188130.0
 31
0.0
  0
LINE
  5
33
  8
0
  6
BYBLOCK
 62
     9
 10
3183.151776
 20
188580.0
 30
0.0
 11
3183.151776
 21
188415.75
 31
0.0
  0
LINE
  5
34
  8
0
  6
BYBLOCK
 62
     9
 10
3183.151776
 20
188150.0
 30
0.0
 11
3183.151776
 21
188314.25
 31
0.0
  0
SOLID
  5
35
  8
0
  6
BYBLOCK
 62
     9
 10
3179.818442
 20
188580.0
 30
0.0
 11
3186.485109
 21
188580.0
 31
0.0
 12
3183.151776
 22
188600.0
 32
0.0
 13
3183.151776
 23
188600.0
 33
0.0
  0
SOLID
  5
36
  8
0
  6
BYBLOCK
 62
     9
 10
3179.818442
 20
188150.0
 30
0.0
 11
3186.485109
 21
188150.0
 31
0.0
 12
3183.151776
 22
188130.0
 32
0.0
 13
3183.151776
 23
188130.0
 33
0.0
  0
TEXT
  5
37
  8
0
  6
BYBLOCK
 62
    11
 10
3200.651776
 20
188321.25
 30
0.0
 40
35.0
  1
470
 50
90.0
  0
POINT
  5
38
  8
DEFPOINTS
  6
BYBLOCK
 62
     0
 10
3232.670077
 20
188600.0
 30
0.0
  0
POINT
  5
3A
  8
DEFPOINTS
  6
BYBLOCK
 62
     0
 10
3560.545001
 20
188130.0
 30
0.0
  0
POINT
  5
3B
  8
DEFPOINTS
  6
BYBLOCK
 62
     0
 10
3183.151776
 20
188130.0
 30
0.0
  0
ENDBLK
  5
3D
  8
0
  0
ENDSEC
  0
SECTION
  2
ENTITIES
  0
LINE
  5
20
  8
TEAM-DET3
 10
-373.139235
 20
125.919868
 30
0.0
 11
327.578878
 21
147.326238
 31
0.0
  0
LINE
  5
22
  8
TEAM-BODY
 10
-452.405707
 20
143.851059
 30
0.0
 11
391.879374
 21
169.016861
 31
0.0
  0
LINE
  5
24
  8
TEAM-BODY
 10
767.329923
 20
600.0
 30
0.0
 11
-767.329923
 21
600.0
 31
0.0
  0
LINE
  5
25
  8
TEAM-HIDE
 10
772.395198
 20
0.0
 30
0.0
 11
-777.604802
 21
0.0
 31
0.0
  0
LINE
  5
28
  8
TEAM-DET1
 10
-777.329923
 20
564.999917
 30
0.0
 11
718.335912
 21
565.000083
 31
0.0
  0
LINE
  5
2A
  8
TEAM-AXE
 10
-556.839915
 20
530.0
 30
0.0
 11
-618.839915
 21
530.0
 31
0.0
  0
CIRCLE
  5
2D
  8
TEAM-DET1
 10
-587.839915
 20
530.0
 30
0.0
 40
26.0
  0
ARC
  5
2E
  8
TEAM-BODY
 10
-536.224807
 20
226.565948
 30
0.0
 40
80.0
 50
185.0
 51
268.5
  0
DIMENSION
  5
2F
  8
TEAM-MAS
  2
*D1
 10
-816.848224
 20
130.0
 30
0.0
 11
-816.848224
 21
365.0
 31
0.0
 12
-4000.0
 22
-188000.0
 32
0.0
 13
-767.329923
 23
600.0
 33
0.0
 14
-439.454999
 24
130.0
 34
0.0
 50
270.0
1001
ACAD
1000
DSTYLE
1002
{
1070
    40
1040
1.0
1002
}
  0
LINE
  5
3E
  8
TEAM-DET3
 10
-777.329923
 20
564.999917
 30
0.0
 11
-777.329923
 21
0.0
 31
0.0
  0
LINE
  5
3F
  8
TEAM-BODY
 10
-645.702088
 20
564.999936
 30
0.0
 11
-615.920383
 21
219.593489
 31
0.0
  0
LINE
  5
40
  8
TEAM-AXE
 10
-587.839915
 20
561.0
 30
0.0
 11
-587.839915
 21
499.0
 31
0.0
  0
LINE
  5
41
  8
TEAM-BODY
 10
-777.329923
 20
564.999917
 30
0.0
 11
-777.329923
 21
590.0
 31
0.0
  0
ARC
  5
42
  8
TEAM-BODY
 10
-767.329923
 20
590.0
 30
0.0
 40
10.0
 50
90.0
 51
180.0
  0
LINE
  5
43
  8
TEAM-BODY
 10
-452.405707
 20
143.851059
 30
0.0
 11
-538.318963
 21
146.593362
 31
0.0
  0
LINE
  5
44
  8
TEAM-BODY
 10
-491.454999
 20
130.0
 30
0.0
 11
-509.331303
 21
145.0
 31
0.0
  0
LINE
  5
45
  8
TEAM-BODY
 10
-421.578695
 20
145.0
 30
0.0
 11
-439.454999
 21
130.0
 31
0.0
  0
LINE
  5
46
  8
TEAM-DET3
 10
-373.139235
 20
125.919868
 30
0.0
 11
-390.21874
 21
145.479482
 31
0.0
  0
LINE
  5
47
  8
TEAM-DET3
 10
-354.197354
 20
40.0
 30
0.0
 11
-354.197354
 21
88.237384
 31
0.0
  0
LINE
  5
48
  8
TEAM-DET3
 10
-354.197354
 20
88.237384
 30
0.0
 11
-374.197354
 21
88.237384
 31
0.0
  0
LINE
  5
49
  8
TEAM-DET3
 10
-374.197354
 20
40.0
 30
0.0
 11
-374.197354
 21
88.237384
 31
0.0
  0
LINE
  5
4A
  8
TEAM-DET3
 10
-354.197354
 20
88.237384
 30
0.0
 11
-358.615298
 21
114.745045
 31
0.0
  0
LINE
  5
4B
  8
TEAM-DET3
 10
-374.197354
 20
88.237384
 30
0.0
 11
-369.77941
 21
114.745045
 31
0.0
  0
LINE
  5
4C
  8
TEAM-DET3
 10
-369.77941
 20
114.745045
 30
0.0
 11
-358.615298
 21
114.745045
 31
0.0
  0
LINE
  5
4D
  8
TEAM-DET3
 10
-349.197354
 20
40.0
 30
0.0
 11
-379.197354
 21
40.0
 31
0.0
  0
LINE
  5
4E
  8
TEAM-DET3
 10
-349.197354
 20
0.0
 30
0.0
 11
-349.197354
 21
40.0
 31
0.0
  0
LINE
  5
4F
  8
TEAM-DET3
 10
-379.197354
 20
0.0
 30
0.0
 11
-379.197354
 21
40.0
 31
0.0
  0
LINE
  5
50
  8
TEAM-DET3
 10
-358.615298
 20
114.745045
 30
0.0
 11
-358.615298
 21
146.646691
 31
0.0
  0
LINE
  5
51
  8
TEAM-DET3
 10
-369.77941
 20
114.745045
 30
0.0
 11
-369.77941
 21
146.31392
 31
0.0
  0
LINE
  5
52
  8
TEAM-KAN
 10
-439.454999
 20
130.0
 30
0.0
 11
-491.454999
 21
130.0
 31
0.0
  0
DIMENSION
  5
54
  8
TEAM-MAS
  2
*D0
 10
-491.454999
 20
56.52582
 30
0.0
 11
-594.784536
 21
56.52582
 31
0.0
 12
-4000.0
 22
-188000.0
 32
0.0
 70
   128
 13
-439.454999
 23
130.0
 33
0.0
 14
-491.454999
 24
130.0
 34
0.0
1001
ACAD
1000
DSTYLE
1002
{
1070
    40
1040
1.0
1002
}
  0
LINE
  5
63
  8
TEAM-DET3
 10
772.395198
 20
565.000083
 30
0.0
 11
772.395198
 21
0.0
 31
0.0
  0
LINE
  5
64
  8
TEAM-BODY
 10
772.395198
 20
565.000083
 30
0.0
 11
772.329911
 21
595.010877
 31
0.0
  0
ARC
  5
65
  8
TEAM-BODY
 10
767.329923
 20
595.0
 30
0.0
 40
5.0
 50
0.124643
 51
90.0
  0
LINE
  5
66
  8
TEAM-DET1
 10
772.395198
 20
565.000083
 30
0.0
 11
718.335912
 21
565.000083
 31
0.0
  0
LINE
  5
67
  8
TEAM-DET3
 10
327.578878
 20
147.326238
 30
0.0
 11
344.478095
 21
167.671827
 31
0.0
  0
ARC
  5
68
  8
TEAM-BODY
 10
389.785218
 20
248.989447
 30
0.0
 40
80.0
 50
271.5
 51
334.0
  0
LINE
  5
69
  8
TEAM-DET3
 10
356.893972
 20
40.0
 30
0.0
 11
326.893972
 21
40.0
 31
0.0
  0
LINE
  5
6A
  8
TEAM-DET3
 10
356.893972
 20
0.0
 30
0.0
 11
356.893972
 21
40.0
 31
0.0
  0
LINE
  5
6B
  8
TEAM-DET3
 10
326.893972
 20
0.0
 30
0.0
 11
326.893972
 21
40.0
 31
0.0
  0
LINE
  5
6C
  8
TEAM-DET3
 10
351.893972
 20
40.0
 30
0.0
 11
351.893972
 21
88.237384
 31
0.0
  0
LINE
  5
6D
  8
TEAM-DET3
 10
351.893972
 20
88.237384
 30
0.0
 11
331.893972
 21
88.237384
 31
0.0
  0
LINE
  5
6E
  8
TEAM-DET3
 10
331.893972
 20
40.0
 30
0.0
 11
331.893972
 21
88.237384
 31
0.0
  0
LINE
  5
6F
  8
TEAM-DET3
 10
351.893972
 20
88.237384
 30
0.0
 11
347.476028
 21
114.745045
 31
0.0
  0
LINE
  5
70
  8
TEAM-DET3
 10
331.893972
 20
88.237384
 30
0.0
 11
336.311915
 21
114.745045
 31
0.0
  0
LINE
  5
71
  8
TEAM-DET3
 10
336.311915
 20
114.745045
 30
0.0
 11
347.476028
 21
114.745045
 31
0.0
  0
LINE
  5
72
  8
TEAM-DET3
 10
347.476028
 20
114.745045
 30
0.0
 11
347.476028
 21
167.69332
 31
0.0
  0
LINE
  5
73
  8
TEAM-DET3
 10
336.311915
 20
114.745045
 30
0.0
 11
336.311915
 21
167.360549
 31
0.0
  0
CIRCLE
  5
74
  8
TEAM-INSP
 10
0.0
 20
0.0
 30
0.0
 40
10.0
  0
LINE
  5
76
  8
TEAM-DET1
 10
329.208156
 20
390.0
 30
0.0
 11
-73.791844
 21
390.0
 31
0.0
  0
LINE
  5
77
  8
TEAM-BODY
 10
718.335912
 20
565.000083
 30
0.0
 11
461.688742
 21
213.919756
 31
0.0
  0
TEXT
  5
78
  8
TEAM-TXT
 10
340.151975
 20
506.91299
 30
0.0
 40
30.0
  1
team 121392
 41
0.8
 51
15.0
  7
TEAM
  0
ENDSEC
  0
EOF
