  0
SECTION
  2
HEADER
  9
$ACADVER
  1
AC1009
  9
$INSBASE
 10
0.0
 20
0.0
 30
0.0
  9
$EXTMIN
 10
-594.587856
 20
-10.0
 30
0.0
  9
$EXTMAX
 10
647.71903
 20
339.419797
 30
0.0
  9
$LIMMIN
 10
-531.747148
 20
-10.00519
  9
$LIMMAX
 10
647.809097
 20
339.439838
  9
$ORTHOMODE
 70
     1
  9
$REGENMODE
 70
     1
  9
$FILLMODE
 70
     1
  9
$QTEXTMODE
 70
     0
  9
$MIRRTEXT
 70
     0
  9
$DRAGMODE
 70
     2
  9
$LTSCALE
 40
50.0
  9
$OSMODE
 70
     7
  9
$ATTMODE
 70
     1
  9
$TEXTSIZE
 40
200.0
  9
$TRACEWID
 40
1.0
  9
$TEXTSTYLE
  7
STANDARD
  9
$CLAYER
  8
TEAM-MAS
  9
$CELTYPE
  6
BYLAYER
  9
$CECOLOR
 62
   256
  9
$DIMSCALE
 40
0.0
  9
$DIMASZ
 40
20.0
  9
$DIMEXO
 40
10.0
  9
$DIMDLI
 40
1.0
  9
$DIMRND
 40
0.0
  9
$DIMDLE
 40
0.0
  9
$DIMEXE
 40
1.0
  9
$DIMTP
 40
0.0
  9
$DIMTM
 40
0.0
  9
$DIMTXT
 40
35.0
  9
$DIMCEN
 40
1.0
  9
$DIMTSZ
 40
0.0
  9
$DIMTOL
 70
     0
  9
$DIMLIM
 70
     0
  9
$DIMTIH
 70
     0
  9
$DIMTOH
 70
     0
  9
$DIMSE1
 70
     0
  9
$DIMSE2
 70
     0
  9
$DIMTAD
 70
     0
  9
$DIMZIN
 70
     0
  9
$DIMBLK
  1

  9
$DIMASO
 70
     1
  9
$DIMSHO
 70
     0
  9
$DIMPOST
  1

  9
$DIMAPOST
  1

  9
$DIMALT
 70
     0
  9
$DIMALTD
 70
     2
  9
$DIMALTF
 40
25.4
  9
$DIMLFAC
 40
1.0
  9
$DIMTOFL
 70
     0
  9
$DIMTVP
 40
0.0
  9
$DIMTIX
 70
     0
  9
$DIMSOXD
 70
     0
  9
$DIMSAH
 70
     0
  9
$DIMBLK1
  1

  9
$DIMBLK2
  1

  9
$DIMSTYLE
  2
TEAM
  9
$DIMCLRD
 70
     9
  9
$DIMCLRE
 70
     9
  9
$DIMCLRT
 70
    11
  9
$DIMTFAC
 40
1.0
  9
$DIMGAP
 40
7.0
  9
$LUNITS
 70
     2
  9
$LUPREC
 70
     1
  9
$SKETCHINC
 40
1.0
  9
$FILLETRAD
 40
20.0
  9
$AUNITS
 70
     0
  9
$AUPREC
 70
     0
  9
$MENU
  1
ROPLANS
  9
$ELEVATION
 40
0.0
  9
$PELEVATION
 40
0.0
  9
$THICKNESS
 40
0.0
  9
$LIMCHECK
 70
     0
  9
$BLIPMODE
 70
     1
  9
$CHAMFERA
 40
0.0
  9
$CHAMFERB
 40
0.0
  9
$SKPOLY
 70
     0
  9
$TDCREATE
 40
2450392.957851
  9
$TDUPDATE
 40
2458066.576606
  9
$TDINDWG
 40
2.280972
  9
$TDUSRTIMER
 40
2.280972
  9
$USRTIMER
 70
     1
  9
$ANGBASE
 50
0.0
  9
$ANGDIR
 70
     0
  9
$PDMODE
 70
     0
  9
$PDSIZE
 40
0.0
  9
$PLINEWID
 40
0.0
  9
$COORDS
 70
     2
  9
$SPLFRAME
 70
     0
  9
$SPLINETYPE
 70
     6
  9
$SPLINESEGS
 70
     8
  9
$ATTDIA
 70
     0
  9
$ATTREQ
 70
     0
  9
$HANDLING
 70
     1
  9
$HANDSEED
  5
192
  9
$SURFTAB1
 70
    24
  9
$SURFTAB2
 70
    24
  9
$SURFTYPE
 70
     6
  9
$SURFU
 70
     6
  9
$SURFV
 70
     6
  9
$UCSNAME
  2

  9
$UCSORG
 10
0.0
 20
0.0
 30
0.0
  9
$UCSXDIR
 10
1.0
 20
0.0
 30
0.0
  9
$UCSYDIR
 10
0.0
 20
1.0
 30
0.0
  9
$PUCSNAME
  2

  9
$PUCSORG
 10
0.0
 20
0.0
 30
0.0
  9
$PUCSXDIR
 10
1.0
 20
0.0
 30
0.0
  9
$PUCSYDIR
 10
0.0
 20
1.0
 30
0.0
  9
$USERI1
 70
     0
  9
$USERI2
 70
     0
  9
$USERI3
 70
     0
  9
$USERI4
 70
     0
  9
$USERI5
 70
     0
  9
$USERR1
 40
0.0
  9
$USERR2
 40
0.0
  9
$USERR3
 40
0.0
  9
$USERR4
 40
0.0
  9
$USERR5
 40
0.0
  9
$WORLDVIEW
 70
     1
  9
$SHADEDGE
 70
     0
  9
$SHADEDIF
 70
    70
  9
$TILEMODE
 70
     1
  9
$MAXACTVP
 70
    16
  9
$PLIMCHECK
 70
     0
  9
$PEXTMIN
 10
-0.805942
 20
0.005011
 30
0.0
  9
$PEXTMAX
 10
20.250094
 20
11.356329
 30
0.0
  9
$PLIMMIN
 10
0.0
 20
0.0
  9
$PLIMMAX
 10
12.0
 20
9.0
  9
$UNITMODE
 70
     0
  9
$VISRETAIN
 70
     0
  9
$PLINEGEN
 70
     0
  9
$PSLTSCALE
 70
     0
  0
ENDSEC
  0
SECTION
  2
TABLES
  0
TABLE
  2
VPORT
 70
     2
  0
VPORT
  2
*ACTIVE
 70
     0
 10
0.0
 20
0.0
 11
1.0
 21
1.0
 12
26.578424
 22
164.703994
 13
0.0
 23
0.0
 14
1.0
 24
1.0
 15
50.0
 25
50.0
 16
0.0
 26
0.0
 36
1.0
 17
0.0
 27
0.0
 37
0.0
 40
641.758909
 41
1.942246
 42
50.0
 43
0.0
 44
0.0
 50
0.0
 51
0.0
 71
     0
 72
   100
 73
     1
 74
     1
 75
     0
 76
     0
 77
     0
 78
     0
  0
ENDTAB
  0
TABLE
  2
LTYPE
 70
     2
  0
LTYPE
  2
CONTINUOUS
 70
     0
  3
Solid Line
 72
    65
 73
     0
 40
0.0
  0
LTYPE
  2
31
 70
     0
  3

 72
    65
 73
     4
 40
2.1
 49
1.5
 49
-0.3
 49
0.0
 49
-0.3
  0
ENDTAB
  0
TABLE
  2
LAYER
 70
    10
  0
LAYER
  2
0
 70
     0
 62
     7
  6
CONTINUOUS
  0
LAYER
  2
DEFPOINTS
 70
     0
 62
     7
  6
CONTINUOUS
  0
LAYER
  2
TEAM-BODY
 70
     0
 62
     2
  6
CONTINUOUS
  0
LAYER
  2
TEAM-AXE
 70
     0
 62
    10
  6
31
  0
LAYER
  2
TEAM-MAS
 70
     0
 62
     9
  6
CONTINUOUS
  0
LAYER
  2
TEAM-TXT
 70
     0
 62
    11
  6
CONTINUOUS
  0
LAYER
  2
TEAM-DET1
 70
     0
 62
     4
  6
CONTINUOUS
  0
LAYER
  2
TEAM-INSP
 70
     0
 62
     5
  6
CONTINUOUS
  0
LAYER
  2
TEAM-DET3
 70
     0
 62
    13
  6
CONTINUOUS
  0
LAYER
  2
TEAM-NET4
 70
     0
 62
   254
  6
CONTINUOUS
  0
ENDTAB
  0
TABLE
  2
STYLE
 70
     2
  0
STYLE
  2
STANDARD
 70
     0
 40
0.0
 41
1.0
 50
0.0
 71
     0
 42
200.0
  3
txt
  4

  0
STYLE
  2
TEAM
 70
     0
 40
0.0
 41
0.8
 50
15.0
 71
     0
 42
7.0
  3
ROMANS.shx
  4

  0
ENDTAB
  0
TABLE
  2
VIEW
 70
     0
  0
ENDTAB
  0
TABLE
  2
UCS
 70
     0
  0
ENDTAB
  0
TABLE
  2
APPID
 70
     1
  0
APPID
  2
ACAD
 70
     0
  0
ENDTAB
  0
TABLE
  2
DIMSTYLE
 70
     1
  0
DIMSTYLE
  2
TEAM
 70
     0
  3

  4

  5

  6

  7

 40
0.0
 41
20.0
 42
10.0
 43
1.0
 44
1.0
 45
0.0
 46
0.0
 47
0.0
 48
0.0
140
35.0
141
1.0
142
0.0
143
25.4
144
1.0
145
0.0
146
1.0
147
7.0
 71
     0
 72
     0
 73
     0
 74
     0
 75
     0
 76
     0
 77
     0
 78
     0
170
     0
171
     2
172
     0
173
     0
174
     0
175
     0
176
     9
177
     9
178
    11
  0
ENDTAB
  0
ENDSEC
  0
SECTION
  2
BLOCKS
  0
BLOCK
  8
0
  2
$MODEL_SPACE
 70
     0
 10
0.0
 20
0.0
 30
0.0
  3
$MODEL_SPACE
  1

  0
ENDBLK
  5
E8
  8
0
  0
BLOCK
 67
     1
  8
0
  2
$PAPER_SPACE
 70
     0
 10
0.0
 20
0.0
 30
0.0
  3
$PAPER_SPACE
  1

  0
ENDBLK
  5
E6
 67
     1
  8
0
  0
BLOCK
  8
0
  2
*D0
 70
     1
 10
0.0
 20
0.0
 30
0.0
  3
*D0
  1

  0
LINE
  5
22
  8
0
  6
BYBLOCK
 62
     9
 10
3500.0
 20
4290.0
 30
0.0
 11
3500.0
 21
4377.430835
 31
0.0
  0
LINE
  5
23
  8
0
  6
BYBLOCK
 62
     9
 10
4500.0
 20
4290.0
 30
0.0
 11
4500.0
 21
4377.430835
 31
0.0
  0
LINE
  5
24
  8
0
  6
BYBLOCK
 62
     9
 10
3520.0
 20
4376.430835
 30
0.0
 11
3908.416667
 21
4376.430835
 31
0.0
  0
LINE
  5
25
  8
0
  6
BYBLOCK
 62
     9
 10
4480.0
 20
4376.430835
 30
0.0
 11
4091.583333
 21
4376.430835
 31
0.0
  0
SOLID
  5
26
  8
0
  6
BYBLOCK
 62
     9
 10
3520.0
 20
4379.764168
 30
0.0
 11
3520.0
 21
4373.097501
 31
0.0
 12
3500.0
 22
4376.430835
 32
0.0
 13
3500.0
 23
4376.430835
 33
0.0
  0
SOLID
  5
27
  8
0
  6
BYBLOCK
 62
     9
 10
4480.0
 20
4379.764168
 30
0.0
 11
4480.0
 21
4373.097501
 31
0.0
 12
4500.0
 22
4376.430835
 32
0.0
 13
4500.0
 23
4376.430835
 33
0.0
  0
TEXT
  5
28
  8
0
  6
BYBLOCK
 62
    11
 10
3915.416667
 20
4358.930835
 30
0.0
 40
35.0
  1
1000.00
  0
POINT
  5
29
  8
DEFPOINTS
  6
BYBLOCK
 62
     0
 10
3500.0
 20
4280.0
 30
0.0
  0
POINT
  5
2B
  8
DEFPOINTS
  6
BYBLOCK
 62
     0
 10
4500.0
 20
4280.0
 30
0.0
  0
POINT
  5
2C
  8
DEFPOINTS
  6
BYBLOCK
 62
     0
 10
4500.0
 20
4376.430835
 30
0.0
  0
ENDBLK
  5
2E
  8
0
  0
BLOCK
  8
0
  2
*D2
 70
     1
 10
0.0
 20
0.0
 30
0.0
  3
*D2
  1

  0
LINE
  5
4F
  8
0
  6
BYBLOCK
 62
     9
 10
8365.0
 20
4215.001564
 30
0.0
 11
8560.883459
 21
4215.001564
 31
0.0
  0
LINE
  5
50
  8
0
  6
BYBLOCK
 62
     9
 10
8510.0
 20
4280.0
 30
0.0
 11
8560.883459
 21
4280.0
 31
0.0
  0
LINE
  5
51
  8
0
  6
BYBLOCK
 62
     9
 10
8559.883459
 20
4235.001564
 30
0.0
 11
8559.883459
 21
4260.0
 31
0.0
  0
TEXT
  5
52
  8
0
  6
BYBLOCK
 62
    11
 10
8577.383459
 20
4291.086463
 30
0.0
 40
35.0
  1
65.00
 50
90.0
  0
SOLID
  5
53
  8
0
  6
BYBLOCK
 62
     9
 10
8556.550126
 20
4235.001564
 30
0.0
 11
8563.216792
 21
4235.001564
 31
0.0
 12
8559.883459
 22
4215.001564
 32
0.0
 13
8559.883459
 23
4215.001564
 33
0.0
  0
SOLID
  5
54
  8
0
  6
BYBLOCK
 62
     9
 10
8556.550126
 20
4260.0
 30
0.0
 11
8563.216792
 21
4260.0
 31
0.0
 12
8559.883459
 22
4280.0
 32
0.0
 13
8559.883459
 23
4280.0
 33
0.0
  0
POINT
  5
55
  8
DEFPOINTS
  6
BYBLOCK
 62
     0
 10
8355.0
 20
4215.001564
 30
0.0
  0
POINT
  5
56
  8
DEFPOINTS
  6
BYBLOCK
 62
     0
 10
8500.0
 20
4280.0
 30
0.0
  0
POINT
  5
57
  8
DEFPOINTS
  6
BYBLOCK
 62
     0
 10
8559.883459
 20
4280.0
 30
0.0
  0
ENDBLK
  5
59
  8
0
  0
BLOCK
  8
0
  2
*D4
 70
     1
 10
0.0
 20
0.0
 30
0.0
  3
*D4
  1

  0
LINE
  5
6D
  8
0
  6
BYBLOCK
 62
     9
 10
7564.996864
 20
4298.744249
 30
0.0
 11
7564.996864
 21
4319.605123
 31
0.0
  0
LINE
  5
6E
  8
0
  6
BYBLOCK
 62
     9
 10
7500.0
 20
4277.5
 30
0.0
 11
7500.0
 21
4319.605123
 31
0.0
  0
LINE
  5
6F
  8
0
  6
BYBLOCK
 62
     9
 10
7544.996864
 20
4318.605123
 30
0.0
 11
7520.0
 21
4318.605123
 31
0.0
  0
TEXT
  5
70
  8
0
  6
BYBLOCK
 62
    11
 10
7468.331765
 20
4330.105123
 30
0.0
 40
35.0
  1
65.00
  0
SOLID
  5
71
  8
0
  6
BYBLOCK
 62
     9
 10
7544.996864
 20
4321.938456
 30
0.0
 11
7544.996864
 21
4315.27179
 31
0.0
 12
7564.996864
 22
4318.605123
 32
0.0
 13
7564.996864
 23
4318.605123
 33
0.0
  0
SOLID
  5
72
  8
0
  6
BYBLOCK
 62
     9
 10
7520.0
 20
4321.938456
 30
0.0
 11
7520.0
 21
4315.27179
 31
0.0
 12
7500.0
 22
4318.605123
 32
0.0
 13
7500.0
 23
4318.605123
 33
0.0
  0
POINT
  5
73
  8
DEFPOINTS
  6
BYBLOCK
 62
     0
 10
7564.996864
 20
4288.744249
 30
0.0
  0
POINT
  5
74
  8
DEFPOINTS
  6
BYBLOCK
 62
     0
 10
7500.0
 20
4267.5
 30
0.0
  0
POINT
  5
75
  8
DEFPOINTS
  6
BYBLOCK
 62
     0
 10
7500.0
 20
4318.605123
 30
0.0
  0
ENDBLK
  5
77
  8
0
  0
BLOCK
  8
0
  2
*D5
 70
     1
 10
0.0
 20
0.0
 30
0.0
  3
*D5
  1

  0
LINE
  5
15F
  8
0
  6
BYBLOCK
 62
     9
 10
510.0
 20
200.0
 30
0.0
 11
631.21903
 21
200.0
 31
0.0
  0
LINE
  5
160
  8
0
  6
BYBLOCK
 62
     9
 10
485.0
 20
117.0
 30
0.0
 11
631.21903
 21
117.0
 31
0.0
  0
LINE
  5
161
  8
0
  6
BYBLOCK
 62
     9
 10
630.21903
 20
180.0
 30
0.0
 11
630.21903
 21
137.0
 31
0.0
  0
TEXT
  8
0
  40
35
  5
18F
  62
11
  72
0
  71
0
 10
560.219
 20
96.5500
 30
0.000000
  1
83.0
  0
SOLID
  5
163
  8
0
  6
BYBLOCK
 62
     9
 10
626.885696
 20
180.0
 30
0.0
 11
633.552363
 21
180.0
 31
0.0
 12
630.21903
 22
200.0
 32
0.0
 13
630.21903
 23
200.0
 33
0.0
  0
SOLID
  5
164
  8
0
  6
BYBLOCK
 62
     9
 10
626.885696
 20
137.0
 30
0.0
 11
633.552363
 21
137.0
 31
0.0
 12
630.21903
 22
117.0
 32
0.0
 13
630.21903
 23
117.0
 33
0.0
  0
POINT
  5
165
  8
DEFPOINTS
  6
BYBLOCK
 62
     0
 10
500.0
 20
200.0
 30
0.0
  0
POINT
  5
166
  8
DEFPOINTS
  6
BYBLOCK
 62
     0
 10
475.0
 20
117.0
 30
0.0
  0
POINT
  5
167
  8
DEFPOINTS
  6
BYBLOCK
 62
     0
 10
630.21903
 20
117.0
 30
0.0
  0
ENDBLK
  5
168
  8
0
  0
BLOCK
  8
0
  2
*D6
 70
     1
 10
0.0
 20
0.0
 30
0.0
  3
*D6
  1

  0
LINE
  5
135
  8
0
  6
BYBLOCK
 62
     9
 10
265.0
 20
114.63
 30
0.0
 11
265.0
 21
17.186657
 31
0.0
  0
LINE
  5
136
  8
0
  6
BYBLOCK
 62
     9
 10
355.0
 20
114.63
 30
0.0
 11
355.0
 21
17.186657
 31
0.0
  0
LINE
  5
137
  8
0
  6
BYBLOCK
 62
     9
 10
285.0
 20
18.186657
 30
0.0
 11
335.0
 21
18.186657
 31
0.0
  0
TEXT
  8
0
  40
35
  5
190
  62
11
  72
0
  71
0
 10
240.000
 20
-15.3861
 30
0.000000
  1
90.0
  0
SOLID
  5
139
  8
0
  6
BYBLOCK
 62
     9
 10
285.0
 20
21.51999
 30
0.0
 11
285.0
 21
14.853323
 31
0.0
 12
265.0
 22
18.186657
 32
0.0
 13
265.0
 23
18.186657
 33
0.0
  0
SOLID
  5
13A
  8
0
  6
BYBLOCK
 62
     9
 10
335.0
 20
21.51999
 30
0.0
 11
335.0
 21
14.853323
 31
0.0
 12
355.0
 22
18.186657
 32
0.0
 13
355.0
 23
18.186657
 33
0.0
  0
POINT
  5
13B
  8
DEFPOINTS
  6
BYBLOCK
 62
     0
 10
265.0
 20
124.63
 30
0.0
  0
POINT
  5
13C
  8
DEFPOINTS
  6
BYBLOCK
 62
     0
 10
355.0
 20
124.63
 30
0.0
  0
POINT
  5
13D
  8
DEFPOINTS
  6
BYBLOCK
 62
     0
 10
355.0
 20
18.186657
 30
0.0
  0
ENDBLK
  5
13E
  8
0
  0
BLOCK
  8
0
  2
*D8
 70
     1
 10
0.0
 20
0.0
 30
0.0
  3
*D8
  1

  0
LINE
  5
16B
  8
0
  6
BYBLOCK
 62
     9
 10
-510.0
 20
120.0
 30
0.0
 11
-549.087856
 21
120.0
 31
0.0
  0
LINE
  5
16C
  8
0
  6
BYBLOCK
 62
     9
 10
-510.0
 20
200.0
 30
0.0
 11
-549.087856
 21
200.0
 31
0.0
  0
LINE
  5
16D
  8
0
  6
BYBLOCK
 62
     9
 10
-548.087856
 20
140.0
 30
0.0
 11
-548.087856
 21
180.0
 31
0.0
  0
TEXT
  8
0
  40
35
  5
191
  62
11
  72
0
  71
0
 10
-647.088
 20
98.0500
 30
0.000000
  1
80.0
  0
SOLID
  5
16F
  8
0
  6
BYBLOCK
 62
     9
 10
-551.42119
 20
140.0
 30
0.0
 11
-544.754523
 21
140.0
 31
0.0
 12
-548.087856
 22
120.0
 32
0.0
 13
-548.087856
 23
120.0
 33
0.0
  0
SOLID
  5
170
  8
0
  6
BYBLOCK
 62
     9
 10
-551.42119
 20
180.0
 30
0.0
 11
-544.754523
 21
180.0
 31
0.0
 12
-548.087856
 22
200.0
 32
0.0
 13
-548.087856
 23
200.0
 33
0.0
  0
POINT
  5
171
  8
DEFPOINTS
  6
BYBLOCK
 62
     0
 10
-500.0
 20
120.0
 30
0.0
  0
POINT
  5
172
  8
DEFPOINTS
  6
BYBLOCK
 62
     0
 10
-500.0
 20
200.0
 30
0.0
  0
POINT
  5
173
  8
DEFPOINTS
  6
BYBLOCK
 62
     0
 10
-548.087856
 20
200.0
 30
0.0
  0
ENDBLK
  5
174
  8
0
  0
ENDSEC
  0
SECTION
  2
ENTITIES
  0
DIMENSION
  5
20
  8
TEAM-MAS
  2
*D0
 10
500.0
 20
296.430835
 30
0.0
 11
0.0
 21
376.430835
 31
0.0
 12
-4000.0
 22
-4080.0
 32
0.0
 13
-500.0
 23
200.0
 33
0.0
 14
500.0
 24
200.0
 34
0.0
1001
ACAD
1000
DSTYLE
1002
{
1070
    78
1070
     0
1070
    40
1040
1.0
1002
}
  0
LINE
  5
2F
  8
TEAM-BODY
 10
-500.0
 20
200.0
 30
0.0
 11
-500.0
 21
175.0
 31
0.0
  0
LINE
  5
31
  8
TEAM-BODY
 10
500.0
 20
200.0
 30
0.0
 11
500.0
 21
175.0
 31
0.0
  0
DIMENSION
  5
32
  8
TEAM-MAS
  2
*D5
 10
630.21903
 20
117.0
 30
0.0
 11
630.21903
 21
158.5
 31
0.0
 70
   128
 13
500.0
 23
200.0
 33
0.0
 14
475.0
 24
117.0
 34
0.0
 50
90.0
1001
ACAD
1000
DSTYLE
1002
{
1070
    78
1070
     0
1070
    40
1040
1.0
1002
}
  0
LINE
  5
3F
  8
TEAM-BODY
 10
-500.0
 20
120.0
 30
0.0
 11
500.0
 21
120.0
 31
0.0
  0
LINE
  5
40
  8
TEAM-BODY
 10
-500.0
 20
175.0
 30
0.0
 11
-500.0
 21
120.0
 31
0.0
  0
LINE
  5
41
  8
TEAM-BODY
 10
500.0
 20
175.0
 30
0.0
 11
500.0
 21
120.0
 31
0.0
  0
ARC
  5
42
  8
TEAM-BODY
 10
-439.854746
 20
190.0
 30
0.0
 40
10.0
 50
31.953967
 51
90.0
  0
TEXT
  5
43
  8
TEAM-TXT
 10
-376.486884
 20
214.742365
 30
0.0
 40
30.0
  1
team 141325
 41
0.8
 51
15.0
  7
TEAM
  0
LINE
  5
46
  8
TEAM-AXE
 10
310.0
 20
169.249397
 30
0.0
 11
310.0
 21
126.906188
 31
0.0
  0
LINE
  5
49
  8
TEAM-DET1
 10
365.0
 20
135.001564
 30
0.0
 11
355.0
 21
124.63
 31
0.0
  0
LINE
  5
4B
  8
TEAM-DET1
 10
255.0
 20
135.752863
 30
0.0
 11
265.0
 21
124.63
 31
0.0
  0
LINE
  5
4C
  8
TEAM-DET1
 10
265.0
 20
124.63
 30
0.0
 11
355.0
 21
124.63
 31
0.0
  0
DIMENSION
  5
4D
  8
TEAM-MAS
  2
*D2
 10
559.883459
 20
200.0
 30
0.0
 11
559.883459
 21
275.25313
 31
0.0
 12
-8000.0
 22
-4080.0
 32
0.0
 70
   128
 13
355.0
 23
135.001564
 33
0.0
 14
500.0
 24
200.0
 34
0.0
 50
90.0
  0
ARC
  5
5A
  8
TEAM-BODY
 10
-274.96573
 20
267.806286
 30
0.0
 40
169.044137
 50
213.376911
 51
224.433545
  0
ARC
  5
5B
  8
TEAM-BODY
 10
-380.572164
 20
162.574128
 30
0.0
 40
20.0
 50
220.967128
 51
269.636896
  0
LINE
  5
5C
  8
TEAM-BODY
 10
-500.0
 20
200.0
 30
0.0
 11
-439.854746
 21
200.0
 31
0.0
  0
LINE
  5
5D
  8
TEAM-BODY
 10
-431.37001
 20
195.292377
 30
0.0
 11
-416.129354
 21
174.807623
 31
0.0
  0
DIMENSION
  5
5E
  8
TEAM-MAS
  2
*D6
 10
355.0
 20
18.186657
 30
0.0
 11
310.0
 21
46.563929
 31
0.0
 70
   128
 13
265.0
 23
124.63
 33
0.0
 14
355.0
 24
124.63
 34
0.0
  0
DIMENSION
  5
6B
  8
TEAM-MAS
  2
*D4
 10
-500.0
 20
238.605123
 30
0.0
 11
-467.501568
 21
347.605123
 31
0.0
 12
-8000.0
 22
-4080.0
 32
0.0
 13
-435.003136
 23
208.744249
 33
0.0
 14
-500.0
 24
187.5
 34
0.0
1001
ACAD
1000
DSTYLE
1002
{
1070
    40
1040
1.0
1002
}
  0
ARC
  5
78
  8
TEAM-BODY
 10
383.225983
 20
156.66592
 30
0.0
 40
20.0
 50
269.636896
 51
328.706123
  0
LINE
  5
79
  8
TEAM-BODY
 10
-380.69891
 20
142.57453
 30
0.0
 11
255.0
 21
135.752863
 31
0.0
  0
LINE
  5
7A
  8
TEAM-BODY
 10
431.372844
 20
195.368755
 30
0.0
 11
400.31627
 21
146.277364
 31
0.0
  0
LINE
  5
7B
  8
TEAM-DET1
 10
-442.108709
 20
200.0
 30
0.0
 11
441.706304
 21
200.0
 31
0.0
  0
LINE
  5
7C
  8
TEAM-BODY
 10
439.809459
 20
200.0
 30
0.0
 11
500.0
 21
200.0
 31
0.0
  0
ARC
  5
7D
  8
TEAM-BODY
 10
439.809459
 20
190.0
 30
0.0
 40
10.0
 50
90.0
 51
147.528808
  0
CIRCLE
  5
7E
  8
TEAM-INSP
 10
0.0
 20
0.0
 30
0.0
 40
10.0
  0
LINE
  5
141
  8
TEAM-DET3
 10
-475.0
 20
199.5
 30
0.0
 11
-475.0
 21
117.0
 31
0.0
  0
LINE
  5
143
  8
TEAM-DET3
 10
-475.0
 20
117.0
 30
0.0
 11
236.900763
 21
117.0
 31
0.0
  0
LINE
  5
144
  8
TEAM-DET3
 10
-439.854746
 20
199.5
 30
0.0
 11
-439.854746
 21
142.0
 31
0.0
  0
LINE
  5
146
  8
TEAM-BODY
 10
383.099237
 20
136.666322
 30
0.0
 11
365.0
 21
135.001564
 31
0.0
  0
LINE
  5
147
  8
TEAM-DET1
 10
255.0
 20
135.752863
 30
0.0
 11
365.0
 21
135.001564
 31
0.0
  0
LINE
  5
158
  8
TEAM-DET3
 10
236.900763
 20
135.861672
 30
0.0
 11
236.900763
 21
117.0
 31
0.0
  0
LINE
  5
15A
  8
TEAM-DET3
 10
-439.854746
 20
142.0
 30
0.0
 11
236.900763
 21
135.861672
 31
0.0
  0
LINE
  5
15C
  8
TEAM-DET3
 10
-475.0
 20
199.5
 30
0.0
 11
-439.854746
 21
199.5
 31
0.0
  0
DIMENSION
  5
175
  8
TEAM-MAS
  2
*D8
 10
-548.087856
 20
200.0
 30
0.0
 11
-577.087856
 21
160.0
 31
0.0
 70
     0
 13
-500.0
 23
120.0
 33
0.0
 14
-500.0
 24
200.0
 34
0.0
 50
90.0
1001
ACAD
1000
DSTYLE
1002
{
1070
    40
1040
1.0
1002
}
  0
LINE
  5
177
  8
TEAM-DET3
 10
383.099237
 20
117.0
 30
0.0
 11
236.900763
 21
117.0
 31
0.0
  0
POLYLINE
  5
178
  8
TEAM-DET3
 66
     1
 10
0.0
 20
0.0
 30
0.0
 70
     1
  0
VERTEX
  5
187
  8
TEAM-DET3
 10
383.099237
 20
117.0
 30
0.0
  0
VERTEX
  5
188
  8
TEAM-DET3
 10
383.099237
 20
136.666322
 30
0.0
  0
VERTEX
  5
189
  8
TEAM-DET3
 10
447.706304
 20
136.666322
 30
0.0
  0
VERTEX
  5
18A
  8
TEAM-DET3
 10
447.706304
 20
199.5
 30
0.0
  0
VERTEX
  5
18B
  8
TEAM-DET3
 10
475.0
 20
199.5
 30
0.0
  0
VERTEX
  5
18C
  8
TEAM-DET3
 10
475.0
 20
117.0
 30
0.0
  0
SEQEND
  5
18D
  8
TEAM-DET3
  0
SOLID
  5
179
  8
TEAM-NET4
 10
-475.0
 20
199.5
 30
0.0
 11
-439.854746
 21
199.5
 31
0.0
 12
-475.0
 22
117.0
 32
0.0
 13
-439.854746
 23
142.0
 33
0.0
  0
SOLID
  5
17A
  8
TEAM-NET4
 10
-439.854746
 20
142.0
 30
0.0
 11
236.900763
 21
135.861672
 31
0.0
 12
-475.0
 22
117.0
 32
0.0
 13
236.900763
 23
117.0
 33
0.0
  0
SOLID
  5
17B
  8
TEAM-NET4
 10
447.706304
 20
199.5
 30
0.0
 11
475.0
 21
199.5
 31
0.0
 12
447.706304
 22
136.666322
 32
0.0
 13
475.0
 23
117.0
 33
0.0
  0
SOLID
  5
17E
  8
TEAM-NET4
 10
383.099237
 20
136.666322
 30
0.0
 11
447.706304
 21
136.666322
 31
0.0
 12
383.099237
 22
117.0
 32
0.0
 13
475.0
 23
117.0
 33
0.0
  0
ENDSEC
  0
EOF
