  0
SECTION
  2
HEADER
  9
$ACADVER
  1
AC1009
  9
$INSBASE
 10
0.0
 20
0.0
 30
0.0
  9
$EXTMIN
 10
-282.435198
 20
-400.460189
 30
-0.000003
  9
$EXTMAX
 10
229.228709
 20
57.327139
 30
0.000007
  9
$LIMMIN
 10
-282.435198
 20
-400.460189
  9
$LIMMAX
 10
229.228709
 20
57.327139
  9
$ORTHOMODE
 70
     1
  9
$REGENMODE
 70
     1
  9
$FILLMODE
 70
     1
  9
$QTEXTMODE
 70
     0
  9
$MIRRTEXT
 70
     0
  9
$DRAGMODE
 70
     2
  9
$LTSCALE
 40
50.0
  9
$OSMODE
 70
     7
  9
$ATTMODE
 70
     1
  9
$TEXTSIZE
 40
200.0
  9
$TRACEWID
 40
1.0
  9
$TEXTSTYLE
  7
STANDARD
  9
$CLAYER
  8
TEAM-MAS
  9
$CELTYPE
  6
BYLAYER
  9
$CECOLOR
 62
   256
  9
$DIMSCALE
 40
0.0
  9
$DIMASZ
 40
20.0
  9
$DIMEXO
 40
10.0
  9
$DIMDLI
 40
1.0
  9
$DIMRND
 40
0.0
  9
$DIMDLE
 40
0.0
  9
$DIMEXE
 40
1.0
  9
$DIMTP
 40
0.0
  9
$DIMTM
 40
0.0
  9
$DIMTXT
 40
35.0
  9
$DIMCEN
 40
1.0
  9
$DIMTSZ
 40
0.0
  9
$DIMTOL
 70
     0
  9
$DIMLIM
 70
     0
  9
$DIMTIH
 70
     0
  9
$DIMTOH
 70
     0
  9
$DIMSE1
 70
     0
  9
$DIMSE2
 70
     0
  9
$DIMTAD
 70
     0
  9
$DIMZIN
 70
     0
  9
$DIMBLK
  1

  9
$DIMASO
 70
     1
  9
$DIMSHO
 70
     0
  9
$DIMPOST
  1

  9
$DIMAPOST
  1

  9
$DIMALT
 70
     0
  9
$DIMALTD
 70
     2
  9
$DIMALTF
 40
25.4
  9
$DIMLFAC
 40
1.0
  9
$DIMTOFL
 70
     0
  9
$DIMTVP
 40
0.0
  9
$DIMTIX
 70
     0
  9
$DIMSOXD
 70
     0
  9
$DIMSAH
 70
     0
  9
$DIMBLK1
  1

  9
$DIMBLK2
  1

  9
$DIMSTYLE
  2
TEAM
  9
$DIMCLRD
 70
     9
  9
$DIMCLRE
 70
     9
  9
$DIMCLRT
 70
    11
  9
$DIMTFAC
 40
1.0
  9
$DIMGAP
 40
7.0
  9
$LUNITS
 70
     2
  9
$LUPREC
 70
     1
  9
$SKETCHINC
 40
1.0
  9
$FILLETRAD
 40
5.0
  9
$AUNITS
 70
     0
  9
$AUPREC
 70
     0
  9
$MENU
  1
ROPLANS
  9
$ELEVATION
 40
0.0
  9
$PELEVATION
 40
0.0
  9
$THICKNESS
 40
0.0
  9
$LIMCHECK
 70
     0
  9
$BLIPMODE
 70
     1
  9
$CHAMFERA
 40
0.0
  9
$CHAMFERB
 40
0.0
  9
$SKPOLY
 70
     0
  9
$TDCREATE
 40
2450392.957851
  9
$TDUPDATE
 40
2456004.599416
  9
$TDINDWG
 40
2.546599
  9
$TDUSRTIMER
 40
2.546599
  9
$USRTIMER
 70
     1
  9
$ANGBASE
 50
0.0
  9
$ANGDIR
 70
     0
  9
$PDMODE
 70
     0
  9
$PDSIZE
 40
0.0
  9
$PLINEWID
 40
0.0
  9
$COORDS
 70
     2
  9
$SPLFRAME
 70
     0
  9
$SPLINETYPE
 70
     6
  9
$SPLINESEGS
 70
     8
  9
$ATTDIA
 70
     0
  9
$ATTREQ
 70
     0
  9
$HANDLING
 70
     1
  9
$HANDSEED
  5
C7
  9
$SURFTAB1
 70
    36
  9
$SURFTAB2
 70
    36
  9
$SURFTYPE
 70
     6
  9
$SURFU
 70
     6
  9
$SURFV
 70
     6
  9
$UCSNAME
  2

  9
$UCSORG
 10
0.0
 20
0.0
 30
0.0
  9
$UCSXDIR
 10
1.0
 20
0.0
 30
0.0
  9
$UCSYDIR
 10
0.0
 20
1.0
 30
0.0
  9
$PUCSNAME
  2

  9
$PUCSORG
 10
0.0
 20
0.0
 30
0.0
  9
$PUCSXDIR
 10
1.0
 20
0.0
 30
0.0
  9
$PUCSYDIR
 10
0.0
 20
1.0
 30
0.0
  9
$USERI1
 70
     0
  9
$USERI2
 70
     0
  9
$USERI3
 70
     0
  9
$USERI4
 70
     0
  9
$USERI5
 70
     0
  9
$USERR1
 40
0.0
  9
$USERR2
 40
0.0
  9
$USERR3
 40
0.0
  9
$USERR4
 40
0.0
  9
$USERR5
 40
0.0
  9
$WORLDVIEW
 70
     1
  9
$SHADEDGE
 70
     0
  9
$SHADEDIF
 70
    70
  9
$TILEMODE
 70
     1
  9
$MAXACTVP
 70
    16
  9
$PLIMCHECK
 70
     0
  9
$PEXTMIN
 10
-0.805942
 20
0.005011
 30
0.0
  9
$PEXTMAX
 10
20.250094
 20
11.356329
 30
0.0
  9
$PLIMMIN
 10
0.0
 20
0.0
  9
$PLIMMAX
 10
12.0
 20
9.0
  9
$UNITMODE
 70
     0
  9
$VISRETAIN
 70
     0
  9
$PLINEGEN
 70
     0
  9
$PSLTSCALE
 70
     0
  0
ENDSEC
  0
SECTION
  2
TABLES
  0
TABLE
  2
VPORT
 70
     2
  0
VPORT
  2
*ACTIVE
 70
     0
 10
0.0
 20
0.0
 11
1.0
 21
1.0
 12
-26.603244
 22
-171.566525
 13
0.0
 23
0.0
 14
1.0
 24
1.0
 15
50.0
 25
50.0
 16
0.0
 26
0.0
 36
1.0
 17
0.0
 27
0.0
 37
0.0
 40
460.657468
 41
1.903766
 42
50.0
 43
0.0
 44
0.0
 50
0.0
 51
0.0
 71
     0
 72
   100
 73
     1
 74
     1
 75
     0
 76
     0
 77
     0
 78
     0
  0
ENDTAB
  0
TABLE
  2
LTYPE
 70
     2
  0
LTYPE
  2
CONTINUOUS
 70
     0
  3
Solid Line
 72
    65
 73
     0
 40
0.0
  0
LTYPE
  2
31
 70
     0
  3

 72
    65
 73
     4
 40
2.1
 49
1.5
 49
-0.3
 49
0.0
 49
-0.3
  0
ENDTAB
  0
TABLE
  2
LAYER
 70
     9
  0
LAYER
  2
0
 70
     0
 62
     7
  6
CONTINUOUS
  0
LAYER
  2
DEFPOINTS
 70
     0
 62
     7
  6
CONTINUOUS
  0
LAYER
  2
TEAM-BODY
 70
     0
 62
     2
  6
CONTINUOUS
  0
LAYER
  2
TEAM-AXE
 70
     0
 62
    10
  6
31
  0
LAYER
  2
TEAM-MAS
 70
     0
 62
     9
  6
CONTINUOUS
  0
LAYER
  2
TEAM-TXT
 70
     0
 62
    11
  6
CONTINUOUS
  0
LAYER
  2
TEAM-DET1
 70
     0
 62
     4
  6
CONTINUOUS
  0
LAYER
  2
TEAM-NET
 70
     0
 62
    15
  6
CONTINUOUS
  0
LAYER
  2
TEAM-INSP
 70
     0
 62
     5
  6
CONTINUOUS
  0
ENDTAB
  0
TABLE
  2
STYLE
 70
     2
  0
STYLE
  2
STANDARD
 70
     0
 40
0.0
 41
1.0
 50
0.0
 71
     0
 42
200.0
  3
txt
  4

  0
STYLE
  2
TEAM
 70
     0
 40
0.0
 41
0.8
 50
15.0
 71
     0
 42
7.0
  3
ROMANS.shx
  4

  0
ENDTAB
  0
TABLE
  2
VIEW
 70
     0
  0
ENDTAB
  0
TABLE
  2
UCS
 70
     0
  0
ENDTAB
  0
TABLE
  2
APPID
 70
     1
  0
APPID
  2
ACAD
 70
     0
  0
ENDTAB
  0
TABLE
  2
DIMSTYLE
 70
     1
  0
DIMSTYLE
  2
TEAM
 70
     0
  3

  4

  5

  6

  7

 40
0.0
 41
20.0
 42
10.0
 43
1.0
 44
1.0
 45
0.0
 46
0.0
 47
0.0
 48
0.0
140
35.0
141
1.0
142
0.0
143
25.4
144
1.0
145
0.0
146
1.0
147
7.0
 71
     0
 72
     0
 73
     0
 74
     0
 75
     0
 76
     0
 77
     0
 78
     0
170
     0
171
     2
172
     0
173
     0
174
     0
175
     0
176
     9
177
     9
178
    11
  0
ENDTAB
  0
ENDSEC
  0
SECTION
  2
BLOCKS
  0
BLOCK
  8
0
  2
$MODEL_SPACE
 70
     0
 10
0.0
 20
0.0
 30
0.0
  3
$MODEL_SPACE
  1

  0
ENDBLK
  5
BA
  8
0
  0
BLOCK
 67
     1
  8
0
  2
$PAPER_SPACE
 70
     0
 10
0.0
 20
0.0
 30
0.0
  3
$PAPER_SPACE
  1

  0
ENDBLK
  5
B8
 67
     1
  8
0
  0
BLOCK
  8
0
  2
*D0
 70
     1
 10
0.0
 20
0.0
 30
0.0
  3
*D0
  1

  0
LINE
  5
22
  8
0
  6
BYBLOCK
 62
     9
 10
-65.928932
 20
127792.928932
 30
0.0
 11
-27.257851
 21
127754.257851
 31
0.0
  0
LINE
  5
23
  8
0
  6
BYBLOCK
 62
     9
 10
67.007143
 20
127925.865007
 30
0.0
 11
105.678224
 21
127887.193925
 31
0.0
  0
LINE
  5
24
  8
0
  6
BYBLOCK
 62
     9
 10
-42.107093
 20
127740.822822
 30
0.0
 11
-56.249229
 21
127726.680686
 31
0.0
  0
LINE
  5
25
  8
0
  6
BYBLOCK
 62
     9
 10
119.113253
 20
127902.043168
 30
0.0
 11
133.255389
 21
127916.185303
 31
0.0
  0
SOLID
  5
26
  8
0
  6
BYBLOCK
 62
     9
 10
-44.464116
 20
127743.179844
 30
0.0
 11
-39.75007
 21
127738.465799
 31
0.0
 12
-27.964957
 22
127754.964957
 32
0.0
 13
-27.964957
 23
127754.964957
 33
0.0
  0
SOLID
  5
27
  8
0
  6
BYBLOCK
 62
     9
 10
116.756231
 20
127904.40019
 30
0.0
 11
121.470276
 21
127899.686145
 31
0.0
 12
104.971117
 22
127887.901032
 32
0.0
 13
104.971117
 23
127887.901032
 33
0.0
  0
TEXT
  5
28
  8
0
  6
BYBLOCK
 62
    11
 10
-2.744816
 20
127755.436362
 30
0.0
 40
35.0
  1
188.00
 50
45.0
  0
POINT
  5
29
  8
DEFPOINTS
  6
BYBLOCK
 62
     0
 10
-73.0
 20
127800.0
 30
0.0
  0
POINT
  5
2B
  8
DEFPOINTS
  6
BYBLOCK
 62
     0
 10
59.936075
 20
127932.936075
 30
0.0
  0
POINT
  5
2C
  8
DEFPOINTS
  6
BYBLOCK
 62
     0
 10
104.971117
 20
127887.901032
 30
0.0
  0
ENDBLK
  5
2E
  8
0
  0
BLOCK
  8
0
  2
*D1
 70
     1
 10
0.0
 20
0.0
 30
0.0
  3
*D1
  1

  0
LINE
  5
32
  8
0
  6
BYBLOCK
 62
     9
 10
-137.0
 20
128000.0
 30
0.0
 11
-265.926695
 21
128000.0
 31
0.0
  0
LINE
  5
33
  8
0
  6
BYBLOCK
 62
     9
 10
-83.0
 20
127650.0
 30
0.0
 11
-265.926695
 21
127650.0
 31
0.0
  0
LINE
  5
34
  8
0
  6
BYBLOCK
 62
     9
 10
-264.926695
 20
127980.0
 30
0.0
 11
-264.926695
 21
127910.75
 31
0.0
  0
LINE
  5
35
  8
0
  6
BYBLOCK
 62
     9
 10
-264.926695
 20
127670.0
 30
0.0
 11
-264.926695
 21
127739.25
 31
0.0
  0
SOLID
  5
36
  8
0
  6
BYBLOCK
 62
     9
 10
-268.260028
 20
127980.0
 30
0.0
 11
-261.593361
 21
127980.0
 31
0.0
 12
-264.926695
 22
128000.0
 32
0.0
 13
-264.926695
 23
128000.0
 33
0.0
  0
SOLID
  5
37
  8
0
  6
BYBLOCK
 62
     9
 10
-268.260028
 20
127670.0
 30
0.0
 11
-261.593361
 21
127670.0
 31
0.0
 12
-264.926695
 22
127650.0
 32
0.0
 13
-264.926695
 23
127650.0
 33
0.0
  0
TEXT
  5
38
  8
0
  6
BYBLOCK
 62
    11
 10
-247.426695
 20
127746.25
 30
0.0
 40
35.0
  1
350.00
 50
90.0
  0
POINT
  5
39
  8
DEFPOINTS
  6
BYBLOCK
 62
     0
 10
-127.0
 20
128000.0
 30
0.0
  0
POINT
  5
3A
  8
DEFPOINTS
  6
BYBLOCK
 62
     0
 10
-73.0
 20
127650.0
 30
0.0
  0
POINT
  5
3B
  8
DEFPOINTS
  6
BYBLOCK
 62
     0
 10
-264.926695
 20
127650.0
 30
0.0
  0
ENDBLK
  5
3D
  8
0
  0
BLOCK
  8
0
  2
*D2
 70
     1
 10
0.0
 20
0.0
 30
0.0
  3
*D2
  1

  0
LINE
  5
40
  8
0
  6
BYBLOCK
 62
     9
 10
127.0
 20
128010.0
 30
0.0
 11
127.0
 21
128040.797998
 31
0.0
  0
LINE
  5
41
  8
0
  6
BYBLOCK
 62
     9
 10
-223.0
 20
127810.0
 30
0.0
 11
-223.0
 21
128040.797998
 31
0.0
  0
LINE
  5
42
  8
0
  6
BYBLOCK
 62
     9
 10
107.0
 20
128039.797998
 30
0.0
 11
37.75
 21
128039.797998
 31
0.0
  0
LINE
  5
43
  8
0
  6
BYBLOCK
 62
     9
 10
-203.0
 20
128039.797998
 30
0.0
 11
-133.75
 21
128039.797998
 31
0.0
  0
SOLID
  5
44
  8
0
  6
BYBLOCK
 62
     9
 10
107.0
 20
128043.131331
 30
0.0
 11
107.0
 21
128036.464665
 31
0.0
 12
127.0
 22
128039.797998
 32
0.0
 13
127.0
 23
128039.797998
 33
0.0
  0
SOLID
  5
45
  8
0
  6
BYBLOCK
 62
     9
 10
-203.0
 20
128043.131331
 30
0.0
 11
-203.0
 21
128036.464665
 31
0.0
 12
-223.0
 22
128039.797998
 32
0.0
 13
-223.0
 23
128039.797998
 33
0.0
  0
TEXT
  5
46
  8
0
  6
BYBLOCK
 62
    11
 10
-126.75
 20
128022.297998
 30
0.0
 40
35.0
  1
350.00
  0
POINT
  5
47
  8
DEFPOINTS
  6
BYBLOCK
 62
     0
 10
127.0
 20
128000.0
 30
0.0
  0
POINT
  5
48
  8
DEFPOINTS
  6
BYBLOCK
 62
     0
 10
-223.0
 20
127800.0
 30
0.0
  0
POINT
  5
49
  8
DEFPOINTS
  6
BYBLOCK
 62
     0
 10
-223.0
 20
128039.797998
 30
0.0
  0
ENDBLK
  5
4B
  8
0
  0
BLOCK
  8
0
  2
*D3
 70
     1
 10
0.0
 20
0.0
 30
0.0
  3
*D3
  1

  0
LINE
  5
4E
  8
0
  6
BYBLOCK
 62
     9
 10
-223.0
 20
127790.0
 30
0.0
 11
-223.0
 21
127616.043845
 31
0.0
  0
LINE
  5
4F
  8
0
  6
BYBLOCK
 62
     9
 10
77.0
 20
127790.0
 30
0.0
 11
77.0
 21
127616.043845
 31
0.0
  0
LINE
  5
50
  8
0
  6
BYBLOCK
 62
     9
 10
-203.0
 20
127617.043845
 30
0.0
 11
-155.833333
 21
127617.043845
 31
0.0
  0
LINE
  5
51
  8
0
  6
BYBLOCK
 62
     9
 10
57.0
 20
127617.043845
 30
0.0
 11
9.833333
 21
127617.043845
 31
0.0
  0
SOLID
  5
52
  8
0
  6
BYBLOCK
 62
     9
 10
-203.0
 20
127620.377178
 30
0.0
 11
-203.0
 21
127613.710512
 31
0.0
 12
-223.0
 22
127617.043845
 32
0.0
 13
-223.0
 23
127617.043845
 33
0.0
  0
SOLID
  5
53
  8
0
  6
BYBLOCK
 62
     9
 10
57.0
 20
127620.377178
 30
0.0
 11
57.0
 21
127613.710512
 31
0.0
 12
77.0
 22
127617.043845
 32
0.0
 13
77.0
 23
127617.043845
 33
0.0
  0
TEXT
  5
54
  8
0
  6
BYBLOCK
 62
    11
 10
-148.833333
 20
127599.543845
 30
0.0
 40
35.0
  1
300.00
  0
POINT
  5
55
  8
DEFPOINTS
  6
BYBLOCK
 62
     0
 10
-223.0
 20
127800.0
 30
0.0
  0
POINT
  5
56
  8
DEFPOINTS
  6
BYBLOCK
 62
     0
 10
77.0
 20
127800.0
 30
0.0
  0
POINT
  5
57
  8
DEFPOINTS
  6
BYBLOCK
 62
     0
 10
77.0
 20
127617.043845
 30
0.0
  0
ENDBLK
  5
59
  8
0
  0
BLOCK
  8
0
  2
*D4
 70
     1
 10
0.0
 20
0.0
 30
0.0
  3
*D4
  1

  0
LINE
  5
5C
  8
0
  6
BYBLOCK
 62
     9
 10
137.0
 20
128000.0
 30
0.0
 11
173.22141
 21
128000.0
 31
0.0
  0
LINE
  5
5D
  8
0
  6
BYBLOCK
 62
     9
 10
137.0
 20
127750.0
 30
0.0
 11
173.22141
 21
127750.0
 31
0.0
  0
LINE
  5
5E
  8
0
  6
BYBLOCK
 62
     9
 10
172.22141
 20
127980.0
 30
0.0
 11
172.22141
 21
127960.75
 31
0.0
  0
LINE
  5
5F
  8
0
  6
BYBLOCK
 62
     9
 10
172.22141
 20
127770.0
 30
0.0
 11
172.22141
 21
127789.25
 31
0.0
  0
SOLID
  5
60
  8
0
  6
BYBLOCK
 62
     9
 10
168.888077
 20
127980.0
 30
0.0
 11
175.554744
 21
127980.0
 31
0.0
 12
172.22141
 22
128000.0
 32
0.0
 13
172.22141
 23
128000.0
 33
0.0
  0
SOLID
  5
61
  8
0
  6
BYBLOCK
 62
     9
 10
168.888077
 20
127770.0
 30
0.0
 11
175.554744
 21
127770.0
 31
0.0
 12
172.22141
 22
127750.0
 32
0.0
 13
172.22141
 23
127750.0
 33
0.0
  0
TEXT
  5
62
  8
0
  6
BYBLOCK
 62
    11
 10
189.72141
 20
127796.25
 30
0.0
 40
35.0
  1
250.00
 50
90.0
  0
POINT
  5
63
  8
DEFPOINTS
  6
BYBLOCK
 62
     0
 10
127.0
 20
128000.0
 30
0.0
  0
POINT
  5
64
  8
DEFPOINTS
  6
BYBLOCK
 62
     0
 10
127.0
 20
127750.0
 30
0.0
  0
POINT
  5
65
  8
DEFPOINTS
  6
BYBLOCK
 62
     0
 10
172.22141
 20
127750.0
 30
0.0
  0
ENDBLK
  5
67
  8
0
  0
ENDSEC
  0
SECTION
  2
ENTITIES
  0
DIMENSION
  5
20
  8
TEAM-MAS
  2
*D0
 10
104.971117
 20
-112.098968
 30
0.0
 11
38.50308
 21
-178.567005
 31
0.0
 12
0.0
 22
-128000.0
 32
0.0
 70
     1
 13
-73.0
 23
-200.0
 33
0.0
 14
59.936075
 24
-67.063925
 34
0.0
1001
ACAD
1000
DSTYLE
1002
{
1070
    40
1040
1.0
1002
}
  0
DIMENSION
  5
2F
  8
TEAM-NET
  2
*D1
 10
-264.926695
 20
-350.0
 30
0.0
 11
-264.926695
 21
-175.0
 31
0.0
 12
0.0
 22
-128000.0
 32
0.0
 13
-127.0
 23
0.0
 33
0.0
 14
-73.0
 24
-350.0
 34
0.0
 50
90.0
1001
ACAD
1000
DSTYLE
1002
{
1070
    40
1040
1.0
1002
}
  0
DIMENSION
  5
3E
  8
TEAM-MAS
  2
*D2
 10
-223.0
 20
39.797998
 30
0.0
 11
-48.0
 21
39.797998
 31
0.0
 12
0.0
 22
-128000.0
 32
0.0
 13
127.0
 23
0.0
 33
0.0
 14
-223.0
 24
-200.0
 34
0.0
1001
ACAD
1000
DSTYLE
1002
{
1070
    40
1040
1.0
1002
}
  0
DIMENSION
  5
4C
  8
TEAM-MAS
  2
*D3
 10
77.0
 20
-382.956155
 30
0.0
 11
-73.0
 21
-382.956155
 31
0.0
 12
0.0
 22
-128000.0
 32
0.0
 13
-223.0
 23
-200.0
 33
0.0
 14
77.0
 24
-200.0
 34
0.0
1001
ACAD
1000
DSTYLE
1002
{
1070
    40
1040
1.0
1002
}
  0
DIMENSION
  5
5A
  8
TEAM-MAS
  2
*D4
 10
172.22141
 20
-250.0
 30
0.0
 11
172.22141
 21
-125.0
 31
0.0
 12
0.0
 22
-128000.0
 32
0.0
 13
127.0
 23
0.0
 33
0.0
 14
127.0
 24
-250.0
 34
0.0
 50
90.0
1001
ACAD
1000
DSTYLE
1002
{
1070
    40
1040
1.0
1002
}
  0
LINE
  5
68
  8
TEAM-AXE
 10
39.936075
 20
-67.063925
 30
0.0
 11
79.936075
 21
-67.063925
 31
0.0
  0
LINE
  5
6B
  8
TEAM-AXE
 10
59.936075
 20
-87.063925
 30
0.0
 11
59.936075
 21
-47.063925
 31
0.0
  0
CIRCLE
  5
6C
  8
TEAM-DET1
 10
59.936075
 20
-67.063925
 30
0.0
 40
18.0
  0
POLYLINE
  5
6E
  8
TEAM-BODY
 66
     1
 10
0.0
 20
0.0
 30
0.0
  0
VERTEX
  5
C0
  8
TEAM-BODY
 10
66.552857
 20
-250.0
 30
0.0
  0
VERTEX
  5
C1
  8
TEAM-BODY
 10
127.0
 20
-250.0
 30
0.0
  0
VERTEX
  5
C2
  8
TEAM-BODY
 10
127.0
 20
0.0
 30
0.0
  0
VERTEX
  5
C3
  8
TEAM-BODY
 10
-127.0
 20
0.0
 30
0.0
  0
VERTEX
  5
C4
  8
TEAM-BODY
 10
-127.0
 20
-60.057155
 30
0.0
  0
SEQEND
  5
C5
  8
TEAM-BODY
  0
CIRCLE
  5
70
  8
TEAM-BODY
 10
-73.0
 20
-200.0
 30
0.0
 40
150.0
  0
CIRCLE
  5
71
  8
TEAM-DET1
 10
-73.0
 20
-200.0
 30
0.0
 40
30.0
  0
LINE
  5
72
  8
TEAM-AXE
 10
-113.0
 20
-200.0
 30
0.0
 11
-33.0
 21
-200.0
 31
0.0
  0
LINE
  5
73
  8
TEAM-AXE
 10
-73.0
 20
-240.0
 30
0.0
 11
-73.0
 21
-160.0
 31
0.0
  0
CIRCLE
  5
74
  8
TEAM-BODY
 10
-73.0
 20
-200.0
 30
0.0
 40
20.0
  0
CIRCLE
  5
75
  8
TEAM-INSP
 10
-3.0
 20
0.0
 30
0.0
 40
10.0
  0
TEXT
  5
77
  8
TEAM-TXT
 10
-24.16936
 20
-307.657801
 30
0.0
 40
30.0
  1
team 217032
 41
0.8
 51
15.0
  7
TEAM
  0
ENDSEC
  0
EOF
