  0
SECTION
  2
HEADER
  9
$ACADVER
  1
AC1009
  9
$INSBASE
 10
0.0
 20
0.0
 30
0.0
  9
$EXTMIN
 10
-458.246237
 20
-504.163562
 30
0.0
  9
$EXTMAX
 10
496.198981
 20
40.038537
 30
0.0
  9
$LIMMIN
 10
-458.246237
 20
-504.163562
  9
$LIMMAX
 10
496.198981
 20
40.038537
  9
$ORTHOMODE
 70
     1
  9
$REGENMODE
 70
     1
  9
$FILLMODE
 70
     1
  9
$QTEXTMODE
 70
     0
  9
$MIRRTEXT
 70
     0
  9
$DRAGMODE
 70
     2
  9
$LTSCALE
 40
50.0
  9
$OSMODE
 70
     7
  9
$ATTMODE
 70
     1
  9
$TEXTSIZE
 40
200.0
  9
$TRACEWID
 40
1.0
  9
$TEXTSTYLE
  7
STANDARD
  9
$CLAYER
  8
TEAM-MAS
  9
$CELTYPE
  6
BYLAYER
  9
$CECOLOR
 62
   256
  9
$DIMSCALE
 40
0.0
  9
$DIMASZ
 40
20.0
  9
$DIMEXO
 40
10.0
  9
$DIMDLI
 40
1.0
  9
$DIMRND
 40
0.0
  9
$DIMDLE
 40
0.0
  9
$DIMEXE
 40
1.0
  9
$DIMTP
 40
0.0
  9
$DIMTM
 40
0.0
  9
$DIMTXT
 40
35.0
  9
$DIMCEN
 40
1.0
  9
$DIMTSZ
 40
0.0
  9
$DIMTOL
 70
     0
  9
$DIMLIM
 70
     0
  9
$DIMTIH
 70
     0
  9
$DIMTOH
 70
     0
  9
$DIMSE1
 70
     0
  9
$DIMSE2
 70
     0
  9
$DIMTAD
 70
     0
  9
$DIMZIN
 70
     0
  9
$DIMBLK
  1

  9
$DIMASO
 70
     1
  9
$DIMSHO
 70
     0
  9
$DIMPOST
  1

  9
$DIMAPOST
  1

  9
$DIMALT
 70
     0
  9
$DIMALTD
 70
     2
  9
$DIMALTF
 40
25.4
  9
$DIMLFAC
 40
1.0
  9
$DIMTOFL
 70
     0
  9
$DIMTVP
 40
0.0
  9
$DIMTIX
 70
     0
  9
$DIMSOXD
 70
     0
  9
$DIMSAH
 70
     0
  9
$DIMBLK1
  1

  9
$DIMBLK2
  1

  9
$DIMSTYLE
  2
TEAM
  9
$DIMCLRD
 70
     9
  9
$DIMCLRE
 70
     9
  9
$DIMCLRT
 70
    11
  9
$DIMTFAC
 40
1.0
  9
$DIMGAP
 40
7.0
  9
$LUNITS
 70
     2
  9
$LUPREC
 70
     1
  9
$SKETCHINC
 40
1.0
  9
$FILLETRAD
 40
50.0
  9
$AUNITS
 70
     0
  9
$AUPREC
 70
     0
  9
$MENU
  1
ROPLANS
  9
$ELEVATION
 40
0.0
  9
$PELEVATION
 40
0.0
  9
$THICKNESS
 40
0.0
  9
$LIMCHECK
 70
     0
  9
$BLIPMODE
 70
     1
  9
$CHAMFERA
 40
0.0
  9
$CHAMFERB
 40
0.0
  9
$SKPOLY
 70
     0
  9
$TDCREATE
 40
2450392.957851
  9
$TDUPDATE
 40
2456007.443441
  9
$TDINDWG
 40
2.426484
  9
$TDUSRTIMER
 40
2.426484
  9
$USRTIMER
 70
     1
  9
$ANGBASE
 50
0.0
  9
$ANGDIR
 70
     0
  9
$PDMODE
 70
     0
  9
$PDSIZE
 40
0.0
  9
$PLINEWID
 40
0.0
  9
$COORDS
 70
     2
  9
$SPLFRAME
 70
     0
  9
$SPLINETYPE
 70
     6
  9
$SPLINESEGS
 70
     8
  9
$ATTDIA
 70
     0
  9
$ATTREQ
 70
     0
  9
$HANDLING
 70
     1
  9
$HANDSEED
  5
16B
  9
$SURFTAB1
 70
    24
  9
$SURFTAB2
 70
    24
  9
$SURFTYPE
 70
     6
  9
$SURFU
 70
     6
  9
$SURFV
 70
     6
  9
$UCSNAME
  2

  9
$UCSORG
 10
0.0
 20
0.0
 30
0.0
  9
$UCSXDIR
 10
1.0
 20
0.0
 30
0.0
  9
$UCSYDIR
 10
0.0
 20
1.0
 30
0.0
  9
$PUCSNAME
  2

  9
$PUCSORG
 10
0.0
 20
0.0
 30
0.0
  9
$PUCSXDIR
 10
1.0
 20
0.0
 30
0.0
  9
$PUCSYDIR
 10
0.0
 20
1.0
 30
0.0
  9
$USERI1
 70
     0
  9
$USERI2
 70
     0
  9
$USERI3
 70
     0
  9
$USERI4
 70
     0
  9
$USERI5
 70
     0
  9
$USERR1
 40
0.0
  9
$USERR2
 40
0.0
  9
$USERR3
 40
0.0
  9
$USERR4
 40
0.0
  9
$USERR5
 40
0.0
  9
$WORLDVIEW
 70
     1
  9
$SHADEDGE
 70
     0
  9
$SHADEDIF
 70
    70
  9
$TILEMODE
 70
     1
  9
$MAXACTVP
 70
    16
  9
$PLIMCHECK
 70
     0
  9
$PEXTMIN
 10
-0.805942
 20
0.005011
 30
0.0
  9
$PEXTMAX
 10
20.250094
 20
11.356329
 30
0.0
  9
$PLIMMIN
 10
0.0
 20
0.0
  9
$PLIMMAX
 10
12.0
 20
9.0
  9
$UNITMODE
 70
     0
  9
$VISRETAIN
 70
     0
  9
$PLINEGEN
 70
     0
  9
$PSLTSCALE
 70
     0
  0
ENDSEC
  0
SECTION
  2
TABLES
  0
TABLE
  2
VPORT
 70
     2
  0
VPORT
  2
*ACTIVE
 70
     0
 10
0.0
 20
0.0
 11
1.0
 21
1.0
 12
18.976372
 22
-232.062513
 13
0.0
 23
0.0
 14
1.0
 24
1.0
 15
50.0
 25
50.0
 16
0.0
 26
0.0
 36
1.0
 17
0.0
 27
0.0
 37
0.0
 40
547.614025
 41
1.903766
 42
50.0
 43
0.0
 44
0.0
 50
0.0
 51
0.0
 71
     0
 72
   100
 73
     1
 74
     1
 75
     0
 76
     0
 77
     0
 78
     0
  0
ENDTAB
  0
TABLE
  2
LTYPE
 70
     2
  0
LTYPE
  2
CONTINUOUS
 70
     0
  3
Solid Line
 72
    65
 73
     0
 40
0.0
  0
LTYPE
  2
31
 70
     0
  3

 72
    65
 73
     4
 40
2.1
 49
1.5
 49
-0.3
 49
0.0
 49
-0.3
  0
ENDTAB
  0
TABLE
  2
LAYER
 70
     9
  0
LAYER
  2
0
 70
     0
 62
     7
  6
CONTINUOUS
  0
LAYER
  2
DEFPOINTS
 70
     0
 62
     7
  6
CONTINUOUS
  0
LAYER
  2
TEAM-BODY
 70
     0
 62
     2
  6
CONTINUOUS
  0
LAYER
  2
TEAM-AXE
 70
     0
 62
    10
  6
31
  0
LAYER
  2
TEAM-MAS
 70
     0
 62
     9
  6
CONTINUOUS
  0
LAYER
  2
TEAM-TXT
 70
     0
 62
    11
  6
CONTINUOUS
  0
LAYER
  2
TEAM-DET1
 70
     0
 62
     4
  6
CONTINUOUS
  0
LAYER
  2
TEAM-KAN
 70
     0
 62
     6
  6
CONTINUOUS
  0
LAYER
  2
TEAM-INSP
 70
     0
 62
     5
  6
CONTINUOUS
  0
ENDTAB
  0
TABLE
  2
STYLE
 70
     2
  0
STYLE
  2
STANDARD
 70
     0
 40
0.0
 41
1.0
 50
0.0
 71
     0
 42
200.0
  3
txt
  4

  0
STYLE
  2
TEAM
 70
     0
 40
0.0
 41
0.8
 50
15.0
 71
     0
 42
7.0
  3
ROMANS.shx
  4

  0
ENDTAB
  0
TABLE
  2
VIEW
 70
     0
  0
ENDTAB
  0
TABLE
  2
UCS
 70
     0
  0
ENDTAB
  0
TABLE
  2
APPID
 70
     1
  0
APPID
  2
ACAD
 70
     0
  0
ENDTAB
  0
TABLE
  2
DIMSTYLE
 70
     1
  0
DIMSTYLE
  2
TEAM
 70
     0
  3

  4

  5

  6

  7

 40
0.0
 41
20.0
 42
10.0
 43
1.0
 44
1.0
 45
0.0
 46
0.0
 47
0.0
 48
0.0
140
35.0
141
1.0
142
0.0
143
25.4
144
1.0
145
0.0
146
1.0
147
7.0
 71
     0
 72
     0
 73
     0
 74
     0
 75
     0
 76
     0
 77
     0
 78
     0
170
     0
171
     2
172
     0
173
     0
174
     0
175
     0
176
     9
177
     9
178
    11
  0
ENDTAB
  0
ENDSEC
  0
SECTION
  2
BLOCKS
  0
BLOCK
  8
0
  2
$MODEL_SPACE
 70
     0
 10
0.0
 20
0.0
 30
0.0
  3
$MODEL_SPACE
  1

  0
ENDBLK
  5
151
  8
0
  0
BLOCK
 67
     1
  8
0
  2
$PAPER_SPACE
 70
     0
 10
0.0
 20
0.0
 30
0.0
  3
$PAPER_SPACE
  1

  0
ENDBLK
  5
14F
 67
     1
  8
0
  0
BLOCK
  8
0
  2
*D0
 70
     1
 10
0.0
 20
0.0
 30
0.0
  3
*D0
  1

  0
LINE
  5
87
  8
0
  6
BYBLOCK
 62
     9
 10
400.0
 20
15585.0
 30
0.0
 11
400.0
 21
15512.376107
 31
0.0
  0
LINE
  5
88
  8
0
  6
BYBLOCK
 62
     9
 10
-400.0
 20
15585.0
 30
0.0
 11
-400.0
 21
15512.376107
 31
0.0
  0
LINE
  5
89
  8
0
  6
BYBLOCK
 62
     9
 10
380.0
 20
15513.376107
 30
0.0
 11
47.833333
 21
15513.376107
 31
0.0
  0
LINE
  5
8A
  8
0
  6
BYBLOCK
 62
     9
 10
-380.0
 20
15513.376107
 30
0.0
 11
-47.833333
 21
15513.376107
 31
0.0
  0
SOLID
  5
8B
  8
0
  6
BYBLOCK
 62
     9
 10
380.0
 20
15516.70944
 30
0.0
 11
380.0
 21
15510.042773
 31
0.0
 12
400.0
 22
15513.376107
 32
0.0
 13
400.0
 23
15513.376107
 33
0.0
  0
SOLID
  5
8C
  8
0
  6
BYBLOCK
 62
     9
 10
-380.0
 20
15516.70944
 30
0.0
 11
-380.0
 21
15510.042773
 31
0.0
 12
-400.0
 22
15513.376107
 32
0.0
 13
-400.0
 23
15513.376107
 33
0.0
  0
TEXT
  5
8D
  8
0
  6
BYBLOCK
 62
    11
 10
-40.833333
 20
15495.876107
 30
0.0
 40
35.0
  1
800
  0
POINT
  5
8E
  8
DEFPOINTS
  6
BYBLOCK
 62
     0
 10
400.0
 20
15595.0
 30
0.0
  0
POINT
  5
8F
  8
DEFPOINTS
  6
BYBLOCK
 62
     0
 10
-400.0
 20
15595.0
 30
0.0
  0
POINT
  5
90
  8
DEFPOINTS
  6
BYBLOCK
 62
     0
 10
-400.0
 20
15513.376107
 30
0.0
  0
ENDBLK
  5
92
  8
0
  0
BLOCK
  8
0
  2
*D1
 70
     1
 10
0.0
 20
0.0
 30
0.0
  3
*D1
  1

  0
LINE
  5
76
  8
0
  6
BYBLOCK
 62
     9
 10
250.0
 20
15650.0
 30
0.0
 11
250.0
 21
15559.250761
 31
0.0
  0
LINE
  5
77
  8
0
  6
BYBLOCK
 62
     9
 10
-250.0
 20
15650.0
 30
0.0
 11
-250.0
 21
15559.250761
 31
0.0
  0
LINE
  5
78
  8
0
  6
BYBLOCK
 62
     9
 10
230.0
 20
15560.250761
 30
0.0
 11
47.833333
 21
15560.250761
 31
0.0
  0
LINE
  5
79
  8
0
  6
BYBLOCK
 62
     9
 10
-230.0
 20
15560.250761
 30
0.0
 11
-47.833333
 21
15560.250761
 31
0.0
  0
SOLID
  5
7A
  8
0
  6
BYBLOCK
 62
     9
 10
230.0
 20
15563.584095
 30
0.0
 11
230.0
 21
15556.917428
 31
0.0
 12
250.0
 22
15560.250761
 32
0.0
 13
250.0
 23
15560.250761
 33
0.0
  0
SOLID
  5
7B
  8
0
  6
BYBLOCK
 62
     9
 10
-230.0
 20
15563.584095
 30
0.0
 11
-230.0
 21
15556.917428
 31
0.0
 12
-250.0
 22
15560.250761
 32
0.0
 13
-250.0
 23
15560.250761
 33
0.0
  0
TEXT
  5
7C
  8
0
  6
BYBLOCK
 62
    11
 10
-40.833333
 20
15542.750761
 30
0.0
 40
35.0
  1
500
  0
POINT
  5
7D
  8
DEFPOINTS
  6
BYBLOCK
 62
     0
 10
250.0
 20
15660.0
 30
0.0
  0
POINT
  5
7E
  8
DEFPOINTS
  6
BYBLOCK
 62
     0
 10
-250.0
 20
15660.0
 30
0.0
  0
POINT
  5
7F
  8
DEFPOINTS
  6
BYBLOCK
 62
     0
 10
-250.0
 20
15560.250761
 30
0.0
  0
ENDBLK
  5
81
  8
0
  0
BLOCK
  8
0
  2
*D2
 70
     1
 10
0.0
 20
0.0
 30
0.0
  3
*D2
  1

  0
LINE
  5
22
  8
0
  6
BYBLOCK
 62
     9
 10
-410.0
 20
16000.0
 30
0.0
 11
-441.695049
 21
16000.0
 31
0.0
  0
LINE
  5
23
  8
0
  6
BYBLOCK
 62
     9
 10
-10.0
 20
15825.0
 30
0.0
 11
-441.695049
 21
15825.0
 31
0.0
  0
LINE
  5
24
  8
0
  6
BYBLOCK
 62
     9
 10
-440.695049
 20
16020.0
 30
0.0
 11
-440.695049
 21
16040.0
 31
0.0
  0
LINE
  5
25
  8
0
  6
BYBLOCK
 62
     9
 10
-440.695049
 20
15805.0
 30
0.0
 11
-440.695049
 21
15785.0
 31
0.0
  0
SOLID
  5
26
  8
0
  6
BYBLOCK
 62
     9
 10
-444.028382
 20
16020.0
 30
0.0
 11
-437.361716
 21
16020.0
 31
0.0
 12
-440.695049
 22
16000.0
 32
0.0
 13
-440.695049
 23
16000.0
 33
0.0
  0
SOLID
  5
27
  8
0
  6
BYBLOCK
 62
     9
 10
-444.028382
 20
15805.0
 30
0.0
 11
-437.361716
 21
15805.0
 31
0.0
 12
-440.695049
 22
15825.0
 32
0.0
 13
-440.695049
 23
15825.0
 33
0.0
  0
TEXT
  5
28
  8
0
  6
BYBLOCK
 62
    11
 10
-423.195049
 20
15854.166667
 30
0.0
 40
35.0
  1
~175
 50
90.0
  0
POINT
  5
29
  8
DEFPOINTS
  6
BYBLOCK
 62
     0
 10
-400.0
 20
16000.0
 30
0.0
  0
POINT
  5
2B
  8
DEFPOINTS
  6
BYBLOCK
 62
     0
 10
0.0
 20
15825.0
 30
0.0
  0
POINT
  5
2C
  8
DEFPOINTS
  6
BYBLOCK
 62
     0
 10
-440.695049
 20
15825.0
 30
0.0
  0
ENDBLK
  5
2E
  8
0
  0
BLOCK
  8
0
  2
*D3
 70
     1
 10
0.0
 20
0.0
 30
0.0
  3
*D3
  1

  0
LINE
  5
68
  8
0
  6
BYBLOCK
 62
     9
 10
-250.0
 20
15650.0
 30
0.0
 11
-250.0
 21
15559.250761
 31
0.0
  0
LINE
  5
69
  8
0
  6
BYBLOCK
 62
     9
 10
-400.0
 20
15585.0
 30
0.0
 11
-400.0
 21
15559.250761
 31
0.0
  0
LINE
  5
6A
  8
0
  6
BYBLOCK
 62
     9
 10
-270.0
 20
15560.250761
 30
0.0
 11
-280.083333
 21
15560.250761
 31
0.0
  0
LINE
  5
6B
  8
0
  6
BYBLOCK
 62
     9
 10
-380.0
 20
15560.250761
 30
0.0
 11
-369.916667
 21
15560.250761
 31
0.0
  0
TEXT
  5
6C
  8
0
  6
BYBLOCK
 62
    11
 10
-362.916667
 20
15542.750761
 30
0.0
 40
35.0
  1
150
  0
SOLID
  5
6D
  8
0
  6
BYBLOCK
 62
     9
 10
-270.0
 20
15563.584095
 30
0.0
 11
-270.0
 21
15556.917428
 31
0.0
 12
-250.0
 22
15560.250761
 32
0.0
 13
-250.0
 23
15560.250761
 33
0.0
  0
SOLID
  5
6E
  8
0
  6
BYBLOCK
 62
     9
 10
-380.0
 20
15563.584095
 30
0.0
 11
-380.0
 21
15556.917428
 31
0.0
 12
-400.0
 22
15560.250761
 32
0.0
 13
-400.0
 23
15560.250761
 33
0.0
  0
POINT
  5
6F
  8
DEFPOINTS
  6
BYBLOCK
 62
     0
 10
-250.0
 20
15660.0
 30
0.0
  0
POINT
  5
70
  8
DEFPOINTS
  6
BYBLOCK
 62
     0
 10
-400.0
 20
15595.0
 30
0.0
  0
POINT
  5
71
  8
DEFPOINTS
  6
BYBLOCK
 62
     0
 10
-400.0
 20
15560.250761
 30
0.0
  0
ENDBLK
  5
73
  8
0
  0
BLOCK
  8
0
  2
*D4
 70
     1
 10
0.0
 20
0.0
 30
0.0
  3
*D4
  1

  0
LINE
  5
5A
  8
0
  6
BYBLOCK
 62
     9
 10
410.0
 20
15595.0
 30
0.0
 11
479.633604
 21
15595.0
 31
0.0
  0
LINE
  5
5B
  8
0
  6
BYBLOCK
 62
     9
 10
10.0
 20
16000.0
 30
0.0
 11
479.633604
 21
16000.0
 31
0.0
  0
LINE
  5
5C
  8
0
  6
BYBLOCK
 62
     9
 10
478.633604
 20
15615.0
 30
0.0
 11
478.633604
 21
15746.75
 31
0.0
  0
LINE
  5
5D
  8
0
  6
BYBLOCK
 62
     9
 10
478.633604
 20
15980.0
 30
0.0
 11
478.633604
 21
15848.25
 31
0.0
  0
SOLID
  5
5E
  8
0
  6
BYBLOCK
 62
     9
 10
475.300271
 20
15615.0
 30
0.0
 11
481.966938
 21
15615.0
 31
0.0
 12
478.633604
 22
15595.0
 32
0.0
 13
478.633604
 23
15595.0
 33
0.0
  0
SOLID
  5
5F
  8
0
  6
BYBLOCK
 62
     9
 10
475.300271
 20
15980.0
 30
0.0
 11
481.966938
 21
15980.0
 31
0.0
 12
478.633604
 22
16000.0
 32
0.0
 13
478.633604
 23
16000.0
 33
0.0
  0
TEXT
  5
60
  8
0
  6
BYBLOCK
 62
    11
 10
496.133604
 20
15753.75
 30
0.0
 40
35.0
  1
405
 50
90.0
  0
POINT
  5
61
  8
DEFPOINTS
  6
BYBLOCK
 62
     0
 10
400.0
 20
15595.0
 30
0.0
  0
POINT
  5
62
  8
DEFPOINTS
  6
BYBLOCK
 62
     0
 10
0.0
 20
16000.0
 30
0.0
  0
POINT
  5
63
  8
DEFPOINTS
  6
BYBLOCK
 62
     0
 10
478.633604
 20
16000.0
 30
0.0
  0
ENDBLK
  5
65
  8
0
  0
BLOCK
  8
0
  2
*D5
 70
     1
 10
0.0
 20
0.0
 30
0.0
  3
*D5
  1

  0
LINE
  5
4C
  8
0
  6
BYBLOCK
 62
     9
 10
240.0
 20
15640.0
 30
0.0
 11
433.042559
 21
15640.0
 31
0.0
  0
LINE
  5
4D
  8
0
  6
BYBLOCK
 62
     9
 10
240.0
 20
15900.0
 30
0.0
 11
433.042559
 21
15900.0
 31
0.0
  0
LINE
  5
4E
  8
0
  6
BYBLOCK
 62
     9
 10
432.042559
 20
15660.0
 30
0.0
 11
432.042559
 21
15719.25
 31
0.0
  0
LINE
  5
4F
  8
0
  6
BYBLOCK
 62
     9
 10
432.042559
 20
15880.0
 30
0.0
 11
432.042559
 21
15820.75
 31
0.0
  0
SOLID
  5
50
  8
0
  6
BYBLOCK
 62
     9
 10
428.709226
 20
15660.0
 30
0.0
 11
435.375893
 21
15660.0
 31
0.0
 12
432.042559
 22
15640.0
 32
0.0
 13
432.042559
 23
15640.0
 33
0.0
  0
SOLID
  5
51
  8
0
  6
BYBLOCK
 62
     9
 10
428.709226
 20
15880.0
 30
0.0
 11
435.375893
 21
15880.0
 31
0.0
 12
432.042559
 22
15900.0
 32
0.0
 13
432.042559
 23
15900.0
 33
0.0
  0
TEXT
  5
52
  8
0
  6
BYBLOCK
 62
    11
 10
449.542559
 20
15726.25
 30
0.0
 40
35.0
  1
260
 50
90.0
  0
POINT
  5
53
  8
DEFPOINTS
  6
BYBLOCK
 62
     0
 10
230.0
 20
15640.0
 30
0.0
  0
POINT
  5
54
  8
DEFPOINTS
  6
BYBLOCK
 62
     0
 10
230.0
 20
15900.0
 30
0.0
  0
POINT
  5
55
  8
DEFPOINTS
  6
BYBLOCK
 62
     0
 10
432.042559
 20
15900.0
 30
0.0
  0
ENDBLK
  5
57
  8
0
  0
BLOCK
  8
0
  2
*D6
 70
     1
 10
0.0
 20
0.0
 30
0.0
  3
*D6
  1

  0
LINE
  5
3E
  8
0
  6
BYBLOCK
 62
     9
 10
250.0
 20
15650.0
 30
0.0
 11
250.0
 21
15559.250761
 31
0.0
  0
LINE
  5
3F
  8
0
  6
BYBLOCK
 62
     9
 10
400.0
 20
15585.0
 30
0.0
 11
400.0
 21
15559.250761
 31
0.0
  0
LINE
  5
40
  8
0
  6
BYBLOCK
 62
     9
 10
270.0
 20
15560.250761
 30
0.0
 11
280.083333
 21
15560.250761
 31
0.0
  0
LINE
  5
41
  8
0
  6
BYBLOCK
 62
     9
 10
380.0
 20
15560.250761
 30
0.0
 11
369.916667
 21
15560.250761
 31
0.0
  0
TEXT
  5
42
  8
0
  6
BYBLOCK
 62
    11
 10
287.083333
 20
15542.750761
 30
0.0
 40
35.0
  1
150
  0
SOLID
  5
43
  8
0
  6
BYBLOCK
 62
     9
 10
270.0
 20
15563.584095
 30
0.0
 11
270.0
 21
15556.917428
 31
0.0
 12
250.0
 22
15560.250761
 32
0.0
 13
250.0
 23
15560.250761
 33
0.0
  0
SOLID
  5
44
  8
0
  6
BYBLOCK
 62
     9
 10
380.0
 20
15563.584095
 30
0.0
 11
380.0
 21
15556.917428
 31
0.0
 12
400.0
 22
15560.250761
 32
0.0
 13
400.0
 23
15560.250761
 33
0.0
  0
POINT
  5
45
  8
DEFPOINTS
  6
BYBLOCK
 62
     0
 10
250.0
 20
15660.0
 30
0.0
  0
POINT
  5
46
  8
DEFPOINTS
  6
BYBLOCK
 62
     0
 10
400.0
 20
15595.0
 30
0.0
  0
POINT
  5
47
  8
DEFPOINTS
  6
BYBLOCK
 62
     0
 10
400.0
 20
15560.250761
 30
0.0
  0
ENDBLK
  5
49
  8
0
  0
ENDSEC
  0
SECTION
  2
ENTITIES
  0
DIMENSION
  5
20
  8
TEAM-MAS
  2
*D2
 10
-440.695049
 20
-175.0
 30
0.0
 11
-440.695049
 21
-87.5
 31
0.0
 12
0.0
 22
-16000.0
 32
0.0
  1
~<>
 13
-400.0
 23
0.0
 33
0.0
 14
0.0
 24
-175.0
 34
0.0
 50
270.0
1001
ACAD
1000
DSTYLE
1002
{
1070
    40
1040
1.0
1002
}
  0
CIRCLE
  5
2F
  8
TEAM-INSP
 10
0.0
 20
0.0
 30
0.0
 40
10.0
  0
LINE
  5
31
  8
TEAM-AXE
 10
0.0
 20
-70.0
 30
0.0
 11
0.0
 21
-30.0
 31
0.0
  0
LINE
  5
34
  8
TEAM-AXE
 10
20.0
 20
-50.0
 30
0.0
 11
-20.0
 21
-50.0
 31
0.0
  0
CIRCLE
  5
35
  8
TEAM-DET1
 10
0.0
 20
-50.0
 30
0.0
 40
18.0
  0
LINE
  5
37
  8
TEAM-AXE
 10
0.0
 20
-210.0
 30
0.0
 11
0.0
 21
-140.0
 31
0.0
  0
LINE
  5
38
  8
TEAM-AXE
 10
35.0
 20
-175.0
 30
0.0
 11
-35.0
 21
-175.0
 31
0.0
  0
CIRCLE
  5
39
  8
TEAM-KAN
 10
0.0
 20
-175.0
 30
0.0
 40
20.0
  0
CIRCLE
  5
3B
  8
TEAM-DET1
 10
0.0
 20
-175.0
 30
0.0
 40
30.0
  0
DIMENSION
  5
3C
  8
TEAM-MAS
  2
*D6
 10
400.0
 20
-439.749239
 30
0.0
 11
325.0
 21
-439.749239
 31
0.0
 12
0.0
 22
-16000.0
 32
0.0
 70
   128
 13
250.0
 23
-340.0
 33
0.0
 14
400.0
 24
-405.0
 34
0.0
1001
ACAD
1000
DSTYLE
1002
{
1070
    40
1040
1.0
1002
}
  0
DIMENSION
  5
4A
  8
TEAM-MAS
  2
*D5
 10
432.042559
 20
-100.0
 30
0.0
 11
432.042559
 21
-230.0
 31
0.0
 12
0.0
 22
-16000.0
 32
0.0
 13
230.0
 23
-360.0
 33
0.0
 14
230.0
 24
-100.0
 34
0.0
 50
270.0
1001
ACAD
1000
DSTYLE
1002
{
1070
    40
1040
1.0
1002
}
  0
DIMENSION
  5
58
  8
TEAM-MAS
  2
*D4
 10
478.633604
 20
0.0
 30
0.0
 11
478.633604
 21
-202.5
 31
0.0
 12
0.0
 22
-16000.0
 32
0.0
 13
400.0
 23
-405.0
 33
0.0
 14
0.0
 24
0.0
 34
0.0
 50
270.0
1001
ACAD
1000
DSTYLE
1002
{
1070
    40
1040
1.0
1002
}
  0
DIMENSION
  5
66
  8
TEAM-MAS
  2
*D3
 10
-400.0
 20
-439.749239
 30
0.0
 11
-325.0
 21
-439.749239
 31
0.0
 12
0.0
 22
-16000.0
 32
0.0
 70
   128
 13
-250.0
 23
-340.0
 33
0.0
 14
-400.0
 24
-405.0
 34
0.0
1001
ACAD
1000
DSTYLE
1002
{
1070
    40
1040
1.0
1002
}
  0
DIMENSION
  5
74
  8
TEAM-MAS
  2
*D1
 10
-250.0
 20
-439.749239
 30
0.0
 11
0.0
 21
-439.749239
 31
0.0
 12
0.0
 22
-16000.0
 32
0.0
 13
250.0
 23
-340.0
 33
0.0
 14
-250.0
 24
-340.0
 34
0.0
1001
ACAD
1000
DSTYLE
1002
{
1070
    40
1040
1.0
1002
}
  0
POLYLINE
  5
82
  8
TEAM-BODY
 66
     1
 10
0.0
 20
0.0
 30
0.0
 70
     1
  0
VERTEX
  5
157
  8
TEAM-BODY
 10
230.0
 20
-360.0
 30
0.0
  0
VERTEX
  5
158
  8
TEAM-BODY
 10
-230.0
 20
-360.0
 30
0.0
 42
-0.414214
  0
VERTEX
  5
159
  8
TEAM-BODY
 10
-250.0
 20
-340.0
 30
0.0
  0
VERTEX
  5
15A
  8
TEAM-BODY
 10
-250.0
 20
-120.0
 30
0.0
 42
-0.414214
  0
VERTEX
  5
15B
  8
TEAM-BODY
 10
-230.0
 20
-100.0
 30
0.0
  0
VERTEX
  5
15C
  8
TEAM-BODY
 10
230.0
 20
-100.0
 30
0.0
 42
-0.414214
  0
VERTEX
  5
15D
  8
TEAM-BODY
 10
250.0
 20
-120.0
 30
0.0
  0
VERTEX
  5
15E
  8
TEAM-BODY
 10
250.0
 20
-340.0
 30
0.0
 42
-0.414214
  0
SEQEND
  5
15F
  8
TEAM-BODY
  0
POLYLINE
  5
84
  8
TEAM-DET1
 66
     1
 10
0.0
 20
0.0
 30
0.0
 70
     1
  0
VERTEX
  5
160
  8
TEAM-DET1
 10
245.0
 20
-335.0
 30
0.0
  0
VERTEX
  5
161
  8
TEAM-DET1
 10
-245.0
 20
-335.0
 30
0.0
  0
VERTEX
  5
162
  8
TEAM-DET1
 10
-245.0
 20
-125.0
 30
0.0
  0
VERTEX
  5
163
  8
TEAM-DET1
 10
245.0
 20
-125.0
 30
0.0
  0
SEQEND
  5
164
  8
TEAM-DET1
  0
DIMENSION
  5
85
  8
TEAM-MAS
  2
*D0
 10
-400.0
 20
-486.623893
 30
0.0
 11
0.0
 21
-486.623893
 31
0.0
 12
0.0
 22
-16000.0
 32
0.0
 13
400.0
 23
-405.0
 33
0.0
 14
-400.0
 24
-405.0
 34
0.0
1001
ACAD
1000
DSTYLE
1002
{
1070
    40
1040
1.0
1002
}
  0
POLYLINE
  5
93
  8
TEAM-BODY
 66
     1
 10
0.0
 20
0.0
 30
0.0
 70
     1
  0
VERTEX
  5
165
  8
TEAM-BODY
 10
400.0
 20
-405.0
 30
0.0
  0
VERTEX
  5
166
  8
TEAM-BODY
 10
-400.0
 20
-405.0
 30
0.0
  0
VERTEX
  5
167
  8
TEAM-BODY
 10
-400.0
 20
0.0
 30
0.0
  0
VERTEX
  5
168
  8
TEAM-BODY
 10
400.0
 20
0.0
 30
0.0
  0
SEQEND
  5
169
  8
TEAM-BODY
  0
TEXT
  5
94
  8
TEAM-TXT
 10
-233.189728
 20
-307.186333
 30
0.0
 40
30.0
  1
team 217059
 41
0.8
 51
15.0
  7
TEAM
  0
ENDSEC
  0
EOF
