  0
SECTION
  2
HEADER
  9
$ACADVER
  1
AC1009
  9
$INSBASE
 10
0.0
 20
0.0
 30
0.0
  9
$EXTMIN
 10
-275.012111
 20
-10.014441
 30
0.0
  9
$EXTMAX
 10
482.211313
 20
798.477416
 30
0.000005
  9
$LIMMIN
 10
-275.012111
 20
-10.014441
  9
$LIMMAX
 10
482.211313
 20
798.477416
  9
$ORTHOMODE
 70
     1
  9
$REGENMODE
 70
     1
  9
$FILLMODE
 70
     1
  9
$QTEXTMODE
 70
     0
  9
$MIRRTEXT
 70
     0
  9
$DRAGMODE
 70
     2
  9
$LTSCALE
 40
50.0
  9
$OSMODE
 70
     0
  9
$ATTMODE
 70
     1
  9
$TEXTSIZE
 40
200.0
  9
$TRACEWID
 40
1.0
  9
$TEXTSTYLE
  7
STANDARD
  9
$CLAYER
  8
TEAM-MAS
  9
$CELTYPE
  6
BYLAYER
  9
$CECOLOR
 62
   256
  9
$DIMSCALE
 40
0.0
  9
$DIMASZ
 40
20.0
  9
$DIMEXO
 40
10.0
  9
$DIMDLI
 40
1.0
  9
$DIMRND
 40
0.0
  9
$DIMDLE
 40
0.0
  9
$DIMEXE
 40
1.0
  9
$DIMTP
 40
0.0
  9
$DIMTM
 40
0.0
  9
$DIMTXT
 40
35.0
  9
$DIMCEN
 40
1.0
  9
$DIMTSZ
 40
0.0
  9
$DIMTOL
 70
     0
  9
$DIMLIM
 70
     0
  9
$DIMTIH
 70
     0
  9
$DIMTOH
 70
     0
  9
$DIMSE1
 70
     0
  9
$DIMSE2
 70
     0
  9
$DIMTAD
 70
     0
  9
$DIMZIN
 70
     0
  9
$DIMBLK
  1

  9
$DIMASO
 70
     1
  9
$DIMSHO
 70
     0
  9
$DIMPOST
  1

  9
$DIMAPOST
  1

  9
$DIMALT
 70
     0
  9
$DIMALTD
 70
     2
  9
$DIMALTF
 40
25.4
  9
$DIMLFAC
 40
1.0
  9
$DIMTOFL
 70
     0
  9
$DIMTVP
 40
0.0
  9
$DIMTIX
 70
     0
  9
$DIMSOXD
 70
     0
  9
$DIMSAH
 70
     0
  9
$DIMBLK1
  1

  9
$DIMBLK2
  1

  9
$DIMSTYLE
  2
TEAM
  9
$DIMCLRD
 70
     9
  9
$DIMCLRE
 70
     9
  9
$DIMCLRT
 70
    11
  9
$DIMTFAC
 40
1.0
  9
$DIMGAP
 40
7.0
  9
$LUNITS
 70
     2
  9
$LUPREC
 70
     1
  9
$SKETCHINC
 40
1.0
  9
$FILLETRAD
 40
50.0
  9
$AUNITS
 70
     0
  9
$AUPREC
 70
     0
  9
$MENU
  1
ROPLANS
  9
$ELEVATION
 40
0.0
  9
$PELEVATION
 40
0.0
  9
$THICKNESS
 40
0.0
  9
$LIMCHECK
 70
     0
  9
$BLIPMODE
 70
     1
  9
$CHAMFERA
 40
0.0
  9
$CHAMFERB
 40
0.0
  9
$SKPOLY
 70
     0
  9
$TDCREATE
 40
2450392.957851
  9
$TDUPDATE
 40
2456272.033233
  9
$TDINDWG
 40
2.315654
  9
$TDUSRTIMER
 40
2.315654
  9
$USRTIMER
 70
     1
  9
$ANGBASE
 50
0.0
  9
$ANGDIR
 70
     0
  9
$PDMODE
 70
     0
  9
$PDSIZE
 40
0.0
  9
$PLINEWID
 40
0.0
  9
$COORDS
 70
     2
  9
$SPLFRAME
 70
     0
  9
$SPLINETYPE
 70
     6
  9
$SPLINESEGS
 70
     8
  9
$ATTDIA
 70
     0
  9
$ATTREQ
 70
     0
  9
$HANDLING
 70
     1
  9
$HANDSEED
  5
142
  9
$SURFTAB1
 70
    24
  9
$SURFTAB2
 70
    24
  9
$SURFTYPE
 70
     6
  9
$SURFU
 70
     6
  9
$SURFV
 70
     6
  9
$UCSNAME
  2

  9
$UCSORG
 10
0.0
 20
0.0
 30
0.0
  9
$UCSXDIR
 10
1.0
 20
0.0
 30
0.0
  9
$UCSYDIR
 10
0.0
 20
1.0
 30
0.0
  9
$PUCSNAME
  2

  9
$PUCSORG
 10
0.0
 20
0.0
 30
0.0
  9
$PUCSXDIR
 10
1.0
 20
0.0
 30
0.0
  9
$PUCSYDIR
 10
0.0
 20
1.0
 30
0.0
  9
$USERI1
 70
     0
  9
$USERI2
 70
     0
  9
$USERI3
 70
     0
  9
$USERI4
 70
     0
  9
$USERI5
 70
     0
  9
$USERR1
 40
0.0
  9
$USERR2
 40
0.0
  9
$USERR3
 40
0.0
  9
$USERR4
 40
0.0
  9
$USERR5
 40
0.0
  9
$WORLDVIEW
 70
     1
  9
$SHADEDGE
 70
     0
  9
$SHADEDIF
 70
    70
  9
$TILEMODE
 70
     1
  9
$MAXACTVP
 70
    16
  9
$PLIMCHECK
 70
     0
  9
$PEXTMIN
 10
-0.805942
 20
0.005011
 30
0.0
  9
$PEXTMAX
 10
20.250094
 20
11.356329
 30
0.0
  9
$PLIMMIN
 10
0.0
 20
0.0
  9
$PLIMMAX
 10
12.0
 20
9.0
  9
$UNITMODE
 70
     0
  9
$VISRETAIN
 70
     0
  9
$PLINEGEN
 70
     0
  9
$PSLTSCALE
 70
     0
  0
ENDSEC
  0
SECTION
  2
TABLES
  0
TABLE
  2
VPORT
 70
     2
  0
VPORT
  2
*ACTIVE
 70
     0
 10
0.0
 20
0.0
 11
1.0
 21
1.0
 12
103.599601
 22
394.231487
 13
0.0
 23
0.0
 14
1.0
 24
1.0
 15
50.0
 25
50.0
 16
0.0
 26
0.0
 36
1.0
 17
0.0
 27
0.0
 37
0.0
 40
813.582047
 41
1.911765
 42
50.0
 43
0.0
 44
0.0
 50
0.0
 51
0.0
 71
     0
 72
   100
 73
     1
 74
     1
 75
     0
 76
     0
 77
     0
 78
     0
  0
ENDTAB
  0
TABLE
  2
LTYPE
 70
     3
  0
LTYPE
  2
CONTINUOUS
 70
     0
  3
Solid Line
 72
    65
 73
     0
 40
0.0
  0
LTYPE
  2
31
 70
     0
  3

 72
    65
 73
     4
 40
2.1
 49
1.5
 49
-0.3
 49
0.0
 49
-0.3
  0
LTYPE
  2
22
 70
     0
  3

 72
    65
 73
     2
 40
1.4
 49
1.2
 49
-0.2
  0
ENDTAB
  0
TABLE
  2
LAYER
 70
     9
  0
LAYER
  2
0
 70
     0
 62
     7
  6
CONTINUOUS
  0
LAYER
  2
DEFPOINTS
 70
     0
 62
     7
  6
CONTINUOUS
  0
LAYER
  2
TEAM-BODY
 70
     0
 62
     2
  6
CONTINUOUS
  0
LAYER
  2
TEAM-AXE
 70
     0
 62
    10
  6
31
  0
LAYER
  2
TEAM-MAS
 70
     0
 62
     9
  6
CONTINUOUS
  0
LAYER
  2
TEAM-TXT
 70
     0
 62
    11
  6
CONTINUOUS
  0
LAYER
  2
TEAM-HIDE
 70
     0
 62
     8
  6
22
  0
LAYER
  2
TEAM-KAN
 70
     0
 62
     6
  6
CONTINUOUS
  0
LAYER
  2
TEAM-INSP
 70
     0
 62
     5
  6
CONTINUOUS
  0
ENDTAB
  0
TABLE
  2
STYLE
 70
     2
  0
STYLE
  2
STANDARD
 70
     0
 40
0.0
 41
1.0
 50
0.0
 71
     0
 42
200.0
  3
txt
  4

  0
STYLE
  2
TEAM
 70
     0
 40
0.0
 41
0.8
 50
15.0
 71
     0
 42
7.0
  3
ROMANS.shx
  4

  0
ENDTAB
  0
TABLE
  2
VIEW
 70
     0
  0
ENDTAB
  0
TABLE
  2
UCS
 70
     0
  0
ENDTAB
  0
TABLE
  2
APPID
 70
     1
  0
APPID
  2
ACAD
 70
     0
  0
ENDTAB
  0
TABLE
  2
DIMSTYLE
 70
     1
  0
DIMSTYLE
  2
TEAM
 70
     0
  3

  4

  5

  6

  7

 40
0.0
 41
20.0
 42
10.0
 43
1.0
 44
1.0
 45
0.0
 46
0.0
 47
0.0
 48
0.0
140
35.0
141
1.0
142
0.0
143
25.4
144
1.0
145
0.0
146
1.0
147
7.0
 71
     0
 72
     0
 73
     0
 74
     0
 75
     0
 76
     0
 77
     0
 78
     0
170
     0
171
     2
172
     0
173
     0
174
     0
175
     0
176
     9
177
     9
178
    11
  0
ENDTAB
  0
ENDSEC
  0
SECTION
  2
BLOCKS
  0
BLOCK
  8
0
  2
$MODEL_SPACE
 70
     0
 10
0.0
 20
0.0
 30
0.0
  3
$MODEL_SPACE
  1

  0
ENDBLK
  5
13B
  8
0
  0
BLOCK
 67
     1
  8
0
  2
$PAPER_SPACE
 70
     0
 10
0.0
 20
0.0
 30
0.0
  3
$PAPER_SPACE
  1

  0
ENDBLK
  5
139
 67
     1
  8
0
  0
BLOCK
  8
0
  2
*D0
 70
     1
 10
0.0
 20
0.0
 30
0.0
  3
*D0
  1

  0
LINE
  5
3F
  8
0
  6
BYBLOCK
 62
     9
 10
11725.0
 20
24710.0
 30
0.0
 11
11725.0
 21
24781.95383
 31
0.0
  0
LINE
  5
40
  8
0
  6
BYBLOCK
 62
     9
 10
12275.0
 20
24710.0
 30
0.0
 11
12275.0
 21
24781.95383
 31
0.0
  0
LINE
  5
41
  8
0
  6
BYBLOCK
 62
     9
 10
11745.0
 20
24780.95383
 30
0.0
 11
11949.25
 21
24780.95383
 31
0.0
  0
LINE
  5
42
  8
0
  6
BYBLOCK
 62
     9
 10
12255.0
 20
24780.95383
 30
0.0
 11
12050.75
 21
24780.95383
 31
0.0
  0
SOLID
  5
43
  8
0
  6
BYBLOCK
 62
     9
 10
11745.0
 20
24784.287163
 30
0.0
 11
11745.0
 21
24777.620496
 31
0.0
 12
11725.0
 22
24780.95383
 32
0.0
 13
11725.0
 23
24780.95383
 33
0.0
  0
SOLID
  5
44
  8
0
  6
BYBLOCK
 62
     9
 10
12255.0
 20
24784.287163
 30
0.0
 11
12255.0
 21
24777.620496
 31
0.0
 12
12275.0
 22
24780.95383
 32
0.0
 13
12275.0
 23
24780.95383
 33
0.0
  0
TEXT
  5
45
  8
0
  6
BYBLOCK
 62
    11
 10
11956.25
 20
24763.45383
 30
0.0
 40
35.0
  1
550
  0
POINT
  5
46
  8
DEFPOINTS
  6
BYBLOCK
 62
     0
 10
11725.0
 20
24700.0
 30
0.0
  0
POINT
  5
47
  8
DEFPOINTS
  6
BYBLOCK
 62
     0
 10
12275.0
 20
24700.0
 30
0.0
  0
POINT
  5
48
  8
DEFPOINTS
  6
BYBLOCK
 62
     0
 10
12275.0
 20
24780.95383
 30
0.0
  0
ENDBLK
  5
4A
  8
0
  0
BLOCK
  8
0
  2
*D1
 70
     1
 10
0.0
 20
0.0
 30
0.0
  3
*D1
  1

  0
LINE
  5
4D
  8
0
  6
BYBLOCK
 62
     9
 10
11782.5
 20
24647.338978
 30
0.0
 11
11782.5
 21
24729.915961
 31
0.0
  0
LINE
  5
4E
  8
0
  6
BYBLOCK
 62
     9
 10
12217.5
 20
24647.338978
 30
0.0
 11
12217.5
 21
24729.915961
 31
0.0
  0
LINE
  5
4F
  8
0
  6
BYBLOCK
 62
     9
 10
11802.5
 20
24728.915961
 30
0.0
 11
11946.333333
 21
24728.915961
 31
0.0
  0
LINE
  5
50
  8
0
  6
BYBLOCK
 62
     9
 10
12197.5
 20
24728.915961
 30
0.0
 11
12053.666667
 21
24728.915961
 31
0.0
  0
SOLID
  5
51
  8
0
  6
BYBLOCK
 62
     9
 10
11802.5
 20
24732.249294
 30
0.0
 11
11802.5
 21
24725.582628
 31
0.0
 12
11782.5
 22
24728.915961
 32
0.0
 13
11782.5
 23
24728.915961
 33
0.0
  0
SOLID
  5
52
  8
0
  6
BYBLOCK
 62
     9
 10
12197.5
 20
24732.249294
 30
0.0
 11
12197.5
 21
24725.582628
 31
0.0
 12
12217.5
 22
24728.915961
 32
0.0
 13
12217.5
 23
24728.915961
 33
0.0
  0
TEXT
  5
53
  8
0
  6
BYBLOCK
 62
    11
 10
11953.333333
 20
24711.415961
 30
0.0
 40
35.0
  1
435
  0
POINT
  5
54
  8
DEFPOINTS
  6
BYBLOCK
 62
     0
 10
11782.5
 20
24637.338978
 30
0.0
  0
POINT
  5
55
  8
DEFPOINTS
  6
BYBLOCK
 62
     0
 10
12217.5
 20
24637.338978
 30
0.0
  0
POINT
  5
56
  8
DEFPOINTS
  6
BYBLOCK
 62
     0
 10
12217.5
 20
24728.915961
 30
0.0
  0
ENDBLK
  5
58
  8
0
  0
BLOCK
  8
0
  2
*D2
 70
     1
 10
0.0
 20
0.0
 30
0.0
  3
*D2
  1

  0
LINE
  5
68
  8
0
  6
BYBLOCK
 62
     9
 10
12010.0
 20
24000.0
 30
0.0
 11
12314.123843
 21
24000.0
 31
0.0
  0
LINE
  5
69
  8
0
  6
BYBLOCK
 62
     9
 10
12090.0
 20
24400.0
 30
0.0
 11
12314.123843
 21
24400.0
 31
0.0
  0
LINE
  5
6A
  8
0
  6
BYBLOCK
 62
     9
 10
12313.123843
 20
24020.0
 30
0.0
 11
12313.123843
 21
24152.166667
 31
0.0
  0
LINE
  5
6B
  8
0
  6
BYBLOCK
 62
     9
 10
12313.123843
 20
24380.0
 30
0.0
 11
12313.123843
 21
24247.833333
 31
0.0
  0
SOLID
  5
6C
  8
0
  6
BYBLOCK
 62
     9
 10
12309.79051
 20
24020.0
 30
0.0
 11
12316.457176
 21
24020.0
 31
0.0
 12
12313.123843
 22
24000.0
 32
0.0
 13
12313.123843
 23
24000.0
 33
0.0
  0
SOLID
  5
6D
  8
0
  6
BYBLOCK
 62
     9
 10
12309.79051
 20
24380.0
 30
0.0
 11
12316.457176
 21
24380.0
 31
0.0
 12
12313.123843
 22
24400.0
 32
0.0
 13
12313.123843
 23
24400.0
 33
0.0
  0
TEXT
  5
6E
  8
0
  6
BYBLOCK
 62
    11
 10
12330.623843
 20
24159.166667
 30
0.0
 40
35.0
  1
400
 50
90.0
  0
POINT
  5
6F
  8
DEFPOINTS
  6
BYBLOCK
 62
     0
 10
12000.0
 20
24000.0
 30
0.0
  0
POINT
  5
70
  8
DEFPOINTS
  6
BYBLOCK
 62
     0
 10
12080.0
 20
24400.0
 30
0.0
  0
POINT
  5
71
  8
DEFPOINTS
  6
BYBLOCK
 62
     0
 10
12313.123843
 20
24400.0
 30
0.0
  0
ENDBLK
  5
73
  8
0
  0
BLOCK
  8
0
  2
*D3
 70
     1
 10
0.0
 20
0.0
 30
0.0
  3
*D3
  1

  0
LINE
  5
22
  8
0
  6
BYBLOCK
 62
     9
 10
12010.0
 20
24000.0
 30
0.0
 11
12415.833778
 21
24000.0
 31
0.0
  0
LINE
  5
23
  8
0
  6
BYBLOCK
 62
     9
 10
12285.0
 20
24700.0
 30
0.0
 11
12415.833778
 21
24700.0
 31
0.0
  0
LINE
  5
24
  8
0
  6
BYBLOCK
 62
     9
 10
12414.833778
 20
24020.0
 30
0.0
 11
12414.833778
 21
24302.166667
 31
0.0
  0
LINE
  5
25
  8
0
  6
BYBLOCK
 62
     9
 10
12414.833778
 20
24680.0
 30
0.0
 11
12414.833778
 21
24397.833333
 31
0.0
  0
SOLID
  5
26
  8
0
  6
BYBLOCK
 62
     9
 10
12411.500445
 20
24020.0
 30
0.0
 11
12418.167112
 21
24020.0
 31
0.0
 12
12414.833778
 22
24000.0
 32
0.0
 13
12414.833778
 23
24000.0
 33
0.0
  0
SOLID
  5
27
  8
0
  6
BYBLOCK
 62
     9
 10
12411.500445
 20
24680.0
 30
0.0
 11
12418.167112
 21
24680.0
 31
0.0
 12
12414.833778
 22
24700.0
 32
0.0
 13
12414.833778
 23
24700.0
 33
0.0
  0
TEXT
  5
28
  8
0
  6
BYBLOCK
 62
    11
 10
12432.333778
 20
24309.166667
 30
0.0
 40
35.0
  1
700
 50
90.0
  0
POINT
  5
29
  8
DEFPOINTS
  6
BYBLOCK
 62
     0
 10
12000.0
 20
24000.0
 30
0.0
  0
POINT
  5
2B
  8
DEFPOINTS
  6
BYBLOCK
 62
     0
 10
12275.0
 20
24700.0
 30
0.0
  0
POINT
  5
2C
  8
DEFPOINTS
  6
BYBLOCK
 62
     0
 10
12414.833778
 20
24700.0
 30
0.0
  0
ENDBLK
  5
2E
  8
0
  0
BLOCK
  8
0
  2
*D4
 70
     1
 10
0.0
 20
0.0
 30
0.0
  3
*D4
  1

  0
LINE
  5
31
  8
0
  6
BYBLOCK
 62
     9
 10
12010.0
 20
24000.0
 30
0.0
 11
12465.672779
 21
24000.0
 31
0.0
  0
LINE
  5
32
  8
0
  6
BYBLOCK
 62
     9
 10
12285.0
 20
24700.0
 30
0.0
 11
12465.672779
 21
24700.0
 31
0.0
  0
LINE
  5
33
  8
0
  6
BYBLOCK
 62
     9
 10
12464.672779
 20
24020.0
 30
0.0
 11
12464.672779
 21
24235.083333
 31
0.0
  0
LINE
  5
34
  8
0
  6
BYBLOCK
 62
     9
 10
12464.672779
 20
24680.0
 30
0.0
 11
12464.672779
 21
24464.916667
 31
0.0
  0
SOLID
  5
35
  8
0
  6
BYBLOCK
 62
     9
 10
12461.339445
 20
24020.0
 30
0.0
 11
12468.006112
 21
24020.0
 31
0.0
 12
12464.672779
 22
24000.0
 32
0.0
 13
12464.672779
 23
24000.0
 33
0.0
  0
SOLID
  5
36
  8
0
  6
BYBLOCK
 62
     9
 10
12461.339445
 20
24680.0
 30
0.0
 11
12468.006112
 21
24680.0
 31
0.0
 12
12464.672779
 22
24700.0
 32
0.0
 13
12464.672779
 23
24700.0
 33
0.0
  0
TEXT
  5
37
  8
0
  6
BYBLOCK
 62
    11
 10
12482.172779
 20
24242.083333
 30
0.0
 40
35.0
  1
650-800
 50
90.0
  0
POINT
  5
38
  8
DEFPOINTS
  6
BYBLOCK
 62
     0
 10
12000.0
 20
24000.0
 30
0.0
  0
POINT
  5
39
  8
DEFPOINTS
  6
BYBLOCK
 62
     0
 10
12275.0
 20
24700.0
 30
0.0
  0
POINT
  5
3A
  8
DEFPOINTS
  6
BYBLOCK
 62
     0
 10
12464.672779
 20
24700.0
 30
0.0
  0
ENDBLK
  5
3C
  8
0
  0
BLOCK
  8
0
  2
*D5
 70
     1
 10
0.0
 20
0.0
 30
0.0
  3
*D5
  1

  0
LINE
  5
76
  8
0
  6
BYBLOCK
 62
     9
 10
12010.0
 20
24000.0
 30
0.0
 11
12363.962622
 21
24000.0
 31
0.0
  0
LINE
  5
77
  8
0
  6
BYBLOCK
 62
     9
 10
12090.0
 20
24400.0
 30
0.0
 11
12363.962622
 21
24400.0
 31
0.0
  0
LINE
  5
78
  8
0
  6
BYBLOCK
 62
     9
 10
12362.962622
 20
24020.0
 30
0.0
 11
12362.962622
 21
24085.083333
 31
0.0
  0
LINE
  5
79
  8
0
  6
BYBLOCK
 62
     9
 10
12362.962622
 20
24380.0
 30
0.0
 11
12362.962622
 21
24314.916667
 31
0.0
  0
SOLID
  5
7A
  8
0
  6
BYBLOCK
 62
     9
 10
12359.629289
 20
24020.0
 30
0.0
 11
12366.295955
 21
24020.0
 31
0.0
 12
12362.962622
 22
24000.0
 32
0.0
 13
12362.962622
 23
24000.0
 33
0.0
  0
SOLID
  5
7B
  8
0
  6
BYBLOCK
 62
     9
 10
12359.629289
 20
24380.0
 30
0.0
 11
12366.295955
 21
24380.0
 31
0.0
 12
12362.962622
 22
24400.0
 32
0.0
 13
12362.962622
 23
24400.0
 33
0.0
  0
TEXT
  5
7C
  8
0
  6
BYBLOCK
 62
    11
 10
12380.462622
 20
24092.083333
 30
0.0
 40
35.0
  1
300-450
 50
90.0
  0
POINT
  5
7D
  8
DEFPOINTS
  6
BYBLOCK
 62
     0
 10
12000.0
 20
24000.0
 30
0.0
  0
POINT
  5
7E
  8
DEFPOINTS
  6
BYBLOCK
 62
     0
 10
12080.0
 20
24400.0
 30
0.0
  0
POINT
  5
7F
  8
DEFPOINTS
  6
BYBLOCK
 62
     0
 10
12362.962622
 20
24400.0
 30
0.0
  0
ENDBLK
  5
81
  8
0
  0
BLOCK
  8
0
  2
*D6
 70
     1
 10
0.0
 20
0.0
 30
0.0
  3
*D6
  1

  0
LINE
  5
84
  8
0
  6
BYBLOCK
 62
     9
 10
12285.0
 20
24700.0
 30
0.0
 11
12363.962622
 21
24700.0
 31
0.0
  0
LINE
  5
85
  8
0
  6
BYBLOCK
 62
     9
 10
12031.0
 20
24545.0
 30
0.0
 11
12363.962622
 21
24545.0
 31
0.0
  0
LINE
  5
86
  8
0
  6
BYBLOCK
 62
     9
 10
12362.962622
 20
24680.0
 30
0.0
 11
12362.962622
 21
24670.333333
 31
0.0
  0
LINE
  5
87
  8
0
  6
BYBLOCK
 62
     9
 10
12362.962622
 20
24565.0
 30
0.0
 11
12362.962622
 21
24574.666667
 31
0.0
  0
SOLID
  5
88
  8
0
  6
BYBLOCK
 62
     9
 10
12359.629289
 20
24680.0
 30
0.0
 11
12366.295955
 21
24680.0
 31
0.0
 12
12362.962622
 22
24700.0
 32
0.0
 13
12362.962622
 23
24700.0
 33
0.0
  0
SOLID
  5
89
  8
0
  6
BYBLOCK
 62
     9
 10
12359.629289
 20
24565.0
 30
0.0
 11
12366.295955
 21
24565.0
 31
0.0
 12
12362.962622
 22
24545.0
 32
0.0
 13
12362.962622
 23
24545.0
 33
0.0
  0
TEXT
  5
8A
  8
0
  6
BYBLOCK
 62
    11
 10
12380.462622
 20
24581.666667
 30
0.0
 40
35.0
  1
155
 50
90.0
  0
POINT
  5
8B
  8
DEFPOINTS
  6
BYBLOCK
 62
     0
 10
12275.0
 20
24700.0
 30
0.0
  0
POINT
  5
8C
  8
DEFPOINTS
  6
BYBLOCK
 62
     0
 10
12021.0
 20
24545.0
 30
0.0
  0
POINT
  5
8D
  8
DEFPOINTS
  6
BYBLOCK
 62
     0
 10
12362.962622
 20
24545.0
 30
0.0
  0
ENDBLK
  5
8F
  8
0
  0
BLOCK
  8
0
  2
*D7
 70
     1
 10
0.0
 20
0.0
 30
0.0
  3
*D7
  1

  0
LINE
  5
5B
  8
0
  6
BYBLOCK
 62
     9
 10
12285.0
 20
24700.0
 30
0.0
 11
12326.057293
 21
24700.0
 31
0.0
  0
LINE
  5
5C
  8
0
  6
BYBLOCK
 62
     9
 10
12227.5
 20
24625.0
 30
0.0
 11
12326.057293
 21
24625.0
 31
0.0
  0
LINE
  5
5D
  8
0
  6
BYBLOCK
 62
     9
 10
12325.057293
 20
24680.0
 30
0.0
 11
12325.057293
 21
24645.0
 31
0.0
  0
TEXT
  5
5E
  8
0
  6
BYBLOCK
 62
    11
 10
12342.557293
 20
24714.399376
 30
0.0
 40
35.0
  1
75
 50
90.0
  0
SOLID
  5
5F
  8
0
  6
BYBLOCK
 62
     9
 10
12321.72396
 20
24680.0
 30
0.0
 11
12328.390627
 21
24680.0
 31
0.0
 12
12325.057293
 22
24700.0
 32
0.0
 13
12325.057293
 23
24700.0
 33
0.0
  0
SOLID
  5
60
  8
0
  6
BYBLOCK
 62
     9
 10
12321.72396
 20
24645.0
 30
0.0
 11
12328.390627
 21
24645.0
 31
0.0
 12
12325.057293
 22
24625.0
 32
0.0
 13
12325.057293
 23
24625.0
 33
0.0
  0
POINT
  5
61
  8
DEFPOINTS
  6
BYBLOCK
 62
     0
 10
12275.0
 20
24700.0
 30
0.0
  0
POINT
  5
62
  8
DEFPOINTS
  6
BYBLOCK
 62
     0
 10
12217.5
 20
24625.0
 30
0.0
  0
POINT
  5
63
  8
DEFPOINTS
  6
BYBLOCK
 62
     0
 10
12325.057293
 20
24625.0
 30
0.0
  0
ENDBLK
  5
65
  8
0
  0
ENDSEC
  0
SECTION
  2
ENTITIES
  0
DIMENSION
  5
20
  8
TEAM-MAS
  2
*D3
 10
414.833778
 20
700.0
 30
0.0
 11
414.833778
 21
350.0
 31
0.0
 12
-12000.0
 22
-24000.0
 32
0.0
 13
0.0
 23
0.0
 33
0.0
 14
275.0
 24
700.0
 34
0.0
 50
90.0
  0
DIMENSION
  5
2F
  8
TEAM-MAS
  2
*D4
 10
464.672779
 20
700.0
 30
0.0
 11
464.672779
 21
350.0
 31
0.0
 12
-12000.0
 22
-24000.0
 32
0.0
  1
650-800
 13
0.0
 23
0.0
 33
0.0
 14
275.0
 24
700.0
 34
0.0
 50
90.0
  0
DIMENSION
  5
3D
  8
TEAM-MAS
  2
*D0
 10
275.0
 20
780.95383
 30
0.0
 11
0.0
 21
780.95383
 31
0.0
 12
-12000.0
 22
-24000.0
 32
0.0
 13
-275.0
 23
700.0
 33
0.0
 14
275.0
 24
700.0
 34
0.0
1001
ACAD
1000
DSTYLE
1002
{
1070
    40
1040
1.0
1002
}
  0
DIMENSION
  5
4B
  8
TEAM-MAS
  2
*D1
 10
217.5
 20
728.915961
 30
0.0
 11
0.0
 21
728.915961
 31
0.0
 12
-12000.0
 22
-24000.0
 32
0.0
 13
-217.5
 23
637.338978
 33
0.0
 14
217.5
 24
637.338978
 34
0.0
  0
DIMENSION
  5
59
  8
TEAM-MAS
  2
*D7
 10
325.057293
 20
625.0
 30
0.0
 11
325.057293
 21
743.566043
 31
0.0
 12
-12000.0
 22
-24000.0
 32
0.0
 70
   128
 13
275.0
 23
700.0
 33
0.0
 14
217.5
 24
625.0
 34
0.0
 50
90.0
  0
DIMENSION
  5
66
  8
TEAM-MAS
  2
*D2
 10
313.123843
 20
400.0
 30
0.0
 11
313.123843
 21
200.0
 31
0.0
 12
-12000.0
 22
-24000.0
 32
0.0
 13
0.0
 23
0.0
 33
0.0
 14
80.0
 24
400.0
 34
0.0
 50
90.0
  0
DIMENSION
  5
74
  8
TEAM-MAS
  2
*D5
 10
362.962622
 20
400.0
 30
0.0
 11
362.962622
 21
200.0
 31
0.0
 12
-12000.0
 22
-24000.0
 32
0.0
  1
300-450
 13
0.0
 23
0.0
 33
0.0
 14
80.0
 24
400.0
 34
0.0
 50
90.0
  0
DIMENSION
  5
82
  8
TEAM-MAS
  2
*D6
 10
362.962622
 20
545.0
 30
0.0
 11
362.962622
 21
622.5
 31
0.0
 12
-12000.0
 22
-24000.0
 32
0.0
 13
275.0
 23
700.0
 33
0.0
 14
21.0
 24
545.0
 34
0.0
 50
90.0
  0
TEXT
  5
90
  8
TEAM-TXT
 10
-102.265288
 20
601.874357
 30
0.0
 40
30.0
  1
team 412103
 41
0.8
 51
15.0
  7
TEAM
  0
LINE
  5
93
  8
TEAM-BODY
 10
21.0
 20
545.0
 30
0.0
 11
21.0
 21
523.747916
 31
0.0
  0
LINE
  5
95
  8
TEAM-BODY
 10
-21.0
 20
545.0
 30
0.0
 11
-21.0
 21
523.747916
 31
0.0
  0
LINE
  5
96
  8
TEAM-BODY
 10
-21.0
 20
523.747916
 30
0.0
 11
21.0
 21
523.747916
 31
0.0
  0
LINE
  5
97
  8
TEAM-KAN
 10
0.0
 20
523.747916
 30
0.0
 11
0.0
 21
365.980383
 31
0.0
  0
LINE
  5
99
  8
TEAM-BODY
 10
275.0
 20
670.0
 30
0.0
 11
275.0
 21
700.0
 31
0.0
  0
CIRCLE
  5
9A
  8
TEAM-HIDE
 10
217.5
 20
625.0
 30
0.0
 40
5.0
  0
LINE
  5
9D
  8
TEAM-AXE
 10
217.5
 20
635.0
 30
0.0
 11
217.5
 21
615.0
 31
0.0
  0
LINE
  5
A0
  8
TEAM-AXE
 10
217.5
 20
605.0
 30
0.0
 11
217.5
 21
585.0
 31
0.0
  0
CIRCLE
  5
A1
  8
TEAM-HIDE
 10
217.5
 20
595.0
 30
0.0
 40
5.0
  0
LINE
  5
A2
  8
TEAM-AXE
 10
50.0
 20
400.0
 30
0.0
 11
110.0
 21
400.0
 31
0.0
  0
CIRCLE
  5
A3
  8
TEAM-KAN
 10
80.0
 20
400.0
 30
0.0
 40
20.0
  0
LINE
  5
A4
  8
TEAM-KAN
 10
80.0
 20
370.0
 30
0.0
 11
80.0
 21
365.980383
 31
0.0
  0
LINE
  5
A5
  8
TEAM-AXE
 10
80.0
 20
370.0
 30
0.0
 11
80.0
 21
430.0
 31
0.0
  0
ARC
  5
A6
  8
TEAM-KAN
 10
40.0
 20
365.980383
 30
0.0
 40
40.0
 50
180.0
 51
0.0
  0
LINE
  5
A7
  8
TEAM-AXE
 10
227.5
 20
625.0
 30
0.0
 11
207.5
 21
625.0
 31
0.0
  0
LINE
  5
A8
  8
TEAM-AXE
 10
227.5
 20
595.0
 30
0.0
 11
207.5
 21
595.0
 31
0.0
  0
CIRCLE
  5
A9
  8
TEAM-INSP
 10
0.0
 20
0.0
 30
0.0
 40
10.0
  0
LINE
  5
AB
  8
TEAM-HIDE
 10
-80.0
 20
370.0
 30
0.0
 11
-80.0
 21
365.980383
 31
0.0
  0
CIRCLE
  5
AC
  8
TEAM-HIDE
 10
-80.0
 20
400.0
 30
0.0
 40
20.0
  0
LINE
  5
AD
  8
TEAM-AXE
 10
-80.0
 20
370.0
 30
0.0
 11
-80.0
 21
430.0
 31
0.0
  0
LINE
  5
AE
  8
TEAM-AXE
 10
-207.5
 20
625.0
 30
0.0
 11
-227.5
 21
625.0
 31
0.0
  0
CIRCLE
  5
AF
  8
TEAM-HIDE
 10
-217.5
 20
625.0
 30
0.0
 40
5.0
  0
LINE
  5
B0
  8
TEAM-AXE
 10
-217.5
 20
635.0
 30
0.0
 11
-217.5
 21
615.0
 31
0.0
  0
LINE
  5
B1
  8
TEAM-AXE
 10
-217.5
 20
605.0
 30
0.0
 11
-217.5
 21
585.0
 31
0.0
  0
CIRCLE
  5
B2
  8
TEAM-HIDE
 10
-217.5
 20
595.0
 30
0.0
 40
5.0
  0
LINE
  5
B3
  8
TEAM-AXE
 10
-207.5
 20
595.0
 30
0.0
 11
-227.5
 21
595.0
 31
0.0
  0
ARC
  5
B4
  8
TEAM-HIDE
 10
-40.0
 20
365.980383
 30
0.0
 40
40.0
 50
180.0
 51
0.0
  0
LINE
  5
B5
  8
TEAM-AXE
 10
-110.0
 20
400.0
 30
0.0
 11
-50.0
 21
400.0
 31
0.0
  0
POLYLINE
  5
B6
  8
TEAM-BODY
 66
     1
 10
0.0
 20
0.0
 30
0.0
 70
     4
 75
     6
  0
VERTEX
  5
B7
  8
TEAM-BODY
 10
-245.0
 20
670.0
 30
0.0
 70
    16
  0
VERTEX
  5
B8
  8
TEAM-BODY
 10
-245.0
 20
670.0
 30
0.0
 70
     8
  0
VERTEX
  5
B9
  8
TEAM-BODY
 10
-244.802739
 20
661.873579
 30
0.0
 70
     8
  0
VERTEX
  5
BA
  8
TEAM-BODY
 10
-243.912144
 20
654.082023
 30
0.0
 70
     8
  0
VERTEX
  5
BB
  8
TEAM-BODY
 10
-242.399499
 20
646.639485
 30
0.0
 70
     8
  0
VERTEX
  5
BC
  8
TEAM-BODY
 10
-240.336085
 20
639.560117
 30
0.0
 70
     8
  0
VERTEX
  5
BD
  8
TEAM-BODY
 10
-237.793186
 20
632.85807
 30
0.0
 70
     8
  0
VERTEX
  5
BE
  8
TEAM-BODY
 10
-234.842083
 20
626.547497
 30
0.0
 70
     8
  0
VERTEX
  5
BF
  8
TEAM-BODY
 10
-231.55406
 20
620.64255
 30
0.0
 70
     8
  0
VERTEX
  5
C0
  8
TEAM-BODY
 10
-228.000398
 20
615.157381
 30
0.0
 70
     8
  0
VERTEX
  5
C1
  8
TEAM-BODY
 10
-224.215647
 20
610.085967
 30
0.0
 70
     8
  0
VERTEX
  5
C2
  8
TEAM-BODY
 10
-220.087423
 20
605.341587
 30
0.0
 70
     8
  0
VERTEX
  5
C3
  8
TEAM-BODY
 10
-215.466606
 20
600.817348
 30
0.0
 70
     8
  0
VERTEX
  5
C4
  8
TEAM-BODY
 10
-210.204079
 20
596.406352
 30
0.0
 70
     8
  0
VERTEX
  5
C5
  8
TEAM-BODY
 10
-204.150724
 20
592.001706
 30
0.0
 70
     8
  0
VERTEX
  5
C6
  8
TEAM-BODY
 10
-197.157422
 20
587.496514
 30
0.0
 70
     8
  0
VERTEX
  5
C7
  8
TEAM-BODY
 10
-189.075055
 20
582.783882
 30
0.0
 70
     8
  0
VERTEX
  5
C8
  8
TEAM-BODY
 10
-179.754505
 20
577.756913
 30
0.0
 70
     8
  0
VERTEX
  5
C9
  8
TEAM-BODY
 10
-168.963215
 20
572.370436
 30
0.0
 70
     8
  0
VERTEX
  5
CA
  8
TEAM-BODY
 10
-156.134864
 20
566.826174
 30
0.0
 70
     8
  0
VERTEX
  5
CB
  8
TEAM-BODY
 10
-140.619694
 20
561.38757
 30
0.0
 70
     8
  0
VERTEX
  5
CC
  8
TEAM-BODY
 10
-121.767947
 20
556.318069
 30
0.0
 70
     8
  0
VERTEX
  5
CD
  8
TEAM-BODY
 10
-98.929863
 20
551.881117
 30
0.0
 70
     8
  0
VERTEX
  5
CE
  8
TEAM-BODY
 10
-71.455683
 20
548.340158
 30
0.0
 70
     8
  0
VERTEX
  5
CF
  8
TEAM-BODY
 10
-38.695648
 20
545.958638
 30
0.0
 70
     8
  0
VERTEX
  5
D0
  8
TEAM-BODY
 10
0.0
 20
545.0
 30
0.0
 70
     8
  0
VERTEX
  5
D1
  8
TEAM-BODY
 10
-245.461776
 20
647.895635
 30
0.0
 70
    16
  0
VERTEX
  5
D2
  8
TEAM-BODY
 10
-230.073526
 20
610.528797
 30
0.0
 70
    16
  0
VERTEX
  5
D3
  8
TEAM-BODY
 10
-194.552383
 20
582.250044
 30
0.0
 70
    16
  0
VERTEX
  5
D4
  8
TEAM-BODY
 10
-111.68011
 20
545.425017
 30
0.0
 70
    16
  0
VERTEX
  5
D5
  8
TEAM-BODY
 10
0.0
 20
545.0
 30
0.0
 70
    16
  0
SEQEND
  5
D6
  8
TEAM-BODY
  0
LINE
  5
D7
  8
TEAM-BODY
 10
-275.0
 20
700.0
 30
0.0
 11
-275.0
 21
670.0
 31
0.0
  0
LINE
  5
D8
  8
TEAM-BODY
 10
275.0
 20
700.0
 30
0.0
 11
-275.0
 21
700.0
 31
0.0
  0
LINE
  5
D9
  8
TEAM-BODY
 10
275.0
 20
670.0
 30
0.0
 11
-275.0
 21
670.0
 31
0.0
  0
POLYLINE
  5
DA
  8
TEAM-BODY
 66
     1
 10
0.0
 20
0.0
 30
0.0
 70
     4
 75
     6
  0
VERTEX
  5
DB
  8
TEAM-BODY
 10
245.0
 20
670.0
 30
0.0
 70
    16
  0
VERTEX
  5
DC
  8
TEAM-BODY
 10
245.0
 20
670.0
 30
0.0
 70
     8
  0
VERTEX
  5
DD
  8
TEAM-BODY
 10
244.802739
 20
661.873579
 30
0.0
 70
     8
  0
VERTEX
  5
DE
  8
TEAM-BODY
 10
243.912144
 20
654.082023
 30
0.0
 70
     8
  0
VERTEX
  5
DF
  8
TEAM-BODY
 10
242.399499
 20
646.639485
 30
0.0
 70
     8
  0
VERTEX
  5
E0
  8
TEAM-BODY
 10
240.336085
 20
639.560117
 30
0.0
 70
     8
  0
VERTEX
  5
E1
  8
TEAM-BODY
 10
237.793186
 20
632.85807
 30
0.0
 70
     8
  0
VERTEX
  5
E2
  8
TEAM-BODY
 10
234.842083
 20
626.547497
 30
0.0
 70
     8
  0
VERTEX
  5
E3
  8
TEAM-BODY
 10
231.55406
 20
620.64255
 30
0.0
 70
     8
  0
VERTEX
  5
E4
  8
TEAM-BODY
 10
228.000398
 20
615.157381
 30
0.0
 70
     8
  0
VERTEX
  5
E5
  8
TEAM-BODY
 10
224.215647
 20
610.085967
 30
0.0
 70
     8
  0
VERTEX
  5
E6
  8
TEAM-BODY
 10
220.087423
 20
605.341587
 30
0.0
 70
     8
  0
VERTEX
  5
E7
  8
TEAM-BODY
 10
215.466606
 20
600.817348
 30
0.0
 70
     8
  0
VERTEX
  5
E8
  8
TEAM-BODY
 10
210.204079
 20
596.406352
 30
0.0
 70
     8
  0
VERTEX
  5
E9
  8
TEAM-BODY
 10
204.150724
 20
592.001706
 30
0.0
 70
     8
  0
VERTEX
  5
EA
  8
TEAM-BODY
 10
197.157422
 20
587.496514
 30
0.0
 70
     8
  0
VERTEX
  5
EB
  8
TEAM-BODY
 10
189.075055
 20
582.783882
 30
0.0
 70
     8
  0
VERTEX
  5
EC
  8
TEAM-BODY
 10
179.754505
 20
577.756913
 30
0.0
 70
     8
  0
VERTEX
  5
ED
  8
TEAM-BODY
 10
168.963215
 20
572.370436
 30
0.0
 70
     8
  0
VERTEX
  5
EE
  8
TEAM-BODY
 10
156.134864
 20
566.826174
 30
0.0
 70
     8
  0
VERTEX
  5
EF
  8
TEAM-BODY
 10
140.619694
 20
561.38757
 30
0.0
 70
     8
  0
VERTEX
  5
F0
  8
TEAM-BODY
 10
121.767947
 20
556.318069
 30
0.0
 70
     8
  0
VERTEX
  5
F1
  8
TEAM-BODY
 10
98.929863
 20
551.881117
 30
0.0
 70
     8
  0
VERTEX
  5
F2
  8
TEAM-BODY
 10
71.455683
 20
548.340158
 30
0.0
 70
     8
  0
VERTEX
  5
F3
  8
TEAM-BODY
 10
38.695648
 20
545.958638
 30
0.0
 70
     8
  0
VERTEX
  5
F4
  8
TEAM-BODY
 10
0.0
 20
545.0
 30
0.0
 70
     8
  0
VERTEX
  5
F5
  8
TEAM-BODY
 10
245.461776
 20
647.895635
 30
0.0
 70
    16
  0
VERTEX
  5
F6
  8
TEAM-BODY
 10
230.073526
 20
610.528797
 30
0.0
 70
    16
  0
VERTEX
  5
F7
  8
TEAM-BODY
 10
194.552383
 20
582.250044
 30
0.0
 70
    16
  0
VERTEX
  5
F8
  8
TEAM-BODY
 10
111.68011
 20
545.425017
 30
0.0
 70
    16
  0
VERTEX
  5
F9
  8
TEAM-BODY
 10
0.0
 20
545.0
 30
0.0
 70
    16
  0
SEQEND
  5
FA
  8
TEAM-BODY
  0
LINE
  5
FB
  8
TEAM-BODY
 10
-226.117074
 20
536.999087
 30
0.0
 11
-193.530776
 21
536.999087
 31
0.0
  0
LINE
  5
FC
  8
TEAM-BODY
 10
-221.01561
 20
536.999087
 30
0.0
 11
-247.945455
 21
670.0
 31
0.0
  0
LINE
  5
FD
  8
TEAM-BODY
 10
-226.117074
 20
536.999087
 30
0.0
 11
-253.04692
 21
670.0
 31
0.0
  0
LINE
  5
FE
  8
TEAM-BODY
 10
-193.530776
 20
536.999087
 30
0.0
 11
-193.530776
 21
585.381905
 31
0.0
  0
LINE
  5
FF
  8
TEAM-BODY
 10
226.117074
 20
536.999087
 30
0.0
 11
253.04692
 21
670.0
 31
0.0
  0
LINE
  5
100
  8
TEAM-BODY
 10
221.01561
 20
536.999087
 30
0.0
 11
247.945455
 21
670.0
 31
0.0
  0
LINE
  5
101
  8
TEAM-BODY
 10
193.530776
 20
536.999087
 30
0.0
 11
193.530776
 21
585.381905
 31
0.0
  0
LINE
  5
102
  8
TEAM-BODY
 10
226.117074
 20
536.999087
 30
0.0
 11
193.530776
 21
536.999087
 31
0.0
  0
ENDSEC
  0
EOF
