  0
SECTION
  2
HEADER
  9
$ACADVER
  1
AC1009
  9
$INSBASE
 10
0.0
 20
0.0
 30
0.0
  9
$EXTMIN
 10
-312.513404
 20
-458.299229
 30
-0.000004
  9
$EXTMAX
 10
328.373675
 20
62.151539
 30
0.000002
  9
$LIMMIN
 10
-312.513404
 20
-458.299229
  9
$LIMMAX
 10
328.373675
 20
62.151539
  9
$ORTHOMODE
 70
     1
  9
$REGENMODE
 70
     1
  9
$FILLMODE
 70
     1
  9
$QTEXTMODE
 70
     0
  9
$MIRRTEXT
 70
     0
  9
$DRAGMODE
 70
     2
  9
$LTSCALE
 40
50.0
  9
$OSMODE
 70
     0
  9
$ATTMODE
 70
     1
  9
$TEXTSIZE
 40
200.0
  9
$TRACEWID
 40
1.0
  9
$TEXTSTYLE
  7
STANDARD
  9
$CLAYER
  8
TEAM-MAS
  9
$CELTYPE
  6
BYLAYER
  9
$CECOLOR
 62
   256
  9
$DIMSCALE
 40
0.0
  9
$DIMASZ
 40
20.0
  9
$DIMEXO
 40
10.0
  9
$DIMDLI
 40
1.0
  9
$DIMRND
 40
0.0
  9
$DIMDLE
 40
0.0
  9
$DIMEXE
 40
1.0
  9
$DIMTP
 40
0.0
  9
$DIMTM
 40
0.0
  9
$DIMTXT
 40
35.0
  9
$DIMCEN
 40
1.0
  9
$DIMTSZ
 40
0.0
  9
$DIMTOL
 70
     0
  9
$DIMLIM
 70
     0
  9
$DIMTIH
 70
     0
  9
$DIMTOH
 70
     0
  9
$DIMSE1
 70
     0
  9
$DIMSE2
 70
     0
  9
$DIMTAD
 70
     0
  9
$DIMZIN
 70
     0
  9
$DIMBLK
  1

  9
$DIMASO
 70
     1
  9
$DIMSHO
 70
     0
  9
$DIMPOST
  1

  9
$DIMAPOST
  1

  9
$DIMALT
 70
     0
  9
$DIMALTD
 70
     2
  9
$DIMALTF
 40
25.4
  9
$DIMLFAC
 40
1.0
  9
$DIMTOFL
 70
     0
  9
$DIMTVP
 40
0.0
  9
$DIMTIX
 70
     0
  9
$DIMSOXD
 70
     0
  9
$DIMSAH
 70
     0
  9
$DIMBLK1
  1

  9
$DIMBLK2
  1

  9
$DIMSTYLE
  2
TEAM
  9
$DIMCLRD
 70
     9
  9
$DIMCLRE
 70
     9
  9
$DIMCLRT
 70
    11
  9
$DIMTFAC
 40
1.0
  9
$DIMGAP
 40
7.0
  9
$LUNITS
 70
     2
  9
$LUPREC
 70
     1
  9
$SKETCHINC
 40
1.0
  9
$FILLETRAD
 40
30.0
  9
$AUNITS
 70
     0
  9
$AUPREC
 70
     0
  9
$MENU
  1
ROPLANS
  9
$ELEVATION
 40
0.0
  9
$PELEVATION
 40
0.0
  9
$THICKNESS
 40
0.0
  9
$LIMCHECK
 70
     0
  9
$BLIPMODE
 70
     1
  9
$CHAMFERA
 40
0.0
  9
$CHAMFERB
 40
0.0
  9
$SKPOLY
 70
     0
  9
$TDCREATE
 40
2450392.957851
  9
$TDUPDATE
 40
2457311.945613
  9
$TDINDWG
 40
2.155597
  9
$TDUSRTIMER
 40
2.155597
  9
$USRTIMER
 70
     1
  9
$ANGBASE
 50
0.0
  9
$ANGDIR
 70
     0
  9
$PDMODE
 70
     0
  9
$PDSIZE
 40
0.0
  9
$PLINEWID
 40
0.0
  9
$COORDS
 70
     2
  9
$SPLFRAME
 70
     0
  9
$SPLINETYPE
 70
     6
  9
$SPLINESEGS
 70
     8
  9
$ATTDIA
 70
     0
  9
$ATTREQ
 70
     0
  9
$HANDLING
 70
     1
  9
$HANDSEED
  5
C7
  9
$SURFTAB1
 70
    48
  9
$SURFTAB2
 70
    48
  9
$SURFTYPE
 70
     6
  9
$SURFU
 70
     6
  9
$SURFV
 70
     6
  9
$UCSNAME
  2

  9
$UCSORG
 10
0.0
 20
0.0
 30
0.0
  9
$UCSXDIR
 10
1.0
 20
0.0
 30
0.0
  9
$UCSYDIR
 10
0.0
 20
1.0
 30
0.0
  9
$PUCSNAME
  2

  9
$PUCSORG
 10
0.0
 20
0.0
 30
0.0
  9
$PUCSXDIR
 10
1.0
 20
0.0
 30
0.0
  9
$PUCSYDIR
 10
0.0
 20
1.0
 30
0.0
  9
$USERI1
 70
     0
  9
$USERI2
 70
     0
  9
$USERI3
 70
     0
  9
$USERI4
 70
     0
  9
$USERI5
 70
     0
  9
$USERR1
 40
0.0
  9
$USERR2
 40
0.0
  9
$USERR3
 40
0.0
  9
$USERR4
 40
0.0
  9
$USERR5
 40
0.0
  9
$WORLDVIEW
 70
     1
  9
$SHADEDGE
 70
     0
  9
$SHADEDIF
 70
    70
  9
$TILEMODE
 70
     1
  9
$MAXACTVP
 70
    16
  9
$PLIMCHECK
 70
     0
  9
$PEXTMIN
 10
-0.805942
 20
0.005011
 30
0.0
  9
$PEXTMAX
 10
20.250094
 20
11.356329
 30
0.0
  9
$PLIMMIN
 10
0.0
 20
0.0
  9
$PLIMMAX
 10
12.0
 20
9.0
  9
$UNITMODE
 70
     0
  9
$VISRETAIN
 70
     0
  9
$PLINEGEN
 70
     0
  9
$PSLTSCALE
 70
     0
  0
ENDSEC
  0
SECTION
  2
TABLES
  0
TABLE
  2
VPORT
 70
     2
  0
VPORT
  2
*ACTIVE
 70
     0
 10
0.0
 20
0.0
 11
1.0
 21
1.0
 12
7.930135
 22
-198.073845
 13
0.0
 23
0.0
 14
1.0
 24
1.0
 15
50.0
 25
50.0
 16
0.0
 26
0.0
 36
1.0
 17
0.0
 27
0.0
 37
0.0
 40
522.977228
 41
2.023482
 42
50.0
 43
0.0
 44
0.0
 50
0.0
 51
0.0
 71
     0
 72
   100
 73
     1
 74
     1
 75
     0
 76
     0
 77
     0
 78
     0
  0
ENDTAB
  0
TABLE
  2
LTYPE
 70
     2
  0
LTYPE
  2
CONTINUOUS
 70
     0
  3
Solid Line
 72
    65
 73
     0
 40
0.0
  0
LTYPE
  2
31
 70
     0
  3

 72
    65
 73
     4
 40
2.1
 49
1.5
 49
-0.3
 49
0.0
 49
-0.3
  0
ENDTAB
  0
TABLE
  2
LAYER
 70
    10
  0
LAYER
  2
0
 70
     0
 62
     7
  6
CONTINUOUS
  0
LAYER
  2
DEFPOINTS
 70
     0
 62
     7
  6
CONTINUOUS
  0
LAYER
  2
TEAM-BODY
 70
     0
 62
     2
  6
CONTINUOUS
  0
LAYER
  2
TEAM-AXE
 70
     0
 62
    10
  6
31
  0
LAYER
  2
TEAM-MAS
 70
     0
 62
     9
  6
CONTINUOUS
  0
LAYER
  2
TEAM-TXT
 70
     0
 62
    11
  6
CONTINUOUS
  0
LAYER
  2
TEAM-DET1
 70
     0
 62
     4
  6
CONTINUOUS
  0
LAYER
  2
TEAM-COLD
 70
     0
 62
     3
  6
CONTINUOUS
  0
LAYER
  2
TEAM-WARM
 70
     0
 62
     1
  6
CONTINUOUS
  0
LAYER
  2
TEAM-INSP
 70
     0
 62
     5
  6
CONTINUOUS
  0
ENDTAB
  0
TABLE
  2
STYLE
 70
     2
  0
STYLE
  2
STANDARD
 70
     0
 40
0.0
 41
1.0
 50
0.0
 71
     0
 42
200.0
  3
txt
  4

  0
STYLE
  2
TEAM
 70
     0
 40
0.0
 41
0.8
 50
15.0
 71
     0
 42
7.0
  3
ROMANS.shx
  4

  0
ENDTAB
  0
TABLE
  2
VIEW
 70
     0
  0
ENDTAB
  0
TABLE
  2
UCS
 70
     0
  0
ENDTAB
  0
TABLE
  2
APPID
 70
     1
  0
APPID
  2
ACAD
 70
     0
  0
ENDTAB
  0
TABLE
  2
DIMSTYLE
 70
     1
  0
DIMSTYLE
  2
TEAM
 70
     0
  3

  4

  5

  6

  7

 40
0.0
 41
20.0
 42
10.0
 43
1.0
 44
1.0
 45
0.0
 46
0.0
 47
0.0
 48
0.0
140
35.0
141
1.0
142
0.0
143
25.4
144
1.0
145
0.0
146
1.0
147
7.0
 71
     0
 72
     0
 73
     0
 74
     0
 75
     0
 76
     0
 77
     0
 78
     0
170
     0
171
     2
172
     0
173
     0
174
     0
175
     0
176
     9
177
     9
178
    11
  0
ENDTAB
  0
ENDSEC
  0
SECTION
  2
BLOCKS
  0
BLOCK
  8
0
  2
$MODEL_SPACE
 70
     0
 10
0.0
 20
0.0
 30
0.0
  3
$MODEL_SPACE
  1

  0
ENDBLK
  5
C0
  8
0
  0
BLOCK
 67
     1
  8
0
  2
$PAPER_SPACE
 70
     0
 10
0.0
 20
0.0
 30
0.0
  3
$PAPER_SPACE
  1

  0
ENDBLK
  5
BE
 67
     1
  8
0
  0
BLOCK
  8
0
  2
*D0
 70
     1
 10
0.0
 20
0.0
 30
0.0
  3
*D0
  1

  0
LINE
  5
25
  8
0
  6
BYBLOCK
 62
     9
 10
3775.0
 20
10.0
 30
0.0
 11
3775.0
 21
45.649909
 31
0.0
  0
LINE
  5
26
  8
0
  6
BYBLOCK
 62
     9
 10
4225.0
 20
10.0
 30
0.0
 11
4225.0
 21
45.649909
 31
0.0
  0
LINE
  5
27
  8
0
  6
BYBLOCK
 62
     9
 10
3795.0
 20
44.649909
 30
0.0
 11
3914.25
 21
44.649909
 31
0.0
  0
LINE
  5
28
  8
0
  6
BYBLOCK
 62
     9
 10
4205.0
 20
44.649909
 30
0.0
 11
4085.75
 21
44.649909
 31
0.0
  0
SOLID
  5
29
  8
0
  6
BYBLOCK
 62
     9
 10
3795.0
 20
47.983242
 30
0.0
 11
3795.0
 21
41.316575
 31
0.0
 12
3775.0
 22
44.649909
 32
0.0
 13
3775.0
 23
44.649909
 33
0.0
  0
SOLID
  5
2A
  8
0
  6
BYBLOCK
 62
     9
 10
4205.0
 20
47.983242
 30
0.0
 11
4205.0
 21
41.316575
 31
0.0
 12
4225.0
 22
44.649909
 32
0.0
 13
4225.0
 23
44.649909
 33
0.0
  0
TEXT
  5
2B
  8
0
  6
BYBLOCK
 62
    11
 10
3921.25
 20
27.149909
 30
0.0
 40
35.0
  1
450.00
  0
POINT
  5
2C
  8
DEFPOINTS
  6
BYBLOCK
 62
     0
 10
3775.0
 20
0.0
 30
0.0
  0
POINT
  5
2E
  8
DEFPOINTS
  6
BYBLOCK
 62
     0
 10
4225.0
 20
0.0
 30
0.0
  0
POINT
  5
2F
  8
DEFPOINTS
  6
BYBLOCK
 62
     0
 10
4225.0
 20
44.649909
 30
0.0
  0
ENDBLK
  5
31
  8
0
  0
BLOCK
  8
0
  2
*D1
 70
     1
 10
0.0
 20
0.0
 30
0.0
  3
*D1
  1

  0
LINE
  5
40
  8
0
  6
BYBLOCK
 62
     9
 10
3725.0
 20
3865.0
 30
0.0
 11
3658.005228
 21
3865.0
 31
0.0
  0
LINE
  5
41
  8
0
  6
BYBLOCK
 62
     9
 10
3690.0
 20
4000.0
 30
0.0
 11
3658.005228
 21
4000.0
 31
0.0
  0
LINE
  5
42
  8
0
  6
BYBLOCK
 62
     9
 10
3659.005228
 20
3885.0
 30
0.0
 11
3659.005228
 21
3980.0
 31
0.0
  0
TEXT
  5
43
  8
0
  6
BYBLOCK
 62
    11
 10
3647.505228
 20
3856.666667
 30
0.0
 40
35.0
  1
135.00
 50
90.0
  0
SOLID
  5
44
  8
0
  6
BYBLOCK
 62
     9
 10
3655.671895
 20
3885.0
 30
0.0
 11
3662.338562
 21
3885.0
 31
0.0
 12
3659.005228
 22
3865.0
 32
0.0
 13
3659.005228
 23
3865.0
 33
0.0
  0
SOLID
  5
45
  8
0
  6
BYBLOCK
 62
     9
 10
3655.671895
 20
3980.0
 30
0.0
 11
3662.338562
 21
3980.0
 31
0.0
 12
3659.005228
 22
4000.0
 32
0.0
 13
3659.005228
 23
4000.0
 33
0.0
  0
POINT
  5
46
  8
DEFPOINTS
  6
BYBLOCK
 62
     0
 10
3735.0
 20
3865.0
 30
0.0
  0
POINT
  5
47
  8
DEFPOINTS
  6
BYBLOCK
 62
     0
 10
3700.0
 20
4000.0
 30
0.0
  0
POINT
  5
48
  8
DEFPOINTS
  6
BYBLOCK
 62
     0
 10
3659.005228
 20
4000.0
 30
0.0
  0
ENDBLK
  5
4A
  8
0
  0
BLOCK
  8
0
  2
*D2
 70
     1
 10
0.0
 20
0.0
 30
0.0
  3
*D2
  1

  0
LINE
  5
51
  8
0
  6
BYBLOCK
 62
     9
 10
3725.0
 20
3575.0
 30
0.0
 11
3658.005228
 21
3575.0
 31
0.0
  0
LINE
  5
52
  8
0
  6
BYBLOCK
 62
     9
 10
3725.0
 20
3865.0
 30
0.0
 11
3658.005228
 21
3865.0
 31
0.0
  0
LINE
  5
53
  8
0
  6
BYBLOCK
 62
     9
 10
3659.005228
 20
3595.0
 30
0.0
 11
3659.005228
 21
3634.25
 31
0.0
  0
LINE
  5
54
  8
0
  6
BYBLOCK
 62
     9
 10
3659.005228
 20
3845.0
 30
0.0
 11
3659.005228
 21
3805.75
 31
0.0
  0
SOLID
  5
55
  8
0
  6
BYBLOCK
 62
     9
 10
3655.671895
 20
3595.0
 30
0.0
 11
3662.338562
 21
3595.0
 31
0.0
 12
3659.005228
 22
3575.0
 32
0.0
 13
3659.005228
 23
3575.0
 33
0.0
  0
SOLID
  5
56
  8
0
  6
BYBLOCK
 62
     9
 10
3655.671895
 20
3845.0
 30
0.0
 11
3662.338562
 21
3845.0
 31
0.0
 12
3659.005228
 22
3865.0
 32
0.0
 13
3659.005228
 23
3865.0
 33
0.0
  0
TEXT
  5
57
  8
0
  6
BYBLOCK
 62
    11
 10
3676.505228
 20
3641.25
 30
0.0
 40
35.0
  1
290.00
 50
90.0
  0
POINT
  5
58
  8
DEFPOINTS
  6
BYBLOCK
 62
     0
 10
3735.0
 20
3575.0
 30
0.0
  0
POINT
  5
59
  8
DEFPOINTS
  6
BYBLOCK
 62
     0
 10
3735.0
 20
3865.0
 30
0.0
  0
POINT
  5
5A
  8
DEFPOINTS
  6
BYBLOCK
 62
     0
 10
3659.005228
 20
3865.0
 30
0.0
  0
ENDBLK
  5
5C
  8
0
  0
BLOCK
  8
0
  2
*D3
 70
     1
 10
0.0
 20
0.0
 30
0.0
  3
*D3
  1

  0
LINE
  5
7C
  8
0
  6
BYBLOCK
 62
     9
 10
4235.0
 20
0.0
 30
0.0
 11
4264.622104
 21
0.0
 31
0.0
  0
LINE
  5
7D
  8
0
  6
BYBLOCK
 62
     9
 10
4041.0
 20
-210.004266
 30
0.0
 11
4264.622104
 21
-210.004266
 31
0.0
  0
LINE
  5
7E
  8
0
  6
BYBLOCK
 62
     9
 10
4263.622104
 20
20.0
 30
0.0
 11
4263.622104
 21
40.0
 31
0.0
  0
LINE
  5
7F
  8
0
  6
BYBLOCK
 62
     9
 10
4263.622104
 20
-230.004266
 30
0.0
 11
4263.622104
 21
-250.004266
 31
0.0
  0
SOLID
  5
80
  8
0
  6
BYBLOCK
 62
     9
 10
4260.28877
 20
20.0
 30
0.0
 11
4266.955437
 21
20.0
 31
0.0
 12
4263.622104
 22
0.0
 32
0.0
 13
4263.622104
 23
0.0
 33
0.0
  0
SOLID
  5
81
  8
0
  6
BYBLOCK
 62
     9
 10
4260.28877
 20
-230.004266
 30
0.0
 11
4266.955437
 21
-230.004266
 31
0.0
 12
4263.622104
 22
-210.004266
 32
0.0
 13
4263.622104
 23
-210.004266
 33
0.0
  0
TEXT
  5
82
  8
0
  6
BYBLOCK
 62
    11
 10
4281.122104
 20
-177.9188
 30
0.0
 40
35.0
  1
210.00
 50
90.0
  0
POINT
  5
83
  8
DEFPOINTS
  6
BYBLOCK
 62
     0
 10
4225.0
 20
0.0
 30
0.0
  0
POINT
  5
84
  8
DEFPOINTS
  6
BYBLOCK
 62
     0
 10
4031.0
 20
-210.004266
 30
0.0
  0
POINT
  5
85
  8
DEFPOINTS
  6
BYBLOCK
 62
     0
 10
4263.622104
 20
-210.004266
 30
0.0
  0
ENDBLK
  5
87
  8
0
  0
BLOCK
  8
0
  2
*D4
 70
     1
 10
0.0
 20
0.0
 30
0.0
  3
*D4
  1

  0
LINE
  5
6E
  8
0
  6
BYBLOCK
 62
     9
 10
4310.0
 20
4000.0
 30
0.0
 11
4386.861068
 21
4000.0
 31
0.0
  0
LINE
  5
6F
  8
0
  6
BYBLOCK
 62
     9
 10
4270.0
 20
3550.0
 30
0.0
 11
4386.861068
 21
3550.0
 31
0.0
  0
LINE
  5
70
  8
0
  6
BYBLOCK
 62
     9
 10
4385.861068
 20
3980.0
 30
0.0
 11
4385.861068
 21
3860.75
 31
0.0
  0
LINE
  5
71
  8
0
  6
BYBLOCK
 62
     9
 10
4385.861068
 20
3570.0
 30
0.0
 11
4385.861068
 21
3689.25
 31
0.0
  0
SOLID
  5
72
  8
0
  6
BYBLOCK
 62
     9
 10
4382.527734
 20
3980.0
 30
0.0
 11
4389.194401
 21
3980.0
 31
0.0
 12
4385.861068
 22
4000.0
 32
0.0
 13
4385.861068
 23
4000.0
 33
0.0
  0
SOLID
  5
73
  8
0
  6
BYBLOCK
 62
     9
 10
4382.527734
 20
3570.0
 30
0.0
 11
4389.194401
 21
3570.0
 31
0.0
 12
4385.861068
 22
3550.0
 32
0.0
 13
4385.861068
 23
3550.0
 33
0.0
  0
TEXT
  5
74
  8
0
  6
BYBLOCK
 62
    11
 10
4403.361068
 20
3696.25
 30
0.0
 40
35.0
  1
450.00
 50
90.0
  0
POINT
  5
75
  8
DEFPOINTS
  6
BYBLOCK
 62
     0
 10
4300.0
 20
4000.0
 30
0.0
  0
POINT
  5
76
  8
DEFPOINTS
  6
BYBLOCK
 62
     0
 10
4260.0
 20
3550.0
 30
0.0
  0
POINT
  5
77
  8
DEFPOINTS
  6
BYBLOCK
 62
     0
 10
4385.861068
 20
3550.0
 30
0.0
  0
ENDBLK
  5
79
  8
0
  0
ENDSEC
  0
SECTION
  2
ENTITIES
  0
LINE
  5
20
  8
TEAM-BODY
 10
190.0
 20
-135.0
 30
0.0
 11
-190.0
 21
-135.0
 31
0.0
  0
LINE
  5
22
  8
TEAM-BODY
 10
225.0
 20
0.0
 30
0.0
 11
-225.0
 21
0.0
 31
0.0
  0
DIMENSION
  5
23
  8
TEAM-MAS
  2
*D0
 10
225.0
 20
44.649909
 30
0.0
 11
0.0
 21
44.649909
 31
0.0
 12
-4000.0
 22
0.0
 32
0.0
 13
-225.0
 23
0.0
 33
0.0
 14
225.0
 24
0.0
 34
0.0
  0
LINE
  5
32
  8
TEAM-AXE
 10
-96.5
 20
0.0
 30
0.0
 11
-56.5
 21
0.0
 31
0.0
  0
CIRCLE
  5
35
  8
TEAM-WARM
 10
-76.5
 20
0.0
 30
0.0
 40
15.0
  0
TEXT
  5
37
  8
TEAM-TXT
 10
-134.657612
 20
-376.440745
 30
0.0
 40
30.0
  1
team 415001
 41
0.8
 51
15.0
  7
TEAM
  0
LINE
  5
3A
  8
TEAM-DET1
 10
-32.640439
 20
-247.084486
 30
0.0
 11
-190.0
 21
-406.689694
 31
0.0
  0
LINE
  5
3C
  8
TEAM-BODY
 10
190.0
 20
-425.0
 30
0.0
 11
-190.0
 21
-425.0
 31
0.0
  0
LINE
  5
3D
  8
TEAM-BODY
 10
185.0
 20
-450.0
 30
0.0
 11
-185.0
 21
-450.0
 31
0.0
  0
DIMENSION
  5
3E
  8
TEAM-MAS
  2
*D1
 10
-265.994772
 20
0.0
 30
0.0
 11
-369.994772
 21
-67.5
 31
0.0
 12
-3925.0
 22
-4000.0
 32
0.0
 13
-190.0
 23
-135.0
 33
0.0
 14
-225.0
 24
0.0
 34
0.0
 50
90.0
1001
ACAD
1000
DSTYLE
1002
{
1070
    40
1040
1.0
1002
}
  0
ARC
  5
4B
  8
TEAM-BODY
 10
-190.0
 20
-145.0
 30
0.0
 40
10.0
 50
90.0
 51
180.0
  0
ARC
  5
4C
  8
TEAM-BODY
 10
-185.0
 20
-410.0
 30
0.0
 40
40.0
 50
180.0
 51
270.0
  0
ARC
  5
4D
  8
TEAM-BODY
 10
-190.0
 20
-415.0
 30
0.0
 40
10.0
 50
180.0
 51
270.0
  0
LINE
  5
4E
  8
TEAM-BODY
 10
-225.0
 20
0.0
 30
0.0
 11
-225.0
 21
-410.0
 31
0.0
  0
DIMENSION
  5
4F
  8
TEAM-MAS
  2
*D2
 10
-265.994772
 20
-135.0
 30
0.0
 11
-340.994772
 21
-280.0
 31
0.0
 12
-3925.0
 22
-4000.0
 32
0.0
 13
-190.0
 23
-425.0
 33
0.0
 14
-190.0
 24
-135.0
 34
0.0
 50
90.0
1001
ACAD
1000
DSTYLE
1002
{
1070
    40
1040
1.0
1002
}
  0
LINE
  5
5D
  8
TEAM-BODY
 10
-200.0
 20
-145.0
 30
0.0
 11
-200.0
 21
-415.0
 31
0.0
  0
ARC
  5
5E
  8
TEAM-BODY
 10
190.0
 20
-145.0
 30
0.0
 40
10.0
 50
0.0
 51
90.0
  0
LINE
  5
5F
  8
TEAM-AXE
 10
31.0
 20
-210.004266
 30
0.0
 11
-31.0
 21
-210.004266
 31
0.0
  0
CIRCLE
  5
60
  8
TEAM-DET1
 10
0.0
 20
-210.004266
 30
0.0
 40
21.0
  0
LINE
  5
61
  8
TEAM-AXE
 10
76.5
 20
-20.0
 30
0.0
 11
76.5
 21
20.0
 31
0.0
  0
LINE
  5
62
  8
TEAM-AXE
 10
56.5
 20
0.0
 30
0.0
 11
96.5
 21
0.0
 31
0.0
  0
CIRCLE
  5
63
  8
TEAM-COLD
 10
76.5
 20
0.0
 30
0.0
 40
15.0
  0
LINE
  5
65
  8
TEAM-AXE
 10
-76.5
 20
-20.0
 30
0.0
 11
-76.5
 21
20.0
 31
0.0
  0
CIRCLE
  5
66
  8
TEAM-INSP
 10
0.0
 20
0.0
 30
0.0
 40
10.0
  0
ARC
  5
68
  8
TEAM-BODY
 10
185.0
 20
-410.0
 30
0.0
 40
40.0
 50
270.0
 51
0.0
  0
LINE
  5
69
  8
TEAM-DET1
 10
32.640439
 20
-247.084486
 30
0.0
 11
190.0
 21
-406.689694
 31
0.0
  0
ARC
  5
6A
  8
TEAM-BODY
 10
190.0
 20
-415.0
 30
0.0
 40
10.0
 50
270.0
 51
0.0
  0
LINE
  5
6B
  8
TEAM-BODY
 10
225.0
 20
0.0
 30
0.0
 11
225.0
 21
-410.0
 31
0.0
  0
DIMENSION
  5
6C
  8
TEAM-MAS
  2
*D4
 10
310.861068
 20
-450.0
 30
0.0
 11
385.861068
 21
-225.0
 31
0.0
 12
-4075.0
 22
-4000.0
 32
0.0
 13
225.0
 23
0.0
 33
0.0
 14
185.0
 24
-450.0
 34
0.0
 50
90.0
  0
DIMENSION
  5
7A
  8
TEAM-MAS
  2
*D3
 10
263.622104
 20
-210.004266
 30
0.0
 11
263.622104
 21
-105.002133
 31
0.0
 12
-4000.0
 22
0.0
 32
0.0
 13
225.0
 23
0.0
 33
0.0
 14
31.0
 24
-210.004266
 34
0.0
 50
90.0
1001
ACAD
1000
DSTYLE
1002
{
1070
    40
1040
1.0
1002
}
  0
LINE
  5
88
  8
TEAM-BODY
 10
200.0
 20
-145.0
 30
0.0
 11
200.0
 21
-415.0
 31
0.0
  0
LINE
  5
89
  8
TEAM-AXE
 10
0.0
 20
-241.004266
 30
0.0
 11
0.0
 21
-179.004266
 31
0.0
  0
CIRCLE
  5
8A
  8
TEAM-BODY
 10
0.0
 20
-210.004266
 30
0.0
 40
26.0
  0
ENDSEC
  0
EOF
