  0
SECTION
  2
HEADER
  9
$ACADVER
  1
AC1009
  9
$INSBASE
 10
0.0
 20
0.0
 30
0.0
  9
$EXTMIN
 10
-301.811068
 20
-60.067095
 30
-0.000006
  9
$EXTMAX
 10
100.684159
 20
1164.732841
 30
0.000006
  9
$LIMMIN
 10
-301.811068
 20
-60.067095
  9
$LIMMAX
 10
100.684159
 20
1164.732841
  9
$ORTHOMODE
 70
     1
  9
$REGENMODE
 70
     1
  9
$FILLMODE
 70
     1
  9
$QTEXTMODE
 70
     0
  9
$MIRRTEXT
 70
     0
  9
$DRAGMODE
 70
     2
  9
$LTSCALE
 40
50.0
  9
$OSMODE
 70
     0
  9
$ATTMODE
 70
     1
  9
$TEXTSIZE
 40
200.0
  9
$TRACEWID
 40
1.0
  9
$TEXTSTYLE
  7
STANDARD
  9
$CLAYER
  8
TEAM-MAS
  9
$CELTYPE
  6
BYLAYER
  9
$CECOLOR
 62
   256
  9
$DIMSCALE
 40
1.0
  9
$DIMASZ
 40
20.0
  9
$DIMEXO
 40
10.0
  9
$DIMDLI
 40
1.0
  9
$DIMRND
 40
0.0
  9
$DIMDLE
 40
0.0
  9
$DIMEXE
 40
1.0
  9
$DIMTP
 40
0.0
  9
$DIMTM
 40
0.0
  9
$DIMTXT
 40
35.0
  9
$DIMCEN
 40
1.0
  9
$DIMTSZ
 40
0.0
  9
$DIMTOL
 70
     0
  9
$DIMLIM
 70
     0
  9
$DIMTIH
 70
     0
  9
$DIMTOH
 70
     0
  9
$DIMSE1
 70
     0
  9
$DIMSE2
 70
     0
  9
$DIMTAD
 70
     0
  9
$DIMZIN
 70
     0
  9
$DIMBLK
  1

  9
$DIMASO
 70
     1
  9
$DIMSHO
 70
     0
  9
$DIMPOST
  1

  9
$DIMAPOST
  1

  9
$DIMALT
 70
     0
  9
$DIMALTD
 70
     2
  9
$DIMALTF
 40
25.4
  9
$DIMLFAC
 40
1.0
  9
$DIMTOFL
 70
     0
  9
$DIMTVP
 40
0.0
  9
$DIMTIX
 70
     0
  9
$DIMSOXD
 70
     0
  9
$DIMSAH
 70
     0
  9
$DIMBLK1
  1

  9
$DIMBLK2
  1

  9
$DIMSTYLE
  2
TEAM
  9
$DIMCLRD
 70
     9
  9
$DIMCLRE
 70
     9
  9
$DIMCLRT
 70
    11
  9
$DIMTFAC
 40
1.0
  9
$DIMGAP
 40
7.0
  9
$LUNITS
 70
     2
  9
$LUPREC
 70
     1
  9
$SKETCHINC
 40
1.0
  9
$FILLETRAD
 40
50.0
  9
$AUNITS
 70
     0
  9
$AUPREC
 70
     0
  9
$MENU
  1
ROPLANS
  9
$ELEVATION
 40
0.0
  9
$PELEVATION
 40
0.0
  9
$THICKNESS
 40
0.0
  9
$LIMCHECK
 70
     0
  9
$BLIPMODE
 70
     1
  9
$CHAMFERA
 40
0.0
  9
$CHAMFERB
 40
0.0
  9
$SKPOLY
 70
     0
  9
$TDCREATE
 40
2450392.957851
  9
$TDUPDATE
 40
2456118.662559
  9
$TDINDWG
 40
5.307301
  9
$TDUSRTIMER
 40
5.307301
  9
$USRTIMER
 70
     1
  9
$ANGBASE
 50
0.0
  9
$ANGDIR
 70
     0
  9
$PDMODE
 70
     0
  9
$PDSIZE
 40
0.0
  9
$PLINEWID
 40
0.0
  9
$COORDS
 70
     2
  9
$SPLFRAME
 70
     0
  9
$SPLINETYPE
 70
     6
  9
$SPLINESEGS
 70
     8
  9
$ATTDIA
 70
     0
  9
$ATTREQ
 70
     0
  9
$HANDLING
 70
     1
  9
$HANDSEED
  5
1DA
  9
$SURFTAB1
 70
    24
  9
$SURFTAB2
 70
    24
  9
$SURFTYPE
 70
     6
  9
$SURFU
 70
     6
  9
$SURFV
 70
     6
  9
$UCSNAME
  2

  9
$UCSORG
 10
0.0
 20
0.0
 30
0.0
  9
$UCSXDIR
 10
1.0
 20
0.0
 30
0.0
  9
$UCSYDIR
 10
0.0
 20
1.0
 30
0.0
  9
$PUCSNAME
  2

  9
$PUCSORG
 10
0.0
 20
0.0
 30
0.0
  9
$PUCSXDIR
 10
1.0
 20
0.0
 30
0.0
  9
$PUCSYDIR
 10
0.0
 20
1.0
 30
0.0
  9
$USERI1
 70
     0
  9
$USERI2
 70
     0
  9
$USERI3
 70
     0
  9
$USERI4
 70
     0
  9
$USERI5
 70
     0
  9
$USERR1
 40
0.0
  9
$USERR2
 40
0.0
  9
$USERR3
 40
0.0
  9
$USERR4
 40
0.0
  9
$USERR5
 40
0.0
  9
$WORLDVIEW
 70
     1
  9
$SHADEDGE
 70
     0
  9
$SHADEDIF
 70
    70
  9
$TILEMODE
 70
     1
  9
$MAXACTVP
 70
    16
  9
$PLIMCHECK
 70
     0
  9
$PEXTMIN
 10
-0.805942
 20
0.005011
 30
0.0
  9
$PEXTMAX
 10
20.250094
 20
11.356329
 30
0.0
  9
$PLIMMIN
 10
0.0
 20
0.0
  9
$PLIMMAX
 10
12.0
 20
9.0
  9
$UNITMODE
 70
     0
  9
$VISRETAIN
 70
     0
  9
$PLINEGEN
 70
     0
  9
$PSLTSCALE
 70
     0
  0
ENDSEC
  0
SECTION
  2
TABLES
  0
TABLE
  2
VPORT
 70
     2
  0
VPORT
  2
*ACTIVE
 70
     0
 10
0.0
 20
0.0
 11
1.0
 21
1.0
 12
-100.563455
 22
552.332873
 13
0.0
 23
0.0
 14
1.0
 24
1.0
 15
50.0
 25
50.0
 16
0.0
 26
0.0
 36
1.0
 17
0.0
 27
0.0
 37
0.0
 40
1232.511164
 41
1.911765
 42
50.0
 43
0.0
 44
0.0
 50
0.0
 51
0.0
 71
     0
 72
   100
 73
     1
 74
     1
 75
     0
 76
     0
 77
     0
 78
     0
  0
ENDTAB
  0
TABLE
  2
LTYPE
 70
     3
  0
LTYPE
  2
CONTINUOUS
 70
     0
  3
Solid Line
 72
    65
 73
     0
 40
0.0
  0
LTYPE
  2
31
 70
     0
  3

 72
    65
 73
     4
 40
2.1
 49
1.5
 49
-0.3
 49
0.0
 49
-0.3
  0
LTYPE
  2
22
 70
     0
  3

 72
    65
 73
     2
 40
1.4
 49
1.2
 49
-0.2
  0
ENDTAB
  0
TABLE
  2
LAYER
 70
     9
  0
LAYER
  2
0
 70
     0
 62
     7
  6
CONTINUOUS
  0
LAYER
  2
DEFPOINTS
 70
     0
 62
     7
  6
CONTINUOUS
  0
LAYER
  2
TEAM-AXE
 70
     0
 62
    10
  6
31
  0
LAYER
  2
TEAM-MAS
 70
     0
 62
     9
  6
CONTINUOUS
  0
LAYER
  2
TEAM-TXT
 70
     0
 62
    11
  6
CONTINUOUS
  0
LAYER
  2
TEAM-DET2
 70
     0
 62
    11
  6
CONTINUOUS
  0
LAYER
  2
TEAM-HIDE
 70
     0
 62
     8
  6
22
  0
LAYER
  2
TEAM-DET3
 70
     0
 62
    14
  6
CONTINUOUS
  0
LAYER
  2
TEAM-INSP
 70
     0
 62
     5
  6
CONTINUOUS
  0
ENDTAB
  0
TABLE
  2
STYLE
 70
     2
  0
STYLE
  2
STANDARD
 70
     0
 40
0.0
 41
1.0
 50
0.0
 71
     0
 42
200.0
  3
txt
  4

  0
STYLE
  2
TEAM
 70
     0
 40
0.0
 41
0.8
 50
15.0
 71
     0
 42
7.0
  3
ROMANS.shx
  4

  0
ENDTAB
  0
TABLE
  2
VIEW
 70
     0
  0
ENDTAB
  0
TABLE
  2
UCS
 70
     0
  0
ENDTAB
  0
TABLE
  2
APPID
 70
     1
  0
APPID
  2
ACAD
 70
     0
  0
ENDTAB
  0
TABLE
  2
DIMSTYLE
 70
     1
  0
DIMSTYLE
  2
TEAM
 70
     0
  3

  4

  5

  6

  7

 40
1.0
 41
20.0
 42
10.0
 43
1.0
 44
1.0
 45
0.0
 46
0.0
 47
0.0
 48
0.0
140
35.0
141
1.0
142
0.0
143
25.4
144
1.0
145
0.0
146
1.0
147
7.0
 71
     0
 72
     0
 73
     0
 74
     0
 75
     0
 76
     0
 77
     0
 78
     0
170
     0
171
     2
172
     0
173
     0
174
     0
175
     0
176
     9
177
     9
178
    11
  0
ENDTAB
  0
ENDSEC
  0
SECTION
  2
BLOCKS
  0
BLOCK
  8
0
  2
$MODEL_SPACE
 70
     0
 10
0.0
 20
0.0
 30
0.0
  3
$MODEL_SPACE
  1

  0
ENDBLK
  5
1BF
  8
0
  0
BLOCK
 67
     1
  8
0
  2
$PAPER_SPACE
 70
     0
 10
0.0
 20
0.0
 30
0.0
  3
$PAPER_SPACE
  1

  0
ENDBLK
  5
1BD
 67
     1
  8
0
  0
BLOCK
  8
0
  2
*D0
 70
     1
 10
0.0
 20
0.0
 30
0.0
  3
*D0
  1

  0
LINE
  5
147
  8
0
  6
BYBLOCK
 62
     9
 10
7999.999057
 20
21131.500016
 30
0.0
 11
7999.999057
 21
21148.151268
 31
0.0
  0
LINE
  5
148
  8
0
  6
BYBLOCK
 62
     9
 10
7889.999946
 20
21131.500016
 30
0.0
 11
7889.999946
 21
21148.151268
 31
0.0
  0
LINE
  5
149
  8
0
  6
BYBLOCK
 62
     9
 10
8019.999057
 20
21147.151268
 30
0.0
 11
8039.999057
 21
21147.151268
 31
0.0
  0
LINE
  5
14A
  8
0
  6
BYBLOCK
 62
     9
 10
7869.999946
 20
21147.151268
 30
0.0
 11
7849.999946
 21
21147.151268
 31
0.0
  0
SOLID
  5
14B
  8
0
  6
BYBLOCK
 62
     9
 10
8019.999057
 20
21150.484602
 30
0.0
 11
8019.999057
 21
21143.817935
 31
0.0
 12
7999.999057
 22
21147.151268
 32
0.0
 13
7999.999057
 23
21147.151268
 33
0.0
  0
SOLID
  5
14C
  8
0
  6
BYBLOCK
 62
     9
 10
7869.999946
 20
21150.484602
 30
0.0
 11
7869.999946
 21
21143.817935
 31
0.0
 12
7889.999946
 22
21147.151268
 32
0.0
 13
7889.999946
 23
21147.151268
 33
0.0
  0
TEXT
  5
14D
  8
0
  6
BYBLOCK
 62
    11
 10
7912.916168
 20
21129.651268
 30
0.0
 40
35.0
  1
110
  0
POINT
  5
14E
  8
DEFPOINTS
  6
BYBLOCK
 62
     0
 10
7999.999057
 20
21121.500016
 30
0.0
  0
POINT
  5
14F
  8
DEFPOINTS
  6
BYBLOCK
 62
     0
 10
7889.999946
 20
21121.500016
 30
0.0
  0
POINT
  5
150
  8
DEFPOINTS
  6
BYBLOCK
 62
     0
 10
7889.999946
 20
21147.151268
 30
0.0
  0
ENDBLK
  5
152
  8
0
  0
BLOCK
  8
0
  2
*D1
 70
     1
 10
0.0
 20
0.0
 30
0.0
  3
*D1
  1

  0
LINE
  5
17C
  8
0
  6
BYBLOCK
 62
     9
 10
8010.0
 20
20000.0
 30
0.0
 11
8084.156599
 21
20000.0
 31
0.0
  0
LINE
  5
17D
  8
0
  6
BYBLOCK
 62
     9
 10
8009.999057
 20
21119.996576
 30
0.0
 11
8084.156599
 21
21119.996576
 31
0.0
  0
LINE
  5
17E
  8
0
  6
BYBLOCK
 62
     9
 10
8083.156599
 20
20020.0
 30
0.0
 11
8083.156599
 21
20427.581621
 31
0.0
  0
LINE
  5
17F
  8
0
  6
BYBLOCK
 62
     9
 10
8083.156599
 20
21099.996576
 30
0.0
 11
8083.156599
 21
20692.414955
 31
0.0
  0
SOLID
  5
180
  8
0
  6
BYBLOCK
 62
     9
 10
8079.823266
 20
20020.0
 30
0.0
 11
8086.489932
 21
20020.0
 31
0.0
 12
8083.156599
 22
20000.0
 32
0.0
 13
8083.156599
 23
20000.0
 33
0.0
  0
SOLID
  5
181
  8
0
  6
BYBLOCK
 62
     9
 10
8079.823266
 20
21099.996576
 30
0.0
 11
8086.489932
 21
21099.996576
 31
0.0
 12
8083.156599
 22
21119.996576
 32
0.0
 13
8083.156599
 23
21119.996576
 33
0.0
  0
TEXT
  5
182
  8
0
  6
BYBLOCK
 62
    11
 10
8100.656599
 20
20434.581621
 30
0.0
 40
35.0
  1
1120-1300
 50
90.0
  0
POINT
  5
183
  8
DEFPOINTS
  6
BYBLOCK
 62
     0
 10
8000.0
 20
20000.0
 30
0.0
  0
POINT
  5
184
  8
DEFPOINTS
  6
BYBLOCK
 62
     0
 10
7999.999057
 20
21119.996576
 30
0.0
  0
POINT
  5
185
  8
DEFPOINTS
  6
BYBLOCK
 62
     0
 10
8083.156599
 20
21119.996576
 30
0.0
  0
ENDBLK
  5
187
  8
0
  0
BLOCK
  8
0
  2
*D2
 70
     1
 10
0.0
 20
0.0
 30
0.0
  3
*D2
  1

  0
LINE
  5
22
  8
0
  6
BYBLOCK
 62
     9
 10
8009.499482
 20
19980.0
 30
0.0
 11
8052.194401
 21
19980.0
 31
0.0
  0
LINE
  5
23
  8
0
  6
BYBLOCK
 62
     9
 10
8010.0
 20
20000.0
 30
0.0
 11
8052.194401
 21
20000.0
 31
0.0
  0
LINE
  5
24
  8
0
  6
BYBLOCK
 62
     9
 10
8051.194401
 20
19960.0
 30
0.0
 11
8051.194401
 21
19940.0
 31
0.0
  0
LINE
  5
25
  8
0
  6
BYBLOCK
 62
     9
 10
8051.194401
 20
20020.0
 30
0.0
 11
8051.194401
 21
20040.0
 31
0.0
  0
TEXT
  5
26
  8
0
  6
BYBLOCK
 62
    11
 10
8068.427356
 20
20053.117308
 30
0.0
 40
35.0
  1
0-200
 50
90.0
  0
LINE
  5
27
  8
0
  6
BYBLOCK
 62
     9
 10
8051.194401
 20
19980.0
 30
0.0
 11
8051.194401
 21
20000.0
 31
0.0
  0
SOLID
  5
28
  8
0
  6
BYBLOCK
 62
     9
 10
8047.861068
 20
19960.0
 30
0.0
 11
8054.527735
 21
19960.0
 31
0.0
 12
8051.194401
 22
19980.0
 32
0.0
 13
8051.194401
 23
19980.0
 33
0.0
  0
SOLID
  5
29
  8
0
  6
BYBLOCK
 62
     9
 10
8047.861068
 20
20020.0
 30
0.0
 11
8054.527735
 21
20020.0
 31
0.0
 12
8051.194401
 22
20000.0
 32
0.0
 13
8051.194401
 23
20000.0
 33
0.0
  0
POINT
  5
2A
  8
DEFPOINTS
  6
BYBLOCK
 62
     0
 10
7999.499482
 20
19980.0
 30
0.0
  0
POINT
  5
2C
  8
DEFPOINTS
  6
BYBLOCK
 62
     0
 10
8000.0
 20
20000.0
 30
0.0
  0
POINT
  5
2D
  8
DEFPOINTS
  6
BYBLOCK
 62
     0
 10
8051.194401
 20
20000.0
 30
0.0
  0
ENDBLK
  5
2F
  8
0
  0
BLOCK
  8
0
  2
*D3
 70
     1
 10
0.0
 20
0.0
 30
0.0
  3
*D3
  1

  0
LINE
  5
167
  8
0
  6
BYBLOCK
 62
     9
 10
7999.499478
 20
19998.0
 30
0.0
 11
7999.499478
 21
20030.10083
 31
0.0
  0
LINE
  5
168
  8
0
  6
BYBLOCK
 62
     9
 10
7951.499478
 20
19997.999984
 30
0.0
 11
7951.499478
 21
20030.10083
 31
0.0
  0
LINE
  5
169
  8
0
  6
BYBLOCK
 62
     9
 10
8019.499478
 20
20029.10083
 30
0.0
 11
8039.499478
 21
20029.10083
 31
0.0
  0
LINE
  5
16A
  8
0
  6
BYBLOCK
 62
     9
 10
7931.499478
 20
20029.10083
 30
0.0
 11
7911.499478
 21
20029.10083
 31
0.0
  0
TEXT
  5
16B
  8
0
  6
BYBLOCK
 62
    11
 10
7842.045533
 20
20011.60083
 30
0.0
 40
35.0
  1
48
  0
LINE
  5
16C
  8
0
  6
BYBLOCK
 62
     9
 10
7999.499478
 20
20029.10083
 30
0.0
 11
7951.499478
 21
20029.10083
 31
0.0
  0
SOLID
  5
16D
  8
0
  6
BYBLOCK
 62
     9
 10
8019.499478
 20
20032.434164
 30
0.0
 11
8019.499478
 21
20025.767497
 31
0.0
 12
7999.499478
 22
20029.10083
 32
0.0
 13
7999.499478
 23
20029.10083
 33
0.0
  0
SOLID
  5
16E
  8
0
  6
BYBLOCK
 62
     9
 10
7931.499478
 20
20032.434164
 30
0.0
 11
7931.499478
 21
20025.767497
 31
0.0
 12
7951.499478
 22
20029.10083
 32
0.0
 13
7951.499478
 23
20029.10083
 33
0.0
  0
POINT
  5
16F
  8
DEFPOINTS
  6
BYBLOCK
 62
     0
 10
7999.499478
 20
19988.0
 30
0.0
  0
POINT
  5
170
  8
DEFPOINTS
  6
BYBLOCK
 62
     0
 10
7951.499478
 20
19987.999984
 30
0.0
  0
POINT
  5
171
  8
DEFPOINTS
  6
BYBLOCK
 62
     0
 10
7951.499478
 20
20029.10083
 30
0.0
  0
ENDBLK
  5
173
  8
0
  0
ENDSEC
  0
SECTION
  2
ENTITIES
  0
DIMENSION
  5
20
  8
TEAM-MAS
  2
*D2
 10
51.194401
 20
0.0
 30
0.0
 11
50.927356
 21
126.033974
 31
0.0
 12
-8000.0
 22
-20000.0
 32
0.0
 70
   128
  1
0-200
 13
-0.500518
 23
-20.0
 33
0.0
 14
0.0
 24
0.0
 34
0.0
 50
90.0
1001
ACAD
1000
DSTYLE
1002
{
1070
    40
1040
1.0
1002
}
  0
LINE
  5
30
  8
TEAM-AXE
 10
-91.767047
 20
1033.853125
 30
0.0
 11
-91.767047
 21
1009.849891
 31
0.0
  0
LINE
  5
33
  8
TEAM-AXE
 10
-79.76543
 20
1021.851508
 30
0.0
 11
-103.768664
 21
1021.851508
 31
0.0
  0
CIRCLE
  5
34
  8
TEAM-DET3
 10
-91.767047
 20
1021.851508
 30
0.0
 40
5.502986
  0
CIRCLE
  5
36
  8
TEAM-DET3
 10
-91.767047
 20
1093.688806
 30
0.0
 40
5.502986
  0
LINE
  5
37
  8
TEAM-AXE
 10
-79.76543
 20
1093.688806
 30
0.0
 11
-103.768664
 21
1093.688806
 31
0.0
  0
LINE
  5
38
  8
TEAM-AXE
 10
-91.767047
 20
1105.690423
 30
0.0
 11
-91.767047
 21
1081.68719
 31
0.0
  0
LINE
  5
39
  8
TEAM-DET3
 10
-110.000054
 20
1043.617936
 30
0.0
 11
-107.086267
 21
994.531616
 31
0.0
  0
LINE
  5
3A
  8
TEAM-HIDE
 10
-34.996912
 20
1047.118153
 30
0.0
 11
-110.000054
 21
1047.118153
 31
0.0
  0
LINE
  5
3D
  8
TEAM-DET3
 10
-110.000054
 20
1048.621592
 30
0.0
 11
-0.000943
 21
1048.621592
 31
0.0
  0
LINE
  5
3E
  8
TEAM-DET3
 10
-37.205219
 20
994.531616
 30
0.0
 11
-107.086267
 21
994.531616
 31
0.0
  0
LINE
  5
3F
  8
TEAM-HIDE
 10
-37.500649
 20
498.656171
 30
0.0
 11
-2.500649
 21
498.656183
 31
0.0
  0
LINE
  5
40
  8
TEAM-DET2
 10
-40.000985
 20
1121.500004
 30
0.0
 11
-0.000943
 21
1121.500016
 31
0.0
  0
LINE
  5
42
  8
TEAM-AXE
 10
-45.82869
 20
1101.500003
 30
0.0
 11
2.241081
 21
1101.500018
 31
0.0
  0
CIRCLE
  5
43
  8
TEAM-HIDE
 10
-20.000695
 20
585.144758
 30
0.0
 40
3.0
  0
LINE
  5
44
  8
TEAM-HIDE
 10
-24.000681
 20
543.644756
 30
0.0
 11
-3.000681
 21
543.644764
 31
0.0
  0
LINE
  5
45
  8
TEAM-HIDE
 10
-40.000709
 20
626.644752
 30
0.0
 11
-7.000709
 21
626.644762
 31
0.0
  0
LINE
  5
46
  8
TEAM-HIDE
 10
-20.000697
 20
592.650312
 30
0.0
 11
-26.500695
 21
588.897532
 31
0.0
  0
LINE
  5
47
  8
TEAM-HIDE
 10
-26.500693
 20
581.39198
 30
0.0
 11
-20.000693
 21
577.639204
 31
0.0
  0
CIRCLE
  5
48
  8
TEAM-HIDE
 10
-20.000695
 20
585.144758
 30
0.0
 40
10.0
  0
LINE
  5
49
  8
TEAM-HIDE
 10
-20.000796
 20
758.650262
 30
0.0
 11
-26.500796
 21
754.897482
 31
0.0
  0
LINE
  5
4A
  8
TEAM-HIDE
 10
-26.500792
 20
747.39193
 30
0.0
 11
-20.000792
 21
743.639154
 31
0.0
  0
CIRCLE
  5
4B
  8
TEAM-HIDE
 10
-20.000794
 20
751.144708
 30
0.0
 40
10.0
  0
CIRCLE
  5
4C
  8
TEAM-HIDE
 10
-20.000794
 20
751.144708
 30
0.0
 40
5.0
  0
LINE
  5
4D
  8
TEAM-HIDE
 10
-37.000772
 20
684.644702
 30
0.0
 11
-2.000772
 21
684.644714
 31
0.0
  0
LINE
  5
4E
  8
TEAM-HIDE
 10
-37.000816
 20
817.644702
 30
0.0
 11
-2.000816
 21
817.644714
 31
0.0
  0
LINE
  5
4F
  8
TEAM-HIDE
 10
-42.000683
 20
551.64475
 30
0.0
 11
-2.000683
 21
551.644764
 31
0.0
  0
LINE
  5
50
  8
TEAM-HIDE
 10
-42.000685
 20
553.64475
 30
0.0
 11
-4.000685
 21
553.644764
 31
0.0
  0
LINE
  5
51
  8
TEAM-HIDE
 10
-24.000661
 20
482.644756
 30
0.0
 11
-0.000662
 21
482.64477
 31
0.0
  0
LINE
  5
52
  8
TEAM-HIDE
 10
-24.000683
 20
551.644756
 30
0.0
 11
-24.000661
 21
482.644756
 31
0.0
  0
LINE
  5
53
  8
TEAM-HIDE
 10
-37.000782
 20
714.644702
 30
0.0
 11
-37.000772
 21
684.644702
 31
0.0
  0
LINE
  5
54
  8
TEAM-DET3
 10
-60.000685
 20
555.144746
 30
0.0
 11
-48.500685
 21
555.144748
 31
0.0
  0
LINE
  5
55
  8
TEAM-DET3
 10
-60.000685
 20
557.144746
 30
0.0
 11
-48.500685
 21
557.144748
 31
0.0
  0
LINE
  5
56
  8
TEAM-DET3
 10
-60.000703
 20
613.144746
 30
0.0
 11
-48.500703
 21
613.144748
 31
0.0
  0
LINE
  5
57
  8
TEAM-DET3
 10
-60.000705
 20
615.144746
 30
0.0
 11
-48.500705
 21
615.144748
 31
0.0
  0
LINE
  5
58
  8
TEAM-DET3
 10
-60.000685
 20
557.144746
 30
0.0
 11
-60.000685
 21
555.144746
 31
0.0
  0
LINE
  5
59
  8
TEAM-DET3
 10
-60.000705
 20
615.144746
 30
0.0
 11
-60.000703
 21
613.144746
 31
0.0
  0
LINE
  5
5A
  8
TEAM-DET3
 10
-43.000707
 20
623.64475
 30
0.0
 11
-43.000703
 21
612.64475
 31
0.0
  0
ARC
  5
5B
  8
TEAM-DET3
 10
-40.000683
 20
546.644752
 30
0.0
 40
3.0
 50
180.000019
 51
270.000019
  0
LINE
  5
5C
  8
TEAM-DET3
 10
-47.000703
 20
611.64475
 30
0.0
 11
-47.000687
 21
558.64475
 31
0.0
  0
LINE
  5
5D
  8
TEAM-DET3
 10
-45.000703
 20
611.64475
 30
0.0
 11
-45.000687
 21
558.64475
 31
0.0
  0
LINE
  5
5E
  8
TEAM-DET3
 10
-45.000701
 20
606.64475
 30
0.0
 11
-45.000685
 21
554.64475
 31
0.0
  0
ARC
  5
5F
  8
TEAM-DET3
 10
-44.000685
 20
557.64475
 30
0.0
 40
1.0
 50
0.000019
 51
90.000019
  0
LINE
  5
60
  8
TEAM-DET3
 10
-45.000687
 20
558.64475
 30
0.0
 11
-44.000687
 21
558.64475
 31
0.0
  0
LINE
  5
61
  8
TEAM-DET3
 10
-43.000685
 20
557.64475
 30
0.0
 11
-43.000683
 21
546.64475
 31
0.0
  0
ARC
  5
62
  8
TEAM-DET3
 10
-48.500687
 20
558.644748
 30
0.0
 40
1.5
 50
270.000019
 51
0.000019
  0
ARC
  5
63
  8
TEAM-DET3
 10
-48.500687
 20
558.644748
 30
0.0
 40
3.5
 50
270.000019
 51
0.000019
  0
ARC
  5
64
  8
TEAM-DET3
 10
-42.000685
 20
554.64475
 30
0.0
 40
3.0
 50
180.000019
 51
270.000019
  0
ARC
  5
65
  8
TEAM-DET3
 10
-42.000685
 20
554.64475
 30
0.0
 40
1.0
 50
180.000019
 51
270.000019
  0
ARC
  5
66
  8
TEAM-DET3
 10
-44.000703
 20
612.64475
 30
0.0
 40
1.0
 50
270.000019
 51
0.000019
  0
LINE
  5
67
  8
TEAM-DET3
 10
-45.000703
 20
611.64475
 30
0.0
 11
-44.000703
 21
611.64475
 31
0.0
  0
ARC
  5
68
  8
TEAM-DET3
 10
-48.500703
 20
611.644748
 30
0.0
 40
3.5
 50
0.000019
 51
90.000019
  0
ARC
  5
69
  8
TEAM-DET3
 10
-48.500703
 20
611.644748
 30
0.0
 40
1.5
 50
0.000019
 51
90.000019
  0
LINE
  5
6A
  8
TEAM-DET3
 10
-47.000703
 20
611.64475
 30
0.0
 11
-47.000695
 21
585.14475
 31
0.0
  0
LINE
  5
6B
  8
TEAM-HIDE
 10
-40.000681
 20
543.644752
 30
0.0
 11
-24.000681
 21
543.644756
 31
0.0
  0
LINE
  5
6C
  8
TEAM-HIDE
 10
-26.500695
 20
588.897532
 30
0.0
 11
-26.500693
 21
581.39198
 31
0.0
  0
ARC
  5
6D
  8
TEAM-DET3
 10
-40.000707
 20
623.644752
 30
0.0
 40
3.0
 50
90.000019
 51
180.000019
  0
LINE
  5
6E
  8
TEAM-HIDE
 10
-37.000816
 20
817.644702
 30
0.0
 11
-37.000806
 21
787.644702
 31
0.0
  0
LINE
  5
6F
  8
TEAM-HIDE
 10
-42.000782
 20
714.6447
 30
0.0
 11
-37.000782
 21
714.644702
 31
0.0
  0
LINE
  5
70
  8
TEAM-HIDE
 10
-42.000806
 20
787.6447
 30
0.0
 11
-37.000806
 21
787.644702
 31
0.0
  0
LINE
  5
71
  8
TEAM-HIDE
 10
-42.000806
 20
787.6447
 30
0.0
 11
-42.000782
 21
714.6447
 31
0.0
  0
LINE
  5
72
  8
TEAM-HIDE
 10
-40.000806
 20
787.644702
 30
0.0
 11
-40.000782
 21
714.644702
 31
0.0
  0
LINE
  5
73
  8
TEAM-HIDE
 10
-40.000806
 20
787.644702
 30
0.0
 11
-40.000782
 21
714.644702
 31
0.0
  0
LINE
  5
74
  8
TEAM-HIDE
 10
-26.500796
 20
754.897482
 30
0.0
 11
-26.500792
 21
747.39193
 31
0.0
  0
LINE
  5
75
  8
TEAM-HIDE
 10
-7.000683
 20
551.644762
 30
0.0
 11
-7.000661
 21
482.644762
 31
0.0
  0
LINE
  5
76
  8
TEAM-HIDE
 10
-0.000683
 20
551.644764
 30
0.0
 11
-0.000661
 21
482.644764
 31
0.0
  0
LINE
  5
77
  8
TEAM-HIDE
 10
-17.000683
 20
551.64476
 30
0.0
 11
-17.000661
 21
482.64476
 31
0.0
  0
LINE
  5
78
  8
TEAM-HIDE
 10
-18.000782
 20
716.144708
 30
0.0
 11
-18.00078
 21
709.644708
 31
0.0
  0
LINE
  5
79
  8
TEAM-HIDE
 10
-20.000782
 20
716.144708
 30
0.0
 11
-20.00078
 21
709.644708
 31
0.0
  0
LINE
  5
7A
  8
TEAM-HIDE
 10
-2.000782
 20
716.144714
 30
0.0
 11
-2.000774
 21
691.144714
 31
0.0
  0
LINE
  5
7B
  8
TEAM-HIDE
 10
-0.000782
 20
716.144714
 30
0.0
 11
-0.000774
 21
691.144714
 31
0.0
  0
LINE
  5
7C
  8
TEAM-HIDE
 10
-4.000707
 20
623.644764
 30
0.0
 11
-4.000703
 21
609.044764
 31
0.0
  0
LINE
  5
7D
  8
TEAM-HIDE
 10
-7.000683
 20
551.644762
 30
0.0
 11
-0.000683
 21
551.644764
 31
0.0
  0
LINE
  5
7E
  8
TEAM-HIDE
 10
-13.500693
 20
581.391984
 30
0.0
 11
-20.000693
 21
577.639204
 31
0.0
  0
LINE
  5
7F
  8
TEAM-HIDE
 10
-20.000697
 20
592.650312
 30
0.0
 11
-13.500695
 21
588.897538
 31
0.0
  0
LINE
  5
80
  8
TEAM-HIDE
 10
-13.500695
 20
588.897538
 30
0.0
 11
-13.500693
 21
581.391984
 31
0.0
  0
LINE
  5
81
  8
TEAM-HIDE
 10
-0.000701
 20
607.244764
 30
0.0
 11
-0.000681
 21
545.144764
 31
0.0
  0
ARC
  5
82
  8
TEAM-HIDE
 10
-3.000683
 20
546.644764
 30
0.0
 40
3.0
 50
270.000019
 51
0.000019
  0
ARC
  5
83
  8
TEAM-HIDE
 10
-3.100703
 20
609.044764
 30
0.0
 40
0.9
 50
180.000019
 51
270.000019
  0
ARC
  5
84
  8
TEAM-HIDE
 10
-0.900701
 20
607.244764
 30
0.0
 40
0.9
 50
0.000019
 51
90.000019
  0
LINE
  5
85
  8
TEAM-HIDE
 10
-3.100703
 20
608.144764
 30
0.0
 11
-0.900703
 21
608.144764
 31
0.0
  0
ARC
  5
86
  8
TEAM-HIDE
 10
-7.000707
 20
623.644762
 30
0.0
 40
3.0
 50
0.000019
 51
90.000019
  0
LINE
  5
87
  8
TEAM-HIDE
 10
-17.500774
 20
690.644708
 30
0.0
 11
-2.500774
 21
690.644714
 31
0.0
  0
LINE
  5
88
  8
TEAM-HIDE
 10
-17.500774
 20
688.644708
 30
0.0
 11
-2.500774
 21
688.644714
 31
0.0
  0
ARC
  5
89
  8
TEAM-HIDE
 10
-17.500774
 20
691.144708
 30
0.0
 40
2.5
 50
180.000019
 51
270.000019
  0
ARC
  5
8A
  8
TEAM-HIDE
 10
-17.500774
 20
691.144708
 30
0.0
 40
0.5
 50
180.000019
 51
270.000019
  0
LINE
  5
8B
  8
TEAM-HIDE
 10
-20.000776
 20
697.644708
 30
0.0
 11
-18.000776
 21
697.644708
 31
0.0
  0
LINE
  5
8C
  8
TEAM-HIDE
 10
-20.00078
 20
709.644708
 30
0.0
 11
-18.00078
 21
709.644708
 31
0.0
  0
LINE
  5
8D
  8
TEAM-HIDE
 10
-20.000776
 20
697.644708
 30
0.0
 11
-20.000774
 21
691.144708
 31
0.0
  0
LINE
  5
8E
  8
TEAM-HIDE
 10
-18.000776
 20
697.644708
 30
0.0
 11
-18.000774
 21
691.144708
 31
0.0
  0
ARC
  5
8F
  8
TEAM-HIDE
 10
-2.500774
 20
691.144714
 30
0.0
 40
2.5
 50
270.000019
 51
0.000019
  0
ARC
  5
90
  8
TEAM-HIDE
 10
-2.500774
 20
691.144714
 30
0.0
 40
0.5
 50
270.000019
 51
0.000019
  0
LINE
  5
91
  8
TEAM-HIDE
 10
-18.000814
 20
811.144708
 30
0.0
 11
-18.000806
 21
786.144708
 31
0.0
  0
LINE
  5
92
  8
TEAM-HIDE
 10
-20.000814
 20
811.144708
 30
0.0
 11
-20.000806
 21
786.144708
 31
0.0
  0
LINE
  5
93
  8
TEAM-HIDE
 10
-17.500806
 20
785.644708
 30
0.0
 11
-2.500806
 21
785.644714
 31
0.0
  0
LINE
  5
94
  8
TEAM-HIDE
 10
-17.500804
 20
783.644708
 30
0.0
 11
-2.500804
 21
783.644714
 31
0.0
  0
LINE
  5
95
  8
TEAM-HIDE
 10
-17.500782
 20
716.644708
 30
0.0
 11
-2.500782
 21
716.644714
 31
0.0
  0
LINE
  5
96
  8
TEAM-HIDE
 10
-17.500784
 20
718.644708
 30
0.0
 11
-2.500784
 21
718.644714
 31
0.0
  0
LINE
  5
97
  8
TEAM-HIDE
 10
-20.000796
 20
758.650262
 30
0.0
 11
-13.500796
 21
754.897488
 31
0.0
  0
LINE
  5
98
  8
TEAM-HIDE
 10
-13.500792
 20
747.391934
 30
0.0
 11
-20.000792
 21
743.639154
 31
0.0
  0
LINE
  5
99
  8
TEAM-HIDE
 10
-13.500796
 20
754.897488
 30
0.0
 11
-13.500792
 21
747.391934
 31
0.0
  0
ARC
  5
9A
  8
TEAM-HIDE
 10
-17.500782
 20
716.144708
 30
0.0
 40
2.5
 50
90.000019
 51
180.000019
  0
ARC
  5
9B
  8
TEAM-HIDE
 10
-17.500782
 20
716.144708
 30
0.0
 40
0.5
 50
90.000019
 51
180.000019
  0
ARC
  5
9C
  8
TEAM-HIDE
 10
-17.500806
 20
786.144708
 30
0.0
 40
2.5
 50
180.000019
 51
270.000019
  0
ARC
  5
9D
  8
TEAM-HIDE
 10
-17.500806
 20
786.144708
 30
0.0
 40
0.5
 50
180.000019
 51
270.000019
  0
LINE
  5
9E
  8
TEAM-HIDE
 10
-2.000804
 20
783.644714
 30
0.0
 11
-2.000784
 21
718.644714
 31
0.0
  0
ARC
  5
9F
  8
TEAM-HIDE
 10
-2.500782
 20
716.144714
 30
0.0
 40
2.5
 50
0.000019
 51
90.000019
  0
ARC
  5
A0
  8
TEAM-HIDE
 10
-2.500782
 20
716.144714
 30
0.0
 40
0.5
 50
0.000019
 51
90.000019
  0
ARC
  5
A1
  8
TEAM-HIDE
 10
-2.500806
 20
786.144714
 30
0.0
 40
2.5
 50
270.000019
 51
0.000019
  0
ARC
  5
A2
  8
TEAM-HIDE
 10
-2.500806
 20
786.144714
 30
0.0
 40
0.5
 50
270.000019
 51
0.000019
  0
LINE
  5
A3
  8
TEAM-HIDE
 10
-2.000808
 20
792.644714
 30
0.0
 11
-0.000808
 21
792.644714
 31
0.0
  0
LINE
  5
A4
  8
TEAM-HIDE
 10
-2.000808
 20
792.644714
 30
0.0
 11
-2.000806
 21
786.144714
 31
0.0
  0
LINE
  5
A5
  8
TEAM-HIDE
 10
-0.000808
 20
792.644714
 30
0.0
 11
-0.000806
 21
786.144714
 31
0.0
  0
LINE
  5
A6
  8
TEAM-HIDE
 10
-17.500814
 20
811.644708
 30
0.0
 11
-2.500814
 21
811.644714
 31
0.0
  0
LINE
  5
A7
  8
TEAM-HIDE
 10
-17.500814
 20
813.644708
 30
0.0
 11
-2.500814
 21
813.644714
 31
0.0
  0
ARC
  5
A8
  8
TEAM-HIDE
 10
-17.500814
 20
811.144708
 30
0.0
 40
2.5
 50
90.000019
 51
180.000019
  0
ARC
  5
A9
  8
TEAM-HIDE
 10
-17.500814
 20
811.144708
 30
0.0
 40
0.5
 50
90.000019
 51
180.000019
  0
ARC
  5
AA
  8
TEAM-HIDE
 10
-2.500814
 20
811.144714
 30
0.0
 40
2.5
 50
0.000019
 51
90.000019
  0
ARC
  5
AB
  8
TEAM-HIDE
 10
-2.500814
 20
811.144714
 30
0.0
 40
0.5
 50
0.000019
 51
90.000019
  0
LINE
  5
AC
  8
TEAM-HIDE
 10
-2.000812
 20
804.644714
 30
0.0
 11
-0.000812
 21
804.644714
 31
0.0
  0
LINE
  5
AD
  8
TEAM-HIDE
 10
-2.000814
 20
811.144714
 30
0.0
 11
-2.000812
 21
804.644714
 31
0.0
  0
LINE
  5
AE
  8
TEAM-HIDE
 10
-0.000814
 20
811.144714
 30
0.0
 11
-0.000812
 21
804.644714
 31
0.0
  0
LINE
  5
AF
  8
TEAM-HIDE
 10
-0.000917
 20
609.956183
 30
0.0
 11
-0.000897
 21
549.356183
 31
0.0
  0
LINE
  5
B0
  8
TEAM-AXE
 10
-20.000643
 20
517.144259
 30
0.0
 11
52.999357
 21
517.144259
 31
0.0
  0
ARC
  5
B1
  8
TEAM-AXE
 10
-20.000643
 20
487.144259
 30
0.0
 40
30.0
 50
90.0
 51
180.0
  0
LINE
  5
B2
  8
TEAM-AXE
 10
-50.000643
 20
487.144259
 30
0.0
 11
-50.000643
 21
439.144259
 31
0.0
  0
LINE
  5
B3
  8
TEAM-DET3
  6
CONTINUOUS
 10
32.995055
 20
602.143341
 30
0.0
 11
22.995763
 21
602.143341
 31
0.0
  0
LINE
  5
B4
  8
TEAM-DET3
  6
CONTINUOUS
 10
32.995055
 20
575.145252
 30
0.0
 11
22.995763
 21
575.145252
 31
0.0
  0
LINE
  5
B5
  8
TEAM-HIDE
 10
32.995055
 20
599.143554
 30
0.0
 11
2.99725
 21
599.143554
 31
0.0
  0
LINE
  5
B6
  8
TEAM-HIDE
 10
32.995055
 20
578.14504
 30
0.0
 11
2.99725
 21
578.14504
 31
0.0
  0
LINE
  5
B7
  8
TEAM-HIDE
 10
32.995055
 20
579.644934
 30
0.0
 11
-41.501158
 21
579.644934
 31
0.0
  0
LINE
  5
B8
  8
TEAM-HIDE
 10
32.995055
 20
597.64366
 30
0.0
 11
-41.501158
 21
597.64366
 31
0.0
  0
LINE
  5
B9
  8
TEAM-DET3
  6
CONTINUOUS
 10
32.995055
 20
575.145252
 30
0.0
 11
32.995055
 21
602.143341
 31
0.0
  0
LINE
  5
BA
  8
TEAM-DET3
  6
CONTINUOUS
 10
-41.501158
 20
601.643377
 30
0.0
 11
-40.000956
 21
601.643377
 31
0.0
  0
LINE
  5
BB
  8
TEAM-DET3
  6
CONTINUOUS
 10
-0.000905
 20
575.645217
 30
0.0
 11
21.265886
 21
575.645217
 31
0.0
  0
LINE
  5
BC
  8
TEAM-DET3
  6
CONTINUOUS
 10
22.995763
 20
575.145252
 30
0.0
 11
21.265886
 21
575.645217
 31
0.0
  0
LINE
  5
BD
  8
TEAM-DET3
  6
CONTINUOUS
 10
22.995763
 20
602.143341
 30
0.0
 11
21.265886
 21
601.643377
 31
0.0
  0
LINE
  5
BE
  8
TEAM-HIDE
 10
2.99725
 20
599.143554
 30
0.0
 11
2.99725
 21
578.14504
 31
0.0
  0
LINE
  5
BF
  8
TEAM-HIDE
 10
2.99725
 20
578.14504
 30
0.0
 11
1.497356
 21
579.644934
 31
0.0
  0
LINE
  5
C0
  8
TEAM-HIDE
 10
2.99725
 20
599.143554
 30
0.0
 11
1.497356
 21
597.64366
 31
0.0
  0
LINE
  5
C1
  8
TEAM-DET3
  6
CONTINUOUS
 10
-45.00091
 20
614.642456
 30
0.0
 11
-45.00091
 21
575.645217
 31
0.0
  0
LINE
  5
C2
  8
TEAM-DET3
  6
CONTINUOUS
 10
-41.501158
 20
614.642456
 30
0.0
 11
-41.501158
 21
575.645217
 31
0.0
  0
LINE
  5
C3
  8
TEAM-DET3
  6
CONTINUOUS
 10
-45.00091
 20
575.645217
 30
0.0
 11
-40.000948
 21
575.645217
 31
0.0
  0
LINE
  5
C4
  8
TEAM-DET3
  6
CONTINUOUS
 10
-41.501158
 20
588.644297
 30
0.0
 11
-45.00091
 21
588.644297
 31
0.0
  0
LINE
  5
C5
  8
TEAM-DET3
  6
CONTINUOUS
 10
-45.00091
 20
614.642456
 30
0.0
 11
-41.501158
 21
614.642456
 31
0.0
  0
LINE
  5
C6
  8
TEAM-DET3
  6
CONTINUOUS
 10
-41.501158
 20
608.642881
 30
0.0
 11
-45.00091
 21
608.642881
 31
0.0
  0
LINE
  5
C7
  8
TEAM-HIDE
 10
-34.30091
 20
571.644297
 30
0.0
 11
-34.30091
 21
558.644297
 31
0.0
  0
LINE
  5
C8
  8
TEAM-HIDE
 10
-35.50091
 20
575.645217
 30
0.0
 11
-35.50091
 21
559.844297
 31
0.0
  0
LINE
  5
C9
  8
TEAM-HIDE
 10
-14.50091
 20
575.645217
 30
0.0
 11
-14.50091
 21
559.844297
 31
0.0
  0
LINE
  5
CA
  8
TEAM-HIDE
 10
-15.70091
 20
571.644297
 30
0.0
 11
-15.70091
 21
558.644297
 31
0.0
  0
LINE
  5
CB
  8
TEAM-HIDE
 10
-15.70091
 20
558.644297
 30
0.0
 11
-34.30091
 21
558.644297
 31
0.0
  0
LINE
  5
CC
  8
TEAM-HIDE
 10
-14.50091
 20
559.844297
 30
0.0
 11
-35.50091
 21
559.844297
 31
0.0
  0
LINE
  5
CD
  8
TEAM-HIDE
 10
-14.50091
 20
559.844297
 30
0.0
 11
-15.70091
 21
558.644297
 31
0.0
  0
LINE
  5
CE
  8
TEAM-HIDE
 10
-34.30091
 20
558.644297
 30
0.0
 11
-35.50091
 21
559.844297
 31
0.0
  0
LINE
  5
CF
  8
TEAM-HIDE
 10
-15.70091
 20
571.644297
 30
0.0
 11
-34.30091
 21
571.644297
 31
0.0
  0
LINE
  5
D0
  8
TEAM-HIDE
 10
-14.50091
 20
575.645217
 30
0.0
 11
-25.00091
 21
581.128329
 31
0.0
  0
LINE
  5
D1
  8
TEAM-HIDE
 10
-25.00091
 20
581.128329
 30
0.0
 11
-35.50091
 21
575.645217
 31
0.0
  0
LINE
  5
D2
  8
TEAM-DET3
  6
CONTINUOUS
 10
-0.000914
 20
601.643377
 30
0.0
 11
21.265886
 21
601.643377
 31
0.0
  0
LINE
  5
D3
  8
TEAM-HIDE
 10
-40.000954
 20
601.643377
 30
0.0
 11
-0.000912
 21
601.643377
 31
0.0
  0
LINE
  5
D4
  8
TEAM-HIDE
 10
-40.000945
 20
575.645217
 30
0.0
 11
-35.50091
 21
575.645217
 31
0.0
  0
LINE
  5
D5
  8
TEAM-HIDE
 10
-14.50091
 20
575.645217
 30
0.0
 11
-0.000905
 21
575.645217
 31
0.0
  0
LINE
  5
D6
  8
TEAM-HIDE
 10
-2.498638
 20
1114.994298
 30
0.0
 11
-2.498638
 21
1087.999218
 31
0.0
  0
LINE
  5
D7
  8
TEAM-HIDE
 10
-33.500018
 20
1118.994054
 30
0.0
 11
-6.499771
 21
1118.994054
 31
0.0
  0
LINE
  5
D8
  8
TEAM-HIDE
 10
-37.501497
 20
1114.994298
 30
0.0
 11
-37.501497
 21
1107.995931
 31
0.0
  0
LINE
  5
D9
  8
TEAM-HIDE
 10
-37.501497
 20
1107.995931
 30
0.0
 11
-35.498174
 21
1107.995931
 31
0.0
  0
LINE
  5
DA
  8
TEAM-HIDE
 10
-35.498174
 20
1114.994298
 30
0.0
 11
-35.498174
 21
1107.995931
 31
0.0
  0
LINE
  5
DB
  8
TEAM-HIDE
 10
-33.500018
 20
1116.997621
 30
0.0
 11
-6.499771
 21
1116.997621
 31
0.0
  0
LINE
  5
DC
  8
TEAM-HIDE
 10
-4.501616
 20
1114.994298
 30
0.0
 11
-4.501616
 21
1087.999218
 31
0.0
  0
LINE
  5
DD
  8
TEAM-HIDE
 10
-35.498174
 20
1094.999653
 30
0.0
 11
-35.498174
 21
1087.999218
 31
0.0
  0
LINE
  5
DE
  8
TEAM-HIDE
 10
-37.501497
 20
1094.999653
 30
0.0
 11
-35.498174
 21
1094.999653
 31
0.0
  0
LINE
  5
DF
  8
TEAM-HIDE
 10
-37.501497
 20
1094.999653
 30
0.0
 11
-37.501497
 21
1087.999218
 31
0.0
  0
LINE
  5
E0
  8
TEAM-HIDE
 10
-33.500018
 20
1085.99624
 30
0.0
 11
-6.499771
 21
1085.99624
 31
0.0
  0
LINE
  5
E1
  8
TEAM-HIDE
 10
-33.500018
 20
1083.999463
 30
0.0
 11
-6.499771
 21
1083.999463
 31
0.0
  0
LINE
  5
E2
  8
TEAM-DET3
 10
-110.000054
 20
1116.496359
 30
0.0
 11
-107.086267
 21
1067.41004
 31
0.0
  0
LINE
  5
E3
  8
TEAM-DET3
 10
-37.205219
 20
1067.41004
 30
0.0
 11
-107.086267
 21
1067.41004
 31
0.0
  0
LINE
  5
E4
  8
TEAM-DET3
 10
-110.000054
 20
1121.500016
 30
0.0
 11
-110.000054
 21
1116.496359
 31
0.0
  0
LINE
  5
E5
  8
TEAM-HIDE
 10
-34.996912
 20
1119.996576
 30
0.0
 11
-110.000054
 21
1119.996576
 31
0.0
  0
LINE
  5
E6
  8
TEAM-DET3
 10
-110.000054
 20
1121.500016
 30
0.0
 11
-0.000943
 21
1121.500016
 31
0.0
  0
LINE
  5
E7
  8
TEAM-HIDE
 10
-12.997222
 20
386.349898
 30
0.0
 11
-12.997222
 21
421.853674
 31
0.0
  0
LINE
  5
E8
  8
TEAM-HIDE
 10
-22.000634
 20
386.349898
 30
0.0
 11
-12.997222
 21
386.349898
 31
0.0
  0
LINE
  5
E9
  8
TEAM-HIDE
 10
-22.000634
 20
421.853674
 30
0.0
 11
-22.000634
 21
386.349898
 31
0.0
  0
LINE
  5
EA
  8
TEAM-HIDE
 10
-28.498084
 20
421.853674
 30
0.0
 11
-22.000634
 21
421.853674
 31
0.0
  0
LINE
  5
EB
  8
TEAM-HIDE
 10
-28.498084
 20
430.848818
 30
0.0
 11
-28.498084
 21
421.853674
 31
0.0
  0
LINE
  5
EC
  8
TEAM-HIDE
 10
-22.000634
 20
430.848818
 30
0.0
 11
-28.498084
 21
430.848818
 31
0.0
  0
LINE
  5
ED
  8
TEAM-HIDE
 10
-22.000634
 20
466.353283
 30
0.0
 11
-22.000634
 21
430.848818
 31
0.0
  0
LINE
  5
EE
  8
TEAM-HIDE
 10
-12.997222
 20
466.353283
 30
0.0
 11
-22.000634
 21
466.353283
 31
0.0
  0
LINE
  5
EF
  8
TEAM-HIDE
 10
-12.997222
 20
430.848818
 30
0.0
 11
-12.997222
 21
466.353283
 31
0.0
  0
LINE
  5
F0
  8
TEAM-HIDE
 10
-6.499771
 20
430.848818
 30
0.0
 11
-12.997222
 21
430.848818
 31
0.0
  0
LINE
  5
F1
  8
TEAM-HIDE
 10
-6.499771
 20
421.853674
 30
0.0
 11
-6.499771
 21
430.848818
 31
0.0
  0
LINE
  5
F2
  8
TEAM-HIDE
 10
-12.997222
 20
421.853674
 30
0.0
 11
-6.499771
 21
421.853674
 31
0.0
  0
LINE
  5
F3
  8
TEAM-DET3
 10
-0.000943
 20
1119.996576
 30
0.0
 11
-34.996912
 21
1119.996576
 31
0.0
  0
LINE
  5
F4
  8
TEAM-AXE
 10
-16.002723
 20
1048.352839
 30
0.0
 11
-16.002723
 21
1024.349605
 31
0.0
  0
LINE
  5
F5
  8
TEAM-AXE
 10
-4.001106
 20
1036.351222
 30
0.0
 11
-28.00434
 21
1036.351222
 31
0.0
  0
CIRCLE
  5
F6
  8
TEAM-DET3
 10
-16.002723
 20
1036.351222
 30
0.0
 40
5.502986
  0
CIRCLE
  5
F7
  8
TEAM-DET3
 10
-16.002723
 20
1036.351222
 30
0.0
 40
12.001617
  0
LINE
  5
F8
  8
TEAM-AXE
 10
-16.002723
 20
978.353666
 30
0.0
 11
-16.002723
 21
954.350432
 31
0.0
  0
LINE
  5
F9
  8
TEAM-AXE
 10
-4.001106
 20
966.352049
 30
0.0
 11
-28.00434
 21
966.352049
 31
0.0
  0
CIRCLE
  5
FA
  8
TEAM-DET3
 10
-16.002723
 20
966.352049
 30
0.0
 40
5.502986
  0
CIRCLE
  5
FB
  8
TEAM-DET3
 10
-16.002723
 20
966.352049
 30
0.0
 40
12.001617
  0
LINE
  5
FC
  8
TEAM-AXE
 10
-0.000943
 20
406.351406
 30
0.0
 11
-80.002951
 21
406.351406
 31
0.0
  0
LINE
  5
FD
  8
TEAM-HIDE
 10
-1.498785
 20
387.731527
 30
0.0
 11
-34.996912
 21
387.731527
 31
0.0
  0
LINE
  5
FE
  8
TEAM-HIDE
 10
-34.996912
 20
387.731527
 30
0.0
 11
-70.498535
 21
387.731527
 31
0.0
  0
LINE
  5
FF
  8
TEAM-HIDE
 10
-1.498785
 20
424.974731
 30
0.0
 11
-34.996912
 21
424.974731
 31
0.0
  0
LINE
  5
100
  8
TEAM-HIDE
 10
-34.996912
 20
424.974731
 30
0.0
 11
-70.498535
 21
424.974731
 31
0.0
  0
LINE
  5
101
  8
TEAM-DET3
 10
-74.619214
 20
418.352913
 30
0.0
 11
-74.619214
 21
394.353172
 31
0.0
  0
LINE
  5
102
  8
TEAM-DET3
 10
-70.498535
 20
386.853544
 30
0.0
 11
-34.996912
 21
386.853544
 31
0.0
  0
LINE
  5
103
  8
TEAM-HIDE
 10
-34.996912
 20
386.853544
 30
0.0
 11
-0.496779
 21
386.853544
 31
0.0
  0
LINE
  5
104
  8
TEAM-HIDE
 10
-0.496779
 20
425.852714
 30
0.0
 11
-0.496779
 21
386.853544
 31
0.0
  0
LINE
  5
105
  8
TEAM-DET3
 10
-70.498535
 20
393.351683
 30
0.0
 11
-70.498535
 21
386.853544
 31
0.0
  0
LINE
  5
106
  8
TEAM-DET3
 10
-70.498535
 20
425.852714
 30
0.0
 11
-34.996912
 21
425.852714
 31
0.0
  0
LINE
  5
107
  8
TEAM-HIDE
 10
-34.996912
 20
425.852714
 30
0.0
 11
-0.496779
 21
425.852714
 31
0.0
  0
LINE
  5
108
  8
TEAM-DET3
 10
-70.498535
 20
419.35113
 30
0.0
 11
-70.498535
 21
425.852714
 31
0.0
  0
LINE
  5
109
  8
TEAM-DET3
 10
-70.498535
 20
419.35113
 30
0.0
 11
-75.504517
 21
419.35113
 31
0.0
  0
LINE
  5
10A
  8
TEAM-DET3
 10
-70.498535
 20
393.351683
 30
0.0
 11
-75.504517
 21
393.351683
 31
0.0
  0
LINE
  5
10B
  8
TEAM-DET3
 10
-17.498928
 20
386.349898
 30
0.0
 11
-17.498928
 21
476.910458
 31
0.0
  0
LINE
  5
10C
  8
TEAM-DET3
 10
-17.498928
 20
393.792828
 30
0.0
 11
-17.498928
 21
449.300267
 31
0.0
  0
LINE
  5
10D
  8
TEAM-DET3
 10
-46.470114
 20
421.849944
 30
0.0
 11
-48.004904
 21
421.849944
 31
0.0
  0
LINE
  5
10E
  8
TEAM-HIDE
 10
-66.498176
 20
423.849821
 30
0.0
 11
-70.498535
 21
423.849821
 31
0.0
  0
LINE
  5
10F
  8
TEAM-DET3
 10
-70.498535
 20
423.849821
 30
0.0
 11
-73.502056
 21
423.849821
 31
0.0
  0
LINE
  5
110
  8
TEAM-HIDE
 10
-66.498176
 20
421.849944
 30
0.0
 11
-70.498535
 21
421.849944
 31
0.0
  0
LINE
  5
111
  8
TEAM-DET3
 10
-70.498535
 20
421.849944
 30
0.0
 11
-73.502056
 21
421.849944
 31
0.0
  0
POLYLINE
  5
112
  8
TEAM-HIDE
 66
     1
 10
0.0
 20
0.0
 30
0.0
  0
VERTEX
  5
1C5
  8
TEAM-HIDE
 10
-46.506287
 20
421.849944
 30
0.0
  0
VERTEX
  5
1C6
  8
TEAM-HIDE
 10
-53.499831
 20
421.849944
 30
0.0
  0
VERTEX
  5
1C7
  8
TEAM-HIDE
 10
-53.499831
 20
423.849821
 30
0.0
  0
SEQEND
  5
1C8
  8
TEAM-HIDE
  0
LINE
  5
117
  8
TEAM-HIDE
 10
-44.503826
 20
419.856095
 30
0.0
 11
-44.503826
 21
392.851714
 31
0.0
  0
LINE
  5
118
  8
TEAM-HIDE
 10
-42.501364
 20
419.856095
 30
0.0
 11
-42.501364
 21
392.851714
 31
0.0
  0
LINE
  5
119
  8
TEAM-HIDE
 10
-46.506287
 20
390.849252
 30
0.0
 11
-70.498535
 21
390.849252
 31
0.0
  0
LINE
  5
11A
  8
TEAM-DET3
 10
-70.498535
 20
390.849252
 30
0.0
 11
-73.502056
 21
390.849252
 31
0.0
  0
LINE
  5
11B
  8
TEAM-DET3
 10
-77.505256
 20
419.856095
 30
0.0
 11
-77.505256
 21
392.851714
 31
0.0
  0
LINE
  5
11C
  8
TEAM-DET3
 10
-75.504517
 20
392.851714
 30
0.0
 11
-75.504517
 21
419.856095
 31
0.0
  0
LINE
  5
11D
  8
TEAM-HIDE
 10
-41.99838
 20
422.351205
 30
0.0
 11
-41.99838
 21
390.354019
 31
0.0
  0
LINE
  5
11E
  8
TEAM-DET3
 10
-64.568062
 20
432.352748
 30
0.0
 11
-64.568062
 21
437.856288
 31
0.0
  0
LINE
  5
11F
  8
TEAM-DET3
 10
-57.124072
 20
432.352748
 30
0.0
 11
-57.124072
 21
437.856288
 31
0.0
  0
POLYLINE
  5
120
  8
TEAM-DET3
 66
     1
 10
0.0
 20
0.0
 30
0.0
  0
VERTEX
  5
1C9
  8
TEAM-DET3
 10
-67.442133
 20
432.352748
 30
0.0
  0
VERTEX
  5
1CA
  8
TEAM-DET3
 10
-67.442133
 20
437.856288
 30
0.0
  0
VERTEX
  5
1CB
  8
TEAM-DET3
 10
-52.564488
 20
437.856288
 30
0.0
  0
VERTEX
  5
1CC
  8
TEAM-DET3
 10
-52.564488
 20
432.352748
 30
0.0
  0
SEQEND
  5
1CD
  8
TEAM-DET3
  0
LINE
  5
126
  8
TEAM-DET3
 10
-49.99703
 20
432.352748
 30
0.0
 11
-70.000977
 21
432.352748
 31
0.0
  0
LINE
  5
127
  8
TEAM-DET3
 10
-49.99703
 20
430.350717
 30
0.0
 11
-49.99703
 21
432.352748
 31
0.0
  0
LINE
  5
128
  8
TEAM-DET3
 10
-70.000977
 20
430.350717
 30
0.0
 11
-70.000977
 21
432.352748
 31
0.0
  0
LINE
  5
129
  8
TEAM-HIDE
 10
-43.99998
 20
388.35328
 30
0.0
 11
-70.498535
 21
388.35328
 31
0.0
  0
LINE
  5
12A
  8
TEAM-DET3
 10
-70.498535
 20
388.35328
 30
0.0
 11
-76.00664
 21
388.35328
 31
0.0
  0
LINE
  5
12B
  8
TEAM-DET3
 10
-78.000489
 20
422.351205
 30
0.0
 11
-78.000489
 21
390.354019
 31
0.0
  0
POLYLINE
  5
12C
  8
TEAM-DET3
 66
     1
 10
0.0
 20
0.0
 30
0.0
  0
VERTEX
  5
1CE
  8
TEAM-DET3
 10
-70.498535
 20
424.353667
 30
0.0
  0
VERTEX
  5
1CF
  8
TEAM-DET3
 10
-76.00664
 20
424.353667
 30
0.0
  0
SEQEND
  5
1D0
  8
TEAM-DET3
  0
POLYLINE
  5
130
  8
TEAM-HIDE
 66
     1
 10
0.0
 20
0.0
 30
0.0
  0
VERTEX
  5
1D1
  8
TEAM-HIDE
 10
-66.498176
 20
426.356128
 30
0.0
  0
VERTEX
  5
1D2
  8
TEAM-HIDE
 10
-66.498176
 20
424.353667
 30
0.0
  0
VERTEX
  5
1D3
  8
TEAM-HIDE
 10
-70.498535
 20
424.353667
 30
0.0
  0
SEQEND
  5
1D4
  8
TEAM-HIDE
  0
LINE
  5
135
  8
TEAM-DET3
 10
-80.002951
 20
422.351205
 30
0.0
 11
-80.002951
 21
390.354019
 31
0.0
  0
LINE
  5
136
  8
TEAM-DET3
 10
-43.99998
 20
386.35168
 30
0.0
 11
-76.00664
 21
386.35168
 31
0.0
  0
LINE
  5
137
  8
TEAM-HIDE
 10
-43.99998
 20
424.353667
 30
0.0
 11
-53.499831
 21
424.353667
 31
0.0
  0
LINE
  5
138
  8
TEAM-DET3
 10
-43.99998
 20
426.356128
 30
0.0
 11
-76.00664
 21
426.356128
 31
0.0
  0
LINE
  5
139
  8
TEAM-DET3
 10
-46.002442
 20
430.350717
 30
0.0
 11
-46.002442
 21
426.356128
 31
0.0
  0
POLYLINE
  5
13A
  8
TEAM-DET3
 66
     1
 10
0.0
 20
0.0
 30
0.0
  0
VERTEX
  5
1D5
  8
TEAM-DET3
 10
-46.002442
 20
430.350717
 30
0.0
  0
VERTEX
  5
1D6
  8
TEAM-DET3
 10
-74.004178
 20
430.350717
 30
0.0
  0
VERTEX
  5
1D7
  8
TEAM-DET3
 10
-74.004178
 20
426.356128
 30
0.0
  0
SEQEND
  5
1D8
  8
TEAM-DET3
  0
LINE
  5
13F
  8
TEAM-HIDE
 10
-39.997641
 20
422.351205
 30
0.0
 11
-39.997641
 21
390.354019
 31
0.0
  0
LINE
  5
140
  8
TEAM-DET3
 10
-73.502056
 20
388.84679
 30
0.0
 11
-70.498535
 21
388.84679
 31
0.0
  0
LINE
  5
141
  8
TEAM-HIDE
 10
-70.498535
 20
388.84679
 30
0.0
 11
-46.506287
 21
388.84679
 31
0.0
  0
LINE
  5
142
  8
TEAM-HIDE
 10
-46.506287
 20
423.861018
 30
0.0
 11
-53.499831
 21
423.849821
 31
0.0
  0
LINE
  5
143
  8
TEAM-HIDE
 10
-66.498176
 20
421.849944
 30
0.0
 11
-66.498176
 21
423.849821
 31
0.0
  0
LINE
  5
144
  8
TEAM-HIDE
 10
-53.499831
 20
426.356128
 30
0.0
 11
-53.499831
 21
424.353667
 31
0.0
  0
DIMENSION
  5
145
  8
TEAM-MAS
  2
*D0
 10
-110.000054
 20
1147.151268
 30
0.0
 11
-55.000498
 21
1147.151268
 31
0.0
 12
-8000.0
 22
-20000.0
 32
0.0
 13
-0.000943
 23
1121.500016
 33
0.0
 14
-110.000054
 24
1121.500016
 34
0.0
1001
ACAD
1000
DSTYLE
1002
{
1070
    40
1040
1.0
1002
}
  0
CIRCLE
  5
153
  8
TEAM-INSP
 10
0.0
 20
0.0
 30
0.0
 40
10.0
  0
LINE
  5
155
  8
TEAM-DET2
 10
-40.000584
 20
68.65617
 30
0.0
 11
-0.000542
 21
68.656183
 31
0.0
  0
CIRCLE
  5
156
  8
TEAM-HIDE
 10
-20.000544
 20
79.656177
 30
0.0
 40
10.0
  0
LINE
  5
157
  8
TEAM-DET3
 10
-48.500518
 20
-20.000016
 30
0.0
 11
-0.500518
 21
-20.0
 31
0.0
  0
LINE
  5
158
  8
TEAM-DET3
 10
-48.500522
 20
-12.000016
 30
0.0
 11
-0.500522
 21
-12.0
 31
0.0
  0
LINE
  5
159
  8
TEAM-DET3
 10
-37.500542
 20
68.656171
 30
0.0
 11
-37.500522
 21
-12.000012
 31
0.0
  0
LINE
  5
15A
  8
TEAM-DET3
 10
-48.500522
 20
-12.000016
 30
0.0
 11
-48.500518
 21
-20.000016
 31
0.0
  0
LINE
  5
15B
  8
TEAM-HIDE
 10
-36.500522
 20
-12.000012
 30
0.0
 11
-36.500518
 21
-20.000012
 31
0.0
  0
LINE
  5
15C
  8
TEAM-AXE
 10
-24.500524
 20
-5.90698
 30
0.0
 11
-24.500516
 21
-25.334542
 31
0.0
  0
LINE
  5
15D
  8
TEAM-HIDE
 10
-12.500522
 20
-12.000004
 30
0.0
 11
-12.500518
 21
-20.000004
 31
0.0
  0
LINE
  5
15E
  8
TEAM-DET3
 10
-2.500542
 20
68.656183
 30
0.0
 11
-2.500522
 21
-12.0
 31
0.0
  0
LINE
  5
15F
  8
TEAM-DET3
 10
-0.500522
 20
-12.0
 30
0.0
 11
-0.500518
 21
-20.0
 31
0.0
  0
LINE
  5
160
  8
TEAM-AXE
 10
-16.002723
 20
211.852649
 30
0.0
 11
-16.002723
 21
187.849415
 31
0.0
  0
LINE
  5
161
  8
TEAM-AXE
 10
-4.001106
 20
199.851032
 30
0.0
 11
-28.00434
 21
199.851032
 31
0.0
  0
LINE
  5
162
  8
TEAM-DET3
 10
-0.000943
 20
119.855226
 30
0.0
 11
-34.996912
 21
119.855226
 31
0.0
  0
CIRCLE
  5
163
  8
TEAM-DET3
 10
-16.002723
 20
199.851032
 30
0.0
 40
5.502986
  0
CIRCLE
  5
164
  8
TEAM-DET3
 10
-16.002723
 20
199.851032
 30
0.0
 40
12.001617
  0
DIMENSION
  5
165
  8
TEAM-MAS
  2
*D3
 10
-48.500522
 20
29.10083
 30
0.0
 11
-128.787801
 21
29.10083
 31
0.0
 12
-8000.0
 22
-20000.0
 32
0.0
 70
   128
 13
-0.500522
 23
-12.0
 33
0.0
 14
-48.500522
 24
-12.000016
 34
0.0
1001
ACAD
1000
DSTYLE
1002
{
1070
    40
1040
1.0
1002
}
  0
LINE
  5
174
  8
TEAM-DET2
 10
-40.000985
 20
1121.500004
 30
0.0
 11
-40.000584
 21
68.65617
 31
0.0
  0
LINE
  5
175
  8
TEAM-DET2
 10
-0.000943
 20
1121.500016
 30
0.0
 11
-0.000542
 21
68.656183
 31
0.0
  0
LINE
  5
176
  8
TEAM-HIDE
 10
-37.500649
 20
498.656171
 30
0.0
 11
-37.500542
 21
68.656171
 31
0.0
  0
LINE
  5
177
  8
TEAM-HIDE
 10
-2.500649
 20
498.656183
 30
0.0
 11
-2.500542
 21
68.656183
 31
0.0
  0
LINE
  5
178
  8
TEAM-DET3
 10
-0.000943
 20
119.855226
 30
0.0
 11
-0.000943
 21
1121.500016
 31
0.0
  0
LINE
  5
179
  8
TEAM-DET3
 10
-34.996912
 20
119.855226
 30
0.0
 11
-34.996912
 21
1119.996576
 31
0.0
  0
DIMENSION
  5
17A
  8
TEAM-MAS
  2
*D1
 10
83.156599
 20
1119.996576
 30
0.0
 11
83.156599
 21
559.998288
 31
0.0
 12
-8000.0
 22
-20000.0
 32
0.0
  1
<>-1300
 13
0.0
 23
0.0
 33
0.0
 14
-0.000943
 24
1119.996576
 34
0.0
 50
90.0
1001
ACAD
1000
DSTYLE
1002
{
1070
    40
1040
1.0
1002
}
  0
TEXT
  5
188
  8
TEAM-TXT
 10
-309.022079
 20
781.120461
 30
0.0
 40
30.0
  1
team 871018
 41
0.8
 51
15.0
  7
TEAM
  0
ENDSEC
  0
EOF
